  0
SECTION
  2
HEADER
  9
$ACADVER
  1
AC1015
  9
$ACADMAINTVER
 70
     6
  9
$DWGCODEPAGE
  3
ANSI_1252
  9
$INSBASE
 10
0.0
 20
0.0
 30
0.0
  9
$EXTMIN
 10
72.9291373209373
 20
361.7609965299
 30
0.0
  9
$EXTMAX
 10
318.235112757329
 20
493.906156672872
 30
0.0
  9
$LIMMIN
 10
0.0
 20
0.0
  9
$LIMMAX
 10
12.0
 20
9.0
  9
$ORTHOMODE
 70
     0
  9
$REGENMODE
 70
     1
  9
$FILLMODE
 70
     1
  9
$QTEXTMODE
 70
     0
  9
$MIRRTEXT
 70
     1
  9
$LTSCALE
 40
1.0
  9
$ATTMODE
 70
     1
  9
$TEXTSIZE
 40
0.2
  9
$TRACEWID
 40
0.05
  9
$TEXTSTYLE
  7
Standard
  9
$CLAYER
  8
0
  9
$CELTYPE
  6
ByLayer
  9
$CECOLOR
 62
   256
  9
$CELTSCALE
 40
1.0
  9
$DISPSILH
 70
     0
  9
$DIMSCALE
 40
1.0
  9
$DIMASZ
 40
0.18
  9
$DIMEXO
 40
0.0625
  9
$DIMDLI
 40
0.38
  9
$DIMRND
 40
0.0
  9
$DIMDLE
 40
0.0
  9
$DIMEXE
 40
0.18
  9
$DIMTP
 40
0.0
  9
$DIMTM
 40
0.0
  9
$DIMTXT
 40
0.18
  9
$DIMCEN
 40
0.09
  9
$DIMTSZ
 40
0.0
  9
$DIMTOL
 70
     0
  9
$DIMLIM
 70
     0
  9
$DIMTIH
 70
     1
  9
$DIMTOH
 70
     1
  9
$DIMSE1
 70
     0
  9
$DIMSE2
 70
     0
  9
$DIMTAD
 70
     0
  9
$DIMZIN
 70
     0
  9
$DIMBLK
  1

  9
$DIMASO
 70
     1
  9
$DIMSHO
 70
     1
  9
$DIMPOST
  1

  9
$DIMAPOST
  1

  9
$DIMALT
 70
     0
  9
$DIMALTD
 70
     2
  9
$DIMALTF
 40
25.4
  9
$DIMLFAC
 40
1.0
  9
$DIMTOFL
 70
     0
  9
$DIMTVP
 40
0.0
  9
$DIMTIX
 70
     0
  9
$DIMSOXD
 70
     0
  9
$DIMSAH
 70
     0
  9
$DIMBLK1
  1

  9
$DIMBLK2
  1

  9
$DIMSTYLE
  2
Standard
  9
$DIMCLRD
 70
     0
  9
$DIMCLRE
 70
     0
  9
$DIMCLRT
 70
     0
  9
$DIMTFAC
 40
1.0
  9
$DIMGAP
 40
0.09
  9
$DIMJUST
 70
     0
  9
$DIMSD1
 70
     0
  9
$DIMSD2
 70
     0
  9
$DIMTOLJ
 70
     1
  9
$DIMTZIN
 70
     0
  9
$DIMALTZ
 70
     0
  9
$DIMALTTZ
 70
     0
  9
$DIMUPT
 70
     0
  9
$DIMDEC
 70
     4
  9
$DIMTDEC
 70
     4
  9
$DIMALTU
 70
     2
  9
$DIMALTTD
 70
     2
  9
$DIMTXSTY
  7
Standard
  9
$DIMAUNIT
 70
     0
  9
$DIMADEC
 70
     0
  9
$DIMALTRND
 40
0.0
  9
$DIMAZIN
 70
     0
  9
$DIMDSEP
 70
    46
  9
$DIMATFIT
 70
     3
  9
$DIMFRAC
 70
     0
  9
$DIMLDRBLK
  1

  9
$DIMLUNIT
 70
     2
  9
$DIMLWD
 70
    -2
  9
$DIMLWE
 70
    -2
  9
$DIMTMOVE
 70
     0
  9
$LUNITS
 70
     2
  9
$LUPREC
 70
     4
  9
$SKETCHINC
 40
0.1
  9
$FILLETRAD
 40
0.5
  9
$AUNITS
 70
     0
  9
$AUPREC
 70
     0
  9
$MENU
  1
.
  9
$ELEVATION
 40
0.0
  9
$PELEVATION
 40
0.0
  9
$THICKNESS
 40
0.0
  9
$LIMCHECK
 70
     0
  9
$CHAMFERA
 40
0.5
  9
$CHAMFERB
 40
0.5
  9
$CHAMFERC
 40
1.0
  9
$CHAMFERD
 40
0.0
  9
$SKPOLY
 70
     0
  9
$TDCREATE
 40
2456821.364814745
  9
$TDUCREATE
 40
2456821.281481412
  9
$TDUPDATE
 40
2456821.364814757
  9
$TDUUPDATE
 40
2456821.281481423
  9
$TDINDWG
 40
0.0000000116
  9
$TDUSRTIMER
 40
0.0000000116
  9
$USRTIMER
 70
     1
  9
$ANGBASE
 50
0.0
  9
$ANGDIR
 70
     0
  9
$PDMODE
 70
     0
  9
$PDSIZE
 40
0.0
  9
$PLINEWID
 40
0.0
  9
$SPLFRAME
 70
     0
  9
$SPLINETYPE
 70
     6
  9
$SPLINESEGS
 70
     8
  9
$HANDSEED
  5
14B
  9
$SURFTAB1
 70
     6
  9
$SURFTAB2
 70
     6
  9
$SURFTYPE
 70
     6
  9
$SURFU
 70
     6
  9
$SURFV
 70
     6
  9
$UCSBASE
  2

  9
$UCSNAME
  2

  9
$UCSORG
 10
0.0
 20
0.0
 30
0.0
  9
$UCSXDIR
 10
1.0
 20
0.0
 30
0.0
  9
$UCSYDIR
 10
0.0
 20
1.0
 30
0.0
  9
$UCSORTHOREF
  2

  9
$UCSORTHOVIEW
 70
     0
  9
$UCSORGTOP
 10
0.0
 20
0.0
 30
0.0
  9
$UCSORGBOTTOM
 10
0.0
 20
0.0
 30
0.0
  9
$UCSORGLEFT
 10
0.0
 20
0.0
 30
0.0
  9
$UCSORGRIGHT
 10
0.0
 20
0.0
 30
0.0
  9
$UCSORGFRONT
 10
0.0
 20
0.0
 30
0.0
  9
$UCSORGBACK
 10
0.0
 20
0.0
 30
0.0
  9
$PUCSBASE
  2

  9
$PUCSNAME
  2

  9
$PUCSORG
 10
0.0
 20
0.0
 30
0.0
  9
$PUCSXDIR
 10
1.0
 20
0.0
 30
0.0
  9
$PUCSYDIR
 10
0.0
 20
1.0
 30
0.0
  9
$PUCSORTHOREF
  2

  9
$PUCSORTHOVIEW
 70
     0
  9
$PUCSORGTOP
 10
0.0
 20
0.0
 30
0.0
  9
$PUCSORGBOTTOM
 10
0.0
 20
0.0
 30
0.0
  9
$PUCSORGLEFT
 10
0.0
 20
0.0
 30
0.0
  9
$PUCSORGRIGHT
 10
0.0
 20
0.0
 30
0.0
  9
$PUCSORGFRONT
 10
0.0
 20
0.0
 30
0.0
  9
$PUCSORGBACK
 10
0.0
 20
0.0
 30
0.0
  9
$USERI1
 70
     0
  9
$USERI2
 70
     0
  9
$USERI3
 70
     0
  9
$USERI4
 70
     0
  9
$USERI5
 70
     0
  9
$USERR1
 40
16.5
  9
$USERR2
 40
0.0
  9
$USERR3
 40
0.0
  9
$USERR4
 40
0.0
  9
$USERR5
 40
0.0
  9
$WORLDVIEW
 70
     1
  9
$SHADEDGE
 70
     3
  9
$SHADEDIF
 70
    70
  9
$TILEMODE
 70
     1
  9
$MAXACTVP
 70
    64
  9
$PINSBASE
 10
0.0
 20
0.0
 30
0.0
  9
$PLIMCHECK
 70
     0
  9
$PEXTMIN
 10
1.00000000000000E+20
 20
1.00000000000000E+20
 30
1.00000000000000E+20
  9
$PEXTMAX
 10
-1.00000000000000E+20
 20
-1.00000000000000E+20
 30
-1.00000000000000E+20
  9
$PLIMMIN
 10
0.0
 20
0.0
  9
$PLIMMAX
 10
12.0
 20
9.0
  9
$UNITMODE
 70
     0
  9
$VISRETAIN
 70
     1
  9
$PLINEGEN
 70
     0
  9
$PSLTSCALE
 70
     1
  9
$TREEDEPTH
 70
  3020
  9
$CMLSTYLE
  2
Standard
  9
$CMLJUST
 70
     0
  9
$CMLSCALE
 40
1.0
  9
$PROXYGRAPHICS
 70
     1
  9
$MEASUREMENT
 70
     1
  9
$CELWEIGHT
370
    -1
  9
$ENDCAPS
280
     0
  9
$JOINSTYLE
280
     0
  9
$LWDISPLAY
290
     0
  9
$INSUNITS
 70
     1
  9
$HYPERLINKBASE
  1

  9
$STYLESHEET
  1

  9
$XEDIT
290
     1
  9
$CEPSNTYPE
380
     0
  9
$PSTYLEMODE
290
     1
  9
$FINGERPRINTGUID
  2
{85FFF00C-6A3D-4023-9D48-A2B9C167E108}
  9
$VERSIONGUID
  2
{FAEB1C32-E019-11D5-929B-00C0DF256EC4}
  9
$EXTNAMES
290
     1
  9
$PSVPSCALE
 40
0.0
  9
$OLESTARTUP
290
     0
  0
ENDSEC
  0
SECTION
  2
CLASSES
  0
CLASS
  1
ACDBDICTIONARYWDFLT
  2
AcDbDictionaryWithDefault
  3
ObjectDBX Classes
 90
        0
280
     0
281
     0
  0
CLASS
  1
VISUALSTYLE
  2
AcDbVisualStyle
  3
ObjectDBX Classes
 90
     4095
280
     0
281
     0
  0
CLASS
  1
SCALE
  2
AcDbScale
  3
ObjectDBX Classes
 90
     1153
280
     0
281
     0
  0
CLASS
  1

  2
exOdDbPolyline
  3

 90
        0
280
     0
281
     1
  0
CLASS
  1

  2
exOdDbSpline
  3

 90
        0
280
     0
281
     1
  0
CLASS
  1
DICTIONARYVAR
  2
AcDbDictionaryVar
  3
ObjectDBX Classes
 90
        0
280
     0
281
     0
  0
CLASS
  1
ACDBPLACEHOLDER
  2
AcDbPlaceHolder
  3
ObjectDBX Classes
 90
        0
280
     0
281
     0
  0
CLASS
  1
LAYOUT
  2
AcDbLayout
  3
ObjectDBX Classes
 90
        0
280
     0
281
     0
  0
ENDSEC
  0
SECTION
  2
TABLES
  0
TABLE
  2
VPORT
  5
8
330
0
100
AcDbSymbolTable
 70
     1
  0
VPORT
  5
29
330
8
100
AcDbSymbolTableRecord
100
AcDbViewportTableRecord
  2
*Active
 70
     0
 10
0.0
 20
0.0
 11
1.0
 21
1.0
 12
195.5821250391331
 22
427.833576601386
 13
0.0
 23
0.0
 14
0.5
 24
0.5
 15
0.5
 25
0.5
 16
0.0
 26
0.0
 36
1.0
 17
0.0
 27
0.0
 37
0.0
 40
168.365995397011
 41
1.60267857142857
 42
50.0
 43
0.0
 44
0.0
 50
0.0
 51
0.0
 71
     0
 72
   100
 73
     1
 74
     3
 75
     0
 76
     0
 77
     0
 78
     0
281
     0
 65
     1
110
0.0
120
0.0
130
0.0
111
1.0
121
0.0
131
0.0
112
0.0
122
1.0
132
0.0
 79
     0
146
0.0
  0
ENDTAB
  0
TABLE
  2
LTYPE
  5
5
330
0
100
AcDbSymbolTable
 70
     8
  0
LTYPE
  5
14
330
5
100
AcDbSymbolTableRecord
100
AcDbLinetypeTableRecord
  2
ByBlock
 70
     0
  3

 72
    65
 73
     0
 40
0.0
  0
LTYPE
  5
15
330
5
100
AcDbSymbolTableRecord
100
AcDbLinetypeTableRecord
  2
ByLayer
 70
     0
  3

 72
    65
 73
     0
 40
0.0
  0
LTYPE
  5
16
330
5
100
AcDbSymbolTableRecord
100
AcDbLinetypeTableRecord
  2
Continuous
 70
     0
  3
Solid line
 72
    65
 73
     0
 40
0.0
  0
LTYPE
  5
3B
330
5
100
AcDbSymbolTableRecord
100
AcDbLinetypeTableRecord
  2
DASHED
 70
     0
  3
Dashed
 72
    65
 73
     2
 40
15.0
 49
7.0
 74
     0
 49
-8.0
 74
     0
  0
LTYPE
  5
3C
330
5
100
AcDbSymbolTableRecord
100
AcDbLinetypeTableRecord
  2
DOTTED
 70
     0
  3
Dotted
 72
    65
 73
     2
 40
1.0
 49
0.0
 74
     0
 49
-1.0
 74
     0
  0
LTYPE
  5
3D
330
5
100
AcDbSymbolTableRecord
100
AcDbLinetypeTableRecord
  2
DOT_CENTER
 70
     0
  3
Dot_Center
 72
    65
 73
     4
 40
14.0
 49
12.0
 74
     0
 49
-1.0
 74
     0
 49
0.0
 74
     0
 49
-1.0
 74
     0
  0
LTYPE
  5
3E
330
5
100
AcDbSymbolTableRecord
100
AcDbLinetypeTableRecord
  2
LONG_DASHED
 70
     0
  3
Long_Dashed
 72
    65
 73
     2
 40
15.0
 49
10.0
 74
     0
 49
-5.0
 74
     0
  0
LTYPE
  5
3F
330
5
100
AcDbSymbolTableRecord
100
AcDbLinetypeTableRecord
  2
DASH_CENTER
 70
     0
  3
Dash_Center
 72
    65
 73
     4
 40
14.0
 49
11.0
 74
     0
 49
-1.0
 74
     0
 49
1.0
 74
     0
 49
-1.0
 74
     0
  0
LTYPE
  5
40
330
5
100
AcDbSymbolTableRecord
100
AcDbLinetypeTableRecord
  2
PHANTOM
 70
     0
  3
Phantom
 72
    65
 73
     6
 40
13.0
 49
10.0
 74
     0
 49
-1.0
 74
     0
 49
0.0
 74
     0
 49
-1.0
 74
     0
 49
0.0
 74
     0
 49
-1.0
 74
     0
  0
LTYPE
  5
41
330
5
100
AcDbSymbolTableRecord
100
AcDbLinetypeTableRecord
  2
CENTER_DASH_DASH
 70
     0
  3
Center_Dash_Dash
 72
    65
 73
     6
 40
14.0
 49
9.0
 74
     0
 49
-1.0
 74
     0
 49
1.0
 74
     0
 49
-1.0
 74
     0
 49
1.0
 74
     0
 49
-1.0
 74
     0
  0
ENDTAB
  0
TABLE
  2
LAYER
  5
2
330
0
100
AcDbSymbolTable
 70
     6
  0
LAYER
  5
10
330
2
100
AcDbSymbolTableRecord
100
AcDbLayerTableRecord
  2
0
 70
     0
 62
     7
  6
Continuous
370
    -3
390
F
  0
LAYER
  5
42
330
2
100
AcDbSymbolTableRecord
100
AcDbLayerTableRecord
  2
1
 70
     0
 62
     7
  6
Continuous
370
    -3
390
F
  0
LAYER
  5
43
330
2
100
AcDbSymbolTableRecord
100
AcDbLayerTableRecord
  2
BG_STARTBEZUEGE
 70
     0
 62
     7
  6
Continuous
370
    -3
390
F
  0
LAYER
  5
44
330
2
100
AcDbSymbolTableRecord
100
AcDbLayerTableRecord
  2
DEFAULT_2
 70
     0
 62
     7
  6
Continuous
370
    -3
390
F
  0
LAYER
  5
45
330
2
100
AcDbSymbolTableRecord
100
AcDbLayerTableRecord
  2
RUNDUNGEN
 70
     0
 62
     7
  6
Continuous
370
    -3
390
F
  0
LAYER
  5
46
330
2
100
AcDbSymbolTableRecord
100
AcDbLayerTableRecord
  2
TEIL_STARTBEZUEGE
 70
     0
 62
     7
  6
Continuous
370
    -3
390
F
  0
ENDTAB
  0
TABLE
  2
STYLE
  5
3
330
0
100
AcDbSymbolTable
 70
     2
  0
STYLE
  5
11
330
3
100
AcDbSymbolTableRecord
100
AcDbTextStyleTableRecord
  2
Standard
 70
     0
 40
0.0
 41
1.0
 50
0.0
 71
     0
 42
0.2
  3
txt
  4

  0
STYLE
  5
6D
330
3
100
AcDbSymbolTableRecord
100
AcDbTextStyleTableRecord
  2
CONVERTER_11
 70
     0
 40
0.0
 41
0.72
 50
0.0
 71
     0
 42
0.2
  3
txt.shx
  4

  0
ENDTAB
  0
TABLE
  2
VIEW
  5
6
330
0
100
AcDbSymbolTable
 70
     0
  0
ENDTAB
  0
TABLE
  2
UCS
  5
7
330
0
100
AcDbSymbolTable
 70
     0
  0
ENDTAB
  0
TABLE
  2
APPID
  5
9
330
0
100
AcDbSymbolTable
 70
     1
  0
APPID
  5
12
330
9
100
AcDbSymbolTableRecord
100
AcDbRegAppTableRecord
  2
ACAD
 70
     0
  0
ENDTAB
  0
TABLE
  2
DIMSTYLE
  5
A
330
0
100
AcDbSymbolTable
 70
     7
100
AcDbDimStyleTable
  0
DIMSTYLE
105
27
330
A
100
AcDbSymbolTableRecord
100
AcDbDimStyleTableRecord
  2
Standard
 70
     0
340
11
  0
DIMSTYLE
105
107
102
{ACAD_REACTORS
330
108
102
}
330
A
100
AcDbSymbolTableRecord
100
AcDbDimStyleTableRecord
  2
ME10_DIM_10
 70
     0
  3
\U+2300<>
 41
3.5
 42
2.0
 44
2.0
 71
     1
 73
     0
 74
     0
 77
     1
 78
     8
140
3.5
146
0.7
147
2.0
172
     1
173
     1
176
     2
177
     2
178
     3
271
     2
272
     0
340
6D
  0
DIMSTYLE
105
112
102
{ACAD_REACTORS
330
113
102
}
330
A
100
AcDbSymbolTableRecord
100
AcDbDimStyleTableRecord
  2
ME10_DIM_11
 70
     0
  3
\U+2300<>
 41
3.5
 42
2.0
 44
2.0
 71
     1
 73
     0
 74
     0
 77
     1
 78
     8
140
3.5
146
0.7
147
2.0
172
     1
173
     1
176
     2
177
     2
178
     3
271
     2
272
     0
340
6D
  0
DIMSTYLE
105
11D
102
{ACAD_REACTORS
330
11E
102
}
330
A
100
AcDbSymbolTableRecord
100
AcDbDimStyleTableRecord
  2
ME10_DIM_12
 70
     0
  3
<>
 41
3.5
 42
2.0
 44
2.0
 71
     1
 73
     0
 74
     0
 77
     1
 78
     8
140
3.5
146
0.7
147
2.0
172
     1
173
     1
176
     2
177
     2
178
     3
271
     2
272
     0
340
6D
  0
DIMSTYLE
105
128
102
{ACAD_REACTORS
330
129
102
}
330
A
100
AcDbSymbolTableRecord
100
AcDbDimStyleTableRecord
  2
ME10_DIM_13
 70
     0
  3
<>
 41
3.5
 42
2.0
 44
2.0
 71
     1
 73
     0
 74
     0
 77
     1
 78
     8
140
3.5
146
0.7
147
2.0
172
     1
173
     1
176
     2
177
     2
178
     3
271
     2
272
     0
340
6D
  0
DIMSTYLE
105
133
102
{ACAD_REACTORS
330
134
102
}
330
A
100
AcDbSymbolTableRecord
100
AcDbDimStyleTableRecord
  2
ME10_DIM_14
 70
     0
  3
<>
 41
3.5
 42
2.0
 44
2.0
 71
     1
 73
     0
 74
     0
 77
     1
 78
     8
140
3.5
146
0.7
147
2.0
172
     1
173
     1
176
     2
177
     2
178
     3
271
     2
272
     0
340
6D
  0
DIMSTYLE
105
13E
102
{ACAD_REACTORS
330
13F
102
}
330
A
100
AcDbSymbolTableRecord
100
AcDbDimStyleTableRecord
  2
ME10_DIM_15
 70
     0
  3
<>
 41
3.5
 42
2.0
 44
2.0
 71
     1
 73
     0
 74
     0
 77
     1
 78
     8
140
3.5
146
0.7
147
2.0
172
     1
173
     1
176
     2
177
     2
178
     3
271
     2
272
     0
340
6D
  0
ENDTAB
  0
TABLE
  2
BLOCK_RECORD
  5
1
330
0
100
AcDbSymbolTable
 70
     9
  0
BLOCK_RECORD
  5
1F
330
1
100
AcDbSymbolTableRecord
100
AcDbBlockTableRecord
  2
*Model_Space
340
22
  0
BLOCK_RECORD
  5
1B
330
1
100
AcDbSymbolTableRecord
100
AcDbBlockTableRecord
  2
*Paper_Space
340
1E
  0
BLOCK_RECORD
  5
23
330
1
100
AcDbSymbolTableRecord
100
AcDbBlockTableRecord
  2
*Paper_Space0
340
26
  0
BLOCK_RECORD
  5
47
330
1
100
AcDbSymbolTableRecord
100
AcDbBlockTableRecord
  2
Urheberrecht_DE-EN
340
0
102
{BLKREFS
331
6C
102
}
  0
BLOCK_RECORD
  5
FE
330
1
100
AcDbSymbolTableRecord
100
AcDbBlockTableRecord
  2
*D2
340
0
  0
BLOCK_RECORD
  5
109
330
1
100
AcDbSymbolTableRecord
100
AcDbBlockTableRecord
  2
*D3
340
0
  0
BLOCK_RECORD
  5
114
330
1
100
AcDbSymbolTableRecord
100
AcDbBlockTableRecord
  2
*D4
340
0
  0
BLOCK_RECORD
  5
11F
330
1
100
AcDbSymbolTableRecord
100
AcDbBlockTableRecord
  2
*D5
340
0
  0
BLOCK_RECORD
  5
12A
330
1
100
AcDbSymbolTableRecord
100
AcDbBlockTableRecord
  2
*D6
340
0
  0
BLOCK_RECORD
  5
135
330
1
100
AcDbSymbolTableRecord
100
AcDbBlockTableRecord
  2
*D7
340
0
  0
BLOCK_RECORD
  5
140
330
1
100
AcDbSymbolTableRecord
100
AcDbBlockTableRecord
  2
*D8
340
0
102
{BLKREFS
331
146
102
}
  0
ENDTAB
  0
ENDSEC
  0
SECTION
  2
BLOCKS
  0
BLOCK
  5
20
330
1F
100
AcDbEntity
  8
0
100
AcDbBlockBegin
  2
*Model_Space
 70
     0
 10
0.0
 20
0.0
 30
0.0
  3
*Model_Space
  1

  0
ENDBLK
  5
21
330
1F
100
AcDbEntity
  8
0
100
AcDbBlockEnd
  0
BLOCK
  5
1C
330
1B
100
AcDbEntity
 67
     1
  8
0
100
AcDbBlockBegin
  2
*Paper_Space
 70
     0
 10
0.0
 20
0.0
 30
0.0
  3
*Paper_Space
  1

  0
ENDBLK
  5
1D
330
1B
100
AcDbEntity
 67
     1
  8
0
100
AcDbBlockEnd
  0
BLOCK
  5
24
330
23
100
AcDbEntity
  8
0
100
AcDbBlockBegin
  2
*Paper_Space0
 70
     0
 10
0.0
 20
0.0
 30
0.0
  3
*Paper_Space0
  1

  0
ENDBLK
  5
25
330
23
100
AcDbEntity
  8
0
100
AcDbBlockEnd
  0
BLOCK
  5
48
330
47
100
AcDbEntity
  8
0
100
AcDbBlockBegin
  2
Urheberrecht_DE-EN
 70
     0
 10
86.9291373209373
 20
420.703302693505
 30
0.0
  3
Urheberrecht_DE-EN
  1

  0
MTEXT
  5
6E
330
47
100
AcDbEntity
  8
1
 62
     1
100
AcDbMText
 10
86.9291373209373
 20
420.703302693505
 30
0.0
 40
2.0
 41
0.0
 71
     7
 72
     1
  1
We own the copyright of this document. It \Pdetermined and may neither be copied or \Pmade accessible to outsiders without our\Ppermission.
  7
CONVERTER_11
 11
0.0
 21
1.0
 31
0.0
 73
     1
 44
0.90036014405762
  0
MTEXT
  5
6F
330
47
100
AcDbEntity
  8
1
 62
     1
100
AcDbMText
 10
86.9291373209373
 20
364.4139157761988
 30
0.0
 40
2.0
 41
0.0
 71
     7
 72
     1
  1
F\U+00fcr diese Unterlage behalten wir das Ur-\Pheberrecht. Sie darf nur f\U+00fcr den von uns \Pbestimmten Zweck benutzt und ohne unsere \PZustimmung weder vervielf\U+00e4ltigt noch\PDritten zug\U+00e4nglich gemacht werden.
  7
CONVERTER_11
 11
0.0
 21
1.0
 31
0.0
 73
     1
 44
0.90036014405762
  0
ENDBLK
  5
49
330
47
100
AcDbEntity
  8
0
100
AcDbBlockEnd
  0
BLOCK
  5
105
330
FE
100
AcDbEntity
  8
0
100
AcDbBlockBegin
  2
*D2
 70
     1
 10
0.0
 20
0.0
 30
0.0
  3
*D2
  1

  0
LINE
  5
FF
330
FE
100
AcDbEntity
  8
1
  6
Continuous
 62
     2
100
AcDbLine
 10
308.07705881451
 20
420.4984965299
 30
0.0
 11
308.07705881451
 21
400.4984965299
 31
0.0
  0
LINE
  5
100
330
FE
100
AcDbEntity
  8
1
  6
Continuous
 62
     2
100
AcDbLine
 10
285.8283264033
 20
420.4984965299
 30
0.0
 11
310.07705881451
 21
420.4984965299
 31
0.0
  0
LINE
  5
101
330
FE
100
AcDbEntity
  8
1
  6
Continuous
 62
     2
100
AcDbLine
 10
285.8283264033
 20
400.4984965299
 30
0.0
 11
310.07705881451
 21
400.4984965299
 31
0.0
  0
SOLID
  5
102
330
FE
100
AcDbEntity
  8
1
 62
     2
100
AcDbTrace
 10
308.5378425560659
 20
416.9984965299
 30
0.0
 11
307.6162750729541
 21
416.9984965299
 31
0.0
 12
308.07705881451
 22
420.4984965299
 32
0.0
 13
308.07705881451
 23
420.4984965299
 33
0.0
  0
SOLID
  5
103
330
FE
100
AcDbEntity
  8
1
 62
     2
100
AcDbTrace
 10
307.6162750729541
 20
403.9984965299
 30
0.0
 11
308.5378425560659
 21
403.9984965299
 31
0.0
 12
308.07705881451
 22
400.4984965299
 32
0.0
 13
308.07705881451
 23
400.4984965299
 33
0.0
  0
MTEXT
  5
104
330
FE
100
AcDbEntity
  8
1
 62
     3
100
AcDbMText
 10
306.07705881451
 20
400.815867869034
 30
0.0
 40
3.5
 41
0.0
 71
     7
 72
     1
  1
\C3;%%c\C3;\C3;20\C2;\H2.45;\S^ ;\C3;
  7
CONVERTER_11
 11
0.0
 21
1.0
 31
0.0
 73
     1
 44
0.60024009603842
  0
ENDBLK
  5
106
330
FE
100
AcDbEntity
  8
0
100
AcDbBlockEnd
  0
BLOCK
  5
110
330
109
100
AcDbEntity
  8
0
100
AcDbBlockBegin
  2
*D3
 70
     1
 10
0.0
 20
0.0
 30
0.0
  3
*D3
  1

  0
LINE
  5
10A
330
109
100
AcDbEntity
  8
1
  6
Continuous
 62
     2
100
AcDbLine
 10
316.235112757329
 20
427.4984965299
 30
0.0
 11
316.235112757329
 21
393.4984965299
 31
0.0
  0
LINE
  5
10B
330
109
100
AcDbEntity
  8
1
  6
Continuous
 62
     2
100
AcDbLine
 10
265.414112841
 20
427.4984965299
 30
0.0
 11
318.235112757329
 21
427.4984965299
 31
0.0
  0
LINE
  5
10C
330
109
100
AcDbEntity
  8
1
  6
Continuous
 62
     2
100
AcDbLine
 10
265.414112841
 20
393.4984965299
 30
0.0
 11
318.235112757329
 21
393.4984965299
 31
0.0
  0
SOLID
  5
10D
330
109
100
AcDbEntity
  8
1
 62
     2
100
AcDbTrace
 10
316.6958964988848
 20
423.9984965299
 30
0.0
 11
315.7743290157731
 21
423.9984965299
 31
0.0
 12
316.235112757329
 22
427.4984965299
 32
0.0
 13
316.235112757329
 23
427.4984965299
 33
0.0
  0
SOLID
  5
10E
330
109
100
AcDbEntity
  8
1
 62
     2
100
AcDbTrace
 10
315.7743290157731
 20
396.9984965299
 30
0.0
 11
316.6958964988848
 21
396.9984965299
 31
0.0
 12
316.235112757329
 22
393.4984965299
 32
0.0
 13
316.235112757329
 23
393.4984965299
 33
0.0
  0
MTEXT
  5
10F
330
109
100
AcDbEntity
  8
1
 62
     3
100
AcDbMText
 10
314.235112757329
 20
401.525263864062
 30
0.0
 40
3.5
 41
0.0
 71
     7
 72
     1
  1
\C3;%%c\C3;\C3;34\C2;\H2.45;\S^ ;\C3;
  7
CONVERTER_11
 11
0.0
 21
1.0
 31
0.0
 73
     1
 44
0.60024009603842
  0
ENDBLK
  5
111
330
109
100
AcDbEntity
  8
0
100
AcDbBlockEnd
  0
BLOCK
  5
11B
330
114
100
AcDbEntity
  8
0
100
AcDbBlockBegin
  2
*D4
 70
     1
 10
0.0
 20
0.0
 30
0.0
  3
*D4
  1

  0
LINE
  5
115
330
114
100
AcDbEntity
  8
1
  6
Continuous
 62
     2
100
AcDbLine
 10
283.8283264033001
 20
465.465299143696
 30
0.0
 11
214.4283264033
 21
465.465299143696
 31
0.0
  0
LINE
  5
116
330
114
100
AcDbEntity
  8
1
  6
Continuous
 62
     2
100
AcDbLine
 10
283.8283264033001
 20
424.9984965299
 30
0.0
 11
283.8283264033001
 21
467.465299143696
 31
0.0
  0
LINE
  5
117
330
114
100
AcDbEntity
  8
1
  6
Continuous
 62
     2
100
AcDbLine
 10
214.4283264033
 20
460.2359965299
 30
0.0
 11
214.4283264033
 21
467.465299143696
 31
0.0
  0
SOLID
  5
118
330
114
100
AcDbEntity
  8
1
 62
     2
100
AcDbTrace
 10
280.3283264033001
 20
465.0045154021401
 30
0.0
 11
280.3283264033001
 21
465.9260828852518
 31
0.0
 12
283.8283264033001
 22
465.465299143696
 32
0.0
 13
283.8283264033001
 23
465.465299143696
 33
0.0
  0
SOLID
  5
119
330
114
100
AcDbEntity
  8
1
 62
     2
100
AcDbTrace
 10
217.9283264033
 20
465.9260828852518
 30
0.0
 11
217.9283264033
 21
465.0045154021401
 31
0.0
 12
214.4283264033
 22
465.465299143696
 32
0.0
 13
214.4283264033
 23
465.465299143696
 33
0.0
  0
MTEXT
  5
11A
330
114
100
AcDbEntity
  8
1
 62
     3
100
AcDbMText
 10
245.2916638418428
 20
467.465299143696
 30
0.0
 40
3.5
 41
0.0
 71
     7
 72
     1
  1
\C3;\C3;\C3;69.4\C2;\H2.45;\S^ ;\C3;
  7
CONVERTER_11
 11
0.9999999999970619
 21
2.424068405545306E-6
 31
0.0
 73
     1
 44
0.60024009603842
  0
ENDBLK
  5
11C
330
114
100
AcDbEntity
  8
0
100
AcDbBlockEnd
  0
BLOCK
  5
126
330
11F
100
AcDbEntity
  8
0
100
AcDbBlockBegin
  2
*D5
 70
     1
 10
0.0
 20
0.0
 30
0.0
  3
*D5
  1

  0
LINE
  5
120
330
11F
100
AcDbEntity
  8
1
  6
Continuous
 62
     2
100
AcDbLine
 10
283.8283264033
 20
472.687420958437
 30
0.0
 11
195.3283264033
 21
472.687420958437
 31
0.0
  0
LINE
  5
121
330
11F
100
AcDbEntity
  8
1
  6
Continuous
 62
     2
100
AcDbLine
 10
283.8283264033
 20
424.9984965299
 30
0.0
 11
283.8283264033
 21
474.687420958437
 31
0.0
  0
LINE
  5
122
330
11F
100
AcDbEntity
  8
1
  6
Continuous
 62
     2
100
AcDbLine
 10
195.3283264033
 20
453.1359965299
 30
0.0
 11
195.3283264033
 21
474.687420958437
 31
0.0
  0
SOLID
  5
123
330
11F
100
AcDbEntity
  8
1
 62
     2
100
AcDbTrace
 10
280.3283264033
 20
472.2266372168811
 30
0.0
 11
280.3283264033
 21
473.1482046999928
 31
0.0
 12
283.8283264033
 22
472.687420958437
 32
0.0
 13
283.8283264033
 23
472.687420958437
 33
0.0
  0
SOLID
  5
124
330
11F
100
AcDbEntity
  8
1
 62
     2
100
AcDbTrace
 10
198.8283264033
 20
473.1482046999928
 30
0.0
 11
198.8283264033
 21
472.2266372168811
 31
0.0
 12
195.3283264033
 22
472.687420958437
 32
0.0
 13
195.3283264033
 23
472.687420958437
 33
0.0
  0
MTEXT
  5
125
330
11F
100
AcDbEntity
  8
1
 62
     3
100
AcDbMText
 10
234.079439933545
 20
474.687420958437
 30
0.0
 40
3.5
 41
0.0
 71
     7
 72
     1
  1
\C3;\C3;\C3;88.5\C2;\H2.45;\S^ ;\C3;
  7
CONVERTER_11
 11
0.9999999999970619
 21
2.424068405545306E-6
 31
0.0
 73
     1
 44
0.60024009603842
  0
ENDBLK
  5
127
330
11F
100
AcDbEntity
  8
0
100
AcDbBlockEnd
  0
BLOCK
  5
131
330
12A
100
AcDbEntity
  8
0
100
AcDbBlockBegin
  2
*D6
 70
     1
 10
0.0
 20
0.0
 30
0.0
  3
*D6
  1

  0
LINE
  5
12B
330
12A
100
AcDbEntity
  8
1
  6
Continuous
 62
     2
100
AcDbLine
 10
195.3283264033
 20
480.475983699824
 30
0.0
 11
295.3283264033
 21
480.475983699824
 31
0.0
  0
LINE
  5
12C
330
12A
100
AcDbEntity
  8
1
  6
Continuous
 62
     2
100
AcDbLine
 10
195.3283264033
 20
453.1359965299
 30
0.0
 11
195.3283264033
 21
482.475983699824
 31
0.0
  0
LINE
  5
12D
330
12A
100
AcDbEntity
  8
1
  6
Continuous
 62
     2
100
AcDbLine
 10
295.3283264033
 20
426.4984965299
 30
0.0
 11
295.3283264033
 21
482.475983699824
 31
0.0
  0
SOLID
  5
12E
330
12A
100
AcDbEntity
  8
1
 62
     2
100
AcDbTrace
 10
198.8283264033
 20
480.9367674413799
 30
0.0
 11
198.8283264033
 21
480.0151999582681
 31
0.0
 12
195.3283264033
 22
480.475983699824
 32
0.0
 13
195.3283264033
 23
480.475983699824
 33
0.0
  0
SOLID
  5
12F
330
12A
100
AcDbEntity
  8
1
 62
     2
100
AcDbTrace
 10
291.8283264033
 20
480.0151999582681
 30
0.0
 11
291.8283264033
 21
480.9367674413799
 31
0.0
 12
295.3283264033
 22
480.475983699824
 32
0.0
 13
295.3283264033
 23
480.475983699824
 33
0.0
  0
MTEXT
  5
130
330
12A
100
AcDbEntity
  8
1
 62
     3
100
AcDbMText
 10
242.318171979947
 20
482.475983699824
 30
0.0
 40
3.5
 41
0.0
 71
     7
 72
     1
  1
\C3;\C3;\C3;100\C2;\H2.45;\S^ ;\C3;
  7
CONVERTER_11
 11
0.9999999999970619
 21
2.424068405545306E-6
 31
0.0
 73
     1
 44
0.60024009603842
  0
ENDBLK
  5
132
330
12A
100
AcDbEntity
  8
0
100
AcDbBlockEnd
  0
BLOCK
  5
13C
330
135
100
AcDbEntity
  8
0
100
AcDbBlockBegin
  2
*D7
 70
     1
 10
0.0
 20
0.0
 30
0.0
  3
*D7
  1

  0
LINE
  5
136
330
135
100
AcDbEntity
  8
1
  6
Continuous
 62
     2
100
AcDbLine
 10
283.8283264033001
 20
488.406156672872
 30
0.0
 11
93.57832640330001
 21
488.406156672872
 31
0.0
  0
LINE
  5
137
330
135
100
AcDbEntity
  8
1
  6
Continuous
 62
     2
100
AcDbLine
 10
283.8283264033001
 20
424.9984965299
 30
0.0
 11
283.8283264033001
 21
490.406156672872
 31
0.0
  0
LINE
  5
138
330
135
100
AcDbEntity
  8
1
  6
Continuous
 62
     2
100
AcDbLine
 10
93.57832640330001
 20
430.6597307299
 30
0.0
 11
93.57832640330001
 21
490.406156672872
 31
0.0
  0
SOLID
  5
139
330
135
100
AcDbEntity
  8
1
 62
     2
100
AcDbTrace
 10
280.3283264033001
 20
487.9453729313161
 30
0.0
 11
280.3283264033001
 21
488.8669404144279
 31
0.0
 12
283.8283264033001
 22
488.406156672872
 32
0.0
 13
283.8283264033001
 23
488.406156672872
 33
0.0
  0
SOLID
  5
13A
330
135
100
AcDbEntity
  8
1
 62
     2
100
AcDbTrace
 10
97.07832640330001
 20
488.8669404144279
 30
0.0
 11
97.07832640330001
 21
487.9453729313161
 31
0.0
 12
93.57832640330001
 22
488.406156672872
 32
0.0
 13
93.57832640330001
 23
488.406156672872
 33
0.0
  0
MTEXT
  5
13B
330
135
100
AcDbEntity
  8
1
 62
     3
100
AcDbMText
 10
189.5683262645211
 20
490.406156672872
 30
0.0
 40
3.5
 41
0.0
 71
     7
 72
     1
  1
\C3;\C3;\C3;190.25\C2;\H2.45;\S^ ;\C3;
  7
CONVERTER_11
 11
0.9999999999970619
 21
2.424068405545306E-6
 31
0.0
 73
     1
 44
0.60024009603842
  0
ENDBLK
  5
13D
330
135
100
AcDbEntity
  8
0
100
AcDbBlockEnd
  0
BLOCK
  5
144
330
140
100
AcDbEntity
  8
0
100
AcDbBlockBegin
  2
*D8
 70
     1
 10
0.0
 20
0.0
 30
0.0
  3
*D8
  1

  0
LINE
  5
141
330
140
100
AcDbEntity
  8
1
  6
Continuous
 62
     2
100
AcDbLine
 10
229.0618777216425
 20
442.0619315161077
 30
0.0
 11
219.7845489354605
 21
431.0094775922017
 31
0.0
  0
SOLID
  5
142
330
140
100
AcDbEntity
  8
1
 62
     2
100
AcDbTrace
 10
221.6818334690951
 20
433.9864950686222
 30
0.0
 11
222.3876938868177
 21
433.3940022867071
 31
0.0
 12
219.7845489354605
 22
431.0094775922017
 32
0.0
 13
219.7845489354605
 23
431.0094775922017
 33
0.0
  0
MTEXT
  5
143
330
140
100
AcDbEntity
  8
1
 62
     3
100
AcDbMText
 10
221.6794501994601
 20
436.3777636896161
 30
0.0
 40
3.5
 41
0.0
 71
     7
 72
     1
  1
\C3; R\C3;\C3;15\C2;\H2.45;\S^ ;\C3;
  7
CONVERTER_11
 11
0.6429184978559672
 21
0.7659345958465559
 31
0.0
 73
     1
 44
0.60024009603842
  0
ENDBLK
  5
145
330
140
100
AcDbEntity
  8
0
100
AcDbBlockEnd
  0
ENDSEC
  0
SECTION
  2
ENTITIES
  0
INSERT
  5
6C
330
1F
100
AcDbEntity
  8
0
100
AcDbBlockReference
  2
Urheberrecht_DE-EN
 10
86.9291373209373
 20
420.703302693505
 30
0.0
  0
LINE
  5
70
330
1F
100
AcDbEntity
  8
0
  6
Continuous
 62
     7
100
AcDbLine
 10
93.57832640329997
 20
428.6597307299
 30
0.0
 11
93.57832640329997
 21
392.3370495287
 31
0.0
  0
LINE
  5
71
330
1F
100
AcDbEntity
  8
0
  6
Continuous
 62
     9
100
AcDbLine
 10
95.50360939769996
 20
390.1106041855
 30
0.0
 11
95.50360939769996
 21
430.8863888743
 31
0.0
  0
LINE
  5
72
330
1F
100
AcDbEntity
  8
0
  6
Continuous
 62
     7
100
AcDbLine
 10
199.5283264033
 20
361.7609965299
 30
0.0
 11
203.2629480175
 21
361.7609965299
 31
0.0
  0
LINE
  5
73
330
1F
100
AcDbEntity
  8
0
  6
Continuous
 62
     7
100
AcDbLine
 10
209.7437047892
 20
361.7609965299
 30
0.0
 11
213.4283264033
 21
361.7609965299
 31
0.0
  0
LINE
  5
74
330
1F
100
AcDbEntity
  8
0
  6
Continuous
 62
     7
100
AcDbLine
 10
205.3408264033
 20
364.9984965299
 30
0.0
 11
207.6658264033
 21
364.9984965299
 31
0.0
  0
LINE
  5
75
330
1F
100
AcDbEntity
  8
0
  6
Continuous
 62
     7
100
AcDbLine
 10
199.5283264033
 20
371.971604542
 30
0.0
 11
203.2629480175
 21
371.971604542
 31
0.0
  0
LINE
  5
76
330
1F
100
AcDbEntity
  8
0
  6
Continuous
 62
     7
100
AcDbLine
 10
209.7437047892
 20
371.971604542
 30
0.0
 11
213.4283264033
 21
371.971604542
 31
0.0
  0
LINE
  5
77
330
1F
100
AcDbEntity
  8
0
  6
Continuous
 62
     7
100
AcDbLine
 10
194.8386440701
 20
375.6449144883
 30
0.0
 11
195.8783264033
 21
375.9234965299
 31
0.0
  0
LINE
  5
78
330
1F
100
AcDbEntity
  8
0
  6
Continuous
 62
     7
100
AcDbLine
 10
195.8783264033
 20
375.9234965299
 30
0.0
 11
197.5283264033
 21
375.9234965299
 31
0.0
  0
LINE
  5
79
330
1F
100
AcDbEntity
  8
0
  6
Continuous
 62
     7
100
AcDbLine
 10
205.3408264033
 20
376.1586144684
 30
0.0
 11
207.6658264033
 21
376.1586144684
 31
0.0
  0
LINE
  5
7A
330
1F
100
AcDbEntity
  8
0
  6
Continuous
 62
     9
100
AcDbLine
 10
214.4283264033
 20
378.8984965299
 30
0.0
 11
198.5283264033
 21
378.8984965299
 31
0.0
  0
LINE
  5
7B
330
1F
100
AcDbEntity
  8
0
  6
Continuous
 62
     7
100
AcDbLine
 10
198.5283264033
 20
380.6484965299
 30
0.0
 11
214.4283264033
 21
380.6484965299
 31
0.0
  0
LINE
  5
7C
330
1F
100
AcDbEntity
  8
0
  6
Continuous
 62
     7
100
AcDbLine
 10
95.50360939769996
 20
390.1106041855
 30
0.0
 11
194.8386440701
 21
375.6449144883
 31
0.0
  0
LINE
  5
7D
330
1F
100
AcDbEntity
  8
0
  6
Continuous
 62
     7
100
AcDbLine
 10
229.4283264033
 20
393.4984965299
 30
0.0
 11
263.414112841
 21
393.4984965299
 31
0.0
  0
LINE
  5
7E
330
1F
100
AcDbEntity
  8
0
  6
Continuous
 62
     7
100
AcDbLine
 10
277.5783264033
 20
393.4984965299
 30
0.0
 11
291.8105594504
 21
393.4984965299
 31
0.0
  0
LINE
  5
7F
330
1F
100
AcDbEntity
  8
0
  6
Continuous
 62
     7
100
AcDbLine
 10
284.3283264033
 20
393.5081154731
 30
0.0
 11
291.8105594504
 21
393.5081154731
 31
0.0
  0
LINE
  5
80
330
1F
100
AcDbEntity
  8
0
  6
Continuous
 62
     7
100
AcDbLine
 10
208.4158264033
 20
456.9360436994
 30
0.0
 11
209.7437047892
 21
459.2359965299
 31
0.0
  0
LINE
  5
81
330
1F
100
AcDbEntity
  8
0
  6
Continuous
 62
     7
100
AcDbLine
 10
198.5283264033
 20
397.5984965299
 30
0.0
 11
214.4283264033
 21
397.5984965299
 31
0.0
  0
LINE
  5
82
330
1F
100
AcDbEntity
  8
0
  6
Continuous
 62
     7
100
AcDbLine
 10
268.7425399657
 20
397.9984965299
 30
0.0
 11
276.3283264033
 21
397.9984965299
 31
0.0
  0
LWPOLYLINE
  5
83
330
1F
100
AcDbEntity
  8
DEFAULT_2
  6
DASHED
 62
     8
100
AcDbPolyline
 90
        2
 70
     0
 43
0.35
 10
276.3283264033
 20
397.9984965299
 10
283.8283264033
 20
397.9984965299
  0
LINE
  5
84
330
1F
100
AcDbEntity
  8
0
  6
Continuous
 62
     9
100
AcDbLine
 10
214.4283264033
 20
399.3484965299
 30
0.0
 11
198.5283264033
 21
399.3484965299
 31
0.0
  0
LINE
  5
85
330
1F
100
AcDbEntity
  8
0
  6
Continuous
 62
     7
100
AcDbLine
 10
284.3283264033
 20
401.5081154731
 30
0.0
 11
291.8105594504
 21
401.5081154731
 31
0.0
  0
LINE
  5
86
330
1F
100
AcDbEntity
  8
0
  6
Continuous
 62
     7
100
AcDbLine
 10
284.3283264033
 20
402.4984965299
 30
0.0
 11
291.8105594504
 21
402.4984965299
 31
0.0
  0
LWPOLYLINE
  5
87
330
1F
100
AcDbEntity
  8
DEFAULT_2
  6
DASHED
 62
     8
100
AcDbPolyline
 90
        2
 70
     0
 43
0.35
 10
253.8283264033
 20
403.7484965299
 10
260.7033748056
 20
403.7484965299
  0
LINE
  5
88
330
1F
100
AcDbEntity
  8
0
  6
Continuous
 62
     7
100
AcDbLine
 10
208.4158264033
 20
364.0609493604
 30
0.0
 11
209.7437047892
 21
361.7609965299
 31
0.0
  0
LINE
  5
89
330
1F
100
AcDbEntity
  8
0
  6
Continuous
 62
     7
100
AcDbLine
 10
194.8386440701
 20
375.6449144883
 30
0.0
 11
194.8386440701
 21
445.3520785715
 31
0.0
  0
LWPOLYLINE
  5
8A
330
1F
100
AcDbEntity
  8
BG_STARTBEZUEGE
  6
DOT_CENTER
 62
     7
100
AcDbPolyline
 90
        2
 70
     0
 43
0.25
 10
195.3283264033
 20
451.1359965299
 10
195.3283264033
 20
368.5609965299
  0
LWPOLYLINE
  5
8B
330
1F
100
AcDbEntity
  8
DEFAULT_2
  6
DASHED
 62
     8
100
AcDbPolyline
 90
        2
 70
     0
 43
0.35
 10
260.7033748056
 20
417.2484965299
 10
283.8283264033
 20
420.4984965299
  0
LWPOLYLINE
  5
8C
330
1F
100
AcDbEntity
  8
TEIL_STARTBEZUEGE
  6
DOT_CENTER
 62
     7
100
AcDbPolyline
 90
        2
 70
     0
 43
0.25
 10
299.8378648069
 20
410.4984965299
 10
90.57832640329995
 20
410.4984965299
  0
LINE
  5
8D
330
1F
100
AcDbEntity
  8
0
  6
Continuous
 62
     7
100
AcDbLine
 10
195.8783264033
 20
375.9234965299
 30
0.0
 11
195.8783264033
 21
445.0734965299
 31
0.0
  0
LINE
  5
8E
330
1F
100
AcDbEntity
  8
0
  6
Continuous
 62
     9
100
AcDbLine
 10
197.5283264033
 20
375.9234965299
 30
0.0
 11
197.5283264033
 21
445.0734965299
 31
0.0
  0
LINE
  5
8F
330
1F
100
AcDbEntity
  8
0
  6
Continuous
 62
     7
100
AcDbLine
 10
198.5283264033
 20
362.7609965299
 30
0.0
 11
198.5283264033
 21
458.2358145013
 31
0.0
  0
LINE
  5
90
330
1F
100
AcDbEntity
  8
0
  6
Continuous
 62
     9
100
AcDbLine
 10
199.5283264033
 20
459.2359965299
 30
0.0
 11
199.5283264033
 21
423.3984965299
 31
0.0
  0
LINE
  5
91
330
1F
100
AcDbEntity
  8
0
  6
Continuous
 62
     9
100
AcDbLine
 10
199.5283264033
 20
361.7609965299
 30
0.0
 11
199.5283264033
 21
371.971604542
 31
0.0
  0
LINE
  5
92
330
1F
100
AcDbEntity
  8
0
  6
Continuous
 62
     9
100
AcDbLine
 10
199.5283264033
 20
380.6484965299
 30
0.0
 11
199.5283264033
 21
397.5984965299
 31
0.0
  0
LWPOLYLINE
  5
93
330
1F
100
AcDbEntity
  8
DEFAULT_2
  6
DASHED
 62
     8
100
AcDbPolyline
 90
        2
 70
     0
 43
0.35
 10
253.8283264033
 20
417.2484965299
 10
260.7033748056
 20
417.2484965299
  0
LINE
  5
94
330
1F
100
AcDbEntity
  8
0
  6
Continuous
 62
     7
100
AcDbLine
 10
284.3283264033
 20
418.4984965299
 30
0.0
 11
291.8105594504
 21
418.4984965299
 31
0.0
  0
LWPOLYLINE
  5
95
330
1F
100
AcDbEntity
  8
DEFAULT_2
  6
DASHED
 62
     8
100
AcDbPolyline
 90
        2
 70
     0
 43
0.35
 10
260.7033748056
 20
403.7484965299
 10
283.8283264033
 20
400.4984965299
  0
LINE
  5
96
330
1F
100
AcDbEntity
  8
0
  6
Continuous
 62
     7
100
AcDbLine
 10
203.2629480175
 20
459.2359965299
 30
0.0
 11
203.2629480175
 21
423.3984965299
 31
0.0
  0
LINE
  5
97
330
1F
100
AcDbEntity
  8
0
  6
Continuous
 62
     7
100
AcDbLine
 10
203.2629480175
 20
397.5984965299
 30
0.0
 11
203.2629480175
 21
380.6484965299
 31
0.0
  0
LINE
  5
98
330
1F
100
AcDbEntity
  8
0
  6
Continuous
 62
     7
100
AcDbLine
 10
203.2629480175
 20
371.971604542
 30
0.0
 11
203.2629480175
 21
361.7609965299
 31
0.0
  0
LINE
  5
99
330
1F
100
AcDbEntity
  8
0
  6
Continuous
 62
     7
100
AcDbLine
 10
204.5908264033
 20
456.9358719277
 30
0.0
 11
204.5908264033
 21
423.3984965299
 31
0.0
  0
LINE
  5
9A
330
1F
100
AcDbEntity
  8
0
  6
Continuous
 62
     7
100
AcDbLine
 10
204.5908264033
 20
364.0610729426
 30
0.0
 11
204.5908264033
 21
375.1708869306
 31
0.0
  0
LINE
  5
9B
330
1F
100
AcDbEntity
  8
0
  6
Continuous
 62
     7
100
AcDbLine
 10
204.5908264033
 20
380.6484965299
 30
0.0
 11
204.5908264033
 21
397.5984965299
 31
0.0
  0
LINE
  5
9C
330
1F
100
AcDbEntity
  8
0
  6
Continuous
 62
     9
100
AcDbLine
 10
205.3408264033
 20
455.9984965299
 30
0.0
 11
205.3408264033
 21
423.3984965299
 31
0.0
  0
LINE
  5
9D
330
1F
100
AcDbEntity
  8
0
  6
Continuous
 62
     9
100
AcDbLine
 10
205.3408264033
 20
364.9984965299
 30
0.0
 11
205.3408264033
 21
376.1586144684
 31
0.0
  0
LINE
  5
9E
330
1F
100
AcDbEntity
  8
0
  6
Continuous
 62
     9
100
AcDbLine
 10
205.3408264033
 20
380.6484965299
 30
0.0
 11
205.3408264033
 21
397.5984965299
 31
0.0
  0
LINE
  5
9F
330
1F
100
AcDbEntity
  8
0
  6
Continuous
 62
     9
100
AcDbLine
 10
207.6658264033
 20
455.9984965299
 30
0.0
 11
207.6658264033
 21
423.3984965299
 31
0.0
  0
LINE
  5
A0
330
1F
100
AcDbEntity
  8
0
  6
Continuous
 62
     9
100
AcDbLine
 10
207.6658264033
 20
364.9984965299
 30
0.0
 11
207.6658264033
 21
376.1586144684
 31
0.0
  0
LINE
  5
A1
330
1F
100
AcDbEntity
  8
0
  6
Continuous
 62
     9
100
AcDbLine
 10
207.6658264033
 20
380.6484965299
 30
0.0
 11
207.6658264033
 21
397.5984965299
 31
0.0
  0
LINE
  5
A2
330
1F
100
AcDbEntity
  8
0
  6
Continuous
 62
     7
100
AcDbLine
 10
208.4158264033
 20
456.9358719277
 30
0.0
 11
208.4158264033
 21
423.3984965299
 31
0.0
  0
LINE
  5
A3
330
1F
100
AcDbEntity
  8
0
  6
Continuous
 62
     7
100
AcDbLine
 10
208.4158264033
 20
364.0610729426
 30
0.0
 11
208.4158264033
 21
375.1708869306
 31
0.0
  0
LINE
  5
A4
330
1F
100
AcDbEntity
  8
0
  6
Continuous
 62
     7
100
AcDbLine
 10
208.4158264033
 20
380.6484965299
 30
0.0
 11
208.4158264033
 21
397.5984965299
 31
0.0
  0
LINE
  5
A5
330
1F
100
AcDbEntity
  8
0
  6
Continuous
 62
     7
100
AcDbLine
 10
209.7437047892
 20
459.2359965299
 30
0.0
 11
209.7437047892
 21
423.3984965299
 31
0.0
  0
LINE
  5
A6
330
1F
100
AcDbEntity
  8
0
  6
Continuous
 62
     7
100
AcDbLine
 10
209.7437047892
 20
397.5984965299
 30
0.0
 11
209.7437047892
 21
380.6484965299
 31
0.0
  0
LINE
  5
A7
330
1F
100
AcDbEntity
  8
0
  6
Continuous
 62
     7
100
AcDbLine
 10
209.7437047892
 20
371.971604542
 30
0.0
 11
209.7437047892
 21
361.7609965299
 31
0.0
  0
LINE
  5
A8
330
1F
100
AcDbEntity
  8
0
  6
Continuous
 62
     7
100
AcDbLine
 10
284.3283264033
 20
419.4888775867
 30
0.0
 11
291.8105594504
 21
419.4888775867
 31
0.0
  0
LINE
  5
A9
330
1F
100
AcDbEntity
  8
0
  6
Continuous
 62
     9
100
AcDbLine
 10
214.4283264033
 20
421.6484965299
 30
0.0
 11
198.5283264033
 21
421.6484965299
 31
0.0
  0
LINE
  5
AA
330
1F
100
AcDbEntity
  8
0
  6
Continuous
 62
     7
100
AcDbLine
 10
268.7425399657
 20
422.9984965299
 30
0.0
 11
276.3283264033
 21
422.9984965299
 31
0.0
  0
LWPOLYLINE
  5
AB
330
1F
100
AcDbEntity
  8
DEFAULT_2
  6
DASHED
 62
     8
100
AcDbPolyline
 90
        2
 70
     0
 43
0.35
 10
276.3283264033
 20
422.9984965299
 10
283.8283264033
 20
422.9984965299
  0
LINE
  5
AC
330
1F
100
AcDbEntity
  8
0
  6
Continuous
 62
     7
100
AcDbLine
 10
198.5283264033
 20
423.3984965299
 30
0.0
 11
214.4283264033
 21
423.3984965299
 31
0.0
  0
LINE
  5
AD
330
1F
100
AcDbEntity
  8
0
  6
Continuous
 62
     9
100
AcDbLine
 10
213.4283264033
 20
459.2359965299
 30
0.0
 11
213.4283264033
 21
423.3984965299
 31
0.0
  0
LINE
  5
AE
330
1F
100
AcDbEntity
  8
0
  6
Continuous
 62
     9
100
AcDbLine
 10
213.4283264033
 20
361.7609965299
 30
0.0
 11
213.4283264033
 21
371.971604542
 31
0.0
  0
LINE
  5
AF
330
1F
100
AcDbEntity
  8
0
  6
Continuous
 62
     9
100
AcDbLine
 10
213.4283264033
 20
380.6484965299
 30
0.0
 11
213.4283264033
 21
397.5984965299
 31
0.0
  0
LINE
  5
B0
330
1F
100
AcDbEntity
  8
0
  6
Continuous
 62
     7
100
AcDbLine
 10
214.4283264033
 20
362.7609965299
 30
0.0
 11
214.4283264033
 21
458.2359965299
 31
0.0
  0
LINE
  5
B1
330
1F
100
AcDbEntity
  8
0
  6
Continuous
 62
     7
100
AcDbLine
 10
284.3283264033
 20
427.4888775867
 30
0.0
 11
291.8105594504
 21
427.4888775867
 31
0.0
  0
LINE
  5
B2
330
1F
100
AcDbEntity
  8
RUNDUNGEN
  6
Continuous
 62
     7
100
AcDbLine
 10
291.8105594504
 20
427.4984965299
 30
0.0
 11
277.5783264033
 21
427.4984965299
 31
0.0
  0
LINE
  5
B3
330
1F
100
AcDbEntity
  8
0
  6
Continuous
 62
     7
100
AcDbLine
 10
229.4283264033
 20
427.4984965299
 30
0.0
 11
263.414112841
 21
427.4984965299
 31
0.0
  0
LINE
  5
B4
330
1F
100
AcDbEntity
  8
0
  6
Continuous
 62
     7
100
AcDbLine
 10
277.5783264033
 20
427.4984965299
 30
0.0
 11
291.8105594504
 21
427.4984965299
 31
0.0
  0
LINE
  5
B5
330
1F
100
AcDbEntity
  8
RUNDUNGEN
  6
Continuous
 62
     9
100
AcDbLine
 10
229.4283264033
 20
427.4984965299
 30
0.0
 11
229.4283264033
 21
393.4984965299
 31
0.0
  0
LINE
  5
B6
330
1F
100
AcDbEntity
  8
0
  6
Continuous
 62
     7
100
AcDbLine
 10
203.2629480175
 20
361.7609965299
 30
0.0
 11
204.5908264033
 21
364.0609493604
 31
0.0
  0
LINE
  5
B7
330
1F
100
AcDbEntity
  8
0
  6
Continuous
 62
     7
100
AcDbLine
 10
95.50360939769996
 20
430.8863888743
 30
0.0
 11
194.8386440701
 21
445.3520785715
 31
0.0
  0
LINE
  5
B8
330
1F
100
AcDbEntity
  8
0
  6
Continuous
 62
     7
100
AcDbLine
 10
195.8783264033
 20
445.0734965299
 30
0.0
 11
197.5283264033
 21
445.0734965299
 31
0.0
  0
LINE
  5
B9
330
1F
100
AcDbEntity
  8
0
  6
Continuous
 62
     7
100
AcDbLine
 10
194.8386440701
 20
445.3520785715
 30
0.0
 11
195.8783264033
 21
445.0734965299
 31
0.0
  0
LINE
  5
BA
330
1F
100
AcDbEntity
  8
0
  6
Continuous
 62
     7
100
AcDbLine
 10
203.2629480175
 20
459.2359965299
 30
0.0
 11
204.5908264033
 21
456.9360436994
 31
0.0
  0
LINE
  5
BB
330
1F
100
AcDbEntity
  8
0
  6
Continuous
 62
     7
100
AcDbLine
 10
205.3408264033
 20
455.9984965299
 30
0.0
 11
207.6658264033
 21
455.9984965299
 31
0.0
  0
LINE
  5
BC
330
1F
100
AcDbEntity
  8
0
  6
Continuous
 62
     7
100
AcDbLine
 10
199.5283264033
 20
459.2359965299
 30
0.0
 11
203.2629480175
 21
459.2359965299
 31
0.0
  0
LINE
  5
BD
330
1F
100
AcDbEntity
  8
0
  6
Continuous
 62
     7
100
AcDbLine
 10
209.7437047892
 20
459.2359965299
 30
0.0
 11
213.4283264033
 21
459.2359965299
 31
0.0
  0
LWPOLYLINE
  5
BE
330
1F
100
AcDbEntity
  8
DEFAULT_2
  6
DASHED
 62
     8
100
AcDbPolyline
 90
        2
 70
     0
 43
0.35
 10
253.8283264033
 20
403.7484965299
 10
253.8283264033
 20
417.2484965299
  0
LWPOLYLINE
  5
BF
330
1F
100
AcDbEntity
  8
DEFAULT_2
  6
DASHED
 62
     8
100
AcDbPolyline
 90
        2
 70
     0
 43
0.35
 10
260.7033748056
 20
417.2484965299
 10
260.7033748056
 20
403.7484965299
  0
LINE
  5
C0
330
1F
100
AcDbEntity
  8
0
  6
Continuous
 62
     7
100
AcDbLine
 10
264.1212196221
 20
393.7913897487
 30
0.0
 11
268.0354331845
 21
397.7056033111
 31
0.0
  0
LINE
  5
C1
330
1F
100
AcDbEntity
  8
0
  6
Continuous
 62
     7
100
AcDbLine
 10
264.1212196221
 20
427.2056033111
 30
0.0
 11
268.0354331845
 21
423.2913897487
 31
0.0
  0
LINE
  5
C2
330
1F
100
AcDbEntity
  8
RUNDUNGEN
  6
Continuous
 62
     9
100
AcDbLine
 10
263.414112841
 20
393.4984965299
 30
0.0
 11
263.414112841
 21
427.4984965299
 31
0.0
  0
LINE
  5
C3
330
1F
100
AcDbEntity
  8
RUNDUNGEN
  6
Continuous
 62
     9
100
AcDbLine
 10
264.1212196221
 20
393.7913897487
 30
0.0
 11
264.1212196221
 21
427.2056033111
 31
0.0
  0
LINE
  5
C4
330
1F
100
AcDbEntity
  8
RUNDUNGEN
  6
Continuous
 62
     9
100
AcDbLine
 10
268.0354331845
 20
423.2913897487
 30
0.0
 11
268.0354331845
 21
397.7056033111
 31
0.0
  0
LINE
  5
C5
330
1F
100
AcDbEntity
  8
RUNDUNGEN
  6
Continuous
 62
     9
100
AcDbLine
 10
268.7425399657
 20
422.9984965299
 30
0.0
 11
268.7425399657
 21
397.9984965299
 31
0.0
  0
LINE
  5
C6
330
1F
100
AcDbEntity
  8
RUNDUNGEN
  6
Continuous
 62
     7
100
AcDbLine
 10
276.3283264033
 20
426.2484965299
 30
0.0
 11
276.3283264033
 21
394.7484965299
 31
0.0
  0
LINE
  5
C7
330
1F
100
AcDbEntity
  8
RUNDUNGEN
  6
Continuous
 62
     9
100
AcDbLine
 10
277.5783264033
 20
393.4984965299
 30
0.0
 11
277.5783264033
 21
427.4984965299
 31
0.0
  0
LINE
  5
C8
330
1F
100
AcDbEntity
  8
RUNDUNGEN
  6
Continuous
 62
     7
100
AcDbLine
 10
295.3283264033
 20
396.4984965299
 30
0.0
 11
292.6944429268
 21
393.8646130534
 31
0.0
  0
LINE
  5
C9
330
1F
100
AcDbEntity
  8
0
  6
Continuous
 62
     7
100
AcDbLine
 10
292.6944429268
 20
393.8646130534
 30
0.0
 11
295.3283264033
 21
396.4984965299
 31
0.0
  0
LINE
  5
CA
330
1F
100
AcDbEntity
  8
0
  6
Continuous
 62
     7
100
AcDbLine
 10
292.6944429268
 20
427.1323800064
 30
0.0
 11
295.3283264033
 21
424.4984965299
 31
0.0
  0
LINE
  5
CB
330
1F
100
AcDbEntity
  8
RUNDUNGEN
  6
Continuous
 62
     7
100
AcDbLine
 10
295.3283264033
 20
424.4984965299
 30
0.0
 11
292.6944429268
 21
427.1323800064
 31
0.0
  0
LWPOLYLINE
  5
CC
330
1F
100
AcDbEntity
  8
DEFAULT_2
  6
DASHED
 62
     8
100
AcDbPolyline
 90
        2
 70
     0
 43
0.35
 10
283.8283264033
 20
397.9984965299
 10
283.8283264033
 20
422.9984965299
  0
LINE
  5
CD
330
1F
100
AcDbEntity
  8
0
  6
Continuous
 62
     7
100
AcDbLine
 10
284.3283264033
 20
427.4888775867
 30
0.0
 11
284.3283264033
 21
419.4888775867
 31
0.0
  0
LINE
  5
CE
330
1F
100
AcDbEntity
  8
0
  6
Continuous
 62
     7
100
AcDbLine
 10
284.3283264033
 20
418.4984965299
 30
0.0
 11
284.3283264033
 21
402.4984965299
 31
0.0
  0
LINE
  5
CF
330
1F
100
AcDbEntity
  8
0
  6
Continuous
 62
     7
100
AcDbLine
 10
284.3283264033
 20
401.5081154731
 30
0.0
 11
284.3283264033
 21
393.5081154731
 31
0.0
  0
LINE
  5
D0
330
1F
100
AcDbEntity
  8
0
  6
Continuous
 62
     9
100
AcDbLine
 10
291.8105594504
 20
393.4984965299
 30
0.0
 11
291.8105594504
 21
393.5081154731
 31
0.0
  0
LINE
  5
D1
330
1F
100
AcDbEntity
  8
0
  6
Continuous
 62
     9
100
AcDbLine
 10
291.8105594504
 20
401.5081154731
 30
0.0
 11
291.8105594504
 21
402.4984965299
 31
0.0
  0
LINE
  5
D2
330
1F
100
AcDbEntity
  8
0
  6
Continuous
 62
     9
100
AcDbLine
 10
291.8105594504
 20
418.4984965299
 30
0.0
 11
291.8105594504
 21
419.4888775867
 31
0.0
  0
LINE
  5
D3
330
1F
100
AcDbEntity
  8
0
  6
Continuous
 62
     9
100
AcDbLine
 10
291.8105594504
 20
427.4888775867
 30
0.0
 11
291.8105594504
 21
427.4984965299
 31
0.0
  0
LINE
  5
D4
330
1F
100
AcDbEntity
  8
0
  6
Continuous
 62
     9
100
AcDbLine
 10
292.6944429268
 20
393.8646130534
 30
0.0
 11
292.6944429268
 21
393.9134639076
 31
0.0
  0
LINE
  5
D5
330
1F
100
AcDbEntity
  8
0
  6
Continuous
 62
     9
100
AcDbLine
 10
292.6944429268
 20
401.1027670386
 30
0.0
 11
292.6944429268
 21
403.3091933989
 31
0.0
  0
LINE
  5
D6
330
1F
100
AcDbEntity
  8
0
  6
Continuous
 62
     9
100
AcDbLine
 10
292.6944429268
 20
417.6877996609
 30
0.0
 11
292.6944429268
 21
419.8942260212
 31
0.0
  0
LINE
  5
D7
330
1F
100
AcDbEntity
  8
0
  6
Continuous
 62
     9
100
AcDbLine
 10
292.6944429268
 20
427.0835291522
 30
0.0
 11
292.6944429268
 21
427.1323800064
 31
0.0
  0
LINE
  5
D8
330
1F
100
AcDbEntity
  8
0
  6
Continuous
 62
     7
100
AcDbLine
 10
295.3283264033
 20
424.4984965299
 30
0.0
 11
295.3283264033
 21
396.4984965299
 31
0.0
  0
ARC
  5
D9
330
1F
100
AcDbEntity
  8
0
  6
Continuous
 62
     7
100
AcDbCircle
 10
-47.4630497756
 20
486.4491905079
 30
0.0
 40
275.6240984709531
100
AcDbArc
 50
335.4592993178373
 51
336.1325788933
  0
ARC
  5
DA
330
1F
100
AcDbEntity
  8
0
  6
Continuous
 62
     7
100
AcDbCircle
 10
460.4697025807
 20
486.4491905072
 30
0.0
 40
275.6240984692004
100
AcDbArc
 50
203.8674211067
 51
204.5407006821684
  0
ARC
  5
DB
330
1F
100
AcDbEntity
  8
RUNDUNGEN
  6
Continuous
 62
     7
100
AcDbCircle
 10
229.4283264033
 20
442.4984965299
 30
0.0
 40
15.0
100
AcDbArc
 50
180.0
 51
270.0
  0
ARC
  5
DC
330
1F
100
AcDbEntity
  8
RUNDUNGEN
  6
Continuous
 62
     7
100
AcDbCircle
 10
229.4283264033
 20
378.4984965299
 30
0.0
 40
15.0
100
AcDbArc
 50
90.0
 51
178.4726580006997
  0
ARC
  5
DD
330
1F
100
AcDbEntity
  8
0
  6
Continuous
 62
     7
100
AcDbCircle
 10
95.82832640329997
 20
392.3370495287
 30
0.0
 40
2.25
100
AcDbArc
 50
180.0
 51
261.7021731726453
  0
ARC
  5
DE
330
1F
100
AcDbEntity
  8
0
  6
Continuous
 62
     7
100
AcDbCircle
 10
95.82832640329997
 20
428.6599435311
 30
0.0
 40
2.249999999996176
100
AcDbArc
 50
98.29782682735467
 51
180.0
  0
ARC
  5
DF
330
1F
100
AcDbEntity
  8
RUNDUNGEN
  6
Continuous
 62
     7
100
AcDbCircle
 10
277.5783264033
 20
426.2484965299
 30
0.0
 40
1.25
100
AcDbArc
 50
90.0
 51
180.0
  0
ARC
  5
E0
330
1F
100
AcDbEntity
  8
RUNDUNGEN
  6
Continuous
 62
     7
100
AcDbCircle
 10
277.5783264033
 20
394.7484965299
 30
0.0
 40
1.25
100
AcDbArc
 50
180.0
 51
270.0
  0
ARC
  5
E1
330
1F
100
AcDbEntity
  8
RUNDUNGEN
  6
Continuous
 62
     7
100
AcDbCircle
 10
291.8105594504
 20
426.2484965299
 30
0.0
 40
1.249999999953063
100
AcDbArc
 50
45.00000000324074
 51
90.0
  0
ARC
  5
E2
330
1F
100
AcDbEntity
  8
RUNDUNGEN
  6
Continuous
 62
     7
100
AcDbCircle
 10
291.8105594504
 20
394.7484965299
 30
0.0
 40
1.25
100
AcDbArc
 50
270.0
 51
314.9999999967574
  0
ARC
  5
E3
330
1F
100
AcDbEntity
  8
RUNDUNGEN
  6
Continuous
 62
     7
100
AcDbCircle
 10
263.414112841
 20
426.4984965299
 30
0.0
 40
0.9999999999482779
100
AcDbArc
 50
45.00000000405092
 51
90.0
  0
ARC
  5
E4
330
1F
100
AcDbEntity
  8
RUNDUNGEN
  6
Continuous
 62
     7
100
AcDbCircle
 10
263.414112841
 20
394.4984965299
 30
0.0
 40
1.0
100
AcDbArc
 50
270.0
 51
314.9999999959468
  0
ARC
  5
E5
330
1F
100
AcDbEntity
  8
RUNDUNGEN
  6
Continuous
 62
     7
100
AcDbCircle
 10
268.7425399657
 20
423.9984965299
 30
0.0
 40
1.00000000001906
100
AcDbArc
 50
225.0
 51
270.0
  0
ARC
  5
E6
330
1F
100
AcDbEntity
  8
RUNDUNGEN
  6
Continuous
 62
     7
100
AcDbCircle
 10
268.7425399657
 20
396.9984965299
 30
0.0
 40
1.0
100
AcDbArc
 50
90.0
 51
135.0000000000023
  0
ARC
  5
E7
330
1F
100
AcDbEntity
  8
0
  6
Continuous
 62
     7
100
AcDbCircle
 10
197.5283264033
 20
374.9234965299
 30
0.0
 40
1.0
100
AcDbArc
 50
0.0
 51
90.0
  0
ARC
  5
E8
330
1F
100
AcDbEntity
  8
0
  6
Continuous
 62
     7
100
AcDbCircle
 10
199.5283264033
 20
362.7609965299
 30
0.0
 40
1.0
100
AcDbArc
 50
180.0
 51
270.0
  0
ARC
  5
E9
330
1F
100
AcDbEntity
  8
0
  6
Continuous
 62
     7
100
AcDbCircle
 10
213.4283264033
 20
362.7609965299
 30
0.0
 40
1.0
100
AcDbArc
 50
270.0
 51
0.0
  0
ARC
  5
EA
330
1F
100
AcDbEntity
  8
0
  6
Continuous
 62
     7
100
AcDbCircle
 10
197.5283264033
 20
446.0734965299
 30
0.0
 40
1.0
100
AcDbArc
 50
270.0
 51
0.0
  0
ARC
  5
EB
330
1F
100
AcDbEntity
  8
0
  6
Continuous
 62
     7
100
AcDbCircle
 10
213.4283264033
 20
458.2359965299
 30
0.0
 40
1.0
100
AcDbArc
 50
0.0
 51
90.0
  0
ARC
  5
EC
330
1F
100
AcDbEntity
  8
0
  6
Continuous
 62
     7
100
AcDbCircle
 10
199.5283264033
 20
458.2359965299
 30
0.0
 40
1.0
100
AcDbArc
 50
90.0
 51
180.0
  0
ARC
  5
ED
330
1F
100
AcDbEntity
  8
0
  6
Continuous
 62
     7
100
AcDbCircle
 10
207.6658264033
 20
364.2484965299
 30
0.0
 40
0.75
100
AcDbArc
 50
0.0
 51
90.0
  0
ARC
  5
EE
330
1F
100
AcDbEntity
  8
0
  6
Continuous
 62
     7
100
AcDbCircle
 10
205.3408264033
 20
364.2484965299
 30
0.0
 40
0.75
100
AcDbArc
 50
90.0
 51
180.0
  0
ARC
  5
EF
330
1F
100
AcDbEntity
  8
0
  6
Continuous
 62
     7
100
AcDbCircle
 10
207.6658264033
 20
456.7484965299
 30
0.0
 40
0.75
100
AcDbArc
 50
270.0
 51
0.0
  0
ARC
  5
F0
330
1F
100
AcDbEntity
  8
0
  6
Continuous
 62
     7
100
AcDbCircle
 10
205.3408264033
 20
456.7484965299
 30
0.0
 40
0.75
100
AcDbArc
 50
180.0
 51
270.0
  0
SPLINE
  5
F1
330
1F
100
AcDbEntity
  8
0
  6
Continuous
 62
     7
100
AcDbSpline
210
0.0
220
0.0
230
1.0
 70
     8
 71
     3
 72
    23
 73
    19
 74
    17
 42
0.0000000001
 43
0.0000000001
 44
0.00000001
 40
0.0
 40
0.0
 40
0.0
 40
0.0
 40
0.5475351297902677
 40
1.095208590485367
 40
1.610984333995916
 40
2.126699601021125
 40
2.61278782084023
 40
3.098763984961314
 40
3.566169860117716
 40
4.03345259728426
 40
4.500735139139591
 40
4.968140850772724
 40
5.454116585080282
 40
5.940204299496284
 40
6.455919039521386
 40
6.971694327604398
 40
7.519367637753539
 40
8.066902583387456
 40
8.066902583387456
 40
8.066902583387456
 40
8.066902583387456
 10
292.6944429268
 20
401.1027670386
 30
0.0
 10
292.8120006857573
 20
400.9631051456227
 30
0.0
 10
293.0471459038142
 20
400.6837460750719
 30
0.0
 10
293.3642482582147
 20
400.2498071339386
 30
0.0
 10
293.6479939882204
 20
399.8059994312101
 30
0.0
 10
293.8864527643962
 20
399.3591451612566
 30
0.0
 10
294.0802039890264
 20
398.9018624703805
 30
0.0
 10
294.2217748877882
 20
398.4423582755877
 30
0.0
 10
294.3083450544657
 20
397.9757018761608
 30
0.0
 10
294.3383159628681
 20
397.5081142617233
 30
0.0
 10
294.3083442411059
 20
397.040526760853
 30
0.0
 10
294.2217736932834
 20
396.5738707289623
 30
0.0
 10
294.0802033231571
 20
396.1143667804528
 30
0.0
 10
293.8864527256188
 20
395.6570843319986
 30
0.0
 10
293.6479937911034
 20
395.2102306851963
 30
0.0
 10
293.3642477676894
 20
394.7664236330454
 30
0.0
 10
293.0471456882952
 20
394.3324848289903
 30
0.0
 10
292.8120006115152
 20
394.053125783671
 30
0.0
 10
292.6944429268
 20
393.9134639076
 30
0.0
 11
292.6944429268
 21
401.1027670386
 31
0.0
 11
293.0422257033545
 21
400.6798700550609
 31
0.0
 11
293.3656878716042
 21
400.2379215905756
 31
0.0
 11
293.6421891678456
 21
399.8025233237316
 31
0.0
 11
293.8839659027417
 21
399.3469947877365
 31
0.0
 11
294.0724696523138
 21
398.8989455785595
 31
0.0
 11
294.2143332922486
 21
398.4341364351917
 31
0.0
 11
294.2991063589756
 21
397.9744824574123
 31
0.0
 11
294.3283264021012
 21
397.50811420642
 31
0.0
 11
294.2991056160802
 21
397.0417461976683
 31
0.0
 11
294.214332223972
 21
396.5820924461794
 31
0.0
 11
294.0724689855497
 21
396.1172836296536
 31
0.0
 11
293.8839657289445
 21
395.6692347613866
 31
0.0
 11
293.642188973813
 21
395.2137068327617
 31
0.0
 11
293.3656875483114
 21
394.7783091875078
 31
0.0
 11
293.0422254794711
 21
394.3363608368249
 31
0.0
 11
292.6944429268
 21
393.9134639076
 31
0.0
  0
SPLINE
  5
F2
330
1F
100
AcDbEntity
  8
0
  6
Continuous
 62
     7
100
AcDbSpline
210
0.0
220
0.0
230
1.0
 70
     8
 71
     3
 72
    19
 73
    15
 74
    13
 42
0.0000000001
 43
0.0000000001
 44
0.00000001
 40
0.0
 40
0.0
 40
0.0
 40
0.0
 40
1.855623739171722
 40
3.711056157258689
 40
4.639209367703328
 40
5.567147691557522
 40
6.495326169548965
 40
7.423558499778285
 40
8.351790381449721
 40
9.279968425813047
 40
10.20790602883808
 40
11.13605848211945
 40
12.99148950973486
 40
14.84711194505268
 40
14.84711194505268
 40
14.84711194505268
 40
14.84711194505268
 10
292.6944429268
 20
417.6877996609
 30
0.0
 10
292.9284366791322
 20
417.1149045645075
 30
0.0
 10
293.3964000582492
 20
415.9691734391452
 30
0.0
 10
293.8274692951853
 20
414.4804061146198
 30
0.0
 10
294.0833145662292
 20
413.2696012752116
 30
0.0
 10
294.2234445035479
 20
412.3515681760965
 30
0.0
 10
294.3089661335638
 20
411.4268534171706
 30
0.0
 10
294.3380070213329
 20
410.498494141154
 30
0.0
 10
294.3089653166772
 20
409.570135039211
 30
0.0
 10
294.2234433111901
 20
408.6454208655794
 30
0.0
 10
294.0833138257837
 20
407.7273883549045
 30
0.0
 10
293.8274694147881
 20
406.5165843008913
 30
0.0
 10
293.3963999687284
 20
405.0278182051739
 30
0.0
 10
292.9284366529375
 20
403.8820880323773
 30
0.0
 10
292.6944429268
 20
403.3091933989
 30
0.0
 11
292.6944429268
 21
417.6877996609
 31
0.0
 11
293.365636779947
 21
415.9578175012014
 31
0.0
 11
293.8839659026874
 21
414.1762551591524
 31
0.0
 11
294.074694918135
 21
413.2679100569335
 31
0.0
 11
294.2143332921901
 21
412.3505384542726
 31
0.0
 11
294.2995501554086
 21
411.4262801715238
 31
0.0
 11
294.328326402078
 21
410.4984939965295
 31
0.0
 11
294.2995494093998
 21
409.5707082934474
 31
0.0
 11
294.2143322239137
 21
408.6464504758791
 31
0.0
 11
294.0746942058875
 21
407.7290795481571
 31
0.0
 11
293.883965728975
 21
406.8207351065344
 31
0.0
 11
293.3656367591302
 21
405.0391741681274
 31
0.0
 11
292.6944429268
 21
403.3091933989
 31
0.0
  0
SPLINE
  5
F3
330
1F
100
AcDbEntity
  8
0
  6
Continuous
 62
     7
100
AcDbSpline
210
0.0
220
0.0
230
1.0
 70
     8
 71
     3
 72
    13
 73
     9
 74
     7
 42
0.0000000001
 43
0.0000000001
 44
0.00000001
 40
0.0
 40
0.0
 40
0.0
 40
0.0
 40
0.1535366048182176
 40
0.3072790792682839
 40
0.4404415001071417
 40
0.5736902915518177
 40
0.7881393084788921
 40
1.002196158680456
 40
1.002196158680456
 40
1.002196158680456
 40
1.002196158680456
 10
291.8105594504
 20
427.4888775867
 30
0.0
 10
291.8617736449409
 20
427.4869259490248
 30
0.0
 10
291.9642707046004
 20
427.4830200568198
 30
0.0
 10
292.1086821697702
 20
427.4532627845158
 30
0.0
 10
292.2420267676338
 20
427.4095700715205
 30
0.0
 10
292.3874271009262
 20
427.3415602562327
 30
0.0
 10
292.545685660828
 20
427.238395932393
 30
0.0
 10
292.6448874344881
 20
427.1351199063395
 30
0.0
 10
292.6944429268
 20
427.0835291522
 30
0.0
 11
291.8105594504
 21
427.4888775867
 31
0.0
 11
291.963765934035
 21
427.4788146650915
 31
0.0
 11
292.1145642402627
 21
427.4488710632895
 31
0.0
 11
292.2410012582915
 21
427.407086965888
 31
0.0
 11
292.3618194654807
 21
427.3508890901893
 31
0.0
 11
292.5404068691519
 21
427.2321670614374
 31
0.0
 11
292.6944429268
 21
427.0835291522
 31
0.0
  0
SPLINE
  5
F4
330
1F
100
AcDbEntity
  8
0
  6
Continuous
 62
     7
100
AcDbSpline
210
0.0
220
0.0
230
1.0
 70
     8
 71
     3
 72
    13
 73
     9
 74
     7
 42
0.0000000001
 43
0.0000000001
 44
0.00000001
 40
0.0
 40
0.0
 40
0.0
 40
0.0
 40
0.2140568502599407
 40
0.4285058671812406
 40
0.5617546586134706
 40
0.6949170794436603
 40
0.8486595538909145
 40
1.002196158708998
 40
1.002196158708998
 40
1.002196158708998
 40
1.002196158708998
 10
292.6944429268
 20
419.8942260212
 30
0.0
 10
292.6448874344927
 20
419.842635267028
 30
0.0
 10
292.5456856608567
 20
419.7393592409247
 30
0.0
 10
292.3874271009309
 20
419.6361949170871
 30
0.0
 10
292.2420267676321
 20
419.5681851018345
 30
0.0
 10
292.1086821697667
 20
419.5244923888715
 30
0.0
 10
291.9642707045992
 20
419.4947351165801
 30
0.0
 10
291.8617736449407
 20
419.4908292243753
 30
0.0
 10
291.8105594504
 20
419.4888775867
 30
0.0
 11
292.6944429268
 21
419.8942260212
 31
0.0
 11
292.540406869152
 21
419.7455881118785
 31
0.0
 11
292.3618194654807
 21
419.6268660831371
 31
0.0
 11
292.2410012582915
 21
419.5706682074678
 31
0.0
 11
292.1145642402627
 21
419.5288841100941
 31
0.0
 11
291.963765934035
 21
419.4989405083065
 31
0.0
 11
291.8105594504
 21
419.4888775867
 31
0.0
  0
SPLINE
  5
F5
330
1F
100
AcDbEntity
  8
0
  6
Continuous
 62
     7
100
AcDbSpline
210
0.0
220
0.0
230
1.0
 70
     8
 71
     3
 72
    17
 73
    13
 74
    11
 42
0.0000000001
 43
0.0000000001
 44
0.00000001
 40
0.0
 40
0.0
 40
0.0
 40
0.0
 40
0.0792460258571607
 40
0.1586476390344158
 40
0.2380219323335328
 40
0.3173635019418783
 40
0.4753274630321573
 40
0.6339189555469096
 40
0.7921847812928838
 40
0.9502564376215845
 40
1.10838391858835
 40
1.266473792056006
 40
1.266473792056006
 40
1.266473792056006
 40
1.266473792056006
 10
291.8105594504
 20
418.4984965299
 30
0.0
 10
291.8369923156215
 20
418.497425135036
 30
0.0
 10
291.8899099429087
 20
418.4952802417895
 30
0.0
 10
291.9678726317472
 20
418.4788180842574
 30
0.0
 10
292.0432676131637
 20
418.453559717554
 30
0.0
 10
292.1389763911963
 20
418.4085209251117
 30
0.0
 10
292.2489193359972
 20
418.3340192746815
 30
0.0
 10
292.3641599282853
 20
418.2248178573701
 30
0.0
 10
292.4649503168375
 20
418.1022885200293
 30
0.0
 10
292.5522900700281
 20
417.9702074098016
 30
0.0
 10
292.6293109909476
 20
417.8319222799366
 30
0.0
 10
292.6727340029382
 20
417.7358367247838
 30
0.0
 10
292.6944429268
 20
417.6877996609
 30
0.0
 11
291.8105594504
 21
418.4984965299
 31
0.0
 11
291.8896201326526
 21
418.4930797840227
 31
0.0
 11
291.9674481796907
 21
418.477350471597
 31
0.0
 11
292.042706216426
 21
418.4521213942558
 31
0.0
 11
292.1145642403312
 21
418.4184834830788
 31
0.0
 11
292.2459859549766
 21
418.330842477134
 31
0.0
 11
292.3618194654761
 21
418.2225195370732
 31
0.0
 11
292.4627632370799
 21
418.1006243912574
 31
0.0
 11
292.5505659569201
 21
417.969181130026
 31
0.0
 11
292.6273345574981
 21
417.8309390155956
 31
0.0
 11
292.6944429268
 21
417.6877996609
 31
0.0
  0
SPLINE
  5
F6
330
1F
100
AcDbEntity
  8
0
  6
Continuous
 62
     7
100
AcDbSpline
210
0.0
220
0.0
230
1.0
 70
     8
 71
     3
 72
    17
 73
    13
 74
    11
 42
0.0000000001
 43
0.0000000001
 44
0.00000001
 40
0.0
 40
0.0
 40
0.0
 40
0.0
 40
0.1580898734120433
 40
0.3162173543960972
 40
0.4742890107173928
 40
0.6325548364534365
 40
0.7911463289850003
 40
0.9491102900930349
 40
1.028451859703986
 40
1.107826153003374
 40
1.187227766180496
 40
1.266473792037713
 40
1.266473792037713
 40
1.266473792037713
 40
1.266473792037713
 10
292.6944429268
 20
403.3091933989
 30
0.0
 10
292.6727340029347
 20
403.2611563350383
 30
0.0
 10
292.6293109909269
 20
403.1650707799079
 30
0.0
 10
292.5522900700377
 20
403.0267856500441
 30
0.0
 10
292.4649503168382
 20
402.8947045398211
 30
0.0
 10
292.3641599282748
 20
402.772175202491
 30
0.0
 10
292.2489193359967
 20
402.662973785159
 30
0.0
 10
292.1389763912011
 20
402.5884721346977
 30
0.0
 10
292.0432676131646
 20
402.5434333422464
 30
0.0
 10
291.9678726317473
 20
402.5181749755425
 30
0.0
 10
291.8899099429087
 20
402.5017128180106
 30
0.0
 10
291.8369923156215
 20
402.4995679247642
 30
0.0
 10
291.8105594504
 20
402.4984965299
 30
0.0
 11
292.6944429268
 21
403.3091933989
 31
0.0
 11
292.627334557498
 21
403.1660540442659
 31
0.0
 11
292.5505659569201
 21
403.0278119298156
 31
0.0
 11
292.4627632370799
 21
402.8963686685931
 31
0.0
 11
292.3618194654761
 21
402.7744735227902
 31
0.0
 11
292.2459859549766
 21
402.6661505827048
 31
0.0
 11
292.1145642403312
 21
402.578509576728
 31
0.0
 11
292.0427062164259
 21
402.544871665545
 31
0.0
 11
291.9674481796907
 21
402.5196425882029
 31
0.0
 11
291.8896201326527
 21
402.5039132757774
 31
0.0
 11
291.8105594504
 21
402.4984965299
 31
0.0
  0
SPLINE
  5
F7
330
1F
100
AcDbEntity
  8
0
  6
Continuous
 62
     7
100
AcDbSpline
210
0.0
220
0.0
230
1.0
 70
     8
 71
     3
 72
    13
 73
     9
 74
     7
 42
0.0000000001
 43
0.0000000001
 44
0.00000001
 40
0.0
 40
0.0
 40
0.0
 40
0.0
 40
0.1535366048162543
 40
0.3072790792568769
 40
0.4404415000898309
 40
0.573690291533356
 40
0.7881393084673537
 40
1.002196158729664
 40
1.002196158729664
 40
1.002196158729664
 40
1.002196158729664
 10
291.8105594504
 20
401.5081154731
 30
0.0
 10
291.8617736449401
 20
401.5061638354326
 30
0.0
 10
291.9642707045958
 20
401.5022579432435
 30
0.0
 10
292.1086821697718
 20
401.4725006709995
 30
0.0
 10
292.2420267676363
 20
401.4288079580192
 30
0.0
 10
292.3874271009281
 20
401.3607981427317
 30
0.0
 10
292.5456856608525
 20
401.2576338188792
 30
0.0
 10
292.644887434492
 20
401.1543577927724
 30
0.0
 10
292.6944429268
 20
401.1027670386
 30
0.0
 11
291.8105594504
 21
401.5081154731
 31
0.0
 11
291.963765934035
 21
401.4980525515215
 31
0.0
 11
292.1145642402627
 21
401.468108949768
 31
0.0
 11
292.2410012582915
 21
401.4263248523852
 31
0.0
 11
292.3618194654807
 21
401.3701269766893
 31
0.0
 11
292.5404068691519
 21
401.2514049479249
 31
0.0
 11
292.6944429268
 21
401.1027670386
 31
0.0
  0
SPLINE
  5
F8
330
1F
100
AcDbEntity
  8
0
  6
Continuous
 62
     7
100
AcDbSpline
210
0.0
220
0.0
230
1.0
 70
     8
 71
     3
 72
    13
 73
     9
 74
     7
 42
0.0000000001
 43
0.0000000001
 44
0.00000001
 40
0.0
 40
0.0
 40
0.0
 40
0.0
 40
0.2140568502014443
 40
0.4285058671285975
 40
0.5617546585732219
 40
0.6949170794121515
 40
0.8486595538622178
 40
1.002196158680432
 40
1.002196158680432
 40
1.002196158680432
 40
1.002196158680432
 10
292.6944429268
 20
393.9134639076
 30
0.0
 10
292.6448874344881
 20
393.8618731534605
 30
0.0
 10
292.545685660828
 20
393.7585971274071
 30
0.0
 10
292.3874271009263
 20
393.6554328035674
 30
0.0
 10
292.2420267676338
 20
393.5874229882794
 30
0.0
 10
292.1086821697704
 20
393.5437302752842
 30
0.0
 10
291.9642707046004
 20
393.51397300298
 30
0.0
 10
291.8617736449408
 20
393.5100671107753
 30
0.0
 10
291.8105594504
 20
393.5081154731
 30
0.0
 11
292.6944429268
 21
393.9134639076
 31
0.0
 11
292.540406869152
 21
393.7648259983627
 31
0.0
 11
292.3618194654807
 21
393.6461039696107
 31
0.0
 11
292.2410012582915
 21
393.5899060939121
 31
0.0
 11
292.1145642402627
 21
393.5481219965105
 31
0.0
 11
291.963765934035
 21
393.5181783947085
 31
0.0
 11
291.8105594504
 21
393.5081154731
 31
0.0
  0
SPLINE
  5
F9
330
1F
100
AcDbEntity
  8
0
  6
Continuous
 62
     7
100
AcDbSpline
210
0.0
220
0.0
230
1.0
 70
     8
 71
     3
 72
    23
 73
    19
 74
    17
 42
0.0000000001
 43
0.0000000001
 44
0.00000001
 40
0.0
 40
0.0
 40
0.0
 40
0.0
 40
0.5475351298579235
 40
1.095208590563022
 40
1.610984334073619
 40
2.126699601098778
 40
2.612787820917883
 40
3.098763985039076
 40
3.566169860193354
 40
4.033452597345545
 40
4.500735139169957
 40
4.968140850783804
 40
5.454116585108216
 40
5.940204299553089
 40
6.455919039592249
 40
6.971694327677181
 40
7.519367637816138
 40
8.066902583382488
 40
8.066902583382488
 40
8.066902583382488
 40
8.066902583382488
 10
292.6944429268
 20
427.0835291522
 30
0.0
 10
292.8120006857544
 20
426.9438672591911
 30
0.0
 10
293.047145903793
 20
426.6645081885915
 30
0.0
 10
293.3642482582139
 20
426.2305692474425
 30
0.0
 10
293.6479939882203
 20
425.78676154471
 30
0.0
 10
293.8864527643963
 20
425.3399072747568
 30
0.0
 10
294.0802039890264
 20
424.8826245838805
 30
0.0
 10
294.2217748877879
 20
424.4231203890884
 30
0.0
 10
294.3083450544647
 20
423.9564639896667
 30
0.0
 10
294.3383159628683
 20
423.4888763752454
 30
0.0
 10
294.3083442411058
 20
423.0212888743962
 30
0.0
 10
294.2217736932785
 20
422.5546328425181
 30
0.0
 10
294.0802033231546
 20
422.095128893999
 30
0.0
 10
293.8864527256227
 20
421.6378464455205
 30
0.0
 10
293.6479937911068
 20
421.1909927987012
 30
0.0
 10
293.3642477676906
 20
420.7471857465493
 30
0.0
 10
293.0471456883163
 20
420.3132469425104
 30
0.0
 10
292.8120006115181
 20
420.0338878972395
 30
0.0
 10
292.6944429268
 20
419.8942260212
 30
0.0
 11
292.6944429268
 21
427.0835291522
 31
0.0
 11
293.0422257033545
 21
426.6606321685733
 31
0.0
 11
293.3656878716042
 21
426.2186837040756
 31
0.0
 11
293.6421891678456
 21
425.7832854372316
 31
0.0
 11
293.8839659027417
 21
425.3277569012366
 31
0.0
 11
294.0724696523138
 21
424.8797076920595
 31
0.0
 11
294.2143332922486
 21
424.4148985486916
 31
0.0
 11
294.2991063589756
 21
423.9552445709144
 31
0.0
 11
294.3283264021012
 21
423.4888763199365
 31
0.0
 11
294.2991056160802
 21
423.0225083112157
 31
0.0
 11
294.214332223972
 21
422.5628545597465
 31
0.0
 11
294.0724689855497
 21
422.098045743203
 31
0.0
 11
293.8839657289445
 21
421.6499968749047
 31
0.0
 11
293.642188973813
 21
421.1944689462639
 31
0.0
 11
293.3656875483114
 21
420.7590713010077
 31
0.0
 11
293.0422254794711
 21
420.3171229503374
 31
0.0
 11
292.6944429268
 21
419.8942260212
 31
0.0
  0
SPLINE
  5
FA
330
1F
100
AcDbEntity
  8
0
  6
Continuous
 62
     7
100
AcDbSpline
210
0.0
220
0.0
230
1.0
 70
     8
 71
     3
 72
    17
 73
    13
 74
    11
 42
0.0000000001
 43
0.0000000001
 44
0.00000001
 40
0.0
 40
0.0
 40
0.0
 40
0.0
 40
0.2235602340968537
 40
0.4475666316281009
 40
0.671265554830088
 40
0.8950713345833807
 40
1.119203328780305
 40
1.342351511418718
 40
1.454388474281344
 40
1.566418982967094
 40
1.678554291441102
 40
1.790469539397606
 40
1.790469539397606
 40
1.790469539397606
 40
1.790469539397606
 10
214.4283264033
 20
373.2446859027
 30
0.0
 10
214.4253863911442
 20
373.1701058413697
 30
0.0
 10
214.4195004993941
 20
373.0207968778543
 30
0.0
 10
214.3715428360698
 20
372.8011063593597
 30
0.0
 10
214.2942000468121
 20
372.5902821749256
 30
0.0
 10
214.1825429114805
 20
372.3948384145536
 30
0.0
 10
214.0372391850519
 20
372.2230276838595
 30
0.0
 10
213.8887303979901
 20
372.1074398319134
 30
0.0
 10
213.75598477504
 20
372.0387445842259
 30
0.0
 10
213.6502971425472
 20
372.0006972324605
 30
0.0
 10
213.5403994687182
 20
371.9762944849681
 30
0.0
 10
213.4656596221626
 20
371.9731668323383
 30
0.0
 10
213.4283264033
 20
371.971604542
 30
0.0
 11
214.4283264033
 21
373.2446859027
 31
0.0
 11
214.4129968885686
 21
373.0216518599004
 31
0.0
 11
214.3666192042768
 21
372.8024989987859
 31
0.0
 11
214.2885016670975
 21
372.5928830198464
 31
0.0
 11
214.1769754388692
 21
372.3988445508044
 31
0.0
 11
214.03152311134
 21
372.2283195636646
 31
0.0
 11
213.8545771240536
 21
372.0923591687032
 31
0.0
 11
213.7550008305333
 21
372.0410089708824
 31
0.0
 11
213.6496223455253
 21
372.0029799060264
 31
0.0
 11
213.5399578165998
 21
371.9795701110232
 31
0.0
 11
213.4283264033
 21
371.971604542
 31
0.0
  0
SPLINE
  5
FB
330
1F
100
AcDbEntity
  8
0
  6
Continuous
 62
     7
100
AcDbSpline
210
0.0
220
0.0
230
1.0
 70
     8
 71
     3
 72
    17
 73
    13
 74
    11
 42
0.0000000001
 43
0.0000000001
 44
0.00000001
 40
0.0
 40
0.0
 40
0.0
 40
0.0
 40
0.0856061207782852
 40
0.1714040658185555
 40
0.2570770785295084
 40
0.3427486324290419
 40
0.5133560119372836
 40
0.6847864607561874
 40
0.8559332498429418
 40
1.026944760364536
 40
1.198166489420828
 40
1.369069305167891
 40
1.369069305167891
 40
1.369069305167891
 40
1.369069305167891
 10
205.3408264033
 20
376.1586144684
 30
0.0
 10
205.3122670759235
 20
376.157333332491
 30
0.0
 10
205.2550844260747
 20
376.1547681899326
 30
0.0
 10
205.1712420804611
 20
376.1348956336387
 30
0.0
 10
205.0910303546143
 20
376.1040739226615
 30
0.0
 10
204.9909147656484
 20
376.0489167354438
 30
0.0
 10
204.8799051933468
 20
375.9573171500994
 30
0.0
 10
204.7723918454601
 20
375.8230428002784
 30
0.0
 10
204.6899707677277
 20
375.6720241937422
 30
0.0
 10
204.6329439923513
 20
375.5101406517646
 30
0.0
 10
204.5974084174286
 20
375.3420245806504
 30
0.0
 10
204.5930190441499
 20
375.2278973525054
 30
0.0
 10
204.5908264033
 20
375.1708869306
 30
0.0
 11
205.3408264033
 21
376.1586144684
 31
0.0
 11
205.2554680652845
 21
376.1521058551886
 31
0.0
 11
205.1718110341792
 21
376.1330588470303
 31
0.0
 11
205.0918505739329
 21
376.1022986470282
 31
0.0
 11
205.0167337507902
 21
376.0611030401204
 31
0.0
 11
204.8843773209833
 21
375.9534524319872
 31
0.0
 11
204.7765377938396
 21
375.8201894019763
 31
0.0
 11
204.6941780273983
 21
375.6701624301131
 31
0.0
 11
204.6365417888329
 21
375.5091562167706
 31
0.0
 11
204.6022211715708
 21
375.3414094560514
 31
0.0
 11
204.5908264033
 21
375.1708869306
 31
0.0
  0
SPLINE
  5
FC
330
1F
100
AcDbEntity
  8
0
  6
Continuous
 62
     7
100
AcDbSpline
210
0.0
220
0.0
230
1.0
 70
     8
 71
     3
 72
    17
 73
    13
 74
    11
 42
0.0000000001
 43
0.0000000001
 44
0.00000001
 40
0.0
 40
0.0
 40
0.0
 40
0.0
 40
0.1709021129122426
 40
0.3421231434978314
 40
0.5131353763840127
 40
0.6842828841296158
 40
0.8557140430166293
 40
1.026322127398888
 40
1.111993247384577
 40
1.19766582128938
 40
1.283463468635762
 40
1.369069297522741
 40
1.369069297522741
 40
1.369069297522741
 40
1.369069297522741
 10
208.4158264033
 20
375.1708869306
 30
0.0
 10
208.4136337751938
 20
375.2278971177821
 30
0.0
 10
208.4092444273534
 20
375.3420238779361
 30
0.0
 10
208.373709018414
 20
375.5101397423268
 30
0.0
 10
208.3166823385875
 20
375.6720235845476
 30
0.0
 10
208.2342609849136
 20
375.8230428715608
 30
0.0
 10
208.1267471057461
 20
375.9573177253403
 30
0.0
 10
208.0157371355366
 20
376.0489173652666
 30
0.0
 10
207.9156215105255
 20
376.1040743631135
 30
0.0
 10
207.8354101152338
 20
376.1348958429127
 30
0.0
 10
207.7515680860183
 20
376.1547682290067
 30
0.0
 10
207.6943856331529
 20
376.1573333454803
 30
0.0
 10
207.6658264033
 20
376.1586144684
 30
0.0
 11
208.4158264033
 21
375.1708869306
 31
0.0
 11
208.4044317110803
 21
375.3414087567311
 31
0.0
 11
208.3701113597074
 21
375.5091548589106
 31
0.0
 11
208.3124750424572
 21
375.6701618113399
 31
0.0
 11
208.2301149918225
 21
375.8201894470174
 31
0.0
 11
208.1222749443816
 21
375.953452969428
 31
0.0
 11
207.9899178089319
 21
376.061103827075
 31
0.0
 11
207.9148012988256
 21
376.1022991023995
 31
0.0
 11
207.8348412117527
 21
376.1330590502987
 31
0.0
 11
207.751184453057
 21
376.1521059139434
 31
0.0
 11
207.6658264033
 21
376.1586144684
 31
0.0
  0
SPLINE
  5
FD
330
1F
100
AcDbEntity
  8
0
  6
Continuous
 62
     7
100
AcDbSpline
210
0.0
220
0.0
230
1.0
 70
     8
 71
     3
 72
    17
 73
    13
 74
    11
 42
0.0000000001
 43
0.0000000001
 44
0.00000001
 40
0.0
 40
0.0
 40
0.0
 40
0.0
 40
0.111915447666157
 40
0.2240509586530723
 40
0.3360819825981237
 40
0.448119461702585
 40
0.6712673498094875
 40
0.8953990333267661
 40
1.119204507490599
 40
1.342903129543694
 40
1.566909390283685
 40
1.790469488977704
 40
1.790469488977704
 40
1.790469488977704
 40
1.790469488977704
 10
199.5283264033
 20
371.971604542
 30
0.0
 10
199.4909931176769
 20
371.9731668415016
 30
0.0
 10
199.4162531366648
 20
371.9762945125096
 30
0.0
 10
199.3063551772758
 20
372.0006974036398
 30
0.0
 10
199.2006671952033
 20
372.0387450076581
 30
0.0
 10
199.0679214549589
 20
372.1074405701152
 30
0.0
 10
198.9194128403326
 20
372.2230285748972
 30
0.0
 10
198.7741094345262
 20
372.3948391713927
 30
0.0
 10
198.6624525385238
 20
372.5902827104883
 30
0.0
 10
198.5851098805035
 20
372.8011066764829
 30
0.0
 10
198.537152292383
 20
373.0207970140491
 30
0.0
 10
198.5312664105231
 20
373.1701058866136
 30
0.0
 10
198.5283264033
 20
373.2446859027
 30
0.0
 11
199.5283264033
 21
371.971604542
 31
0.0
 11
199.4166947928463
 21
371.9795701539552
 31
0.0
 11
199.3070300808448
 21
372.002980061386
 31
0.0
 11
199.2016511508499
 21
372.0410094110954
 31
0.0
 11
199.1020744745263
 21
372.0923599929464
 31
0.0
 11
198.9251288933301
 21
372.2283204330078
 31
0.0
 11
198.7796768942972
 21
372.398845291998
 31
0.0
 11
198.668150904264
 21
372.592883545476
 31
0.0
 11
198.5900335209378
 21
372.8024992603705
 31
0.0
 11
198.5436558951849
 21
373.0216519940524
 31
0.0
 11
198.5283264033
 21
373.2446859027
 31
0.0
  0
DIMENSION
  5
108
330
1F
100
AcDbEntity
  8
1
100
AcDbDimension
  2
*D2
 10
308.07705881451
 20
420.4984965299
 30
0.0
 11
304.32705881451
 21
409.670867869034
 31
0.0
 70
    32
  1
<>
 71
     5
 42
-1.0
 53
90.0
  3
ME10_DIM_10
100
AcDbAlignedDimension
 13
283.8283264033
 23
400.4984965299
 33
0.0
 14
283.8283264033
 24
420.4984965299
 34
0.0
 50
90.0
100
AcDbRotatedDimension
  0
DIMENSION
  5
113
330
1F
100
AcDbEntity
  8
1
100
AcDbDimension
  2
*D3
 10
316.235112757329
 20
427.4984965299
 30
0.0
 11
312.485112757329
 21
410.380263864062
 31
0.0
 70
    32
  1
<>
 71
     5
 42
-1.0
 53
90.0
  3
ME10_DIM_11
100
AcDbAlignedDimension
 13
263.414112841
 23
393.4984965299
 33
0.0
 14
263.414112841
 24
427.4984965299
 34
0.0
 50
90.0
100
AcDbRotatedDimension
  0
DIMENSION
  5
11E
330
1F
100
AcDbEntity
  8
1
100
AcDbDimension
  2
*D4
 10
283.8283264033001
 20
465.465299143696
 30
0.0
 11
249.1066638418428
 21
469.215299143696
 31
0.0
 70
    32
  1
<>
 71
     5
 42
-1.0
 53
0.00013888888889
  3
ME10_DIM_12
100
AcDbAlignedDimension
 13
214.4283264033
 23
458.2359965299
 33
0.0
 14
283.8283264033
 24
422.9984965299
 34
0.0
100
AcDbRotatedDimension
  0
DIMENSION
  5
129
330
1F
100
AcDbEntity
  8
1
100
AcDbDimension
  2
*D5
 10
283.8283264033
 20
472.687420958437
 30
0.0
 11
237.894439933545
 21
476.437420958437
 31
0.0
 70
    32
  1
<>
 71
     5
 42
-1.0
 53
0.00013888888889
  3
ME10_DIM_13
100
AcDbAlignedDimension
 13
195.3283264033
 23
451.1359965299
 33
0.0
 14
283.8283264033
 24
422.9984965299
 34
0.0
100
AcDbRotatedDimension
  0
DIMENSION
  5
134
330
1F
100
AcDbEntity
  8
1
100
AcDbDimension
  2
*D6
 10
195.3283264033
 20
480.475983699824
 30
0.0
 11
245.258171979947
 21
484.225983699824
 31
0.0
 70
    32
  1
<>
 71
     5
 42
-1.0
 53
0.00013888888889
  3
ME10_DIM_14
100
AcDbAlignedDimension
 13
295.3283264033
 23
424.4984965299
 33
0.0
 14
195.3283264033
 24
451.1359965299
 34
0.0
100
AcDbRotatedDimension
  0
DIMENSION
  5
13F
330
1F
100
AcDbEntity
  8
1
100
AcDbDimension
  2
*D7
 10
283.8283264033001
 20
488.406156672872
 30
0.0
 11
195.4833262645211
 21
492.156156672872
 31
0.0
 70
    32
  1
<>
 71
     5
 42
-1.0
 53
0.00013888888889
  3
ME10_DIM_15
100
AcDbAlignedDimension
 13
93.57832640329997
 23
428.6597307299
 33
0.0
 14
283.8283264033
 24
422.9984965299
 34
0.0
100
AcDbRotatedDimension
  0
INSERT
  5
146
330
1F
100
AcDbEntity
  8
1
100
AcDbBlockReference
  2
*D8
 10
0.0
 20
0.0
 30
0.0
  0
ENDSEC
  0
SECTION
  2
OBJECTS
  0
DICTIONARY
  5
C
330
0
100
AcDbDictionary
281
     1
  3
ACAD_GROUP
350
D
  3
ACAD_LAYOUT
350
1A
  3
ACAD_MLEADERSTYLE
350
149
  3
ACAD_MLINESTYLE
350
17
  3
ACAD_PLOTSETTINGS
350
19
  3
ACAD_PLOTSTYLENAME
350
E
  3
ACAD_SCALELIST
350
4A
  3
ACAD_VISUALSTYLE
350
2A
  3
AcDbVariableDictionary
350
147
  0
DICTIONARY
  5
D
102
{ACAD_REACTORS
330
C
102
}
330
C
100
AcDbDictionary
281
     1
  0
DICTIONARY
  5
1A
102
{ACAD_REACTORS
330
C
102
}
330
C
100
AcDbDictionary
281
     1
  3
Layout1
350
1E
  3
Layout2
350
26
  3
Model
350
22
  0
DICTIONARY
  5
149
102
{ACAD_REACTORS
330
C
102
}
330
C
100
AcDbDictionary
281
     1
  0
DICTIONARY
  5
17
102
{ACAD_REACTORS
330
C
102
}
330
C
100
AcDbDictionary
281
     1
  3
Standard
350
18
  0
DICTIONARY
  5
19
102
{ACAD_REACTORS
330
C
102
}
330
C
100
AcDbDictionary
281
     1
  0
ACDBDICTIONARYWDFLT
  5
E
102
{ACAD_REACTORS
330
C
102
}
330
C
100
AcDbDictionary
281
     1
  3
Normal
350
F
100
AcDbDictionaryWithDefault
340
F
  0
DICTIONARY
  5
4A
102
{ACAD_REACTORS
330
C
102
}
330
C
100
AcDbDictionary
281
     1
  3
A0
350
4B
  3
A1
350
4C
  3
A2
350
4D
  3
A3
350
4E
  3
A4
350
4F
  3
A5
350
50
  3
A6
350
51
  3
A7
350
52
  3
A8
350
53
  3
A9
350
54
  3
B0
350
55
  3
B1
350
56
  3
B2
350
57
  3
B3
350
58
  3
B4
350
59
  3
B5
350
5A
  3
B6
350
5B
  3
B7
350
5C
  3
B8
350
5D
  3
B9
350
5E
  3
C0
350
5F
  3
C1
350
60
  3
C2
350
61
  3
C3
350
62
  3
C4
350
63
  3
C5
350
64
  3
C6
350
65
  3
C7
350
66
  3
C8
350
67
  3
C9
350
68
  3
D0
350
69
  3
D1
350
6A
  3
D2
350
6B
  0
DICTIONARY
  5
2A
102
{ACAD_REACTORS
330
C
102
}
330
C
100
AcDbDictionary
281
     1
  3
2dWireframe
350
2F
  3
3D Hidden
350
31
  3
3dWireframe
350
30
  3
Basic
350
32
  3
Brighten
350
36
  3
ColorChange
350
3A
  3
Conceptual
350
34
  3
Dim
350
35
  3
Facepattern
350
39
  3
Flat
350
2B
  3
FlatWithEdges
350
2C
  3
Gouraud
350
2D
  3
GouraudWithEdges
350
2E
  3
Linepattern
350
38
  3
Realistic
350
33
  3
Thicken
350
37
  0
DICTIONARY
  5
147
102
{ACAD_REACTORS
330
C
102
}
330
C
100
AcDbDictionary
281
     1
  3
CANNOSCALE
350
14A
  0
LAYOUT
  5
1E
102
{ACAD_REACTORS
330
1A
102
}
330
1A
100
AcDbPlotSettings
  1

  2
none_device
  4

  6

 40
0.0
 41
0.0
 42
0.0
 43
0.0
 44
0.0
 45
0.0
 46
0.0
 47
0.0
 48
0.0
 49
0.0
140
0.0
141
0.0
142
1.0
143
1.0
 70
   688
 72
     0
 73
     0
 74
     5
  7

 75
    16
147
1.0
148
0.0
149
0.0
100
AcDbLayout
  1
Layout1
 70
     1
 71
     1
 10
0.0
 20
0.0
 11
12.0
 21
9.0
 12
0.0
 22
0.0
 32
0.0
 14
1.00000000000000E+20
 24
1.00000000000000E+20
 34
1.00000000000000E+20
 15
-1.00000000000000E+20
 25
-1.00000000000000E+20
 35
-1.00000000000000E+20
146
0.0
 13
0.0
 23
0.0
 33
0.0
 16
1.0
 26
0.0
 36
0.0
 17
0.0
 27
1.0
 37
0.0
 76
     0
330
1B
  0
LAYOUT
  5
26
102
{ACAD_REACTORS
330
1A
102
}
330
1A
100
AcDbPlotSettings
  1

  2
none_device
  4

  6

 40
0.0
 41
0.0
 42
0.0
 43
0.0
 44
0.0
 45
0.0
 46
0.0
 47
0.0
 48
0.0
 49
0.0
140
0.0
141
0.0
142
1.0
143
1.0
 70
   688
 72
     0
 73
     0
 74
     5
  7

 75
    16
147
1.0
148
0.0
149
0.0
100
AcDbLayout
  1
Layout2
 70
     1
 71
     2
 10
0.0
 20
0.0
 11
0.0
 21
0.0
 12
0.0
 22
0.0
 32
0.0
 14
0.0
 24
0.0
 34
0.0
 15
0.0
 25
0.0
 35
0.0
146
0.0
 13
0.0
 23
0.0
 33
0.0
 16
1.0
 26
0.0
 36
0.0
 17
0.0
 27
1.0
 37
0.0
 76
     0
330
23
  0
LAYOUT
  5
22
102
{ACAD_REACTORS
330
1A
102
}
330
1A
100
AcDbPlotSettings
  1

  2
none_device
  4

  6

 40
0.0
 41
0.0
 42
0.0
 43
0.0
 44
0.0
 45
0.0
 46
0.0
 47
0.0
 48
0.0
 49
0.0
140
0.0
141
0.0
142
1.0
143
1.0
 70
  1712
 72
     0
 73
     0
 74
     0
  7

 75
     0
147
1.0
148
0.0
149
0.0
100
AcDbLayout
  1
Model
 70
     1
 71
     0
 10
0.0
 20
0.0
 11
12.0
 21
9.0
 12
0.0
 22
0.0
 32
0.0
 14
72.9291373209373
 24
361.7609965299
 34
0.0
 15
318.235112757329
 25
493.906156672872
 35
0.0
146
0.0
 13
0.0
 23
0.0
 33
0.0
 16
1.0
 26
0.0
 36
0.0
 17
0.0
 27
1.0
 37
0.0
 76
     0
330
1F
331
29
  0
MLINESTYLE
  5
18
102
{ACAD_REACTORS
330
17
102
}
330
17
100
AcDbMlineStyle
  2
Standard
 70
     0
  3

 62
   256
 51
90.0
 52
90.0
 71
     2
 49
0.5
 62
   256
  6
BYLAYER
 49
-0.5
 62
   256
  6
BYLAYER
  0
ACDBPLACEHOLDER
  5
F
102
{ACAD_REACTORS
330
E
102
}
330
E
  0
SCALE
  5
4B
102
{ACAD_REACTORS
330
4A
102
}
330
4A
100
AcDbScale
 70
     0
300
1:1
140
1.0
141
1.0
290
     1
  0
SCALE
  5
4C
102
{ACAD_REACTORS
330
4A
102
}
330
4A
100
AcDbScale
 70
     0
300
1:2
140
1.0
141
2.0
290
     0
  0
SCALE
  5
4D
102
{ACAD_REACTORS
330
4A
102
}
330
4A
100
AcDbScale
 70
     0
300
1:4
140
1.0
141
4.0
290
     0
  0
SCALE
  5
4E
102
{ACAD_REACTORS
330
4A
102
}
330
4A
100
AcDbScale
 70
     0
300
1:5
140
1.0
141
5.0
290
     0
  0
SCALE
  5
4F
102
{ACAD_REACTORS
330
4A
102
}
330
4A
100
AcDbScale
 70
     0
300
1:8
140
1.0
141
8.0
290
     0
  0
SCALE
  5
50
102
{ACAD_REACTORS
330
4A
102
}
330
4A
100
AcDbScale
 70
     0
300
1:10
140
1.0
141
10.0
290
     0
  0
SCALE
  5
51
102
{ACAD_REACTORS
330
4A
102
}
330
4A
100
AcDbScale
 70
     0
300
1:16
140
1.0
141
16.0
290
     0
  0
SCALE
  5
52
102
{ACAD_REACTORS
330
4A
102
}
330
4A
100
AcDbScale
 70
     0
300
1:20
140
1.0
141
20.0
290
     0
  0
SCALE
  5
53
102
{ACAD_REACTORS
330
4A
102
}
330
4A
100
AcDbScale
 70
     0
300
1:30
140
1.0
141
30.0
290
     0
  0
SCALE
  5
54
102
{ACAD_REACTORS
330
4A
102
}
330
4A
100
AcDbScale
 70
     0
300
1:40
140
1.0
141
40.0
290
     0
  0
SCALE
  5
55
102
{ACAD_REACTORS
330
4A
102
}
330
4A
100
AcDbScale
 70
     0
300
1:50
140
1.0
141
50.0
290
     0
  0
SCALE
  5
56
102
{ACAD_REACTORS
330
4A
102
}
330
4A
100
AcDbScale
 70
     0
300
1:100
140
1.0
141
100.0
290
     0
  0
SCALE
  5
57
102
{ACAD_REACTORS
330
4A
102
}
330
4A
100
AcDbScale
 70
     0
300
2:1
140
2.0
141
1.0
290
     0
  0
SCALE
  5
58
102
{ACAD_REACTORS
330
4A
102
}
330
4A
100
AcDbScale
 70
     0
300
4:1
140
4.0
141
1.0
290
     0
  0
SCALE
  5
59
102
{ACAD_REACTORS
330
4A
102
}
330
4A
100
AcDbScale
 70
     0
300
8:1
140
8.0
141
1.0
290
     0
  0
SCALE
  5
5A
102
{ACAD_REACTORS
330
4A
102
}
330
4A
100
AcDbScale
 70
     0
300
10:1
140
10.0
141
1.0
290
     0
  0
SCALE
  5
5B
102
{ACAD_REACTORS
330
4A
102
}
330
4A
100
AcDbScale
 70
     0
300
100:1
140
100.0
141
1.0
290
     0
  0
SCALE
  5
5C
102
{ACAD_REACTORS
330
4A
102
}
330
4A
100
AcDbScale
 70
     0
300
1/128" = 1'-0"
140
0.0078125
141
12.0
290
     0
  0
SCALE
  5
5D
102
{ACAD_REACTORS
330
4A
102
}
330
4A
100
AcDbScale
 70
     0
300
1/64" = 1'-0"
140
0.015625
141
12.0
290
     0
  0
SCALE
  5
5E
102
{ACAD_REACTORS
330
4A
102
}
330
4A
100
AcDbScale
 70
     0
300
1/32" = 1'-0"
140
0.03125
141
12.0
290
     0
  0
SCALE
  5
5F
102
{ACAD_REACTORS
330
4A
102
}
330
4A
100
AcDbScale
 70
     0
300
1/16" = 1'-0"
140
0.0625
141
12.0
290
     0
  0
SCALE
  5
60
102
{ACAD_REACTORS
330
4A
102
}
330
4A
100
AcDbScale
 70
     0
300
3/32" = 1'-0"
140
0.09375
141
12.0
290
     0
  0
SCALE
  5
61
102
{ACAD_REACTORS
330
4A
102
}
330
4A
100
AcDbScale
 70
     0
300
1/8" = 1'-0"
140
0.125
141
12.0
290
     0
  0
SCALE
  5
62
102
{ACAD_REACTORS
330
4A
102
}
330
4A
100
AcDbScale
 70
     0
300
3/16" = 1'-0"
140
0.1875
141
12.0
290
     0
  0
SCALE
  5
63
102
{ACAD_REACTORS
330
4A
102
}
330
4A
100
AcDbScale
 70
     0
300
1/4" = 1'-0"
140
0.25
141
12.0
290
     0
  0
SCALE
  5
64
102
{ACAD_REACTORS
330
4A
102
}
330
4A
100
AcDbScale
 70
     0
300
3/8" = 1'-0"
140
0.375
141
12.0
290
     0
  0
SCALE
  5
65
102
{ACAD_REACTORS
330
4A
102
}
330
4A
100
AcDbScale
 70
     0
300
1/2" = 1'-0"
140
0.5
141
12.0
290
     0
  0
SCALE
  5
66
102
{ACAD_REACTORS
330
4A
102
}
330
4A
100
AcDbScale
 70
     0
300
3/4" = 1'-0"
140
0.75
141
12.0
290
     0
  0
SCALE
  5
67
102
{ACAD_REACTORS
330
4A
102
}
330
4A
100
AcDbScale
 70
     0
300
1" = 1'-0"
140
1.0
141
12.0
290
     0
  0
SCALE
  5
68
102
{ACAD_REACTORS
330
4A
102
}
330
4A
100
AcDbScale
 70
     0
300
1-1/2" = 1'-0"
140
1.5
141
12.0
290
     0
  0
SCALE
  5
69
102
{ACAD_REACTORS
330
4A
102
}
330
4A
100
AcDbScale
 70
     0
300
3" = 1'-0"
140
3.0
141
12.0
290
     0
  0
SCALE
  5
6A
102
{ACAD_REACTORS
330
4A
102
}
330
4A
100
AcDbScale
 70
     0
300
6" = 1'-0"
140
6.0
141
12.0
290
     0
  0
SCALE
  5
6B
102
{ACAD_REACTORS
330
4A
102
}
330
4A
100
AcDbScale
 70
     0
300
1'-0" = 1'-0"
140
12.0
141
12.0
290
     0
  0
VISUALSTYLE
  5
2F
102
{ACAD_REACTORS
330
2A
102
}
330
2A
100
AcDbVisualStyle
  2
2dWireframe
 70
     4
 71
     0
 72
     2
 73
     0
 90
        0
 40
-0.6
 41
-30.0
 62
     5
 63
     7
 74
     1
 91
        4
 64
     7
 65
   257
 75
     1
175
     1
 42
1.0
 92
        0
 66
   257
 43
1.0
 76
     1
 77
     6
 78
     2
 67
     7
 79
     5
170
     0
171
     0
290
     0
174
     0
 93
        1
 44
0.0
173
     0
291
     0
 45
0.0
1001
ACAD
1000
AcDbSavedByObjectVersion
1070
     0
  0
VISUALSTYLE
  5
31
102
{ACAD_REACTORS
330
2A
102
}
330
2A
100
AcDbVisualStyle
  2
3D Hidden
 70
     6
 71
     1
 72
     2
 73
     2
 90
        0
 40
-0.6
 41
-30.0
 62
     5
 63
     7
 74
     2
 91
        2
 64
     7
 65
   257
 75
     2
175
     1
 42
40.0
 92
        0
 66
   257
 43
1.0
 76
     1
 77
     6
 78
     2
 67
     7
 79
     3
170
     0
171
     0
290
     0
174
     0
 93
        1
 44
0.0
173
     0
291
     0
 45
0.0
1001
ACAD
1000
AcDbSavedByObjectVersion
1070
     0
  0
VISUALSTYLE
  5
30
102
{ACAD_REACTORS
330
2A
102
}
330
2A
100
AcDbVisualStyle
  2
3dWireframe
 70
     5
 71
     0
 72
     2
 73
     0
 90
        0
 40
-0.6
 41
-30.0
 62
     5
 63
     7
 74
     1
 91
        4
 64
     7
 65
   257
 75
     1
175
     1
 42
1.0
 92
        0
 66
   257
 43
1.0
 76
     1
 77
     6
 78
     2
 67
     7
 79
     5
170
     0
171
     0
290
     0
174
     0
 93
        1
 44
0.0
173
     0
291
     0
 45
0.0
1001
ACAD
1000
AcDbSavedByObjectVersion
1070
     0
  0
VISUALSTYLE
  5
32
102
{ACAD_REACTORS
330
2A
102
}
330
2A
100
AcDbVisualStyle
  2
Basic
 70
     7
 71
     1
 72
     0
 73
     1
 90
        0
 40
-0.6
 41
-30.0
 62
     5
 63
     7
 74
     0
 91
        4
 64
     7
 65
   257
 75
     1
175
     1
 42
1.0
 92
        8
 66
     7
 43
1.0
 76
     1
 77
     6
 78
     2
 67
     7
 79
     5
170
     0
171
     0
290
     0
174
     0
 93
        1
 44
0.0
173
     0
291
     1
 45
0.0
1001
ACAD
1000
AcDbSavedByObjectVersion
1070
     0
  0
VISUALSTYLE
  5
36
102
{ACAD_REACTORS
330
2A
102
}
330
2A
100
AcDbVisualStyle
  2
Brighten
 70
    12
 71
     2
 72
     2
 73
     0
 90
        0
 40
-0.6
 41
-30.0
 62
     5
 63
     7
 74
     1
 91
        4
 64
     7
 65
   257
 75
     1
175
     1
 42
1.0
 92
        8
 66
     7
 43
1.0
 76
     1
 77
     6
 78
     2
 67
     7
 79
     5
170
     0
171
     0
290
     0
174
     0
 93
        1
 44
50.0
173
     0
291
     1
 45
0.0
1001
ACAD
1000
AcDbSavedByObjectVersion
1070
     0
  0
VISUALSTYLE
  5
3A
102
{ACAD_REACTORS
330
2A
102
}
330
2A
100
AcDbVisualStyle
  2
ColorChange
 70
    16
 71
     2
 72
     2
 73
     3
 90
        0
 40
-0.6
 41
-30.0
 62
     5
 63
     8
 74
     1
 91
        4
 64
     7
 65
   257
 75
     1
175
     1
 42
1.0
 92
        8
 66
     8
 43
1.0
 76
     1
 77
     6
 78
     2
 67
     7
 79
     5
170
     0
171
     0
290
     0
174
     0
 93
        1
 44
0.0
173
     0
291
     1
 45
0.0
1001
ACAD
1000
AcDbSavedByObjectVersion
1070
     0
  0
VISUALSTYLE
  5
34
102
{ACAD_REACTORS
330
2A
102
}
330
2A
100
AcDbVisualStyle
  2
Conceptual
 70
     9
 71
     3
 72
     2
 73
     0
 90
        0
 40
-0.6
 41
-30.0
 62
     5
 63
     7
 74
     2
 91
        2
 64
     7
 65
   257
 75
     1
175
     1
 42
40.0
 92
        8
 66
     7
 43
1.0
 76
     1
 77
     6
 78
     2
 67
     7
 79
     3
170
     0
171
     0
290
     0
174
     0
 93
        1
 44
0.0
173
     0
291
     0
 45
0.0
1001
ACAD
1000
AcDbSavedByObjectVersion
1070
     0
  0
VISUALSTYLE
  5
35
102
{ACAD_REACTORS
330
2A
102
}
330
2A
100
AcDbVisualStyle
  2
Dim
 70
    11
 71
     2
 72
     2
 73
     0
 90
        0
 40
-0.6
 41
-30.0
 62
     5
 63
     7
 74
     1
 91
        4
 64
     7
 65
   257
 75
     1
175
     1
 42
1.0
 92
        8
 66
     7
 43
1.0
 76
     1
 77
     6
 78
     2
 67
     7
 79
     5
170
     0
171
     0
290
     0
174
     0
 93
        1
 44
-50.0
173
     0
291
     1
 45
0.0
1001
ACAD
1000
AcDbSavedByObjectVersion
1070
     0
  0
VISUALSTYLE
  5
39
102
{ACAD_REACTORS
330
2A
102
}
330
2A
100
AcDbVisualStyle
  2
Facepattern
 70
    15
 71
     2
 72
     2
 73
     0
 90
        0
 40
-0.6
 41
-30.0
 62
     5
 63
     7
 74
     1
 91
        4
 64
     7
 65
   257
 75
     1
175
     1
 42
1.0
 92
        8
 66
     7
 43
1.0
 76
     1
 77
     6
 78
     2
 67
     7
 79
     5
170
     0
171
     0
290
     0
174
     0
 93
        1
 44
0.0
173
     0
291
     1
 45
0.0
1001
ACAD
1000
AcDbSavedByObjectVersion
1070
     0
  0
VISUALSTYLE
  5
2B
102
{ACAD_REACTORS
330
2A
102
}
330
2A
100
AcDbVisualStyle
  2
Flat
 70
     0
 71
     2
 72
     1
 73
     1
 90
        2
 40
-0.6
 41
30.0
 62
     5
 63
     7
 74
     0
 91
        4
 64
     7
 65
   257
 75
     1
175
     1
 42
1.0
 92
        8
 66
     7
 43
1.0
 76
     1
 77
     6
 78
     2
 67
     7
 79
     5
170
     0
171
     0
290
     0
174
     0
 93
       13
 44
0.0
173
     0
291
     1
 45
0.0
1001
ACAD
1000
AcDbSavedByObjectVersion
1070
     0
  0
VISUALSTYLE
  5
2C
102
{ACAD_REACTORS
330
2A
102
}
330
2A
100
AcDbVisualStyle
  2
FlatWithEdges
 70
     1
 71
     2
 72
     1
 73
     1
 90
        2
 40
-0.6
 41
30.0
 62
     5
 63
     7
 74
     1
 91
        4
 64
     7
 65
   257
 75
     1
175
     1
 42
1.0
 92
        0
 66
   257
 43
1.0
 76
     1
 77
     6
 78
     2
 67
     7
 79
     5
170
     0
171
     0
290
     0
174
     0
 93
       13
 44
0.0
173
     0
291
     1
 45
0.0
1001
ACAD
1000
AcDbSavedByObjectVersion
1070
     0
  0
VISUALSTYLE
  5
2D
102
{ACAD_REACTORS
330
2A
102
}
330
2A
100
AcDbVisualStyle
  2
Gouraud
 70
     2
 71
     2
 72
     2
 73
     1
 90
        2
 40
-0.6
 41
30.0
 62
     5
 63
     7
 74
     0
 91
        4
 64
     7
 65
   257
 75
     1
175
     1
 42
1.0
 92
        0
 66
     7
 43
1.0
 76
     1
 77
     6
 78
     2
 67
     7
 79
     5
170
     0
171
     0
290
     0
174
     0
 93
       13
 44
0.0
173
     0
291
     1
 45
0.0
1001
ACAD
1000
AcDbSavedByObjectVersion
1070
     0
  0
VISUALSTYLE
  5
2E
102
{ACAD_REACTORS
330
2A
102
}
330
2A
100
AcDbVisualStyle
  2
GouraudWithEdges
 70
     3
 71
     2
 72
     2
 73
     1
 90
        2
 40
-0.6
 41
30.0
 62
     5
 63
     7
 74
     1
 91
        4
 64
     7
 65
   257
 75
     1
175
     1
 42
1.0
 92
        0
 66
   257
 43
1.0
 76
     1
 77
     6
 78
     2
 67
     7
 79
     5
170
     0
171
     0
290
     0
174
     0
 93
       13
 44
0.0
173
     0
291
     1
 45
0.0
1001
ACAD
1000
AcDbSavedByObjectVersion
1070
     0
  0
VISUALSTYLE
  5
38
102
{ACAD_REACTORS
330
2A
102
}
330
2A
100
AcDbVisualStyle
  2
Linepattern
 70
    14
 71
     2
 72
     2
 73
     0
 90
        0
 40
-0.6
 41
-30.0
 62
     5
 63
     7
 74
     1
 91
        4
 64
     7
 65
   257
 75
     7
175
     7
 42
1.0
 92
        8
 66
     7
 43
1.0
 76
     1
 77
     6
 78
     2
 67
     7
 79
     5
170
     0
171
     0
290
     0
174
     0
 93
        1
 44
0.0
173
     0
291
     1
 45
0.0
1001
ACAD
1000
AcDbSavedByObjectVersion
1070
     0
  0
VISUALSTYLE
  5
33
102
{ACAD_REACTORS
330
2A
102
}
330
2A
100
AcDbVisualStyle
  2
Realistic
 70
     8
 71
     2
 72
     2
 73
     0
 90
        0
 40
-0.6
 41
-30.0
 62
     5
 63
     7
 74
     1
 91
        0
 64
     7
 65
   257
 75
     1
175
     1
 42
1.0
 92
        8
 66
     8
 43
1.0
 76
     1
 77
     6
 78
     2
 67
     7
 79
     5
170
     0
171
     0
290
     0
174
     0
 93
       13
 44
0.0
173
     0
291
     0
 45
0.0
1001
ACAD
1000
AcDbSavedByObjectVersion
1070
     0
  0
VISUALSTYLE
  5
37
102
{ACAD_REACTORS
330
2A
102
}
330
2A
100
AcDbVisualStyle
  2
Thicken
 70
    13
 71
     2
 72
     2
 73
     0
 90
        0
 40
-0.6
 41
-30.0
 62
     5
 63
     7
 74
     1
 91
        4
 64
     7
 65
   257
 75
     1
175
     1
 42
1.0
 92
       12
 66
     7
 43
1.0
 76
     1
 77
     6
 78
     2
 67
     7
 79
     5
170
     0
171
     0
290
     0
174
     0
 93
        1
 44
0.0
173
     0
291
     1
 45
0.0
1001
ACAD
1000
AcDbSavedByObjectVersion
1070
     0
  0
DICTIONARYVAR
  5
14A
102
{ACAD_REACTORS
330
147
102
}
330
147
100
DictionaryVariables
280
     0
  1
1:1
  0
ENDSEC
  0
EOF
