  0
SECTION
  2
HEADER
  9
$ACADVER
  1
AC1015
  9
$ACADMAINTVER
 70
     6
  9
$DWGCODEPAGE
  3
ANSI_1252
  9
$INSBASE
 10
0.0
 20
0.0
 30
0.0
  9
$EXTMIN
 10
73.6708954367532
 20
329.4413881608
 30
0.0
  9
$EXTMAX
 10
318.576307112438
 20
462.272020680861
 30
0.0
  9
$LIMMIN
 10
0.0
 20
0.0
  9
$LIMMAX
 10
12.0
 20
9.0
  9
$ORTHOMODE
 70
     0
  9
$REGENMODE
 70
     1
  9
$FILLMODE
 70
     1
  9
$QTEXTMODE
 70
     0
  9
$MIRRTEXT
 70
     1
  9
$LTSCALE
 40
1.0
  9
$ATTMODE
 70
     1
  9
$TEXTSIZE
 40
0.2
  9
$TRACEWID
 40
0.05
  9
$TEXTSTYLE
  7
Standard
  9
$CLAYER
  8
0
  9
$CELTYPE
  6
ByLayer
  9
$CECOLOR
 62
   256
  9
$CELTSCALE
 40
1.0
  9
$DISPSILH
 70
     0
  9
$DIMSCALE
 40
1.0
  9
$DIMASZ
 40
0.18
  9
$DIMEXO
 40
0.0625
  9
$DIMDLI
 40
0.38
  9
$DIMRND
 40
0.0
  9
$DIMDLE
 40
0.0
  9
$DIMEXE
 40
0.18
  9
$DIMTP
 40
0.0
  9
$DIMTM
 40
0.0
  9
$DIMTXT
 40
0.18
  9
$DIMCEN
 40
0.09
  9
$DIMTSZ
 40
0.0
  9
$DIMTOL
 70
     0
  9
$DIMLIM
 70
     0
  9
$DIMTIH
 70
     1
  9
$DIMTOH
 70
     1
  9
$DIMSE1
 70
     0
  9
$DIMSE2
 70
     0
  9
$DIMTAD
 70
     0
  9
$DIMZIN
 70
     0
  9
$DIMBLK
  1

  9
$DIMASO
 70
     1
  9
$DIMSHO
 70
     1
  9
$DIMPOST
  1

  9
$DIMAPOST
  1

  9
$DIMALT
 70
     0
  9
$DIMALTD
 70
     2
  9
$DIMALTF
 40
25.4
  9
$DIMLFAC
 40
1.0
  9
$DIMTOFL
 70
     0
  9
$DIMTVP
 40
0.0
  9
$DIMTIX
 70
     0
  9
$DIMSOXD
 70
     0
  9
$DIMSAH
 70
     0
  9
$DIMBLK1
  1

  9
$DIMBLK2
  1

  9
$DIMSTYLE
  2
Standard
  9
$DIMCLRD
 70
     0
  9
$DIMCLRE
 70
     0
  9
$DIMCLRT
 70
     0
  9
$DIMTFAC
 40
1.0
  9
$DIMGAP
 40
0.09
  9
$DIMJUST
 70
     0
  9
$DIMSD1
 70
     0
  9
$DIMSD2
 70
     0
  9
$DIMTOLJ
 70
     1
  9
$DIMTZIN
 70
     0
  9
$DIMALTZ
 70
     0
  9
$DIMALTTZ
 70
     0
  9
$DIMUPT
 70
     0
  9
$DIMDEC
 70
     4
  9
$DIMTDEC
 70
     4
  9
$DIMALTU
 70
     2
  9
$DIMALTTD
 70
     2
  9
$DIMTXSTY
  7
Standard
  9
$DIMAUNIT
 70
     0
  9
$DIMADEC
 70
     0
  9
$DIMALTRND
 40
0.0
  9
$DIMAZIN
 70
     0
  9
$DIMDSEP
 70
    46
  9
$DIMATFIT
 70
     3
  9
$DIMFRAC
 70
     0
  9
$DIMLDRBLK
  1

  9
$DIMLUNIT
 70
     2
  9
$DIMLWD
 70
    -2
  9
$DIMLWE
 70
    -2
  9
$DIMTMOVE
 70
     0
  9
$LUNITS
 70
     2
  9
$LUPREC
 70
     4
  9
$SKETCHINC
 40
0.1
  9
$FILLETRAD
 40
0.5
  9
$AUNITS
 70
     0
  9
$AUPREC
 70
     0
  9
$MENU
  1
.
  9
$ELEVATION
 40
0.0
  9
$PELEVATION
 40
0.0
  9
$THICKNESS
 40
0.0
  9
$LIMCHECK
 70
     0
  9
$CHAMFERA
 40
0.5
  9
$CHAMFERB
 40
0.5
  9
$CHAMFERC
 40
1.0
  9
$CHAMFERD
 40
0.0
  9
$SKPOLY
 70
     0
  9
$TDCREATE
 40
2456821.364894224
  9
$TDUCREATE
 40
2456821.281560891
  9
$TDUPDATE
 40
2456821.364894236
  9
$TDUUPDATE
 40
2456821.281560903
  9
$TDINDWG
 40
0.0000000116
  9
$TDUSRTIMER
 40
0.0000000116
  9
$USRTIMER
 70
     1
  9
$ANGBASE
 50
0.0
  9
$ANGDIR
 70
     0
  9
$PDMODE
 70
     0
  9
$PDSIZE
 40
0.0
  9
$PLINEWID
 40
0.0
  9
$SPLFRAME
 70
     0
  9
$SPLINETYPE
 70
     6
  9
$SPLINESEGS
 70
     8
  9
$HANDSEED
  5
14B
  9
$SURFTAB1
 70
     6
  9
$SURFTAB2
 70
     6
  9
$SURFTYPE
 70
     6
  9
$SURFU
 70
     6
  9
$SURFV
 70
     6
  9
$UCSBASE
  2

  9
$UCSNAME
  2

  9
$UCSORG
 10
0.0
 20
0.0
 30
0.0
  9
$UCSXDIR
 10
1.0
 20
0.0
 30
0.0
  9
$UCSYDIR
 10
0.0
 20
1.0
 30
0.0
  9
$UCSORTHOREF
  2

  9
$UCSORTHOVIEW
 70
     0
  9
$UCSORGTOP
 10
0.0
 20
0.0
 30
0.0
  9
$UCSORGBOTTOM
 10
0.0
 20
0.0
 30
0.0
  9
$UCSORGLEFT
 10
0.0
 20
0.0
 30
0.0
  9
$UCSORGRIGHT
 10
0.0
 20
0.0
 30
0.0
  9
$UCSORGFRONT
 10
0.0
 20
0.0
 30
0.0
  9
$UCSORGBACK
 10
0.0
 20
0.0
 30
0.0
  9
$PUCSBASE
  2

  9
$PUCSNAME
  2

  9
$PUCSORG
 10
0.0
 20
0.0
 30
0.0
  9
$PUCSXDIR
 10
1.0
 20
0.0
 30
0.0
  9
$PUCSYDIR
 10
0.0
 20
1.0
 30
0.0
  9
$PUCSORTHOREF
  2

  9
$PUCSORTHOVIEW
 70
     0
  9
$PUCSORGTOP
 10
0.0
 20
0.0
 30
0.0
  9
$PUCSORGBOTTOM
 10
0.0
 20
0.0
 30
0.0
  9
$PUCSORGLEFT
 10
0.0
 20
0.0
 30
0.0
  9
$PUCSORGRIGHT
 10
0.0
 20
0.0
 30
0.0
  9
$PUCSORGFRONT
 10
0.0
 20
0.0
 30
0.0
  9
$PUCSORGBACK
 10
0.0
 20
0.0
 30
0.0
  9
$USERI1
 70
     0
  9
$USERI2
 70
     0
  9
$USERI3
 70
     0
  9
$USERI4
 70
     0
  9
$USERI5
 70
     0
  9
$USERR1
 40
16.5
  9
$USERR2
 40
0.0
  9
$USERR3
 40
0.0
  9
$USERR4
 40
0.0
  9
$USERR5
 40
0.0
  9
$WORLDVIEW
 70
     1
  9
$SHADEDGE
 70
     3
  9
$SHADEDIF
 70
    70
  9
$TILEMODE
 70
     1
  9
$MAXACTVP
 70
    64
  9
$PINSBASE
 10
0.0
 20
0.0
 30
0.0
  9
$PLIMCHECK
 70
     0
  9
$PEXTMIN
 10
1.00000000000000E+20
 20
1.00000000000000E+20
 30
1.00000000000000E+20
  9
$PEXTMAX
 10
-1.00000000000000E+20
 20
-1.00000000000000E+20
 30
-1.00000000000000E+20
  9
$PLIMMIN
 10
0.0
 20
0.0
  9
$PLIMMAX
 10
12.0
 20
9.0
  9
$UNITMODE
 70
     0
  9
$VISRETAIN
 70
     1
  9
$PLINEGEN
 70
     0
  9
$PSLTSCALE
 70
     1
  9
$TREEDEPTH
 70
  3020
  9
$CMLSTYLE
  2
Standard
  9
$CMLJUST
 70
     0
  9
$CMLSCALE
 40
1.0
  9
$PROXYGRAPHICS
 70
     1
  9
$MEASUREMENT
 70
     1
  9
$CELWEIGHT
370
    -1
  9
$ENDCAPS
280
     0
  9
$JOINSTYLE
280
     0
  9
$LWDISPLAY
290
     0
  9
$INSUNITS
 70
     1
  9
$HYPERLINKBASE
  1

  9
$STYLESHEET
  1

  9
$XEDIT
290
     1
  9
$CEPSNTYPE
380
     0
  9
$PSTYLEMODE
290
     1
  9
$FINGERPRINTGUID
  2
{5B1BCC90-ECDC-433B-8641-B57D66ED332D}
  9
$VERSIONGUID
  2
{FAEB1C32-E019-11D5-929B-00C0DF256EC4}
  9
$EXTNAMES
290
     1
  9
$PSVPSCALE
 40
0.0
  9
$OLESTARTUP
290
     0
  0
ENDSEC
  0
SECTION
  2
CLASSES
  0
CLASS
  1
ACDBDICTIONARYWDFLT
  2
AcDbDictionaryWithDefault
  3
ObjectDBX Classes
 90
        0
280
     0
281
     0
  0
CLASS
  1
VISUALSTYLE
  2
AcDbVisualStyle
  3
ObjectDBX Classes
 90
     4095
280
     0
281
     0
  0
CLASS
  1
SCALE
  2
AcDbScale
  3
ObjectDBX Classes
 90
     1153
280
     0
281
     0
  0
CLASS
  1

  2
exOdDbPolyline
  3

 90
        0
280
     0
281
     1
  0
CLASS
  1

  2
exOdDbSpline
  3

 90
        0
280
     0
281
     1
  0
CLASS
  1
DICTIONARYVAR
  2
AcDbDictionaryVar
  3
ObjectDBX Classes
 90
        0
280
     0
281
     0
  0
CLASS
  1
ACDBPLACEHOLDER
  2
AcDbPlaceHolder
  3
ObjectDBX Classes
 90
        0
280
     0
281
     0
  0
CLASS
  1
LAYOUT
  2
AcDbLayout
  3
ObjectDBX Classes
 90
        0
280
     0
281
     0
  0
ENDSEC
  0
SECTION
  2
TABLES
  0
TABLE
  2
VPORT
  5
8
330
0
100
AcDbSymbolTable
 70
     1
  0
VPORT
  5
29
330
8
100
AcDbSymbolTableRecord
100
AcDbViewportTableRecord
  2
*Active
 70
     0
 10
0.0
 20
0.0
 11
1.0
 21
1.0
 12
196.1236012745956
 22
395.8567044208305
 13
0.0
 23
0.0
 14
0.5
 24
0.5
 15
0.5
 25
0.5
 16
0.0
 26
0.0
 36
1.0
 17
0.0
 27
0.0
 37
0.0
 40
168.091068069328
 41
1.60267857142857
 42
50.0
 43
0.0
 44
0.0
 50
0.0
 51
0.0
 71
     0
 72
   100
 73
     1
 74
     3
 75
     0
 76
     0
 77
     0
 78
     0
281
     0
 65
     1
110
0.0
120
0.0
130
0.0
111
1.0
121
0.0
131
0.0
112
0.0
122
1.0
132
0.0
 79
     0
146
0.0
  0
ENDTAB
  0
TABLE
  2
LTYPE
  5
5
330
0
100
AcDbSymbolTable
 70
     8
  0
LTYPE
  5
14
330
5
100
AcDbSymbolTableRecord
100
AcDbLinetypeTableRecord
  2
ByBlock
 70
     0
  3

 72
    65
 73
     0
 40
0.0
  0
LTYPE
  5
15
330
5
100
AcDbSymbolTableRecord
100
AcDbLinetypeTableRecord
  2
ByLayer
 70
     0
  3

 72
    65
 73
     0
 40
0.0
  0
LTYPE
  5
16
330
5
100
AcDbSymbolTableRecord
100
AcDbLinetypeTableRecord
  2
Continuous
 70
     0
  3
Solid line
 72
    65
 73
     0
 40
0.0
  0
LTYPE
  5
3B
330
5
100
AcDbSymbolTableRecord
100
AcDbLinetypeTableRecord
  2
DASHED
 70
     0
  3
Dashed
 72
    65
 73
     2
 40
15.0
 49
7.0
 74
     0
 49
-8.0
 74
     0
  0
LTYPE
  5
3C
330
5
100
AcDbSymbolTableRecord
100
AcDbLinetypeTableRecord
  2
DOTTED
 70
     0
  3
Dotted
 72
    65
 73
     2
 40
1.0
 49
0.0
 74
     0
 49
-1.0
 74
     0
  0
LTYPE
  5
3D
330
5
100
AcDbSymbolTableRecord
100
AcDbLinetypeTableRecord
  2
DOT_CENTER
 70
     0
  3
Dot_Center
 72
    65
 73
     4
 40
14.0
 49
12.0
 74
     0
 49
-1.0
 74
     0
 49
0.0
 74
     0
 49
-1.0
 74
     0
  0
LTYPE
  5
3E
330
5
100
AcDbSymbolTableRecord
100
AcDbLinetypeTableRecord
  2
LONG_DASHED
 70
     0
  3
Long_Dashed
 72
    65
 73
     2
 40
15.0
 49
10.0
 74
     0
 49
-5.0
 74
     0
  0
LTYPE
  5
3F
330
5
100
AcDbSymbolTableRecord
100
AcDbLinetypeTableRecord
  2
DASH_CENTER
 70
     0
  3
Dash_Center
 72
    65
 73
     4
 40
14.0
 49
11.0
 74
     0
 49
-1.0
 74
     0
 49
1.0
 74
     0
 49
-1.0
 74
     0
  0
LTYPE
  5
40
330
5
100
AcDbSymbolTableRecord
100
AcDbLinetypeTableRecord
  2
PHANTOM
 70
     0
  3
Phantom
 72
    65
 73
     6
 40
13.0
 49
10.0
 74
     0
 49
-1.0
 74
     0
 49
0.0
 74
     0
 49
-1.0
 74
     0
 49
0.0
 74
     0
 49
-1.0
 74
     0
  0
LTYPE
  5
41
330
5
100
AcDbSymbolTableRecord
100
AcDbLinetypeTableRecord
  2
CENTER_DASH_DASH
 70
     0
  3
Center_Dash_Dash
 72
    65
 73
     6
 40
14.0
 49
9.0
 74
     0
 49
-1.0
 74
     0
 49
1.0
 74
     0
 49
-1.0
 74
     0
 49
1.0
 74
     0
 49
-1.0
 74
     0
  0
ENDTAB
  0
TABLE
  2
LAYER
  5
2
330
0
100
AcDbSymbolTable
 70
     6
  0
LAYER
  5
10
330
2
100
AcDbSymbolTableRecord
100
AcDbLayerTableRecord
  2
0
 70
     0
 62
     7
  6
Continuous
370
    -3
390
F
  0
LAYER
  5
42
330
2
100
AcDbSymbolTableRecord
100
AcDbLayerTableRecord
  2
1
 70
     0
 62
     7
  6
Continuous
370
    -3
390
F
  0
LAYER
  5
43
330
2
100
AcDbSymbolTableRecord
100
AcDbLayerTableRecord
  2
BG_STARTBEZUEGE
 70
     0
 62
     7
  6
Continuous
370
    -3
390
F
  0
LAYER
  5
44
330
2
100
AcDbSymbolTableRecord
100
AcDbLayerTableRecord
  2
DEFAULT_2
 70
     0
 62
     7
  6
Continuous
370
    -3
390
F
  0
LAYER
  5
45
330
2
100
AcDbSymbolTableRecord
100
AcDbLayerTableRecord
  2
RUNDUNGEN
 70
     0
 62
     7
  6
Continuous
370
    -3
390
F
  0
LAYER
  5
46
330
2
100
AcDbSymbolTableRecord
100
AcDbLayerTableRecord
  2
TEIL_STARTBEZUEGE
 70
     0
 62
     7
  6
Continuous
370
    -3
390
F
  0
ENDTAB
  0
TABLE
  2
STYLE
  5
3
330
0
100
AcDbSymbolTable
 70
     2
  0
STYLE
  5
11
330
3
100
AcDbSymbolTableRecord
100
AcDbTextStyleTableRecord
  2
Standard
 70
     0
 40
0.0
 41
1.0
 50
0.0
 71
     0
 42
0.2
  3
txt
  4

  0
STYLE
  5
6D
330
3
100
AcDbSymbolTableRecord
100
AcDbTextStyleTableRecord
  2
CONVERTER_11
 70
     0
 40
0.0
 41
0.72
 50
0.0
 71
     0
 42
0.2
  3
txt.shx
  4

  0
ENDTAB
  0
TABLE
  2
VIEW
  5
6
330
0
100
AcDbSymbolTable
 70
     0
  0
ENDTAB
  0
TABLE
  2
UCS
  5
7
330
0
100
AcDbSymbolTable
 70
     0
  0
ENDTAB
  0
TABLE
  2
APPID
  5
9
330
0
100
AcDbSymbolTable
 70
     1
  0
APPID
  5
12
330
9
100
AcDbSymbolTableRecord
100
AcDbRegAppTableRecord
  2
ACAD
 70
     0
  0
ENDTAB
  0
TABLE
  2
DIMSTYLE
  5
A
330
0
100
AcDbSymbolTable
 70
     7
100
AcDbDimStyleTable
  0
DIMSTYLE
105
27
330
A
100
AcDbSymbolTableRecord
100
AcDbDimStyleTableRecord
  2
Standard
 70
     0
340
11
  0
DIMSTYLE
105
107
102
{ACAD_REACTORS
330
108
102
}
330
A
100
AcDbSymbolTableRecord
100
AcDbDimStyleTableRecord
  2
ME10_DIM_10
 70
     0
  3
\U+2300<>
 41
3.5
 42
2.0
 44
2.0
 71
     1
 73
     0
 74
     0
 77
     1
 78
     8
140
3.5
146
0.7
147
2.0
172
     1
173
     1
176
     2
177
     2
178
     3
271
     2
272
     0
340
6D
  0
DIMSTYLE
105
112
102
{ACAD_REACTORS
330
113
102
}
330
A
100
AcDbSymbolTableRecord
100
AcDbDimStyleTableRecord
  2
ME10_DIM_11
 70
     0
  3
\U+2300<>
 41
3.5
 42
2.0
 44
2.0
 71
     1
 73
     0
 74
     0
 77
     1
 78
     8
140
3.5
146
0.7
147
2.0
172
     1
173
     1
176
     2
177
     2
178
     3
271
     2
272
     0
340
6D
  0
DIMSTYLE
105
11D
102
{ACAD_REACTORS
330
11E
102
}
330
A
100
AcDbSymbolTableRecord
100
AcDbDimStyleTableRecord
  2
ME10_DIM_12
 70
     0
  3
<>
 41
3.5
 42
2.0
 44
2.0
 71
     1
 73
     0
 74
     0
 77
     1
 78
     8
140
3.5
146
0.7
147
2.0
172
     1
173
     1
176
     2
177
     2
178
     3
271
     2
272
     0
340
6D
  0
DIMSTYLE
105
128
102
{ACAD_REACTORS
330
129
102
}
330
A
100
AcDbSymbolTableRecord
100
AcDbDimStyleTableRecord
  2
ME10_DIM_13
 70
     0
  3
<>
 41
3.5
 42
2.0
 44
2.0
 71
     1
 73
     0
 74
     0
 77
     1
 78
     8
140
3.5
146
0.7
147
2.0
172
     1
173
     1
176
     2
177
     2
178
     3
271
     2
272
     0
340
6D
  0
DIMSTYLE
105
133
102
{ACAD_REACTORS
330
134
102
}
330
A
100
AcDbSymbolTableRecord
100
AcDbDimStyleTableRecord
  2
ME10_DIM_14
 70
     0
  3
<>
 41
3.5
 42
2.0
 44
2.0
 71
     1
 73
     0
 74
     0
 77
     1
 78
     8
140
3.5
146
0.7
147
2.0
172
     1
173
     1
176
     2
177
     2
178
     3
271
     2
272
     0
340
6D
  0
DIMSTYLE
105
13E
102
{ACAD_REACTORS
330
13F
102
}
330
A
100
AcDbSymbolTableRecord
100
AcDbDimStyleTableRecord
  2
ME10_DIM_15
 70
     0
  3
<>
 41
3.5
 42
2.0
 44
2.0
 71
     1
 73
     0
 74
     0
 77
     1
 78
     8
140
3.5
146
0.7
147
2.0
172
     1
173
     1
176
     2
177
     2
178
     3
271
     2
272
     0
340
6D
  0
ENDTAB
  0
TABLE
  2
BLOCK_RECORD
  5
1
330
0
100
AcDbSymbolTable
 70
     9
  0
BLOCK_RECORD
  5
1F
330
1
100
AcDbSymbolTableRecord
100
AcDbBlockTableRecord
  2
*Model_Space
340
22
  0
BLOCK_RECORD
  5
1B
330
1
100
AcDbSymbolTableRecord
100
AcDbBlockTableRecord
  2
*Paper_Space
340
1E
  0
BLOCK_RECORD
  5
23
330
1
100
AcDbSymbolTableRecord
100
AcDbBlockTableRecord
  2
*Paper_Space0
340
26
  0
BLOCK_RECORD
  5
47
330
1
100
AcDbSymbolTableRecord
100
AcDbBlockTableRecord
  2
Urheberrecht_DE-EN
340
0
102
{BLKREFS
331
6C
102
}
  0
BLOCK_RECORD
  5
FE
330
1
100
AcDbSymbolTableRecord
100
AcDbBlockTableRecord
  2
*D2
340
0
  0
BLOCK_RECORD
  5
109
330
1
100
AcDbSymbolTableRecord
100
AcDbBlockTableRecord
  2
*D3
340
0
  0
BLOCK_RECORD
  5
114
330
1
100
AcDbSymbolTableRecord
100
AcDbBlockTableRecord
  2
*D4
340
0
  0
BLOCK_RECORD
  5
11F
330
1
100
AcDbSymbolTableRecord
100
AcDbBlockTableRecord
  2
*D5
340
0
  0
BLOCK_RECORD
  5
12A
330
1
100
AcDbSymbolTableRecord
100
AcDbBlockTableRecord
  2
*D6
340
0
  0
BLOCK_RECORD
  5
135
330
1
100
AcDbSymbolTableRecord
100
AcDbBlockTableRecord
  2
*D7
340
0
  0
BLOCK_RECORD
  5
140
330
1
100
AcDbSymbolTableRecord
100
AcDbBlockTableRecord
  2
*D8
340
0
102
{BLKREFS
331
146
102
}
  0
ENDTAB
  0
ENDSEC
  0
SECTION
  2
BLOCKS
  0
BLOCK
  5
20
330
1F
100
AcDbEntity
  8
0
100
AcDbBlockBegin
  2
*Model_Space
 70
     0
 10
0.0
 20
0.0
 30
0.0
  3
*Model_Space
  1

  0
ENDBLK
  5
21
330
1F
100
AcDbEntity
  8
0
100
AcDbBlockEnd
  0
BLOCK
  5
1C
330
1B
100
AcDbEntity
 67
     1
  8
0
100
AcDbBlockBegin
  2
*Paper_Space
 70
     0
 10
0.0
 20
0.0
 30
0.0
  3
*Paper_Space
  1

  0
ENDBLK
  5
1D
330
1B
100
AcDbEntity
 67
     1
  8
0
100
AcDbBlockEnd
  0
BLOCK
  5
24
330
23
100
AcDbEntity
  8
0
100
AcDbBlockBegin
  2
*Paper_Space0
 70
     0
 10
0.0
 20
0.0
 30
0.0
  3
*Paper_Space0
  1

  0
ENDBLK
  5
25
330
23
100
AcDbEntity
  8
0
100
AcDbBlockEnd
  0
BLOCK
  5
48
330
47
100
AcDbEntity
  8
0
100
AcDbBlockBegin
  2
Urheberrecht_DE-EN
 70
     0
 10
87.6708954367532
 20
392.686520509017
 30
0.0
  3
Urheberrecht_DE-EN
  1

  0
MTEXT
  5
6E
330
47
100
AcDbEntity
  8
1
 62
     1
100
AcDbMText
 10
87.6708954367532
 20
392.686520509017
 30
0.0
 40
2.0
 41
0.0
 71
     7
 72
     1
  1
We own the copyright of this document. It \Pdetermined and may neither be copied or \Pmade accessible to outsiders without our\Ppermission.
  7
CONVERTER_11
 11
0.0
 21
1.0
 31
0.0
 73
     1
 44
0.90036014405762
  0
MTEXT
  5
6F
330
47
100
AcDbEntity
  8
1
 62
     1
100
AcDbMText
 10
87.6708954367532
 20
336.3971335917108
 30
0.0
 40
2.0
 41
0.0
 71
     7
 72
     1
  1
F\U+00fcr diese Unterlage behalten wir das Ur-\Pheberrecht. Sie darf nur f\U+00fcr den von uns \Pbestimmten Zweck benutzt und ohne unsere \PZustimmung weder vervielf\U+00e4ltigt noch\PDritten zug\U+00e4nglich gemacht werden.
  7
CONVERTER_11
 11
0.0
 21
1.0
 31
0.0
 73
     1
 44
0.90036014405762
  0
ENDBLK
  5
49
330
47
100
AcDbEntity
  8
0
100
AcDbBlockEnd
  0
BLOCK
  5
105
330
FE
100
AcDbEntity
  8
0
100
AcDbBlockBegin
  2
*D2
 70
     1
 10
0.0
 20
0.0
 30
0.0
  3
*D2
  1

  0
LINE
  5
FF
330
FE
100
AcDbEntity
  8
1
  6
Continuous
 62
     2
100
AcDbLine
 10
307.997814055314
 20
386.1788881608
 30
0.0
 11
307.997814055314
 21
370.1788881608
 31
0.0
  0
LINE
  5
100
330
FE
100
AcDbEntity
  8
1
  6
Continuous
 62
     2
100
AcDbLine
 10
286.7283264033
 20
386.1788881608
 30
0.0
 11
309.997814055314
 21
386.1788881608
 31
0.0
  0
LINE
  5
101
330
FE
100
AcDbEntity
  8
1
  6
Continuous
 62
     2
100
AcDbLine
 10
286.7283264033
 20
370.1788881608
 30
0.0
 11
309.997814055314
 21
370.1788881608
 31
0.0
  0
SOLID
  5
102
330
FE
100
AcDbEntity
  8
1
 62
     2
100
AcDbTrace
 10
308.4585977968699
 20
382.6788881608
 30
0.0
 11
307.5370303137581
 21
382.6788881608
 31
0.0
 12
307.997814055314
 22
386.1788881608
 32
0.0
 13
307.997814055314
 23
386.1788881608
 33
0.0
  0
SOLID
  5
103
330
FE
100
AcDbEntity
  8
1
 62
     2
100
AcDbTrace
 10
307.5370303137581
 20
373.6788881608
 30
0.0
 11
308.4585977968699
 21
373.6788881608
 31
0.0
 12
307.997814055314
 22
370.1788881608
 32
0.0
 13
307.997814055314
 23
370.1788881608
 33
0.0
  0
MTEXT
  5
104
330
FE
100
AcDbEntity
  8
1
 62
     3
100
AcDbMText
 10
305.997814055314
 20
369.207817481525
 30
0.0
 40
3.5
 41
0.0
 71
     7
 72
     1
  1
\C3;%%c\C3;\C3;16\C2;\H2.45;\S^ ;\C3;
  7
CONVERTER_11
 11
0.0
 21
1.0
 31
0.0
 73
     1
 44
0.60024009603842
  0
ENDBLK
  5
106
330
FE
100
AcDbEntity
  8
0
100
AcDbBlockEnd
  0
BLOCK
  5
110
330
109
100
AcDbEntity
  8
0
100
AcDbBlockBegin
  2
*D3
 70
     1
 10
0.0
 20
0.0
 30
0.0
  3
*D3
  1

  0
LINE
  5
10A
330
109
100
AcDbEntity
  8
1
  6
Continuous
 62
     2
100
AcDbLine
 10
316.576307112438
 20
392.1788881608
 30
0.0
 11
316.576307112438
 21
364.1788881608
 31
0.0
  0
LINE
  5
10B
330
109
100
AcDbEntity
  8
1
  6
Continuous
 62
     2
100
AcDbLine
 10
269.314112841
 20
392.1788881608
 30
0.0
 11
318.576307112438
 21
392.1788881608
 31
0.0
  0
LINE
  5
10C
330
109
100
AcDbEntity
  8
1
  6
Continuous
 62
     2
100
AcDbLine
 10
269.314112841
 20
364.1788881608
 30
0.0
 11
318.576307112438
 21
364.1788881608
 31
0.0
  0
SOLID
  5
10D
330
109
100
AcDbEntity
  8
1
 62
     2
100
AcDbTrace
 10
317.0370908539938
 20
388.6788881608
 30
0.0
 11
316.1155233708821
 21
388.6788881608
 31
0.0
 12
316.576307112438
 22
392.1788881608
 32
0.0
 13
316.576307112438
 23
392.1788881608
 33
0.0
  0
SOLID
  5
10E
330
109
100
AcDbEntity
  8
1
 62
     2
100
AcDbTrace
 10
316.1155233708821
 20
367.6788881608
 30
0.0
 11
317.0370908539938
 21
367.6788881608
 31
0.0
 12
316.576307112438
 22
364.1788881608
 32
0.0
 13
316.576307112438
 23
364.1788881608
 33
0.0
  0
MTEXT
  5
10F
330
109
100
AcDbEntity
  8
1
 62
     3
100
AcDbMText
 10
314.576307112438
 20
369.675247797779
 30
0.0
 40
3.5
 41
0.0
 71
     7
 72
     1
  1
\C3;%%c\C3;\C3;28\C2;\H2.45;\S^ ;\C3;
  7
CONVERTER_11
 11
0.0
 21
1.0
 31
0.0
 73
     1
 44
0.60024009603842
  0
ENDBLK
  5
111
330
109
100
AcDbEntity
  8
0
100
AcDbBlockEnd
  0
BLOCK
  5
11B
330
114
100
AcDbEntity
  8
0
100
AcDbBlockBegin
  2
*D4
 70
     1
 10
0.0
 20
0.0
 30
0.0
  3
*D4
  1

  0
LINE
  5
115
330
114
100
AcDbEntity
  8
1
  6
Continuous
 62
     2
100
AcDbLine
 10
284.7283264033
 20
433.255117300123
 30
0.0
 11
214.4283264033
 21
433.255117300123
 31
0.0
  0
LINE
  5
116
330
114
100
AcDbEntity
  8
1
  6
Continuous
 62
     2
100
AcDbLine
 10
284.7283264033
 20
391.1788881608
 30
0.0
 11
284.7283264033
 21
435.255117300123
 31
0.0
  0
LINE
  5
117
330
114
100
AcDbEntity
  8
1
  6
Continuous
 62
     2
100
AcDbLine
 10
214.4283264033
 20
427.9163881608
 30
0.0
 11
214.4283264033
 21
435.255117300123
 31
0.0
  0
SOLID
  5
118
330
114
100
AcDbEntity
  8
1
 62
     2
100
AcDbTrace
 10
281.2283264033
 20
432.7943335585671
 30
0.0
 11
281.2283264033
 21
433.7159010416789
 31
0.0
 12
284.7283264033
 22
433.255117300123
 32
0.0
 13
284.7283264033
 23
433.255117300123
 33
0.0
  0
SOLID
  5
119
330
114
100
AcDbEntity
  8
1
 62
     2
100
AcDbTrace
 10
217.9283264033
 20
433.7159010416789
 30
0.0
 11
217.9283264033
 21
432.7943335585671
 31
0.0
 12
214.4283264033
 22
433.255117300123
 32
0.0
 13
214.4283264033
 23
433.255117300123
 33
0.0
  0
MTEXT
  5
11A
330
114
100
AcDbEntity
  8
1
 62
     3
100
AcDbMText
 10
246.0809024686383
 20
435.255117300123
 30
0.0
 40
3.5
 41
0.0
 71
     7
 72
     1
  1
\C3;\C3;\C3;70.3\C2;\H2.45;\S^ ;\C3;
  7
CONVERTER_11
 11
0.9999999999970619
 21
2.424068405545306E-6
 31
0.0
 73
     1
 44
0.60024009603842
  0
ENDBLK
  5
11C
330
114
100
AcDbEntity
  8
0
100
AcDbBlockEnd
  0
BLOCK
  5
126
330
11F
100
AcDbEntity
  8
0
100
AcDbBlockBegin
  2
*D5
 70
     1
 10
0.0
 20
0.0
 30
0.0
  3
*D5
  1

  0
LINE
  5
120
330
11F
100
AcDbEntity
  8
1
  6
Continuous
 62
     2
100
AcDbLine
 10
284.7283264033
 20
440.798274988284
 30
0.0
 11
195.3283264033
 21
440.798274988284
 31
0.0
  0
LINE
  5
121
330
11F
100
AcDbEntity
  8
1
  6
Continuous
 62
     2
100
AcDbLine
 10
284.7283264033
 20
391.1786958961
 30
0.0
 11
284.7283264033
 21
442.798274988284
 31
0.0
  0
LINE
  5
122
330
11F
100
AcDbEntity
  8
1
  6
Continuous
 62
     2
100
AcDbLine
 10
195.3283264033
 20
421.2163881608
 30
0.0
 11
195.3283264033
 21
442.798274988284
 31
0.0
  0
SOLID
  5
123
330
11F
100
AcDbEntity
  8
1
 62
     2
100
AcDbTrace
 10
281.2283264033
 20
440.3374912467281
 30
0.0
 11
281.2283264033
 21
441.2590587298399
 31
0.0
 12
284.7283264033
 22
440.798274988284
 32
0.0
 13
284.7283264033
 23
440.798274988284
 33
0.0
  0
SOLID
  5
124
330
11F
100
AcDbEntity
  8
1
 62
     2
100
AcDbTrace
 10
198.8283264033
 20
441.2590587298399
 30
0.0
 11
198.8283264033
 21
440.3374912467281
 31
0.0
 12
195.3283264033
 22
440.798274988284
 32
0.0
 13
195.3283264033
 23
440.798274988284
 33
0.0
  0
MTEXT
  5
125
330
11F
100
AcDbEntity
  8
1
 62
     3
100
AcDbMText
 10
236.146489809156
 20
442.798274988284
 30
0.0
 40
3.5
 41
0.0
 71
     7
 72
     1
  1
\C3;\C3;\C3;89.4\C2;\H2.45;\S^ ;\C3;
  7
CONVERTER_11
 11
0.9999999999970619
 21
2.424068405545306E-6
 31
0.0
 73
     1
 44
0.60024009603842
  0
ENDBLK
  5
127
330
11F
100
AcDbEntity
  8
0
100
AcDbBlockEnd
  0
BLOCK
  5
131
330
12A
100
AcDbEntity
  8
0
100
AcDbBlockBegin
  2
*D6
 70
     1
 10
0.0
 20
0.0
 30
0.0
  3
*D6
  1

  0
LINE
  5
12B
330
12A
100
AcDbEntity
  8
1
  6
Continuous
 62
     2
100
AcDbLine
 10
195.3283264033
 20
448.933052887282
 30
0.0
 11
295.3283264033
 21
448.933052887282
 31
0.0
  0
LINE
  5
12C
330
12A
100
AcDbEntity
  8
1
  6
Continuous
 62
     2
100
AcDbLine
 10
195.3283264033
 20
421.2163881608
 30
0.0
 11
195.3283264033
 21
450.933052887282
 31
0.0
  0
LINE
  5
12D
330
12A
100
AcDbEntity
  8
1
  6
Continuous
 62
     2
100
AcDbLine
 10
295.3283264033
 20
390.9288881608
 30
0.0
 11
295.3283264033
 21
450.933052887282
 31
0.0
  0
SOLID
  5
12E
330
12A
100
AcDbEntity
  8
1
 62
     2
100
AcDbTrace
 10
198.8283264033
 20
449.3938366288378
 30
0.0
 11
198.8283264033
 21
448.4722691457261
 31
0.0
 12
195.3283264033
 22
448.933052887282
 32
0.0
 13
195.3283264033
 23
448.933052887282
 33
0.0
  0
SOLID
  5
12F
330
12A
100
AcDbEntity
  8
1
 62
     2
100
AcDbTrace
 10
291.8283264033
 20
448.4722691457261
 30
0.0
 11
291.8283264033
 21
449.3938366288378
 31
0.0
 12
295.3283264033
 22
448.933052887282
 32
0.0
 13
295.3283264033
 23
448.933052887282
 33
0.0
  0
MTEXT
  5
130
330
12A
100
AcDbEntity
  8
1
 62
     3
100
AcDbMText
 10
240.127495916046
 20
450.933052887282
 30
0.0
 40
3.5
 41
0.0
 71
     7
 72
     1
  1
\C3;\C3;\C3;100\C2;\H2.45;\S^ ;\C3;
  7
CONVERTER_11
 11
0.9999999999970619
 21
2.424068405545306E-6
 31
0.0
 73
     1
 44
0.60024009603842
  0
ENDBLK
  5
132
330
12A
100
AcDbEntity
  8
0
100
AcDbBlockEnd
  0
BLOCK
  5
13C
330
135
100
AcDbEntity
  8
0
100
AcDbBlockBegin
  2
*D7
 70
     1
 10
0.0
 20
0.0
 30
0.0
  3
*D7
  1

  0
LINE
  5
136
330
135
100
AcDbEntity
  8
1
  6
Continuous
 62
     2
100
AcDbLine
 10
284.7283264033
 20
456.772020680861
 30
0.0
 11
93.57832640330001
 21
456.772020680861
 31
0.0
  0
LINE
  5
137
330
135
100
AcDbEntity
  8
1
  6
Continuous
 62
     2
100
AcDbLine
 10
284.7283264033
 20
391.1788881608
 30
0.0
 11
284.7283264033
 21
458.772020680861
 31
0.0
  0
LINE
  5
138
330
135
100
AcDbEntity
  8
1
  6
Continuous
 62
     2
100
AcDbLine
 10
93.57832640330001
 20
398.3401223608
 30
0.0
 11
93.57832640330001
 21
458.772020680861
 31
0.0
  0
SOLID
  5
139
330
135
100
AcDbEntity
  8
1
 62
     2
100
AcDbTrace
 10
281.2283264033
 20
456.3112369393051
 30
0.0
 11
281.2283264033
 21
457.2328044224168
 31
0.0
 12
284.7283264033
 22
456.772020680861
 32
0.0
 13
284.7283264033
 23
456.772020680861
 33
0.0
  0
SOLID
  5
13A
330
135
100
AcDbEntity
  8
1
 62
     2
100
AcDbTrace
 10
97.07832640330001
 20
457.2328044224168
 30
0.0
 11
97.07832640330001
 21
456.3112369393051
 31
0.0
 12
93.57832640330001
 22
456.772020680861
 32
0.0
 13
93.57832640330001
 23
456.772020680861
 33
0.0
  0
MTEXT
  5
13B
330
135
100
AcDbEntity
  8
1
 62
     3
100
AcDbMText
 10
197.170701368351
 20
458.772020680861
 30
0.0
 40
3.5
 41
0.0
 71
     7
 72
     1
  1
\C3;\C3;\C3;191.15\C2;\H2.45;\S^ ;\C3;
  7
CONVERTER_11
 11
0.9999999999970619
 21
2.424068405545306E-6
 31
0.0
 73
     1
 44
0.60024009603842
  0
ENDBLK
  5
13D
330
135
100
AcDbEntity
  8
0
100
AcDbBlockEnd
  0
BLOCK
  5
144
330
140
100
AcDbEntity
  8
0
100
AcDbBlockBegin
  2
*D8
 70
     1
 10
0.0
 20
0.0
 30
0.0
  3
*D8
  1

  0
LINE
  5
141
330
140
100
AcDbEntity
  8
1
  6
Continuous
 62
     2
100
AcDbLine
 10
228.8328457050171
 20
406.3766261826435
 30
0.0
 11
220.4881625455845
 21
395.1342432844579
 31
0.0
  0
SOLID
  5
142
330
140
100
AcDbEntity
  8
1
 62
     2
100
AcDbTrace
 10
222.2042023435959
 20
398.2192925657698
 30
0.0
 11
222.9441992145069
 21
397.6700282787724
 31
0.0
 12
220.4881625455845
 22
395.1342432844579
 32
0.0
 13
220.4881625455845
 23
395.1342432844579
 33
0.0
  0
MTEXT
  5
143
330
140
100
AcDbEntity
  8
1
 62
     3
100
AcDbMText
 10
221.803193647824
 20
400.2615634720247
 30
0.0
 40
3.5
 41
0.0
 71
     7
 72
     1
  1
\C3; R\C3;\C3;15\C2;\H2.45;\S^ ;\C3;
  7
CONVERTER_11
 11
0.5960109238477085
 21
0.8029763250894768
 31
0.0
 73
     1
 44
0.60024009603842
  0
ENDBLK
  5
145
330
140
100
AcDbEntity
  8
0
100
AcDbBlockEnd
  0
ENDSEC
  0
SECTION
  2
ENTITIES
  0
INSERT
  5
6C
330
1F
100
AcDbEntity
  8
0
100
AcDbBlockReference
  2
Urheberrecht_DE-EN
 10
87.6708954367532
 20
392.686520509017
 30
0.0
  0
LINE
  5
70
330
1F
100
AcDbEntity
  8
0
  6
Continuous
 62
     7
100
AcDbLine
 10
93.5783264033
 20
396.3401223608
 30
0.0
 11
93.5783264033
 21
360.0174411596
 31
0.0
  0
LINE
  5
71
330
1F
100
AcDbEntity
  8
0
  6
Continuous
 62
     9
100
AcDbLine
 10
95.50360939769999
 20
357.7909958164
 30
0.0
 11
95.50360939769999
 21
398.5667805052
 31
0.0
  0
LINE
  5
72
330
1F
100
AcDbEntity
  8
0
  6
Continuous
 62
     7
100
AcDbLine
 10
199.5283264033
 20
329.4413881608
 30
0.0
 11
203.2629480175
 21
329.4413881608
 31
0.0
  0
LINE
  5
73
330
1F
100
AcDbEntity
  8
0
  6
Continuous
 62
     7
100
AcDbLine
 10
209.7437047892
 20
329.4413881608
 30
0.0
 11
213.4283264033
 21
329.4413881608
 31
0.0
  0
LINE
  5
74
330
1F
100
AcDbEntity
  8
0
  6
Continuous
 62
     7
100
AcDbLine
 10
205.3408264033
 20
332.6788881608
 30
0.0
 11
207.6658264033
 21
332.6788881608
 31
0.0
  0
LINE
  5
75
330
1F
100
AcDbEntity
  8
0
  6
Continuous
 62
     7
100
AcDbLine
 10
199.5283264033
 20
339.6519961729
 30
0.0
 11
203.2629480175
 21
339.6519961729
 31
0.0
  0
LINE
  5
76
330
1F
100
AcDbEntity
  8
0
  6
Continuous
 62
     7
100
AcDbLine
 10
209.7437047892
 20
339.6519961729
 30
0.0
 11
213.4283264033
 21
339.6519961729
 31
0.0
  0
LINE
  5
77
330
1F
100
AcDbEntity
  8
0
  6
Continuous
 62
     7
100
AcDbLine
 10
194.8386440701
 20
343.3253061192
 30
0.0
 11
195.8783264033
 21
343.6038881608
 31
0.0
  0
LINE
  5
78
330
1F
100
AcDbEntity
  8
0
  6
Continuous
 62
     7
100
AcDbLine
 10
195.8783264033
 20
343.6038881608
 30
0.0
 11
197.5283264033
 21
343.6038881608
 31
0.0
  0
LINE
  5
79
330
1F
100
AcDbEntity
  8
0
  6
Continuous
 62
     7
100
AcDbLine
 10
205.3408264033
 20
343.8390060993
 30
0.0
 11
207.6658264033
 21
343.8390060993
 31
0.0
  0
LINE
  5
7A
330
1F
100
AcDbEntity
  8
0
  6
Continuous
 62
     9
100
AcDbLine
 10
214.4283264033
 20
346.5788881608
 30
0.0
 11
198.5283264033
 21
346.5788881608
 31
0.0
  0
LINE
  5
7B
330
1F
100
AcDbEntity
  8
0
  6
Continuous
 62
     7
100
AcDbLine
 10
198.5283264033
 20
348.3288881608
 30
0.0
 11
214.4283264033
 21
348.3288881608
 31
0.0
  0
LINE
  5
7C
330
1F
100
AcDbEntity
  8
0
  6
Continuous
 62
     7
100
AcDbLine
 10
95.50360939769999
 20
357.7909958164
 30
0.0
 11
194.8386440701
 21
343.3253061192
 31
0.0
  0
LINE
  5
7D
330
1F
100
AcDbEntity
  8
0
  6
Continuous
 62
     7
100
AcDbLine
 10
229.4283264033
 20
364.1788881608
 30
0.0
 11
267.314112841
 21
364.1788881608
 31
0.0
  0
LINE
  5
7E
330
1F
100
AcDbEntity
  8
0
  6
Continuous
 62
     7
100
AcDbLine
 10
278.7783264033
 20
364.1788881608
 30
0.0
 11
291.5605594504
 21
364.1788881608
 31
0.0
  0
LINE
  5
7F
330
1F
100
AcDbEntity
  8
0
  6
Continuous
 62
     7
100
AcDbLine
 10
284.5283264033
 20
364.2011905603
 30
0.0
 11
291.5605594504
 21
364.2011905603
 31
0.0
  0
LINE
  5
80
330
1F
100
AcDbEntity
  8
0
  6
Continuous
 62
     7
100
AcDbLine
 10
208.4158264033
 20
424.6164353303
 30
0.0
 11
209.7437047892
 21
426.9163881608
 31
0.0
  0
LINE
  5
81
330
1F
100
AcDbEntity
  8
0
  6
Continuous
 62
     7
100
AcDbLine
 10
198.5283264033
 20
365.2788881608
 30
0.0
 11
214.4283264033
 21
365.2788881608
 31
0.0
  0
LINE
  5
82
330
1F
100
AcDbEntity
  8
0
  6
Continuous
 62
     9
100
AcDbLine
 10
214.4283264033
 20
367.0288881608
 30
0.0
 11
198.5283264033
 21
367.0288881608
 31
0.0
  0
LINE
  5
83
330
1F
100
AcDbEntity
  8
0
  6
Continuous
 62
     7
100
AcDbLine
 10
271.1425399657
 20
367.1788881608
 30
0.0
 11
277.5283264033
 21
367.1788881608
 31
0.0
  0
LWPOLYLINE
  5
84
330
1F
100
AcDbEntity
  8
DEFAULT_2
  6
DASHED
 62
     8
100
AcDbPolyline
 90
        2
 70
     0
 43
0.35
 10
277.5283264033
 20
367.1788881608
 10
284.7283264033
 20
367.1788881608
  0
LINE
  5
85
330
1F
100
AcDbEntity
  8
0
  6
Continuous
 62
     7
100
AcDbLine
 10
284.5283264033
 20
370.5059506667
 30
0.0
 11
291.5605594504
 21
370.5059506667
 31
0.0
  0
LINE
  5
86
330
1F
100
AcDbEntity
  8
0
  6
Continuous
 62
     7
100
AcDbLine
 10
208.4158264033
 20
331.7413409913
 30
0.0
 11
209.7437047892
 21
329.4413881608
 31
0.0
  0
LINE
  5
87
330
1F
100
AcDbEntity
  8
0
  6
Continuous
 62
     7
100
AcDbLine
 10
194.8386440701
 20
343.3253061192
 30
0.0
 11
194.8386440701
 21
413.0324702024
 31
0.0
  0
LWPOLYLINE
  5
88
330
1F
100
AcDbEntity
  8
BG_STARTBEZUEGE
  6
DOT_CENTER
 62
     7
100
AcDbPolyline
 90
        2
 70
     0
 43
0.25
 10
195.3283264033
 20
419.2163881608
 10
195.3283264033
 20
337.5413881608
  0
LWPOLYLINE
  5
89
330
1F
100
AcDbEntity
  8
DEFAULT_2
  6
DASHED
 62
     8
100
AcDbPolyline
 90
        2
 70
     0
 43
0.35
 10
265.1610596668
 20
383.4288881608
 10
284.7283264033
 20
386.1788881608
  0
LINE
  5
8A
330
1F
100
AcDbEntity
  8
0
  6
Continuous
 62
     7
100
AcDbLine
 10
284.5283264033
 20
371.8741280543
 30
0.0
 11
291.5605594504
 21
371.8741280543
 31
0.0
  0
LWPOLYLINE
  5
8B
330
1F
100
AcDbEntity
  8
DEFAULT_2
  6
DASHED
 62
     8
100
AcDbPolyline
 90
        2
 70
     0
 43
0.35
 10
257.7283264033
 20
372.9288881608
 10
265.1610596668
 20
372.9288881608
  0
LWPOLYLINE
  5
8C
330
1F
100
AcDbEntity
  8
TEIL_STARTBEZUEGE
  6
DOT_CENTER
 62
     7
100
AcDbPolyline
 90
        2
 70
     0
 43
0.25
 10
300.1146727468
 20
378.1788881608
 10
90.5783264033
 20
378.1788881608
  0
LINE
  5
8D
330
1F
100
AcDbEntity
  8
0
  6
Continuous
 62
     7
100
AcDbLine
 10
195.8783264033
 20
343.6038881608
 30
0.0
 11
195.8783264033
 21
412.7538881608
 31
0.0
  0
LINE
  5
8E
330
1F
100
AcDbEntity
  8
0
  6
Continuous
 62
     9
100
AcDbLine
 10
197.5283264033
 20
343.6038881608
 30
0.0
 11
197.5283264033
 21
412.7538881608
 31
0.0
  0
LINE
  5
8F
330
1F
100
AcDbEntity
  8
0
  6
Continuous
 62
     7
100
AcDbLine
 10
198.5283264033
 20
330.4413881608
 30
0.0
 11
198.5283264033
 21
425.9162061322
 31
0.0
  0
LINE
  5
90
330
1F
100
AcDbEntity
  8
0
  6
Continuous
 62
     9
100
AcDbLine
 10
199.5283264033
 20
426.9163881608
 30
0.0
 11
199.5283264033
 21
391.0788881608
 31
0.0
  0
LINE
  5
91
330
1F
100
AcDbEntity
  8
0
  6
Continuous
 62
     9
100
AcDbLine
 10
199.5283264033
 20
329.4413881608
 30
0.0
 11
199.5283264033
 21
339.6519961729
 31
0.0
  0
LINE
  5
92
330
1F
100
AcDbEntity
  8
0
  6
Continuous
 62
     9
100
AcDbLine
 10
199.5283264033
 20
348.3288881608
 30
0.0
 11
199.5283264033
 21
365.2788881608
 31
0.0
  0
LWPOLYLINE
  5
93
330
1F
100
AcDbEntity
  8
DEFAULT_2
  6
DASHED
 62
     8
100
AcDbPolyline
 90
        2
 70
     0
 43
0.35
 10
257.7283264033
 20
383.4288881608
 10
265.1610596668
 20
383.4288881608
  0
LINE
  5
94
330
1F
100
AcDbEntity
  8
0
  6
Continuous
 62
     7
100
AcDbLine
 10
284.5283264033
 20
384.4836482673
 30
0.0
 11
291.5605594504
 21
384.4836482673
 31
0.0
  0
LINE
  5
95
330
1F
100
AcDbEntity
  8
0
  6
Continuous
 62
     7
100
AcDbLine
 10
284.5283264033
 20
385.8518256549
 30
0.0
 11
291.5605594504
 21
385.8518256549
 31
0.0
  0
LWPOLYLINE
  5
96
330
1F
100
AcDbEntity
  8
DEFAULT_2
  6
DASHED
 62
     8
100
AcDbPolyline
 90
        2
 70
     0
 43
0.35
 10
265.1610596668
 20
372.9288881608
 10
284.7283264033
 20
370.1788881608
  0
LINE
  5
97
330
1F
100
AcDbEntity
  8
0
  6
Continuous
 62
     7
100
AcDbLine
 10
203.2629480175
 20
426.9163881608
 30
0.0
 11
203.2629480175
 21
391.0788881608
 31
0.0
  0
LINE
  5
98
330
1F
100
AcDbEntity
  8
0
  6
Continuous
 62
     7
100
AcDbLine
 10
203.2629480175
 20
365.2788881608
 30
0.0
 11
203.2629480175
 21
348.3288881608
 31
0.0
  0
LINE
  5
99
330
1F
100
AcDbEntity
  8
0
  6
Continuous
 62
     7
100
AcDbLine
 10
203.2629480175
 20
339.6519961729
 30
0.0
 11
203.2629480175
 21
329.4413881608
 31
0.0
  0
LINE
  5
9A
330
1F
100
AcDbEntity
  8
0
  6
Continuous
 62
     7
100
AcDbLine
 10
204.5908264033
 20
424.6162635586
 30
0.0
 11
204.5908264033
 21
391.0788881608
 31
0.0
  0
LINE
  5
9B
330
1F
100
AcDbEntity
  8
0
  6
Continuous
 62
     7
100
AcDbLine
 10
204.5908264033
 20
331.7414645735
 30
0.0
 11
204.5908264033
 21
342.8512785615
 31
0.0
  0
LINE
  5
9C
330
1F
100
AcDbEntity
  8
0
  6
Continuous
 62
     7
100
AcDbLine
 10
204.5908264033
 20
348.3288881608
 30
0.0
 11
204.5908264033
 21
365.2788881608
 31
0.0
  0
LINE
  5
9D
330
1F
100
AcDbEntity
  8
0
  6
Continuous
 62
     9
100
AcDbLine
 10
205.3408264033
 20
423.6788881608
 30
0.0
 11
205.3408264033
 21
391.0788881608
 31
0.0
  0
LINE
  5
9E
330
1F
100
AcDbEntity
  8
0
  6
Continuous
 62
     9
100
AcDbLine
 10
205.3408264033
 20
332.6788881608
 30
0.0
 11
205.3408264033
 21
343.8390060993
 31
0.0
  0
LINE
  5
9F
330
1F
100
AcDbEntity
  8
0
  6
Continuous
 62
     9
100
AcDbLine
 10
205.3408264033
 20
348.3288881608
 30
0.0
 11
205.3408264033
 21
365.2788881608
 31
0.0
  0
LINE
  5
A0
330
1F
100
AcDbEntity
  8
0
  6
Continuous
 62
     9
100
AcDbLine
 10
207.6658264033
 20
423.6788881608
 30
0.0
 11
207.6658264033
 21
391.0788881608
 31
0.0
  0
LINE
  5
A1
330
1F
100
AcDbEntity
  8
0
  6
Continuous
 62
     9
100
AcDbLine
 10
207.6658264033
 20
332.6788881608
 30
0.0
 11
207.6658264033
 21
343.8390060993
 31
0.0
  0
LINE
  5
A2
330
1F
100
AcDbEntity
  8
0
  6
Continuous
 62
     9
100
AcDbLine
 10
207.6658264033
 20
348.3288881608
 30
0.0
 11
207.6658264033
 21
365.2788881608
 31
0.0
  0
LINE
  5
A3
330
1F
100
AcDbEntity
  8
0
  6
Continuous
 62
     7
100
AcDbLine
 10
208.4158264033
 20
424.6162635586
 30
0.0
 11
208.4158264033
 21
391.0788881608
 31
0.0
  0
LINE
  5
A4
330
1F
100
AcDbEntity
  8
0
  6
Continuous
 62
     7
100
AcDbLine
 10
208.4158264033
 20
331.7414645735
 30
0.0
 11
208.4158264033
 21
342.8512785615
 31
0.0
  0
LINE
  5
A5
330
1F
100
AcDbEntity
  8
0
  6
Continuous
 62
     7
100
AcDbLine
 10
208.4158264033
 20
348.3288881608
 30
0.0
 11
208.4158264033
 21
365.2788881608
 31
0.0
  0
LINE
  5
A6
330
1F
100
AcDbEntity
  8
0
  6
Continuous
 62
     7
100
AcDbLine
 10
209.7437047892
 20
426.9163881608
 30
0.0
 11
209.7437047892
 21
391.0788881608
 31
0.0
  0
LINE
  5
A7
330
1F
100
AcDbEntity
  8
0
  6
Continuous
 62
     7
100
AcDbLine
 10
209.7437047892
 20
365.2788881608
 30
0.0
 11
209.7437047892
 21
348.3288881608
 31
0.0
  0
LINE
  5
A8
330
1F
100
AcDbEntity
  8
0
  6
Continuous
 62
     7
100
AcDbLine
 10
209.7437047892
 20
339.6519961729
 30
0.0
 11
209.7437047892
 21
329.4413881608
 31
0.0
  0
LINE
  5
A9
330
1F
100
AcDbEntity
  8
0
  6
Continuous
 62
     7
100
AcDbLine
 10
271.1425399657
 20
389.1788881608
 30
0.0
 11
277.5283264033
 21
389.1788881608
 31
0.0
  0
LWPOLYLINE
  5
AA
330
1F
100
AcDbEntity
  8
DEFAULT_2
  6
DASHED
 62
     8
100
AcDbPolyline
 90
        2
 70
     0
 43
0.35
 10
277.5283264033
 20
389.1788881608
 10
284.7283264033
 20
389.1788881608
  0
LINE
  5
AB
330
1F
100
AcDbEntity
  8
0
  6
Continuous
 62
     9
100
AcDbLine
 10
214.4283264033
 20
389.3288881608
 30
0.0
 11
198.5283264033
 21
389.3288881608
 31
0.0
  0
LINE
  5
AC
330
1F
100
AcDbEntity
  8
0
  6
Continuous
 62
     7
100
AcDbLine
 10
198.5283264033
 20
391.0788881608
 30
0.0
 11
214.4283264033
 21
391.0788881608
 31
0.0
  0
LINE
  5
AD
330
1F
100
AcDbEntity
  8
0
  6
Continuous
 62
     7
100
AcDbLine
 10
284.5283264033
 20
392.1565857613
 30
0.0
 11
291.5605594504
 21
392.1565857613
 31
0.0
  0
LINE
  5
AE
330
1F
100
AcDbEntity
  8
RUNDUNGEN
  6
Continuous
 62
     7
100
AcDbLine
 10
291.5605594504
 20
392.1788881608
 30
0.0
 11
278.7783264033
 21
392.1788881608
 31
0.0
  0
LINE
  5
AF
330
1F
100
AcDbEntity
  8
0
  6
Continuous
 62
     7
100
AcDbLine
 10
229.4283264033
 20
392.1788881608
 30
0.0
 11
267.314112841
 21
392.1788881608
 31
0.0
  0
LINE
  5
B0
330
1F
100
AcDbEntity
  8
0
  6
Continuous
 62
     7
100
AcDbLine
 10
278.7783264033
 20
392.1788881608
 30
0.0
 11
291.5605594504
 21
392.1788881608
 31
0.0
  0
LINE
  5
B1
330
1F
100
AcDbEntity
  8
0
  6
Continuous
 62
     9
100
AcDbLine
 10
213.4283264033
 20
426.9163881608
 30
0.0
 11
213.4283264033
 21
391.0788881608
 31
0.0
  0
LINE
  5
B2
330
1F
100
AcDbEntity
  8
0
  6
Continuous
 62
     9
100
AcDbLine
 10
213.4283264033
 20
329.4413881608
 30
0.0
 11
213.4283264033
 21
339.6519961729
 31
0.0
  0
LINE
  5
B3
330
1F
100
AcDbEntity
  8
0
  6
Continuous
 62
     9
100
AcDbLine
 10
213.4283264033
 20
348.3288881608
 30
0.0
 11
213.4283264033
 21
365.2788881608
 31
0.0
  0
LINE
  5
B4
330
1F
100
AcDbEntity
  8
0
  6
Continuous
 62
     7
100
AcDbLine
 10
214.4283264033
 20
330.4413881608
 30
0.0
 11
214.4283264033
 21
425.9163881608
 31
0.0
  0
LINE
  5
B5
330
1F
100
AcDbEntity
  8
RUNDUNGEN
  6
Continuous
 62
     9
100
AcDbLine
 10
229.4283264033
 20
392.1788881608
 30
0.0
 11
229.4283264033
 21
364.1788881608
 31
0.0
  0
LINE
  5
B6
330
1F
100
AcDbEntity
  8
0
  6
Continuous
 62
     7
100
AcDbLine
 10
203.2629480175
 20
329.4413881608
 30
0.0
 11
204.5908264033
 21
331.7413409913
 31
0.0
  0
LINE
  5
B7
330
1F
100
AcDbEntity
  8
0
  6
Continuous
 62
     7
100
AcDbLine
 10
95.50360939769999
 20
398.5667805052
 30
0.0
 11
194.8386440701
 21
413.0324702024
 31
0.0
  0
LINE
  5
B8
330
1F
100
AcDbEntity
  8
0
  6
Continuous
 62
     7
100
AcDbLine
 10
195.8783264033
 20
412.7538881608
 30
0.0
 11
197.5283264033
 21
412.7538881608
 31
0.0
  0
LINE
  5
B9
330
1F
100
AcDbEntity
  8
0
  6
Continuous
 62
     7
100
AcDbLine
 10
194.8386440701
 20
413.0324702024
 30
0.0
 11
195.8783264033
 21
412.7538881608
 31
0.0
  0
LINE
  5
BA
330
1F
100
AcDbEntity
  8
0
  6
Continuous
 62
     7
100
AcDbLine
 10
203.2629480175
 20
426.9163881608
 30
0.0
 11
204.5908264033
 21
424.6164353303
 31
0.0
  0
LINE
  5
BB
330
1F
100
AcDbEntity
  8
0
  6
Continuous
 62
     7
100
AcDbLine
 10
205.3408264033
 20
423.6788881608
 30
0.0
 11
207.6658264033
 21
423.6788881608
 31
0.0
  0
LINE
  5
BC
330
1F
100
AcDbEntity
  8
0
  6
Continuous
 62
     7
100
AcDbLine
 10
199.5283264033
 20
426.9163881608
 30
0.0
 11
203.2629480175
 21
426.9163881608
 31
0.0
  0
LINE
  5
BD
330
1F
100
AcDbEntity
  8
0
  6
Continuous
 62
     7
100
AcDbLine
 10
209.7437047892
 20
426.9163881608
 30
0.0
 11
213.4283264033
 21
426.9163881608
 31
0.0
  0
LWPOLYLINE
  5
BE
330
1F
100
AcDbEntity
  8
DEFAULT_2
  6
DASHED
 62
     8
100
AcDbPolyline
 90
        2
 70
     0
 43
0.35
 10
257.7283264033
 20
372.9290312604
 10
257.7283264033
 20
383.4287450612
  0
LINE
  5
BF
330
1F
100
AcDbEntity
  8
0
  6
Continuous
 62
     7
100
AcDbLine
 10
268.0212196221
 20
364.4717813796
 30
0.0
 11
270.4354331845
 21
366.885994942
 31
0.0
  0
LINE
  5
C0
330
1F
100
AcDbEntity
  8
0
  6
Continuous
 62
     7
100
AcDbLine
 10
268.0212196221
 20
391.885994942
 30
0.0
 11
270.4354331845
 21
389.4717813796
 31
0.0
  0
LWPOLYLINE
  5
C1
330
1F
100
AcDbEntity
  8
DEFAULT_2
  6
DASHED
 62
     8
100
AcDbPolyline
 90
        2
 70
     0
 43
0.35
 10
265.1610596668
 20
383.4288881608
 10
265.1610596668
 20
372.9288881608
  0
LINE
  5
C2
330
1F
100
AcDbEntity
  8
RUNDUNGEN
  6
Continuous
 62
     9
100
AcDbLine
 10
267.314112841
 20
364.1788881608
 30
0.0
 11
267.314112841
 21
392.1788881608
 31
0.0
  0
LINE
  5
C3
330
1F
100
AcDbEntity
  8
RUNDUNGEN
  6
Continuous
 62
     9
100
AcDbLine
 10
268.0212196221
 20
364.4717813796
 30
0.0
 11
268.0212196221
 21
391.885994942
 31
0.0
  0
LINE
  5
C4
330
1F
100
AcDbEntity
  8
RUNDUNGEN
  6
Continuous
 62
     9
100
AcDbLine
 10
270.4354331845
 20
389.4717813796
 30
0.0
 11
270.4354331845
 21
366.885994942
 31
0.0
  0
LINE
  5
C5
330
1F
100
AcDbEntity
  8
RUNDUNGEN
  6
Continuous
 62
     9
100
AcDbLine
 10
271.1425399657
 20
389.1788881608
 30
0.0
 11
271.1425399657
 21
367.1788881608
 31
0.0
  0
LINE
  5
C6
330
1F
100
AcDbEntity
  8
RUNDUNGEN
  6
Continuous
 62
     7
100
AcDbLine
 10
277.5283264033
 20
365.4288881608
 30
0.0
 11
277.5283264033
 21
390.9288881608
 31
0.0
  0
LINE
  5
C7
330
1F
100
AcDbEntity
  8
RUNDUNGEN
  6
Continuous
 62
     7
100
AcDbLine
 10
295.3283264033
 20
367.4288881608
 30
0.0
 11
292.4444429268
 21
364.5450046843
 31
0.0
  0
LINE
  5
C8
330
1F
100
AcDbEntity
  8
0
  6
Continuous
 62
     7
100
AcDbLine
 10
292.4444429268
 20
364.5450046843
 30
0.0
 11
295.3283264033
 21
367.4288881608
 31
0.0
  0
LINE
  5
C9
330
1F
100
AcDbEntity
  8
0
  6
Continuous
 62
     7
100
AcDbLine
 10
292.4444429268
 20
391.8127716373
 30
0.0
 11
295.3283264033
 21
388.9288881608
 31
0.0
  0
LINE
  5
CA
330
1F
100
AcDbEntity
  8
RUNDUNGEN
  6
Continuous
 62
     7
100
AcDbLine
 10
295.3283264033
 20
388.9288881608
 30
0.0
 11
292.4444429268
 21
391.8127716373
 31
0.0
  0
LINE
  5
CB
330
1F
100
AcDbEntity
  8
RUNDUNGEN
  6
Continuous
 62
     9
100
AcDbLine
 10
278.7783264033
 20
364.1788881608
 30
0.0
 11
278.7783264033
 21
392.1788881608
 31
0.0
  0
LINE
  5
CC
330
1F
100
AcDbEntity
  8
0
  6
Continuous
 62
     7
100
AcDbLine
 10
284.5283264033
 20
392.1565857613
 30
0.0
 11
284.5283264033
 21
385.8518256549
 31
0.0
  0
LINE
  5
CD
330
1F
100
AcDbEntity
  8
0
  6
Continuous
 62
     7
100
AcDbLine
 10
284.5283264033
 20
384.4836482673
 30
0.0
 11
284.5283264033
 21
371.8741280543
 31
0.0
  0
LINE
  5
CE
330
1F
100
AcDbEntity
  8
0
  6
Continuous
 62
     7
100
AcDbLine
 10
284.5283264033
 20
370.5059506667
 30
0.0
 11
284.5283264033
 21
364.2011905603
 31
0.0
  0
LWPOLYLINE
  5
CF
330
1F
100
AcDbEntity
  8
DEFAULT_2
  6
DASHED
 62
     8
100
AcDbPolyline
 90
        2
 70
     0
 43
0.35
 10
284.7283264033
 20
367.1790804255
 10
284.7283264033
 20
389.1786958961
  0
LINE
  5
D0
330
1F
100
AcDbEntity
  8
0
  6
Continuous
 62
     9
100
AcDbLine
 10
291.5605594504
 20
364.1788881608
 30
0.0
 11
291.5605594504
 21
364.2011905603
 31
0.0
  0
LINE
  5
D1
330
1F
100
AcDbEntity
  8
0
  6
Continuous
 62
     9
100
AcDbLine
 10
291.5605594504
 20
370.5059506667
 30
0.0
 11
291.5605594504
 21
371.8741280543
 31
0.0
  0
LINE
  5
D2
330
1F
100
AcDbEntity
  8
0
  6
Continuous
 62
     9
100
AcDbLine
 10
291.5605594504
 20
384.4836482673
 30
0.0
 11
291.5605594504
 21
385.8518256549
 31
0.0
  0
LINE
  5
D3
330
1F
100
AcDbEntity
  8
0
  6
Continuous
 62
     9
100
AcDbLine
 10
291.5605594504
 20
392.1565857613
 30
0.0
 11
291.5605594504
 21
392.1788881608
 31
0.0
  0
LINE
  5
D4
330
1F
100
AcDbEntity
  8
0
  6
Continuous
 62
     9
100
AcDbLine
 10
292.4444429268
 20
364.5450046843
 30
0.0
 11
292.4444429268
 21
364.6317707196
 31
0.0
  0
LINE
  5
D5
330
1F
100
AcDbEntity
  8
0
  6
Continuous
 62
     9
100
AcDbLine
 10
292.4444429268
 20
370.0753705074
 30
0.0
 11
292.4444429268
 21
372.735288373
 31
0.0
  0
LINE
  5
D6
330
1F
100
AcDbEntity
  8
0
  6
Continuous
 62
     9
100
AcDbLine
 10
292.4444429268
 20
383.6224879487
 30
0.0
 11
292.4444429268
 21
386.2824058142
 31
0.0
  0
LINE
  5
D7
330
1F
100
AcDbEntity
  8
0
  6
Continuous
 62
     9
100
AcDbLine
 10
292.4444429268
 20
391.726005602
 30
0.0
 11
292.4444429268
 21
391.8127716373
 31
0.0
  0
LINE
  5
D8
330
1F
100
AcDbEntity
  8
0
  6
Continuous
 62
     7
100
AcDbLine
 10
295.3283264033
 20
388.9288881608
 30
0.0
 11
295.3283264033
 21
367.4288881608
 31
0.0
  0
ARC
  5
D9
330
1F
100
AcDbEntity
  8
0
  6
Continuous
 62
     7
100
AcDbCircle
 10
-47.4630497751
 20
454.1295821386
 30
0.0
 40
275.6240984704151
100
AcDbArc
 50
335.459299317832
 51
336.1325788932999
  0
ARC
  5
DA
330
1F
100
AcDbEntity
  8
0
  6
Continuous
 62
     7
100
AcDbCircle
 10
460.4697025812
 20
454.1295821383
 30
0.0
 40
275.6240984697998
100
AcDbArc
 50
203.8674211067001
 51
204.5407006821631
  0
ARC
  5
DB
330
1F
100
AcDbEntity
  8
RUNDUNGEN
  6
Continuous
 62
     7
100
AcDbCircle
 10
229.4283264033
 20
407.1788881608
 30
0.0
 40
15.0
100
AcDbArc
 50
180.0
 51
270.0
  0
ARC
  5
DC
330
1F
100
AcDbEntity
  8
RUNDUNGEN
  6
Continuous
 62
     7
100
AcDbCircle
 10
229.4283264033
 20
349.1788881608
 30
0.0
 40
15.0
100
AcDbArc
 50
90.0
 51
180.0
  0
ARC
  5
DD
330
1F
100
AcDbEntity
  8
0
  6
Continuous
 62
     7
100
AcDbCircle
 10
95.8283264033
 20
360.0174411596
 30
0.0
 40
2.25
100
AcDbArc
 50
180.0
 51
261.7021731726453
  0
ARC
  5
DE
330
1F
100
AcDbEntity
  8
0
  6
Continuous
 62
     7
100
AcDbCircle
 10
95.8283264033
 20
396.340335162
 30
0.0
 40
2.249999999996176
100
AcDbArc
 50
98.29782682735467
 51
180.0
  0
ARC
  5
DF
330
1F
100
AcDbEntity
  8
RUNDUNGEN
  6
Continuous
 62
     7
100
AcDbCircle
 10
291.5605594504
 20
390.9288881608
 30
0.0
 40
1.249999999953063
100
AcDbArc
 50
45.00000000324074
 51
90.0
  0
ARC
  5
E0
330
1F
100
AcDbEntity
  8
RUNDUNGEN
  6
Continuous
 62
     7
100
AcDbCircle
 10
291.5605594504
 20
365.4288881608
 30
0.0
 40
1.25
100
AcDbArc
 50
270.0
 51
314.9999999967592
  0
ARC
  5
E1
330
1F
100
AcDbEntity
  8
RUNDUNGEN
  6
Continuous
 62
     7
100
AcDbCircle
 10
278.7783264033
 20
365.4288881608
 30
0.0
 40
1.25
100
AcDbArc
 50
180.0
 51
270.0
  0
ARC
  5
E2
330
1F
100
AcDbEntity
  8
RUNDUNGEN
  6
Continuous
 62
     7
100
AcDbCircle
 10
278.7783264033
 20
390.9288881608
 30
0.0
 40
1.25
100
AcDbArc
 50
90.0
 51
180.0
  0
ARC
  5
E3
330
1F
100
AcDbEntity
  8
RUNDUNGEN
  6
Continuous
 62
     7
100
AcDbCircle
 10
267.314112841
 20
391.1788881608
 30
0.0
 40
0.9999999999483181
100
AcDbArc
 50
45.00000000405322
 51
90.0
  0
ARC
  5
E4
330
1F
100
AcDbEntity
  8
RUNDUNGEN
  6
Continuous
 62
     7
100
AcDbCircle
 10
267.314112841
 20
365.1788881608
 30
0.0
 40
1.0
100
AcDbArc
 50
270.0
 51
314.9999999959468
  0
ARC
  5
E5
330
1F
100
AcDbEntity
  8
RUNDUNGEN
  6
Continuous
 62
     7
100
AcDbCircle
 10
271.1425399657
 20
390.1788881608
 30
0.0
 40
1.00000000001902
100
AcDbArc
 50
225.0000000000023
 51
270.0
  0
ARC
  5
E6
330
1F
100
AcDbEntity
  8
RUNDUNGEN
  6
Continuous
 62
     7
100
AcDbCircle
 10
271.1425399657
 20
366.1788881608
 30
0.0
 40
1.0
100
AcDbArc
 50
90.0
 51
134.9999999999977
  0
ARC
  5
E7
330
1F
100
AcDbEntity
  8
0
  6
Continuous
 62
     7
100
AcDbCircle
 10
197.5283264033
 20
342.6038881608
 30
0.0
 40
1.0
100
AcDbArc
 50
0.0
 51
90.0
  0
ARC
  5
E8
330
1F
100
AcDbEntity
  8
0
  6
Continuous
 62
     7
100
AcDbCircle
 10
199.5283264033
 20
330.4413881608
 30
0.0
 40
1.0
100
AcDbArc
 50
180.0
 51
270.0
  0
ARC
  5
E9
330
1F
100
AcDbEntity
  8
0
  6
Continuous
 62
     7
100
AcDbCircle
 10
213.4283264033
 20
330.4413881608
 30
0.0
 40
1.0
100
AcDbArc
 50
270.0
 51
0.0
  0
ARC
  5
EA
330
1F
100
AcDbEntity
  8
0
  6
Continuous
 62
     7
100
AcDbCircle
 10
197.5283264033
 20
413.7538881608
 30
0.0
 40
1.0
100
AcDbArc
 50
270.0
 51
0.0
  0
ARC
  5
EB
330
1F
100
AcDbEntity
  8
0
  6
Continuous
 62
     7
100
AcDbCircle
 10
213.4283264033
 20
425.9163881608
 30
0.0
 40
1.0
100
AcDbArc
 50
0.0
 51
90.0
  0
ARC
  5
EC
330
1F
100
AcDbEntity
  8
0
  6
Continuous
 62
     7
100
AcDbCircle
 10
199.5283264033
 20
425.9163881608
 30
0.0
 40
1.0
100
AcDbArc
 50
90.0
 51
180.0
  0
ARC
  5
ED
330
1F
100
AcDbEntity
  8
0
  6
Continuous
 62
     7
100
AcDbCircle
 10
207.6658264033
 20
331.9288881608
 30
0.0
 40
0.75
100
AcDbArc
 50
0.0
 51
90.0
  0
ARC
  5
EE
330
1F
100
AcDbEntity
  8
0
  6
Continuous
 62
     7
100
AcDbCircle
 10
205.3408264033
 20
331.9288881608
 30
0.0
 40
0.75
100
AcDbArc
 50
90.0
 51
180.0
  0
ARC
  5
EF
330
1F
100
AcDbEntity
  8
0
  6
Continuous
 62
     7
100
AcDbCircle
 10
207.6658264033
 20
424.4288881608
 30
0.0
 40
0.75
100
AcDbArc
 50
270.0
 51
0.0
  0
ARC
  5
F0
330
1F
100
AcDbEntity
  8
0
  6
Continuous
 62
     7
100
AcDbCircle
 10
205.3408264033
 20
424.4288881608
 30
0.0
 40
0.75
100
AcDbArc
 50
180.0
 51
270.0
  0
SPLINE
  5
F1
330
1F
100
AcDbEntity
  8
0
  6
Continuous
 62
     7
100
AcDbSpline
210
0.0
220
0.0
230
1.0
 70
     8
 71
     3
 72
    23
 73
    19
 74
    17
 42
0.0000000001
 43
0.0000000001
 44
0.00000001
 40
0.0
 40
0.0
 40
0.0
 40
0.0
 40
0.4045796683722165
 40
0.8092579138347364
 40
1.192148523295189
 40
1.575003113750222
 40
1.938545534888192
 40
2.302005654248318
 40
2.653694253924583
 40
3.005361369030798
 40
3.357028596438673
 40
3.708717297711367
 40
4.072176790124844
 40
4.435718602164279
 40
4.818572840246562
 40
5.201463089231064
 40
5.606141105600962
 40
6.010720543411733
 40
6.010720543411733
 40
6.010720543411733
 40
6.010720543411733
 10
292.4444429268
 20
391.726005602
 30
0.0
 10
292.5271822057705
 20
391.6194706002436
 30
0.0
 10
292.6926809233931
 20
391.4063746391471
 30
0.0
 10
292.9142526380748
 20
391.0760811915587
 30
0.0
 10
293.1112479447729
 20
390.7390189236798
 30
0.0
 10
293.2760534374643
 20
390.4000968395849
 30
0.0
 10
293.4091258641278
 20
390.0543987423739
 30
0.0
 10
293.5059436704963
 20
389.7074505625338
 30
0.0
 10
293.56468202275
 20
389.3560449754208
 30
0.0
 10
293.5847732297782
 20
389.0042045025651
 30
0.0
 10
293.5646821951424
 20
388.6523639826203
 30
0.0
 10
293.5059438381833
 20
388.300958522892
 30
0.0
 10
293.4091257274577
 20
387.9540108116387
 30
0.0
 10
293.2760530214667
 20
387.6083133941464
 30
0.0
 10
293.1112474577054
 20
387.2693918418878
 30
0.0
 10
292.9142522161367
 20
386.9323299056243
 30
0.0
 10
292.692680738268
 20
386.6020366305283
 30
0.0
 10
292.5271821439632
 20
386.3889407669851
 30
0.0
 10
292.4444429268
 20
386.2824058142
 30
0.0
 11
292.4444429268
 21
391.726005602
 31
0.0
 11
292.688889000951
 21
391.4036225613599
 31
0.0
 11
292.9146531938591
 21
391.0677728754122
 31
0.0
 11
293.106970490633
 21
390.7366848566399
 31
0.0
 11
293.2737586420917
 21
390.3920700717489
 31
0.0
 11
293.4036555078086
 21
390.0525264129305
 31
0.0
 11
293.5005912423578
 21
389.7022312206531
 31
0.0
 11
293.5583497825656
 21
389.3553179430529
 31
0.0
 11
293.578076325846
 21
389.0042045378156
 31
0.0
 11
293.558349919055
 21
388.6530910124312
 31
0.0
 11
293.5005913016851
 21
388.306177644683
 31
0.0
 11
293.4036553738644
 21
387.9558831563978
 31
0.0
 11
293.2737583081166
 21
387.6163402262534
 31
0.0
 11
293.1069700357587
 21
387.2717258913492
 31
0.0
 11
292.914652827511
 21
386.9406382380318
 31
0.0
 11
292.6888888106957
 21
386.6047887097539
 31
0.0
 11
292.4444429268
 21
386.2824058142
 31
0.0
  0
SPLINE
  5
F2
330
1F
100
AcDbEntity
  8
0
  6
Continuous
 62
     7
100
AcDbSpline
210
0.0
220
0.0
230
1.0
 70
     8
 71
     3
 72
    23
 73
    19
 74
    17
 42
0.0000000001
 43
0.0000000001
 44
0.00000001
 40
0.0
 40
0.0
 40
0.0
 40
0.0
 40
0.4045796683722165
 40
0.8092579138347364
 40
1.192148523295189
 40
1.575003113750222
 40
1.938545534888192
 40
2.302005654248373
 40
2.653694253924638
 40
3.005361369030853
 40
3.357028596438671
 40
3.708717297711364
 40
4.072176790124951
 40
4.435718602164333
 40
4.818572840246565
 40
5.201463089231117
 40
5.606141105601015
 40
6.010720543411741
 40
6.010720543411741
 40
6.010720543411741
 40
6.010720543411741
 10
292.4444429268
 20
370.0753705074
 30
0.0
 10
292.5271822057705
 20
369.9688355056436
 30
0.0
 10
292.6926809233931
 20
369.7557395445472
 30
0.0
 10
292.9142526380748
 20
369.4254460969587
 30
0.0
 10
293.1112479447729
 20
369.0883838290798
 30
0.0
 10
293.2760534374644
 20
368.7494617449848
 30
0.0
 10
293.4091258641278
 20
368.4037636477739
 30
0.0
 10
293.5059436704963
 20
368.0568154679336
 30
0.0
 10
293.56468202275
 20
367.7054098808207
 30
0.0
 10
293.5847732297784
 20
367.3535694079653
 30
0.0
 10
293.5646821951424
 20
367.0017288880204
 30
0.0
 10
293.5059438381832
 20
366.6503234282919
 30
0.0
 10
293.4091257274578
 20
366.3033757170387
 30
0.0
 10
293.2760530214667
 20
365.9576782995463
 30
0.0
 10
293.1112474577054
 20
365.6187567472878
 30
0.0
 10
292.9142522161366
 20
365.2816948110241
 30
0.0
 10
292.6926807382681
 20
364.9514015359284
 30
0.0
 10
292.5271821439631
 20
364.7383056723851
 30
0.0
 10
292.4444429268
 20
364.6317707196
 30
0.0
 11
292.4444429268
 21
370.0753705074
 31
0.0
 11
292.688889000951
 21
369.7529874667599
 31
0.0
 11
292.9146531938591
 21
369.4171377808123
 31
0.0
 11
293.106970490633
 21
369.0860497620399
 31
0.0
 11
293.2737586420917
 21
368.7414349771489
 31
0.0
 11
293.4036555078086
 21
368.4018913183305
 31
0.0
 11
293.5005912423578
 21
368.051596126053
 31
0.0
 11
293.5583497825656
 21
367.7046828484528
 31
0.0
 11
293.578076325846
 21
367.3535694432155
 31
0.0
 11
293.558349919055
 21
367.0024559178312
 31
0.0
 11
293.5005913016851
 21
366.655542550083
 31
0.0
 11
293.4036553738644
 21
366.3052480617977
 31
0.0
 11
293.2737583081166
 21
365.9657051316534
 31
0.0
 11
293.1069700357587
 21
365.6210907967492
 31
0.0
 11
292.914652827511
 21
365.2900031434318
 31
0.0
 11
292.6888888106957
 21
364.9541536151539
 31
0.0
 11
292.4444429268
 21
364.6317707196
 31
0.0
  0
SPLINE
  5
F3
330
1F
100
AcDbEntity
  8
0
  6
Continuous
 62
     7
100
AcDbSpline
210
0.0
220
0.0
230
1.0
 70
     8
 71
     3
 72
    19
 73
    15
 74
    13
 42
0.0000000001
 43
0.0000000001
 44
0.00000001
 40
0.0
 40
0.0
 40
0.0
 40
0.0
 40
1.398113192535601
 40
2.796206055204642
 40
3.495623481970348
 40
4.194871600865708
 40
4.894208814843388
 40
5.593605921869412
 40
6.293003243776266
 40
6.992340665404616
 40
7.691587395733597
 40
8.391003447665858
 40
9.789095198890609
 40
11.1872072514698
 40
11.1872072514698
 40
11.1872072514698
 40
11.1872072514698
 10
292.4444429268
 20
383.6224879487
 30
0.0
 10
292.6086363253671
 20
383.1861051143102
 30
0.0
 10
292.9370207349764
 20
382.3133457909431
 30
0.0
 10
293.2349871441112
 20
381.1844170212527
 30
0.0
 10
293.4110081320128
 20
380.2687069865862
 30
0.0
 10
293.5068832809437
 20
379.5756010480791
 30
0.0
 10
293.5650230128657
 20
378.8783533107189
 30
0.0
 10
293.5846032135099
 20
378.1788857495766
 30
0.0
 10
293.5650232060821
 20
377.4794181118383
 30
0.0
 10
293.5068834628194
 20
376.7821706911744
 30
0.0
 10
293.4110079775577
 20
376.0890656548095
 30
0.0
 10
293.2349865715426
 20
375.1733570198585
 30
0.0
 10
292.9370202814194
 20
374.0444294928587
 30
0.0
 10
292.6086361730651
 20
373.1716708584573
 30
0.0
 10
292.4444429268
 20
372.735288373
 30
0.0
 11
292.4444429268
 21
383.6224879487
 31
0.0
 11
292.9145137365466
 21
382.3057670470028
 31
0.0
 11
293.2737586419438
 21
380.9546168885851
 31
0.0
 11
293.4049893571429
 21
380.2676210834655
 31
0.0
 11
293.500591242335
 21
379.5749391858195
 31
0.0
 11
293.5585947182262
 21
378.8780115456454
 31
0.0
 11
293.5780763258427
 21
378.1788858199844
 31
0.0
 11
293.5585948704919
 21
377.4797598751162
 31
0.0
 11
293.5005913017549
 21
376.7828320343008
 31
0.0
 11
293.404989208137
 21
376.0901515671505
 31
0.0
 11
293.2737583081312
 21
375.4031571970249
 31
0.0
 11
292.9145133454508
 21
374.0520082038967
 31
0.0
 11
292.4444429268
 21
372.735288373
 31
0.0
  0
SPLINE
  5
F4
330
1F
100
AcDbEntity
  8
0
  6
Continuous
 62
     7
100
AcDbSpline
210
0.0
220
0.0
230
1.0
 70
     8
 71
     3
 72
    13
 73
     9
 74
     7
 42
0.0000000001
 43
0.0000000001
 44
0.00000001
 40
0.0
 40
0.0
 40
0.0
 40
0.0
 40
0.1575825051339032
 40
0.3154116525251196
 40
0.4501675780428603
 40
0.5849883928849793
 40
0.8008613044981611
 40
1.016388169298676
 40
1.016388169298676
 40
1.016388169298676
 40
1.016388169298676
 10
291.5605594504
 20
392.1565857613
 30
0.0
 10
291.6131280543185
 20
392.1544322788401
 30
0.0
 10
291.7183475405729
 20
392.1501219433703
 30
0.0
 10
291.8655833128103
 20
392.1175219677157
 30
0.0
 10
292.0002358546138
 20
392.0700771967543
 30
0.0
 10
292.1450546886222
 20
391.9972674798183
 30
0.0
 10
292.3008608204289
 20
391.8876522357237
 30
0.0
 10
292.3966078257915
 20
391.7798589911674
 30
0.0
 10
292.4444429268
 20
391.726005602
 30
0.0
 11
291.5605594504
 21
392.1565857613
 31
0.0
 11
291.7177515231369
 21
392.1454998155599
 31
0.0
 11
291.8721062543618
 21
392.1125656886589
 31
0.0
 11
291.9990886445402
 21
392.0674587928809
 31
0.0
 11
292.1196754160529
 21
392.007163829154
 31
0.0
 11
292.2952066613877
 21
391.8815059767151
 31
0.0
 11
292.4444429268
 21
391.726005602
 31
0.0
  0
SPLINE
  5
F5
330
1F
100
AcDbEntity
  8
0
  6
Continuous
 62
     7
100
AcDbSpline
210
0.0
220
0.0
230
1.0
 70
     8
 71
     3
 72
    13
 73
     9
 74
     7
 42
0.0000000001
 43
0.0000000001
 44
0.00000001
 40
0.0
 40
0.0
 40
0.0
 40
0.0
 40
0.2155274326388235
 40
0.4314008861409065
 40
0.5662218747256714
 40
0.7009779941070051
 40
0.858806397534686
 40
1.016388139790625
 40
1.016388139790625
 40
1.016388139790625
 40
1.016388139790625
 10
292.4444429268
 20
386.2824058142
 30
0.0
 10
292.3966077046886
 20
386.2285522785221
 30
0.0
 10
292.3008604628876
 20
386.1207587474212
 30
0.0
 10
292.1450539022838
 20
386.0111433259134
 30
0.0
 10
292.0002346350313
 20
385.9383337832654
 30
0.0
 10
291.865582117862
 20
385.89088933827
 30
0.0
 10
291.718346782351
 20
385.8582894837775
 30
0.0
 10
291.6131277994747
 20
385.8539791409155
 30
0.0
 10
291.5605594504
 20
385.8518256549
 30
0.0
 11
292.4444429268
 21
386.2824058142
 31
0.0
 11
292.2952062657806
 21
386.1269050321195
 31
0.0
 11
292.1196744818443
 21
386.0012470011184
 31
0.0
 11
291.999087437241
 21
385.9409521950666
 31
0.0
 11
291.8721047801217
 21
385.8958454716028
 31
0.0
 11
291.7177507600261
 21
385.8629115770738
 31
0.0
 11
291.5605594504
 21
385.8518256549
 31
0.0
  0
SPLINE
  5
F6
330
1F
100
AcDbEntity
  8
0
  6
Continuous
 62
     7
100
AcDbSpline
210
0.0
220
0.0
230
1.0
 70
     8
 71
     3
 72
    19
 73
    15
 74
    13
 42
0.0000000001
 43
0.0000000001
 44
0.00000001
 40
0.0
 40
0.0
 40
0.0
 40
0.0
 40
0.0817347758976105
 40
0.1636547658952238
 40
0.2454797815645944
 40
0.3272650967707121
 40
0.4089294290358868
 40
0.4906100323234517
 40
0.5722196571542872
 40
0.6538277052093365
 40
0.8167607585499482
 40
0.9799185438489596
 40
1.142995920425466
 40
1.305956006943833
 40
1.305956006943833
 40
1.305956006943833
 40
1.305956006943833
 10
291.5605594504
 20
384.4836482673
 30
0.0
 10
291.587824863655
 20
384.4824557429379
 30
0.0
 10
291.642417474625
 20
384.4800679919081
 30
0.0
 10
291.722604086217
 20
384.4618405806074
 30
0.0
 10
291.7997330960483
 20
384.4339920645205
 30
0.0
 10
291.8728162014532
 20
384.3968963008181
 30
0.0
 10
291.9413877280189
 20
384.3522157301205
 30
0.0
 10
292.0053555765977
 20
384.3013004184565
 30
0.0
 10
292.0649355004732
 20
384.2453784359014
 30
0.0
 10
292.138708038896
 20
384.1654247488698
 30
0.0
 10
292.2213812229687
 20
384.0571472279242
 30
0.0
 10
292.3067729349484
 20
383.9180346344297
 30
0.0
 10
292.3816212312303
 20
383.7729497297598
 30
0.0
 10
292.4235073843757
 20
383.6726298458906
 30
0.0
 10
292.4444429268
 20
383.6224879487
 30
0.0
 11
291.5605594504
 21
384.4836482673
 31
0.0
 11
291.6420727430996
 21
384.4776352227886
 31
0.0
 11
291.7221219814085
 21
384.4602282067499
 31
0.0
 11
291.7990839344274
 21
384.4324398822804
 31
0.0
 11
291.872106254398
 21
384.3956081219441
 31
0.0
 11
291.9406240444208
 21
384.3511741752962
 31
0.0
 11
292.0046444967437
 21
384.3004484161813
 31
0.0
 11
292.0642384078682
 21
384.2446927292792
 31
0.0
 11
292.1196754160187
 21
384.1848044029153
 31
0.0
 11
292.2190386675161
 21
384.0556760786686
 31
0.0
 11
292.3050275160591
 21
383.9170168531193
 31
0.0
 11
292.3796381061575
 21
383.7720082651107
 31
0.0
 11
292.4444429268
 21
383.6224879487
 31
0.0
  0
SPLINE
  5
F7
330
1F
100
AcDbEntity
  8
0
  6
Continuous
 62
     7
100
AcDbSpline
210
0.0
220
0.0
230
1.0
 70
     8
 71
     3
 72
    19
 73
    15
 74
    13
 42
0.0000000001
 43
0.0000000001
 44
0.00000001
 40
0.0
 40
0.0
 40
0.0
 40
0.0
 40
0.1629604598672512
 40
0.3260382022445237
 40
0.4891963540149374
 40
0.6521298048182429
 40
0.7337380769085302
 40
0.8153478916596911
 40
0.8970282630188264
 40
0.9786924260779211
 40
1.060477265205499
 40
1.142301714416197
 40
1.2242214740199
 40
1.305956089317594
 40
1.305956089317594
 40
1.305956089317594
 40
1.305956089317594
 10
292.4444429268
 20
372.735288373
 30
0.0
 10
292.4235073379288
 20
372.6851463602871
 30
0.0
 10
292.3816210928601
 20
372.5848262476956
 30
0.0
 10
292.3067726088289
 20
372.4397410229807
 30
0.0
 10
292.2213806090036
 20
372.300628161268
 30
0.0
 10
292.1387071492112
 20
372.1923504382564
 30
0.0
 10
292.0649344019315
 20
372.1123965750438
 30
0.0
 10
292.0053543064997
 20
372.0564746747328
 30
0.0
 10
291.9413861957217
 20
372.0055597975498
 30
0.0
 10
291.8728147533
 20
371.9608796684504
 30
0.0
 10
291.7997322054538
 20
371.9237837498826
 30
0.0
 10
291.722603704031
 20
371.8959349965867
 30
0.0
 10
291.6424172912251
 20
371.8777080928626
 30
0.0
 10
291.5878248102822
 20
371.8753205001159
 30
0.0
 10
291.5605594504
 20
371.8741280543
 30
0.0
 11
292.4444429268
 21
372.735288373
 31
0.0
 11
292.3796379583378
 21
372.5857677137493
 31
0.0
 11
292.3050271740984
 21
372.4407588142498
 31
0.0
 11
292.2190380540003
 21
372.3020993258839
 31
0.0
 11
292.1196744818331
 21
372.1729707468751
 31
0.0
 11
292.0642372815121
 21
372.113082293112
 31
0.0
 11
292.0046430888298
 21
372.0573266291642
 31
0.0
 11
291.9406225569794
 21
372.006601343882
 31
0.0
 11
291.8721047801548
 21
371.9621676878637
 31
0.0
 11
291.799083005674
 21
371.9253359031825
 31
0.0
 11
291.7221216722874
 21
371.8975475305782
 31
0.0
 11
291.642072602269
 21
371.8801408248956
 31
0.0
 11
291.5605594504
 21
371.8741280543
 31
0.0
  0
SPLINE
  5
F8
330
1F
100
AcDbEntity
  8
0
  6
Continuous
 62
     7
100
AcDbSpline
210
0.0
220
0.0
230
1.0
 70
     8
 71
     3
 72
    13
 73
     9
 74
     7
 42
0.0000000001
 43
0.0000000001
 44
0.00000001
 40
0.0
 40
0.0
 40
0.0
 40
0.0
 40
0.1575825051339071
 40
0.3154116525251118
 40
0.4501675780428715
 40
0.5849883928849904
 40
0.8008613044981391
 40
1.016388169298654
 40
1.016388169298654
 40
1.016388169298654
 40
1.016388169298654
 10
291.5605594504
 20
370.5059506667
 30
0.0
 10
291.6131280543185
 20
370.5037971842402
 30
0.0
 10
291.7183475405729
 20
370.4994868487702
 30
0.0
 10
291.8655833128103
 20
370.4668868731158
 30
0.0
 10
292.0002358546138
 20
370.4194421021542
 30
0.0
 10
292.1450546886222
 20
370.3466323852184
 30
0.0
 10
292.3008608204289
 20
370.2370171411237
 30
0.0
 10
292.3966078257914
 20
370.1292238965673
 30
0.0
 10
292.4444429268
 20
370.0753705074
 30
0.0
 11
291.5605594504
 21
370.5059506667
 31
0.0
 11
291.7177515231369
 21
370.4948647209599
 31
0.0
 11
291.8721062543618
 21
370.4619305940589
 31
0.0
 11
291.9990886445402
 21
370.4168236982809
 31
0.0
 11
292.1196754160529
 21
370.3565287345539
 31
0.0
 11
292.2952066613877
 21
370.2308708821151
 31
0.0
 11
292.4444429268
 21
370.0753705074
 31
0.0
  0
SPLINE
  5
F9
330
1F
100
AcDbEntity
  8
0
  6
Continuous
 62
     7
100
AcDbSpline
210
0.0
220
0.0
230
1.0
 70
     8
 71
     3
 72
    13
 73
     9
 74
     7
 42
0.0000000001
 43
0.0000000001
 44
0.00000001
 40
0.0
 40
0.0
 40
0.0
 40
0.0
 40
0.2155274326387825
 40
0.4314008861409316
 40
0.5662218747256711
 40
0.7009779941070239
 40
0.858806397534693
 40
1.016388139790632
 40
1.016388139790632
 40
1.016388139790632
 40
1.016388139790632
 10
292.4444429268
 20
364.6317707196
 30
0.0
 10
292.3966077046886
 20
364.5779171839222
 30
0.0
 10
292.3008604628877
 20
364.4701236528215
 30
0.0
 10
292.1450539022838
 20
364.3605082313133
 30
0.0
 10
292.0002346350314
 20
364.2876986886654
 30
0.0
 10
291.8655821178619
 20
364.24025424367
 30
0.0
 10
291.7183467823509
 20
364.2076543891775
 30
0.0
 10
291.6131277994747
 20
364.2033440463156
 30
0.0
 10
291.5605594504
 20
364.2011905603
 30
0.0
 11
292.4444429268
 21
364.6317707196
 31
0.0
 11
292.2952062657806
 21
364.4762699375195
 31
0.0
 11
292.1196744818443
 21
364.3506119065183
 31
0.0
 11
291.999087437241
 21
364.2903171004666
 31
0.0
 11
291.8721047801217
 21
364.2452103770028
 31
0.0
 11
291.7177507600261
 21
364.2122764824738
 31
0.0
 11
291.5605594504
 21
364.2011905603
 31
0.0
  0
SPLINE
  5
FA
330
1F
100
AcDbEntity
  8
0
  6
Continuous
 62
     7
100
AcDbSpline
210
0.0
220
0.0
230
1.0
 70
     8
 71
     3
 72
    17
 73
    13
 74
    11
 42
0.0000000001
 43
0.0000000001
 44
0.00000001
 40
0.0
 40
0.0
 40
0.0
 40
0.0
 40
0.2235602340969671
 40
0.4475666316281031
 40
0.6712655548301967
 40
0.8950713345834402
 40
1.119203328780365
 40
1.342351511418743
 40
1.454388474281369
 40
1.566418982967138
 40
1.678554291441146
 40
1.79046953939765
 40
1.79046953939765
 40
1.79046953939765
 40
1.79046953939765
 10
214.4283264033
 20
340.9250775336
 30
0.0
 10
214.4253863911442
 20
340.8504974722696
 30
0.0
 10
214.4195004993942
 20
340.7011885087543
 30
0.0
 10
214.3715428360696
 20
340.4814979902598
 30
0.0
 10
214.2942000468122
 20
340.2706738058255
 30
0.0
 10
214.1825429114805
 20
340.0752300454537
 30
0.0
 10
214.0372391850519
 20
339.9034193147593
 30
0.0
 10
213.8887303979901
 20
339.7878314628135
 30
0.0
 10
213.7559847750401
 20
339.719136215126
 30
0.0
 10
213.6502971425473
 20
339.6810888633606
 30
0.0
 10
213.5403994687183
 20
339.6566861158681
 30
0.0
 10
213.4656596221626
 20
339.6535584632382
 30
0.0
 10
213.4283264033
 20
339.6519961729
 30
0.0
 11
214.4283264033
 21
340.9250775336
 31
0.0
 11
214.4129968885686
 21
340.7020434908003
 31
0.0
 11
214.3666192042768
 21
340.4828906296859
 31
0.0
 11
214.2885016670975
 21
340.2732746507463
 31
0.0
 11
214.1769754388692
 21
340.0792361817044
 31
0.0
 11
214.03152311134
 21
339.9087111945646
 31
0.0
 11
213.8545771240536
 21
339.7727507996032
 31
0.0
 11
213.7550008305333
 21
339.7214006017824
 31
0.0
 11
213.6496223455253
 21
339.6833715369264
 31
0.0
 11
213.5399578165998
 21
339.6599617419232
 31
0.0
 11
213.4283264033
 21
339.6519961729
 31
0.0
  0
SPLINE
  5
FB
330
1F
100
AcDbEntity
  8
0
  6
Continuous
 62
     7
100
AcDbSpline
210
0.0
220
0.0
230
1.0
 70
     8
 71
     3
 72
    17
 73
    13
 74
    11
 42
0.0000000001
 43
0.0000000001
 44
0.00000001
 40
0.0
 40
0.0
 40
0.0
 40
0.0
 40
0.0856061207782852
 40
0.1714040658185429
 40
0.2570770785295162
 40
0.3427486324290224
 40
0.5133560119372642
 40
0.684786460756168
 40
0.8559332498428726
 40
1.026944760364574
 40
1.198166489420921
 40
1.369069305167871
 40
1.369069305167871
 40
1.369069305167871
 40
1.369069305167871
 10
205.3408264033
 20
343.8390060993
 30
0.0
 10
205.3122670759235
 20
343.837724963391
 30
0.0
 10
205.2550844260747
 20
343.8351598208326
 30
0.0
 10
205.1712420804612
 20
343.8152872645388
 30
0.0
 10
205.0910303546143
 20
343.7844655535615
 30
0.0
 10
204.9909147656483
 20
343.7293083663439
 30
0.0
 10
204.8799051933467
 20
343.6377087809993
 30
0.0
 10
204.7723918454601
 20
343.5034344311785
 30
0.0
 10
204.6899707677276
 20
343.3524158246422
 30
0.0
 10
204.6329439923514
 20
343.1905322826647
 30
0.0
 10
204.5974084174287
 20
343.0224162115504
 30
0.0
 10
204.5930190441499
 20
342.9082889834053
 30
0.0
 10
204.5908264033
 20
342.8512785615
 30
0.0
 11
205.3408264033
 21
343.8390060993
 31
0.0
 11
205.2554680652845
 21
343.8324974860885
 31
0.0
 11
205.1718110341792
 21
343.8134504779304
 31
0.0
 11
205.0918505739329
 21
343.7826902779282
 31
0.0
 11
205.0167337507902
 21
343.7414946710204
 31
0.0
 11
204.8843773209833
 21
343.6338440628872
 31
0.0
 11
204.7765377938396
 21
343.5005810328764
 31
0.0
 11
204.6941780273983
 21
343.3505540610132
 31
0.0
 11
204.6365417888329
 21
343.1895478476706
 31
0.0
 11
204.6022211715708
 21
343.0218010869513
 31
0.0
 11
204.5908264033
 21
342.8512785615
 31
0.0
  0
SPLINE
  5
FC
330
1F
100
AcDbEntity
  8
0
  6
Continuous
 62
     7
100
AcDbSpline
210
0.0
220
0.0
230
1.0
 70
     8
 71
     3
 72
    17
 73
    13
 74
    11
 42
0.0000000001
 43
0.0000000001
 44
0.00000001
 40
0.0
 40
0.0
 40
0.0
 40
0.0
 40
0.1709021129121859
 40
0.3421231434977747
 40
0.5131353763840095
 40
0.6842828841296127
 40
0.8557140430166262
 40
1.026322127398849
 40
1.111993247384484
 40
1.197665821289307
 40
1.283463468635702
 40
1.369069297522681
 40
1.369069297522681
 40
1.369069297522681
 40
1.369069297522681
 10
208.4158264033
 20
342.8512785615
 30
0.0
 10
208.4136337751937
 20
342.9082887486821
 30
0.0
 10
208.4092444273534
 20
343.022415508836
 30
0.0
 10
208.373709018414
 20
343.1905313732267
 30
0.0
 10
208.3166823385875
 20
343.3524152154475
 30
0.0
 10
208.2342609849136
 20
343.503434502461
 30
0.0
 10
208.126747105746
 20
343.6377093562401
 30
0.0
 10
208.0157371355368
 20
343.7293089961668
 30
0.0
 10
207.9156215105255
 20
343.7844659940131
 30
0.0
 10
207.8354101152339
 20
343.8152874738127
 30
0.0
 10
207.7515680860182
 20
343.8351598599066
 30
0.0
 10
207.6943856331529
 20
343.8377249763804
 30
0.0
 10
207.6658264033
 20
343.8390060993
 30
0.0
 11
208.4158264033
 21
342.8512785615
 31
0.0
 11
208.4044317110803
 21
343.0218003876311
 31
0.0
 11
208.3701113597074
 21
343.1895464898106
 31
0.0
 11
208.3124750424572
 21
343.3505534422399
 31
0.0
 11
208.2301149918225
 21
343.5005810779174
 31
0.0
 11
208.1222749443816
 21
343.633844600328
 31
0.0
 11
207.9899178089319
 21
343.741495457975
 31
0.0
 11
207.9148012988256
 21
343.7826907332994
 31
0.0
 11
207.8348412117527
 21
343.8134506811986
 31
0.0
 11
207.751184453057
 21
343.8324975448434
 31
0.0
 11
207.6658264033
 21
343.8390060993
 31
0.0
  0
SPLINE
  5
FD
330
1F
100
AcDbEntity
  8
0
  6
Continuous
 62
     7
100
AcDbSpline
210
0.0
220
0.0
230
1.0
 70
     8
 71
     3
 72
    17
 73
    13
 74
    11
 42
0.0000000001
 43
0.0000000001
 44
0.00000001
 40
0.0
 40
0.0
 40
0.0
 40
0.0
 40
0.111915447666157
 40
0.2240509586530723
 40
0.3360819825981237
 40
0.448119461702585
 40
0.6712673498095222
 40
0.8953990333268007
 40
1.119204507490585
 40
1.342903129543679
 40
1.566909390283671
 40
1.790469488977747
 40
1.790469488977747
 40
1.790469488977747
 40
1.790469488977747
 10
199.5283264033
 20
339.6519961729
 30
0.0
 10
199.4909931176769
 20
339.6535584724015
 30
0.0
 10
199.4162531366648
 20
339.6566861434095
 30
0.0
 10
199.3063551772758
 20
339.6810890345398
 30
0.0
 10
199.2006671952034
 20
339.7191366385581
 30
0.0
 10
199.0679214549589
 20
339.7878322010152
 30
0.0
 10
198.9194128403327
 20
339.9034202057973
 30
0.0
 10
198.7741094345263
 20
340.0752308022928
 30
0.0
 10
198.6624525385237
 20
340.2706743413883
 30
0.0
 10
198.5851098805036
 20
340.481498307383
 30
0.0
 10
198.537152292383
 20
340.701188644949
 30
0.0
 10
198.531266410523
 20
340.8504975175134
 30
0.0
 10
198.5283264033
 20
340.9250775336
 30
0.0
 11
199.5283264033
 21
339.6519961729
 31
0.0
 11
199.4166947928463
 21
339.6599617848552
 31
0.0
 11
199.3070300808448
 21
339.683371692286
 31
0.0
 11
199.2016511508499
 21
339.7214010419954
 31
0.0
 11
199.1020744745263
 21
339.7727516238464
 31
0.0
 11
198.9251288933301
 21
339.9087120639078
 31
0.0
 11
198.7796768942972
 21
340.079236922898
 31
0.0
 11
198.668150904264
 21
340.273275176376
 31
0.0
 11
198.5900335209378
 21
340.4828908912705
 31
0.0
 11
198.5436558951849
 21
340.7020436249524
 31
0.0
 11
198.5283264033
 21
340.9250775336
 31
0.0
  0
DIMENSION
  5
108
330
1F
100
AcDbEntity
  8
1
100
AcDbDimension
  2
*D2
 10
307.997814055314
 20
386.1788881608
 30
0.0
 11
304.247814055314
 21
377.642817481525
 31
0.0
 70
    32
  1
<>
 71
     5
 42
-1.0
 53
90.0
  3
ME10_DIM_10
100
AcDbAlignedDimension
 13
284.7283264033
 23
370.1788881608
 33
0.0
 14
284.7283264033
 24
386.1788881608
 34
0.0
 50
90.0
100
AcDbRotatedDimension
  0
DIMENSION
  5
113
330
1F
100
AcDbEntity
  8
1
100
AcDbDimension
  2
*D3
 10
316.576307112438
 20
392.1788881608
 30
0.0
 11
312.826307112438
 21
378.530247797779
 31
0.0
 70
    32
  1
<>
 71
     5
 42
-1.0
 53
90.0
  3
ME10_DIM_11
100
AcDbAlignedDimension
 13
267.314112841
 23
364.1788881608
 33
0.0
 14
267.314112841
 24
392.1788881608
 34
0.0
 50
90.0
100
AcDbRotatedDimension
  0
DIMENSION
  5
11E
330
1F
100
AcDbEntity
  8
1
100
AcDbDimension
  2
*D4
 10
284.7283264033
 20
433.255117300123
 30
0.0
 11
249.8959024686383
 21
437.005117300123
 31
0.0
 70
    32
  1
<>
 71
     5
 42
-1.0
 53
0.00013888888889
  3
ME10_DIM_12
100
AcDbAlignedDimension
 13
214.4283264033
 23
425.9163881608
 33
0.0
 14
284.7283264033
 24
389.1788881608
 34
0.0
100
AcDbRotatedDimension
  0
DIMENSION
  5
129
330
1F
100
AcDbEntity
  8
1
100
AcDbDimension
  2
*D5
 10
284.7283264033
 20
440.798274988284
 30
0.0
 11
239.961489809156
 21
444.548274988284
 31
0.0
 70
    32
  1
<>
 71
     5
 42
-1.0
 53
0.00013888888889
  3
ME10_DIM_13
100
AcDbAlignedDimension
 13
195.3283264033
 23
419.2163881608
 33
0.0
 14
284.7283264033
 24
389.1786958961
 34
0.0
100
AcDbRotatedDimension
  0
DIMENSION
  5
134
330
1F
100
AcDbEntity
  8
1
100
AcDbDimension
  2
*D6
 10
195.3283264033
 20
448.933052887282
 30
0.0
 11
243.067495916046
 21
452.683052887282
 31
0.0
 70
    32
  1
<>
 71
     5
 42
-1.0
 53
0.00013888888889
  3
ME10_DIM_14
100
AcDbAlignedDimension
 13
295.3283264033
 23
388.9288881608
 33
0.0
 14
195.3283264033
 24
419.2163881608
 34
0.0
100
AcDbRotatedDimension
  0
DIMENSION
  5
13F
330
1F
100
AcDbEntity
  8
1
100
AcDbDimension
  2
*D7
 10
284.7283264033
 20
456.772020680861
 30
0.0
 11
202.245701368351
 21
460.522020680861
 31
0.0
 70
    32
  1
<>
 71
     5
 42
-1.0
 53
0.00013888888889
  3
ME10_DIM_15
100
AcDbAlignedDimension
 13
93.5783264033
 23
396.3401223608
 33
0.0
 14
284.7283264033
 24
389.1788881608
 34
0.0
100
AcDbRotatedDimension
  0
INSERT
  5
146
330
1F
100
AcDbEntity
  8
1
100
AcDbBlockReference
  2
*D8
 10
0.0
 20
0.0
 30
0.0
  0
ENDSEC
  0
SECTION
  2
OBJECTS
  0
DICTIONARY
  5
C
330
0
100
AcDbDictionary
281
     1
  3
ACAD_GROUP
350
D
  3
ACAD_LAYOUT
350
1A
  3
ACAD_MLEADERSTYLE
350
149
  3
ACAD_MLINESTYLE
350
17
  3
ACAD_PLOTSETTINGS
350
19
  3
ACAD_PLOTSTYLENAME
350
E
  3
ACAD_SCALELIST
350
4A
  3
ACAD_VISUALSTYLE
350
2A
  3
AcDbVariableDictionary
350
147
  0
DICTIONARY
  5
D
102
{ACAD_REACTORS
330
C
102
}
330
C
100
AcDbDictionary
281
     1
  0
DICTIONARY
  5
1A
102
{ACAD_REACTORS
330
C
102
}
330
C
100
AcDbDictionary
281
     1
  3
Layout1
350
1E
  3
Layout2
350
26
  3
Model
350
22
  0
DICTIONARY
  5
149
102
{ACAD_REACTORS
330
C
102
}
330
C
100
AcDbDictionary
281
     1
  0
DICTIONARY
  5
17
102
{ACAD_REACTORS
330
C
102
}
330
C
100
AcDbDictionary
281
     1
  3
Standard
350
18
  0
DICTIONARY
  5
19
102
{ACAD_REACTORS
330
C
102
}
330
C
100
AcDbDictionary
281
     1
  0
ACDBDICTIONARYWDFLT
  5
E
102
{ACAD_REACTORS
330
C
102
}
330
C
100
AcDbDictionary
281
     1
  3
Normal
350
F
100
AcDbDictionaryWithDefault
340
F
  0
DICTIONARY
  5
4A
102
{ACAD_REACTORS
330
C
102
}
330
C
100
AcDbDictionary
281
     1
  3
A0
350
4B
  3
A1
350
4C
  3
A2
350
4D
  3
A3
350
4E
  3
A4
350
4F
  3
A5
350
50
  3
A6
350
51
  3
A7
350
52
  3
A8
350
53
  3
A9
350
54
  3
B0
350
55
  3
B1
350
56
  3
B2
350
57
  3
B3
350
58
  3
B4
350
59
  3
B5
350
5A
  3
B6
350
5B
  3
B7
350
5C
  3
B8
350
5D
  3
B9
350
5E
  3
C0
350
5F
  3
C1
350
60
  3
C2
350
61
  3
C3
350
62
  3
C4
350
63
  3
C5
350
64
  3
C6
350
65
  3
C7
350
66
  3
C8
350
67
  3
C9
350
68
  3
D0
350
69
  3
D1
350
6A
  3
D2
350
6B
  0
DICTIONARY
  5
2A
102
{ACAD_REACTORS
330
C
102
}
330
C
100
AcDbDictionary
281
     1
  3
2dWireframe
350
2F
  3
3D Hidden
350
31
  3
3dWireframe
350
30
  3
Basic
350
32
  3
Brighten
350
36
  3
ColorChange
350
3A
  3
Conceptual
350
34
  3
Dim
350
35
  3
Facepattern
350
39
  3
Flat
350
2B
  3
FlatWithEdges
350
2C
  3
Gouraud
350
2D
  3
GouraudWithEdges
350
2E
  3
Linepattern
350
38
  3
Realistic
350
33
  3
Thicken
350
37
  0
DICTIONARY
  5
147
102
{ACAD_REACTORS
330
C
102
}
330
C
100
AcDbDictionary
281
     1
  3
CANNOSCALE
350
14A
  0
LAYOUT
  5
1E
102
{ACAD_REACTORS
330
1A
102
}
330
1A
100
AcDbPlotSettings
  1

  2
none_device
  4

  6

 40
0.0
 41
0.0
 42
0.0
 43
0.0
 44
0.0
 45
0.0
 46
0.0
 47
0.0
 48
0.0
 49
0.0
140
0.0
141
0.0
142
1.0
143
1.0
 70
   688
 72
     0
 73
     0
 74
     5
  7

 75
    16
147
1.0
148
0.0
149
0.0
100
AcDbLayout
  1
Layout1
 70
     1
 71
     1
 10
0.0
 20
0.0
 11
12.0
 21
9.0
 12
0.0
 22
0.0
 32
0.0
 14
1.00000000000000E+20
 24
1.00000000000000E+20
 34
1.00000000000000E+20
 15
-1.00000000000000E+20
 25
-1.00000000000000E+20
 35
-1.00000000000000E+20
146
0.0
 13
0.0
 23
0.0
 33
0.0
 16
1.0
 26
0.0
 36
0.0
 17
0.0
 27
1.0
 37
0.0
 76
     0
330
1B
  0
LAYOUT
  5
26
102
{ACAD_REACTORS
330
1A
102
}
330
1A
100
AcDbPlotSettings
  1

  2
none_device
  4

  6

 40
0.0
 41
0.0
 42
0.0
 43
0.0
 44
0.0
 45
0.0
 46
0.0
 47
0.0
 48
0.0
 49
0.0
140
0.0
141
0.0
142
1.0
143
1.0
 70
   688
 72
     0
 73
     0
 74
     5
  7

 75
    16
147
1.0
148
0.0
149
0.0
100
AcDbLayout
  1
Layout2
 70
     1
 71
     2
 10
0.0
 20
0.0
 11
0.0
 21
0.0
 12
0.0
 22
0.0
 32
0.0
 14
0.0
 24
0.0
 34
0.0
 15
0.0
 25
0.0
 35
0.0
146
0.0
 13
0.0
 23
0.0
 33
0.0
 16
1.0
 26
0.0
 36
0.0
 17
0.0
 27
1.0
 37
0.0
 76
     0
330
23
  0
LAYOUT
  5
22
102
{ACAD_REACTORS
330
1A
102
}
330
1A
100
AcDbPlotSettings
  1

  2
none_device
  4

  6

 40
0.0
 41
0.0
 42
0.0
 43
0.0
 44
0.0
 45
0.0
 46
0.0
 47
0.0
 48
0.0
 49
0.0
140
0.0
141
0.0
142
1.0
143
1.0
 70
  1712
 72
     0
 73
     0
 74
     0
  7

 75
     0
147
1.0
148
0.0
149
0.0
100
AcDbLayout
  1
Model
 70
     1
 71
     0
 10
0.0
 20
0.0
 11
12.0
 21
9.0
 12
0.0
 22
0.0
 32
0.0
 14
73.6708954367532
 24
329.4413881608
 34
0.0
 15
318.576307112438
 25
462.272020680861
 35
0.0
146
0.0
 13
0.0
 23
0.0
 33
0.0
 16
1.0
 26
0.0
 36
0.0
 17
0.0
 27
1.0
 37
0.0
 76
     0
330
1F
331
29
  0
MLINESTYLE
  5
18
102
{ACAD_REACTORS
330
17
102
}
330
17
100
AcDbMlineStyle
  2
Standard
 70
     0
  3

 62
   256
 51
90.0
 52
90.0
 71
     2
 49
0.5
 62
   256
  6
BYLAYER
 49
-0.5
 62
   256
  6
BYLAYER
  0
ACDBPLACEHOLDER
  5
F
102
{ACAD_REACTORS
330
E
102
}
330
E
  0
SCALE
  5
4B
102
{ACAD_REACTORS
330
4A
102
}
330
4A
100
AcDbScale
 70
     0
300
1:1
140
1.0
141
1.0
290
     1
  0
SCALE
  5
4C
102
{ACAD_REACTORS
330
4A
102
}
330
4A
100
AcDbScale
 70
     0
300
1:2
140
1.0
141
2.0
290
     0
  0
SCALE
  5
4D
102
{ACAD_REACTORS
330
4A
102
}
330
4A
100
AcDbScale
 70
     0
300
1:4
140
1.0
141
4.0
290
     0
  0
SCALE
  5
4E
102
{ACAD_REACTORS
330
4A
102
}
330
4A
100
AcDbScale
 70
     0
300
1:5
140
1.0
141
5.0
290
     0
  0
SCALE
  5
4F
102
{ACAD_REACTORS
330
4A
102
}
330
4A
100
AcDbScale
 70
     0
300
1:8
140
1.0
141
8.0
290
     0
  0
SCALE
  5
50
102
{ACAD_REACTORS
330
4A
102
}
330
4A
100
AcDbScale
 70
     0
300
1:10
140
1.0
141
10.0
290
     0
  0
SCALE
  5
51
102
{ACAD_REACTORS
330
4A
102
}
330
4A
100
AcDbScale
 70
     0
300
1:16
140
1.0
141
16.0
290
     0
  0
SCALE
  5
52
102
{ACAD_REACTORS
330
4A
102
}
330
4A
100
AcDbScale
 70
     0
300
1:20
140
1.0
141
20.0
290
     0
  0
SCALE
  5
53
102
{ACAD_REACTORS
330
4A
102
}
330
4A
100
AcDbScale
 70
     0
300
1:30
140
1.0
141
30.0
290
     0
  0
SCALE
  5
54
102
{ACAD_REACTORS
330
4A
102
}
330
4A
100
AcDbScale
 70
     0
300
1:40
140
1.0
141
40.0
290
     0
  0
SCALE
  5
55
102
{ACAD_REACTORS
330
4A
102
}
330
4A
100
AcDbScale
 70
     0
300
1:50
140
1.0
141
50.0
290
     0
  0
SCALE
  5
56
102
{ACAD_REACTORS
330
4A
102
}
330
4A
100
AcDbScale
 70
     0
300
1:100
140
1.0
141
100.0
290
     0
  0
SCALE
  5
57
102
{ACAD_REACTORS
330
4A
102
}
330
4A
100
AcDbScale
 70
     0
300
2:1
140
2.0
141
1.0
290
     0
  0
SCALE
  5
58
102
{ACAD_REACTORS
330
4A
102
}
330
4A
100
AcDbScale
 70
     0
300
4:1
140
4.0
141
1.0
290
     0
  0
SCALE
  5
59
102
{ACAD_REACTORS
330
4A
102
}
330
4A
100
AcDbScale
 70
     0
300
8:1
140
8.0
141
1.0
290
     0
  0
SCALE
  5
5A
102
{ACAD_REACTORS
330
4A
102
}
330
4A
100
AcDbScale
 70
     0
300
10:1
140
10.0
141
1.0
290
     0
  0
SCALE
  5
5B
102
{ACAD_REACTORS
330
4A
102
}
330
4A
100
AcDbScale
 70
     0
300
100:1
140
100.0
141
1.0
290
     0
  0
SCALE
  5
5C
102
{ACAD_REACTORS
330
4A
102
}
330
4A
100
AcDbScale
 70
     0
300
1/128" = 1'-0"
140
0.0078125
141
12.0
290
     0
  0
SCALE
  5
5D
102
{ACAD_REACTORS
330
4A
102
}
330
4A
100
AcDbScale
 70
     0
300
1/64" = 1'-0"
140
0.015625
141
12.0
290
     0
  0
SCALE
  5
5E
102
{ACAD_REACTORS
330
4A
102
}
330
4A
100
AcDbScale
 70
     0
300
1/32" = 1'-0"
140
0.03125
141
12.0
290
     0
  0
SCALE
  5
5F
102
{ACAD_REACTORS
330
4A
102
}
330
4A
100
AcDbScale
 70
     0
300
1/16" = 1'-0"
140
0.0625
141
12.0
290
     0
  0
SCALE
  5
60
102
{ACAD_REACTORS
330
4A
102
}
330
4A
100
AcDbScale
 70
     0
300
3/32" = 1'-0"
140
0.09375
141
12.0
290
     0
  0
SCALE
  5
61
102
{ACAD_REACTORS
330
4A
102
}
330
4A
100
AcDbScale
 70
     0
300
1/8" = 1'-0"
140
0.125
141
12.0
290
     0
  0
SCALE
  5
62
102
{ACAD_REACTORS
330
4A
102
}
330
4A
100
AcDbScale
 70
     0
300
3/16" = 1'-0"
140
0.1875
141
12.0
290
     0
  0
SCALE
  5
63
102
{ACAD_REACTORS
330
4A
102
}
330
4A
100
AcDbScale
 70
     0
300
1/4" = 1'-0"
140
0.25
141
12.0
290
     0
  0
SCALE
  5
64
102
{ACAD_REACTORS
330
4A
102
}
330
4A
100
AcDbScale
 70
     0
300
3/8" = 1'-0"
140
0.375
141
12.0
290
     0
  0
SCALE
  5
65
102
{ACAD_REACTORS
330
4A
102
}
330
4A
100
AcDbScale
 70
     0
300
1/2" = 1'-0"
140
0.5
141
12.0
290
     0
  0
SCALE
  5
66
102
{ACAD_REACTORS
330
4A
102
}
330
4A
100
AcDbScale
 70
     0
300
3/4" = 1'-0"
140
0.75
141
12.0
290
     0
  0
SCALE
  5
67
102
{ACAD_REACTORS
330
4A
102
}
330
4A
100
AcDbScale
 70
     0
300
1" = 1'-0"
140
1.0
141
12.0
290
     0
  0
SCALE
  5
68
102
{ACAD_REACTORS
330
4A
102
}
330
4A
100
AcDbScale
 70
     0
300
1-1/2" = 1'-0"
140
1.5
141
12.0
290
     0
  0
SCALE
  5
69
102
{ACAD_REACTORS
330
4A
102
}
330
4A
100
AcDbScale
 70
     0
300
3" = 1'-0"
140
3.0
141
12.0
290
     0
  0
SCALE
  5
6A
102
{ACAD_REACTORS
330
4A
102
}
330
4A
100
AcDbScale
 70
     0
300
6" = 1'-0"
140
6.0
141
12.0
290
     0
  0
SCALE
  5
6B
102
{ACAD_REACTORS
330
4A
102
}
330
4A
100
AcDbScale
 70
     0
300
1'-0" = 1'-0"
140
12.0
141
12.0
290
     0
  0
VISUALSTYLE
  5
2F
102
{ACAD_REACTORS
330
2A
102
}
330
2A
100
AcDbVisualStyle
  2
2dWireframe
 70
     4
 71
     0
 72
     2
 73
     0
 90
        0
 40
-0.6
 41
-30.0
 62
     5
 63
     7
 74
     1
 91
        4
 64
     7
 65
   257
 75
     1
175
     1
 42
1.0
 92
        0
 66
   257
 43
1.0
 76
     1
 77
     6
 78
     2
 67
     7
 79
     5
170
     0
171
     0
290
     0
174
     0
 93
        1
 44
0.0
173
     0
291
     0
 45
0.0
1001
ACAD
1000
AcDbSavedByObjectVersion
1070
     0
  0
VISUALSTYLE
  5
31
102
{ACAD_REACTORS
330
2A
102
}
330
2A
100
AcDbVisualStyle
  2
3D Hidden
 70
     6
 71
     1
 72
     2
 73
     2
 90
        0
 40
-0.6
 41
-30.0
 62
     5
 63
     7
 74
     2
 91
        2
 64
     7
 65
   257
 75
     2
175
     1
 42
40.0
 92
        0
 66
   257
 43
1.0
 76
     1
 77
     6
 78
     2
 67
     7
 79
     3
170
     0
171
     0
290
     0
174
     0
 93
        1
 44
0.0
173
     0
291
     0
 45
0.0
1001
ACAD
1000
AcDbSavedByObjectVersion
1070
     0
  0
VISUALSTYLE
  5
30
102
{ACAD_REACTORS
330
2A
102
}
330
2A
100
AcDbVisualStyle
  2
3dWireframe
 70
     5
 71
     0
 72
     2
 73
     0
 90
        0
 40
-0.6
 41
-30.0
 62
     5
 63
     7
 74
     1
 91
        4
 64
     7
 65
   257
 75
     1
175
     1
 42
1.0
 92
        0
 66
   257
 43
1.0
 76
     1
 77
     6
 78
     2
 67
     7
 79
     5
170
     0
171
     0
290
     0
174
     0
 93
        1
 44
0.0
173
     0
291
     0
 45
0.0
1001
ACAD
1000
AcDbSavedByObjectVersion
1070
     0
  0
VISUALSTYLE
  5
32
102
{ACAD_REACTORS
330
2A
102
}
330
2A
100
AcDbVisualStyle
  2
Basic
 70
     7
 71
     1
 72
     0
 73
     1
 90
        0
 40
-0.6
 41
-30.0
 62
     5
 63
     7
 74
     0
 91
        4
 64
     7
 65
   257
 75
     1
175
     1
 42
1.0
 92
        8
 66
     7
 43
1.0
 76
     1
 77
     6
 78
     2
 67
     7
 79
     5
170
     0
171
     0
290
     0
174
     0
 93
        1
 44
0.0
173
     0
291
     1
 45
0.0
1001
ACAD
1000
AcDbSavedByObjectVersion
1070
     0
  0
VISUALSTYLE
  5
36
102
{ACAD_REACTORS
330
2A
102
}
330
2A
100
AcDbVisualStyle
  2
Brighten
 70
    12
 71
     2
 72
     2
 73
     0
 90
        0
 40
-0.6
 41
-30.0
 62
     5
 63
     7
 74
     1
 91
        4
 64
     7
 65
   257
 75
     1
175
     1
 42
1.0
 92
        8
 66
     7
 43
1.0
 76
     1
 77
     6
 78
     2
 67
     7
 79
     5
170
     0
171
     0
290
     0
174
     0
 93
        1
 44
50.0
173
     0
291
     1
 45
0.0
1001
ACAD
1000
AcDbSavedByObjectVersion
1070
     0
  0
VISUALSTYLE
  5
3A
102
{ACAD_REACTORS
330
2A
102
}
330
2A
100
AcDbVisualStyle
  2
ColorChange
 70
    16
 71
     2
 72
     2
 73
     3
 90
        0
 40
-0.6
 41
-30.0
 62
     5
 63
     8
 74
     1
 91
        4
 64
     7
 65
   257
 75
     1
175
     1
 42
1.0
 92
        8
 66
     8
 43
1.0
 76
     1
 77
     6
 78
     2
 67
     7
 79
     5
170
     0
171
     0
290
     0
174
     0
 93
        1
 44
0.0
173
     0
291
     1
 45
0.0
1001
ACAD
1000
AcDbSavedByObjectVersion
1070
     0
  0
VISUALSTYLE
  5
34
102
{ACAD_REACTORS
330
2A
102
}
330
2A
100
AcDbVisualStyle
  2
Conceptual
 70
     9
 71
     3
 72
     2
 73
     0
 90
        0
 40
-0.6
 41
-30.0
 62
     5
 63
     7
 74
     2
 91
        2
 64
     7
 65
   257
 75
     1
175
     1
 42
40.0
 92
        8
 66
     7
 43
1.0
 76
     1
 77
     6
 78
     2
 67
     7
 79
     3
170
     0
171
     0
290
     0
174
     0
 93
        1
 44
0.0
173
     0
291
     0
 45
0.0
1001
ACAD
1000
AcDbSavedByObjectVersion
1070
     0
  0
VISUALSTYLE
  5
35
102
{ACAD_REACTORS
330
2A
102
}
330
2A
100
AcDbVisualStyle
  2
Dim
 70
    11
 71
     2
 72
     2
 73
     0
 90
        0
 40
-0.6
 41
-30.0
 62
     5
 63
     7
 74
     1
 91
        4
 64
     7
 65
   257
 75
     1
175
     1
 42
1.0
 92
        8
 66
     7
 43
1.0
 76
     1
 77
     6
 78
     2
 67
     7
 79
     5
170
     0
171
     0
290
     0
174
     0
 93
        1
 44
-50.0
173
     0
291
     1
 45
0.0
1001
ACAD
1000
AcDbSavedByObjectVersion
1070
     0
  0
VISUALSTYLE
  5
39
102
{ACAD_REACTORS
330
2A
102
}
330
2A
100
AcDbVisualStyle
  2
Facepattern
 70
    15
 71
     2
 72
     2
 73
     0
 90
        0
 40
-0.6
 41
-30.0
 62
     5
 63
     7
 74
     1
 91
        4
 64
     7
 65
   257
 75
     1
175
     1
 42
1.0
 92
        8
 66
     7
 43
1.0
 76
     1
 77
     6
 78
     2
 67
     7
 79
     5
170
     0
171
     0
290
     0
174
     0
 93
        1
 44
0.0
173
     0
291
     1
 45
0.0
1001
ACAD
1000
AcDbSavedByObjectVersion
1070
     0
  0
VISUALSTYLE
  5
2B
102
{ACAD_REACTORS
330
2A
102
}
330
2A
100
AcDbVisualStyle
  2
Flat
 70
     0
 71
     2
 72
     1
 73
     1
 90
        2
 40
-0.6
 41
30.0
 62
     5
 63
     7
 74
     0
 91
        4
 64
     7
 65
   257
 75
     1
175
     1
 42
1.0
 92
        8
 66
     7
 43
1.0
 76
     1
 77
     6
 78
     2
 67
     7
 79
     5
170
     0
171
     0
290
     0
174
     0
 93
       13
 44
0.0
173
     0
291
     1
 45
0.0
1001
ACAD
1000
AcDbSavedByObjectVersion
1070
     0
  0
VISUALSTYLE
  5
2C
102
{ACAD_REACTORS
330
2A
102
}
330
2A
100
AcDbVisualStyle
  2
FlatWithEdges
 70
     1
 71
     2
 72
     1
 73
     1
 90
        2
 40
-0.6
 41
30.0
 62
     5
 63
     7
 74
     1
 91
        4
 64
     7
 65
   257
 75
     1
175
     1
 42
1.0
 92
        0
 66
   257
 43
1.0
 76
     1
 77
     6
 78
     2
 67
     7
 79
     5
170
     0
171
     0
290
     0
174
     0
 93
       13
 44
0.0
173
     0
291
     1
 45
0.0
1001
ACAD
1000
AcDbSavedByObjectVersion
1070
     0
  0
VISUALSTYLE
  5
2D
102
{ACAD_REACTORS
330
2A
102
}
330
2A
100
AcDbVisualStyle
  2
Gouraud
 70
     2
 71
     2
 72
     2
 73
     1
 90
        2
 40
-0.6
 41
30.0
 62
     5
 63
     7
 74
     0
 91
        4
 64
     7
 65
   257
 75
     1
175
     1
 42
1.0
 92
        0
 66
     7
 43
1.0
 76
     1
 77
     6
 78
     2
 67
     7
 79
     5
170
     0
171
     0
290
     0
174
     0
 93
       13
 44
0.0
173
     0
291
     1
 45
0.0
1001
ACAD
1000
AcDbSavedByObjectVersion
1070
     0
  0
VISUALSTYLE
  5
2E
102
{ACAD_REACTORS
330
2A
102
}
330
2A
100
AcDbVisualStyle
  2
GouraudWithEdges
 70
     3
 71
     2
 72
     2
 73
     1
 90
        2
 40
-0.6
 41
30.0
 62
     5
 63
     7
 74
     1
 91
        4
 64
     7
 65
   257
 75
     1
175
     1
 42
1.0
 92
        0
 66
   257
 43
1.0
 76
     1
 77
     6
 78
     2
 67
     7
 79
     5
170
     0
171
     0
290
     0
174
     0
 93
       13
 44
0.0
173
     0
291
     1
 45
0.0
1001
ACAD
1000
AcDbSavedByObjectVersion
1070
     0
  0
VISUALSTYLE
  5
38
102
{ACAD_REACTORS
330
2A
102
}
330
2A
100
AcDbVisualStyle
  2
Linepattern
 70
    14
 71
     2
 72
     2
 73
     0
 90
        0
 40
-0.6
 41
-30.0
 62
     5
 63
     7
 74
     1
 91
        4
 64
     7
 65
   257
 75
     7
175
     7
 42
1.0
 92
        8
 66
     7
 43
1.0
 76
     1
 77
     6
 78
     2
 67
     7
 79
     5
170
     0
171
     0
290
     0
174
     0
 93
        1
 44
0.0
173
     0
291
     1
 45
0.0
1001
ACAD
1000
AcDbSavedByObjectVersion
1070
     0
  0
VISUALSTYLE
  5
33
102
{ACAD_REACTORS
330
2A
102
}
330
2A
100
AcDbVisualStyle
  2
Realistic
 70
     8
 71
     2
 72
     2
 73
     0
 90
        0
 40
-0.6
 41
-30.0
 62
     5
 63
     7
 74
     1
 91
        0
 64
     7
 65
   257
 75
     1
175
     1
 42
1.0
 92
        8
 66
     8
 43
1.0
 76
     1
 77
     6
 78
     2
 67
     7
 79
     5
170
     0
171
     0
290
     0
174
     0
 93
       13
 44
0.0
173
     0
291
     0
 45
0.0
1001
ACAD
1000
AcDbSavedByObjectVersion
1070
     0
  0
VISUALSTYLE
  5
37
102
{ACAD_REACTORS
330
2A
102
}
330
2A
100
AcDbVisualStyle
  2
Thicken
 70
    13
 71
     2
 72
     2
 73
     0
 90
        0
 40
-0.6
 41
-30.0
 62
     5
 63
     7
 74
     1
 91
        4
 64
     7
 65
   257
 75
     1
175
     1
 42
1.0
 92
       12
 66
     7
 43
1.0
 76
     1
 77
     6
 78
     2
 67
     7
 79
     5
170
     0
171
     0
290
     0
174
     0
 93
        1
 44
0.0
173
     0
291
     1
 45
0.0
1001
ACAD
1000
AcDbSavedByObjectVersion
1070
     0
  0
DICTIONARYVAR
  5
14A
102
{ACAD_REACTORS
330
147
102
}
330
147
100
DictionaryVariables
280
     0
  1
1:1
  0
ENDSEC
  0
EOF
