  0
SECTION
  2
HEADER
  9
$ACADVER
  1
AC1015
  9
$ACADMAINTVER
 70
     6
  9
$DWGCODEPAGE
  3
ANSI_1252
  9
$INSBASE
 10
0.0
 20
0.0
 30
0.0
  9
$EXTMIN
 10
87.243956732835
 20
327.8330123561
 30
0.0
  9
$EXTMAX
 10
301.779123271464
 20
461.539133887836
 30
0.0
  9
$LIMMIN
 10
0.0
 20
0.0
  9
$LIMMAX
 10
12.0
 20
9.0
  9
$ORTHOMODE
 70
     0
  9
$REGENMODE
 70
     1
  9
$FILLMODE
 70
     1
  9
$QTEXTMODE
 70
     0
  9
$MIRRTEXT
 70
     1
  9
$LTSCALE
 40
1.0
  9
$ATTMODE
 70
     1
  9
$TEXTSIZE
 40
0.2
  9
$TRACEWID
 40
0.05
  9
$TEXTSTYLE
  7
Standard
  9
$CLAYER
  8
0
  9
$CELTYPE
  6
ByLayer
  9
$CECOLOR
 62
   256
  9
$CELTSCALE
 40
1.0
  9
$DISPSILH
 70
     0
  9
$DIMSCALE
 40
1.0
  9
$DIMASZ
 40
0.18
  9
$DIMEXO
 40
0.0625
  9
$DIMDLI
 40
0.38
  9
$DIMRND
 40
0.0
  9
$DIMDLE
 40
0.0
  9
$DIMEXE
 40
0.18
  9
$DIMTP
 40
0.0
  9
$DIMTM
 40
0.0
  9
$DIMTXT
 40
0.18
  9
$DIMCEN
 40
0.09
  9
$DIMTSZ
 40
0.0
  9
$DIMTOL
 70
     0
  9
$DIMLIM
 70
     0
  9
$DIMTIH
 70
     1
  9
$DIMTOH
 70
     1
  9
$DIMSE1
 70
     0
  9
$DIMSE2
 70
     0
  9
$DIMTAD
 70
     0
  9
$DIMZIN
 70
     0
  9
$DIMBLK
  1

  9
$DIMASO
 70
     1
  9
$DIMSHO
 70
     1
  9
$DIMPOST
  1

  9
$DIMAPOST
  1

  9
$DIMALT
 70
     0
  9
$DIMALTD
 70
     2
  9
$DIMALTF
 40
25.4
  9
$DIMLFAC
 40
1.0
  9
$DIMTOFL
 70
     0
  9
$DIMTVP
 40
0.0
  9
$DIMTIX
 70
     0
  9
$DIMSOXD
 70
     0
  9
$DIMSAH
 70
     0
  9
$DIMBLK1
  1

  9
$DIMBLK2
  1

  9
$DIMSTYLE
  2
Standard
  9
$DIMCLRD
 70
     0
  9
$DIMCLRE
 70
     0
  9
$DIMCLRT
 70
     0
  9
$DIMTFAC
 40
1.0
  9
$DIMGAP
 40
0.09
  9
$DIMJUST
 70
     0
  9
$DIMSD1
 70
     0
  9
$DIMSD2
 70
     0
  9
$DIMTOLJ
 70
     1
  9
$DIMTZIN
 70
     0
  9
$DIMALTZ
 70
     0
  9
$DIMALTTZ
 70
     0
  9
$DIMUPT
 70
     0
  9
$DIMDEC
 70
     4
  9
$DIMTDEC
 70
     4
  9
$DIMALTU
 70
     2
  9
$DIMALTTD
 70
     2
  9
$DIMTXSTY
  7
Standard
  9
$DIMAUNIT
 70
     0
  9
$DIMADEC
 70
     0
  9
$DIMALTRND
 40
0.0
  9
$DIMAZIN
 70
     0
  9
$DIMDSEP
 70
    46
  9
$DIMATFIT
 70
     3
  9
$DIMFRAC
 70
     0
  9
$DIMLDRBLK
  1

  9
$DIMLUNIT
 70
     2
  9
$DIMLWD
 70
    -2
  9
$DIMLWE
 70
    -2
  9
$DIMTMOVE
 70
     0
  9
$LUNITS
 70
     2
  9
$LUPREC
 70
     4
  9
$SKETCHINC
 40
0.1
  9
$FILLETRAD
 40
0.5
  9
$AUNITS
 70
     0
  9
$AUPREC
 70
     0
  9
$MENU
  1
.
  9
$ELEVATION
 40
0.0
  9
$PELEVATION
 40
0.0
  9
$THICKNESS
 40
0.0
  9
$LIMCHECK
 70
     0
  9
$CHAMFERA
 40
0.5
  9
$CHAMFERB
 40
0.5
  9
$CHAMFERC
 40
1.0
  9
$CHAMFERD
 40
0.0
  9
$SKPOLY
 70
     0
  9
$TDCREATE
 40
2456821.364967743
  9
$TDUCREATE
 40
2456821.28163441
  9
$TDUPDATE
 40
2456821.364967755
  9
$TDUUPDATE
 40
2456821.281634421
  9
$TDINDWG
 40
0.0000000116
  9
$TDUSRTIMER
 40
0.0000000116
  9
$USRTIMER
 70
     1
  9
$ANGBASE
 50
0.0
  9
$ANGDIR
 70
     0
  9
$PDMODE
 70
     0
  9
$PDSIZE
 40
0.0
  9
$PLINEWID
 40
0.0
  9
$SPLFRAME
 70
     0
  9
$SPLINETYPE
 70
     6
  9
$SPLINESEGS
 70
     8
  9
$HANDSEED
  5
155
  9
$SURFTAB1
 70
     6
  9
$SURFTAB2
 70
     6
  9
$SURFTYPE
 70
     6
  9
$SURFU
 70
     6
  9
$SURFV
 70
     6
  9
$UCSBASE
  2

  9
$UCSNAME
  2

  9
$UCSORG
 10
0.0
 20
0.0
 30
0.0
  9
$UCSXDIR
 10
1.0
 20
0.0
 30
0.0
  9
$UCSYDIR
 10
0.0
 20
1.0
 30
0.0
  9
$UCSORTHOREF
  2

  9
$UCSORTHOVIEW
 70
     0
  9
$UCSORGTOP
 10
0.0
 20
0.0
 30
0.0
  9
$UCSORGBOTTOM
 10
0.0
 20
0.0
 30
0.0
  9
$UCSORGLEFT
 10
0.0
 20
0.0
 30
0.0
  9
$UCSORGRIGHT
 10
0.0
 20
0.0
 30
0.0
  9
$UCSORGFRONT
 10
0.0
 20
0.0
 30
0.0
  9
$UCSORGBACK
 10
0.0
 20
0.0
 30
0.0
  9
$PUCSBASE
  2

  9
$PUCSNAME
  2

  9
$PUCSORG
 10
0.0
 20
0.0
 30
0.0
  9
$PUCSXDIR
 10
1.0
 20
0.0
 30
0.0
  9
$PUCSYDIR
 10
0.0
 20
1.0
 30
0.0
  9
$PUCSORTHOREF
  2

  9
$PUCSORTHOVIEW
 70
     0
  9
$PUCSORGTOP
 10
0.0
 20
0.0
 30
0.0
  9
$PUCSORGBOTTOM
 10
0.0
 20
0.0
 30
0.0
  9
$PUCSORGLEFT
 10
0.0
 20
0.0
 30
0.0
  9
$PUCSORGRIGHT
 10
0.0
 20
0.0
 30
0.0
  9
$PUCSORGFRONT
 10
0.0
 20
0.0
 30
0.0
  9
$PUCSORGBACK
 10
0.0
 20
0.0
 30
0.0
  9
$USERI1
 70
     0
  9
$USERI2
 70
     0
  9
$USERI3
 70
     0
  9
$USERI4
 70
     0
  9
$USERI5
 70
     0
  9
$USERR1
 40
16.5
  9
$USERR2
 40
0.0
  9
$USERR3
 40
0.0
  9
$USERR4
 40
0.0
  9
$USERR5
 40
0.0
  9
$WORLDVIEW
 70
     1
  9
$SHADEDGE
 70
     3
  9
$SHADEDIF
 70
    70
  9
$TILEMODE
 70
     1
  9
$MAXACTVP
 70
    64
  9
$PINSBASE
 10
0.0
 20
0.0
 30
0.0
  9
$PLIMCHECK
 70
     0
  9
$PEXTMIN
 10
1.00000000000000E+20
 20
1.00000000000000E+20
 30
1.00000000000000E+20
  9
$PEXTMAX
 10
-1.00000000000000E+20
 20
-1.00000000000000E+20
 30
-1.00000000000000E+20
  9
$PLIMMIN
 10
0.0
 20
0.0
  9
$PLIMMAX
 10
12.0
 20
9.0
  9
$UNITMODE
 70
     0
  9
$VISRETAIN
 70
     1
  9
$PLINEGEN
 70
     0
  9
$PSLTSCALE
 70
     1
  9
$TREEDEPTH
 70
  3020
  9
$CMLSTYLE
  2
Standard
  9
$CMLJUST
 70
     0
  9
$CMLSCALE
 40
1.0
  9
$PROXYGRAPHICS
 70
     1
  9
$MEASUREMENT
 70
     1
  9
$CELWEIGHT
370
    -1
  9
$ENDCAPS
280
     0
  9
$JOINSTYLE
280
     0
  9
$LWDISPLAY
290
     0
  9
$INSUNITS
 70
     1
  9
$HYPERLINKBASE
  1

  9
$STYLESHEET
  1

  9
$XEDIT
290
     1
  9
$CEPSNTYPE
380
     0
  9
$PSTYLEMODE
290
     1
  9
$FINGERPRINTGUID
  2
{0E20BF09-C0D7-4846-9E67-1628724F3405}
  9
$VERSIONGUID
  2
{FAEB1C32-E019-11D5-929B-00C0DF256EC4}
  9
$EXTNAMES
290
     1
  9
$PSVPSCALE
 40
0.0
  9
$OLESTARTUP
290
     0
  0
ENDSEC
  0
SECTION
  2
CLASSES
  0
CLASS
  1
ACDBDICTIONARYWDFLT
  2
AcDbDictionaryWithDefault
  3
ObjectDBX Classes
 90
        0
280
     0
281
     0
  0
CLASS
  1
VISUALSTYLE
  2
AcDbVisualStyle
  3
ObjectDBX Classes
 90
     4095
280
     0
281
     0
  0
CLASS
  1
SCALE
  2
AcDbScale
  3
ObjectDBX Classes
 90
     1153
280
     0
281
     0
  0
CLASS
  1

  2
exOdDbPolyline
  3

 90
        0
280
     0
281
     1
  0
CLASS
  1

  2
exOdDbSpline
  3

 90
        0
280
     0
281
     1
  0
CLASS
  1
DICTIONARYVAR
  2
AcDbDictionaryVar
  3
ObjectDBX Classes
 90
        0
280
     0
281
     0
  0
CLASS
  1
ACDBPLACEHOLDER
  2
AcDbPlaceHolder
  3
ObjectDBX Classes
 90
        0
280
     0
281
     0
  0
CLASS
  1
LAYOUT
  2
AcDbLayout
  3
ObjectDBX Classes
 90
        0
280
     0
281
     0
  0
ENDSEC
  0
SECTION
  2
TABLES
  0
TABLE
  2
VPORT
  5
8
330
0
100
AcDbSymbolTable
 70
     1
  0
VPORT
  5
29
330
8
100
AcDbSymbolTableRecord
100
AcDbViewportTableRecord
  2
*Active
 70
     0
 10
0.0
 20
0.0
 11
1.0
 21
1.0
 12
194.5115400021495
 22
394.686073121968
 13
0.0
 23
0.0
 14
0.5
 24
0.5
 15
0.5
 25
0.5
 16
0.0
 26
0.0
 36
1.0
 17
0.0
 27
0.0
 37
0.0
 40
147.2464207106357
 41
1.60267857142857
 42
50.0
 43
0.0
 44
0.0
 50
0.0
 51
0.0
 71
     0
 72
   100
 73
     1
 74
     3
 75
     0
 76
     0
 77
     0
 78
     0
281
     0
 65
     1
110
0.0
120
0.0
130
0.0
111
1.0
121
0.0
131
0.0
112
0.0
122
1.0
132
0.0
 79
     0
146
0.0
  0
ENDTAB
  0
TABLE
  2
LTYPE
  5
5
330
0
100
AcDbSymbolTable
 70
     8
  0
LTYPE
  5
14
330
5
100
AcDbSymbolTableRecord
100
AcDbLinetypeTableRecord
  2
ByBlock
 70
     0
  3

 72
    65
 73
     0
 40
0.0
  0
LTYPE
  5
15
330
5
100
AcDbSymbolTableRecord
100
AcDbLinetypeTableRecord
  2
ByLayer
 70
     0
  3

 72
    65
 73
     0
 40
0.0
  0
LTYPE
  5
16
330
5
100
AcDbSymbolTableRecord
100
AcDbLinetypeTableRecord
  2
Continuous
 70
     0
  3
Solid line
 72
    65
 73
     0
 40
0.0
  0
LTYPE
  5
3B
330
5
100
AcDbSymbolTableRecord
100
AcDbLinetypeTableRecord
  2
DASHED
 70
     0
  3
Dashed
 72
    65
 73
     2
 40
15.0
 49
7.0
 74
     0
 49
-8.0
 74
     0
  0
LTYPE
  5
3C
330
5
100
AcDbSymbolTableRecord
100
AcDbLinetypeTableRecord
  2
DOTTED
 70
     0
  3
Dotted
 72
    65
 73
     2
 40
1.0
 49
0.0
 74
     0
 49
-1.0
 74
     0
  0
LTYPE
  5
3D
330
5
100
AcDbSymbolTableRecord
100
AcDbLinetypeTableRecord
  2
DOT_CENTER
 70
     0
  3
Dot_Center
 72
    65
 73
     4
 40
14.0
 49
12.0
 74
     0
 49
-1.0
 74
     0
 49
0.0
 74
     0
 49
-1.0
 74
     0
  0
LTYPE
  5
3E
330
5
100
AcDbSymbolTableRecord
100
AcDbLinetypeTableRecord
  2
LONG_DASHED
 70
     0
  3
Long_Dashed
 72
    65
 73
     2
 40
15.0
 49
10.0
 74
     0
 49
-5.0
 74
     0
  0
LTYPE
  5
3F
330
5
100
AcDbSymbolTableRecord
100
AcDbLinetypeTableRecord
  2
DASH_CENTER
 70
     0
  3
Dash_Center
 72
    65
 73
     4
 40
14.0
 49
11.0
 74
     0
 49
-1.0
 74
     0
 49
1.0
 74
     0
 49
-1.0
 74
     0
  0
LTYPE
  5
40
330
5
100
AcDbSymbolTableRecord
100
AcDbLinetypeTableRecord
  2
PHANTOM
 70
     0
  3
Phantom
 72
    65
 73
     6
 40
13.0
 49
10.0
 74
     0
 49
-1.0
 74
     0
 49
0.0
 74
     0
 49
-1.0
 74
     0
 49
0.0
 74
     0
 49
-1.0
 74
     0
  0
LTYPE
  5
41
330
5
100
AcDbSymbolTableRecord
100
AcDbLinetypeTableRecord
  2
CENTER_DASH_DASH
 70
     0
  3
Center_Dash_Dash
 72
    65
 73
     6
 40
14.0
 49
9.0
 74
     0
 49
-1.0
 74
     0
 49
1.0
 74
     0
 49
-1.0
 74
     0
 49
1.0
 74
     0
 49
-1.0
 74
     0
  0
ENDTAB
  0
TABLE
  2
LAYER
  5
2
330
0
100
AcDbSymbolTable
 70
     5
  0
LAYER
  5
10
330
2
100
AcDbSymbolTableRecord
100
AcDbLayerTableRecord
  2
0
 70
     0
 62
     7
  6
Continuous
370
    -3
390
F
  0
LAYER
  5
42
330
2
100
AcDbSymbolTableRecord
100
AcDbLayerTableRecord
  2
1
 70
     0
 62
     7
  6
Continuous
370
    -3
390
F
  0
LAYER
  5
43
330
2
100
AcDbSymbolTableRecord
100
AcDbLayerTableRecord
  2
BG_STARTBEZUEGE
 70
     0
 62
     7
  6
Continuous
370
    -3
390
F
  0
LAYER
  5
44
330
2
100
AcDbSymbolTableRecord
100
AcDbLayerTableRecord
  2
DEFAULT_2
 70
     0
 62
     7
  6
Continuous
370
    -3
390
F
  0
LAYER
  5
45
330
2
100
AcDbSymbolTableRecord
100
AcDbLayerTableRecord
  2
RUNDUNGEN
 70
     0
 62
     7
  6
Continuous
370
    -3
390
F
  0
ENDTAB
  0
TABLE
  2
STYLE
  5
3
330
0
100
AcDbSymbolTable
 70
     2
  0
STYLE
  5
11
330
3
100
AcDbSymbolTableRecord
100
AcDbTextStyleTableRecord
  2
Standard
 70
     0
 40
0.0
 41
1.0
 50
0.0
 71
     0
 42
0.2
  3
txt
  4

  0
STYLE
  5
6C
330
3
100
AcDbSymbolTableRecord
100
AcDbTextStyleTableRecord
  2
CONVERTER_11
 70
     0
 40
0.0
 41
0.72
 50
0.0
 71
     0
 42
0.2
  3
txt.shx
  4

  0
ENDTAB
  0
TABLE
  2
VIEW
  5
6
330
0
100
AcDbSymbolTable
 70
     0
  0
ENDTAB
  0
TABLE
  2
UCS
  5
7
330
0
100
AcDbSymbolTable
 70
     0
  0
ENDTAB
  0
TABLE
  2
APPID
  5
9
330
0
100
AcDbSymbolTable
 70
     1
  0
APPID
  5
12
330
9
100
AcDbSymbolTableRecord
100
AcDbRegAppTableRecord
  2
ACAD
 70
     0
  0
ENDTAB
  0
TABLE
  2
DIMSTYLE
  5
A
330
0
100
AcDbSymbolTable
 70
     7
100
AcDbDimStyleTable
  0
DIMSTYLE
105
27
330
A
100
AcDbSymbolTableRecord
100
AcDbDimStyleTableRecord
  2
Standard
 70
     0
340
11
  0
DIMSTYLE
105
111
102
{ACAD_REACTORS
330
112
102
}
330
A
100
AcDbSymbolTableRecord
100
AcDbDimStyleTableRecord
  2
ME10_DIM_10
 70
     0
  3
\U+2300<>
 41
3.5
 42
2.0
 44
2.0
 71
     1
 73
     0
 74
     0
 77
     1
 78
     8
140
3.5
146
0.7
147
2.0
172
     1
173
     1
176
     2
177
     2
178
     3
271
     2
272
     0
340
6C
  0
DIMSTYLE
105
11C
102
{ACAD_REACTORS
330
11D
102
}
330
A
100
AcDbSymbolTableRecord
100
AcDbDimStyleTableRecord
  2
ME10_DIM_11
 70
     0
  3
\U+2300<>
 41
3.5
 42
2.0
 44
2.0
 71
     1
 73
     0
 74
     0
 77
     1
 78
     8
140
3.5
146
0.7
147
2.0
172
     1
173
     1
176
     2
177
     2
178
     3
271
     2
272
     0
340
6C
  0
DIMSTYLE
105
127
102
{ACAD_REACTORS
330
128
102
}
330
A
100
AcDbSymbolTableRecord
100
AcDbDimStyleTableRecord
  2
ME10_DIM_12
 70
     0
  3
<>
 41
3.5
 42
2.0
 44
2.0
 71
     1
 73
     0
 74
     0
 77
     1
 78
     8
140
3.5
146
0.7
147
2.0
172
     1
173
     1
176
     2
177
     2
178
     3
271
     2
272
     0
340
6C
  0
DIMSTYLE
105
132
102
{ACAD_REACTORS
330
133
102
}
330
A
100
AcDbSymbolTableRecord
100
AcDbDimStyleTableRecord
  2
ME10_DIM_13
 70
     0
  3
<>
 41
3.5
 42
2.0
 44
2.0
 71
     1
 73
     0
 74
     0
 77
     1
 78
     8
140
3.5
146
0.7
147
2.0
172
     1
173
     1
176
     2
177
     2
178
     3
271
     2
272
     0
340
6C
  0
DIMSTYLE
105
13D
102
{ACAD_REACTORS
330
13E
102
}
330
A
100
AcDbSymbolTableRecord
100
AcDbDimStyleTableRecord
  2
ME10_DIM_14
 70
     0
  3
<>
 41
3.5
 42
2.0
 44
2.0
 71
     1
 73
     0
 74
     0
 77
     1
 78
     8
140
3.5
146
0.7
147
2.0
172
     1
173
     1
176
     2
177
     2
178
     3
271
     2
272
     0
340
6C
  0
DIMSTYLE
105
148
102
{ACAD_REACTORS
330
149
102
}
330
A
100
AcDbSymbolTableRecord
100
AcDbDimStyleTableRecord
  2
ME10_DIM_15
 70
     0
  3
<>
 41
3.5
 42
2.0
 44
2.0
 71
     1
 73
     0
 74
     0
 77
     1
 78
     8
140
3.5
146
0.7
147
2.0
172
     1
173
     1
176
     2
177
     2
178
     3
271
     2
272
     0
340
6C
  0
ENDTAB
  0
TABLE
  2
BLOCK_RECORD
  5
1
330
0
100
AcDbSymbolTable
 70
     9
  0
BLOCK_RECORD
  5
1F
330
1
100
AcDbSymbolTableRecord
100
AcDbBlockTableRecord
  2
*Model_Space
340
22
  0
BLOCK_RECORD
  5
1B
330
1
100
AcDbSymbolTableRecord
100
AcDbBlockTableRecord
  2
*Paper_Space
340
1E
  0
BLOCK_RECORD
  5
23
330
1
100
AcDbSymbolTableRecord
100
AcDbBlockTableRecord
  2
*Paper_Space0
340
26
  0
BLOCK_RECORD
  5
46
330
1
100
AcDbSymbolTableRecord
100
AcDbBlockTableRecord
  2
Urheberrecht_DE-EN
340
0
102
{BLKREFS
331
6B
102
}
  0
BLOCK_RECORD
  5
108
330
1
100
AcDbSymbolTableRecord
100
AcDbBlockTableRecord
  2
*D2
340
0
  0
BLOCK_RECORD
  5
113
330
1
100
AcDbSymbolTableRecord
100
AcDbBlockTableRecord
  2
*D3
340
0
  0
BLOCK_RECORD
  5
11E
330
1
100
AcDbSymbolTableRecord
100
AcDbBlockTableRecord
  2
*D4
340
0
  0
BLOCK_RECORD
  5
129
330
1
100
AcDbSymbolTableRecord
100
AcDbBlockTableRecord
  2
*D5
340
0
  0
BLOCK_RECORD
  5
134
330
1
100
AcDbSymbolTableRecord
100
AcDbBlockTableRecord
  2
*D6
340
0
  0
BLOCK_RECORD
  5
13F
330
1
100
AcDbSymbolTableRecord
100
AcDbBlockTableRecord
  2
*D7
340
0
  0
BLOCK_RECORD
  5
14A
330
1
100
AcDbSymbolTableRecord
100
AcDbBlockTableRecord
  2
*D8
340
0
102
{BLKREFS
331
150
102
}
  0
ENDTAB
  0
ENDSEC
  0
SECTION
  2
BLOCKS
  0
BLOCK
  5
20
330
1F
100
AcDbEntity
  8
0
100
AcDbBlockBegin
  2
*Model_Space
 70
     0
 10
0.0
 20
0.0
 30
0.0
  3
*Model_Space
  1

  0
ENDBLK
  5
21
330
1F
100
AcDbEntity
  8
0
100
AcDbBlockEnd
  0
BLOCK
  5
1C
330
1B
100
AcDbEntity
 67
     1
  8
0
100
AcDbBlockBegin
  2
*Paper_Space
 70
     0
 10
0.0
 20
0.0
 30
0.0
  3
*Paper_Space
  1

  0
ENDBLK
  5
1D
330
1B
100
AcDbEntity
 67
     1
  8
0
100
AcDbBlockEnd
  0
BLOCK
  5
24
330
23
100
AcDbEntity
  8
0
100
AcDbBlockBegin
  2
*Paper_Space0
 70
     0
 10
0.0
 20
0.0
 30
0.0
  3
*Paper_Space0
  1

  0
ENDBLK
  5
25
330
23
100
AcDbEntity
  8
0
100
AcDbBlockEnd
  0
BLOCK
  5
47
330
46
100
AcDbEntity
  8
0
100
AcDbBlockBegin
  2
Urheberrecht_DE-EN
 70
     0
 10
101.243956732835
 20
396.082511061956
 30
0.0
  3
Urheberrecht_DE-EN
  1

  0
MTEXT
  5
6D
330
46
100
AcDbEntity
  8
1
 62
     1
100
AcDbMText
 10
101.243956732835
 20
396.082511061956
 30
0.0
 40
2.0
 41
0.0
 71
     7
 72
     1
  1
We own the copyright of this document. It \Pdetermined and may neither be copied or \Pmade accessible to outsiders without our\Ppermission.
  7
CONVERTER_11
 11
0.0
 21
1.0
 31
0.0
 73
     1
 44
0.90036014405762
  0
MTEXT
  5
6E
330
46
100
AcDbEntity
  8
1
 62
     1
100
AcDbMText
 10
101.243956732835
 20
339.7931241446498
 30
0.0
 40
2.0
 41
0.0
 71
     7
 72
     1
  1
F\U+00fcr diese Unterlage behalten wir das Ur-\Pheberrecht. Sie darf nur f\U+00fcr den von uns \Pbestimmten Zweck benutzt und ohne unsere \PZustimmung weder vervielf\U+00e4ltigt noch\PDritten zug\U+00e4nglich gemacht werden.
  7
CONVERTER_11
 11
0.0
 21
1.0
 31
0.0
 73
     1
 44
0.90036014405762
  0
ENDBLK
  5
48
330
46
100
AcDbEntity
  8
0
100
AcDbBlockEnd
  0
BLOCK
  5
10F
330
108
100
AcDbEntity
  8
0
100
AcDbBlockBegin
  2
*D2
 70
     1
 10
0.0
 20
0.0
 30
0.0
  3
*D2
  1

  0
LINE
  5
109
330
108
100
AcDbEntity
  8
1
  6
Continuous
 62
     2
100
AcDbLine
 10
292.135210649753
 20
396.5705123561
 30
0.0
 11
292.135210649753
 21
356.5705123561
 31
0.0
  0
LINE
  5
10A
330
108
100
AcDbEntity
  8
1
  6
Continuous
 62
     2
100
AcDbLine
 10
267.3283264033
 20
396.5705123561
 30
0.0
 11
294.135210649753
 21
396.5705123561
 31
0.0
  0
LINE
  5
10B
330
108
100
AcDbEntity
  8
1
  6
Continuous
 62
     2
100
AcDbLine
 10
267.3283264033
 20
356.5705123561
 30
0.0
 11
294.135210649753
 21
356.5705123561
 31
0.0
  0
SOLID
  5
10C
330
108
100
AcDbEntity
  8
1
 62
     2
100
AcDbTrace
 10
292.5959943913089
 20
393.0705123561
 30
0.0
 11
291.6744269081971
 21
393.0705123561
 31
0.0
 12
292.135210649753
 22
396.5705123561
 32
0.0
 13
292.135210649753
 23
396.5705123561
 33
0.0
  0
SOLID
  5
10D
330
108
100
AcDbEntity
  8
1
 62
     2
100
AcDbTrace
 10
291.6744269081971
 20
360.0705123561
 30
0.0
 11
292.5959943913089
 21
360.0705123561
 31
0.0
 12
292.135210649753
 22
356.5705123561
 32
0.0
 13
292.135210649753
 23
356.5705123561
 33
0.0
  0
MTEXT
  5
10E
330
108
100
AcDbEntity
  8
1
 62
     3
100
AcDbMText
 10
290.135210649753
 20
367.245117733226
 30
0.0
 40
3.5
 41
0.0
 71
     7
 72
     1
  1
\C3;%%c\C3;\C3;40\C2;\H2.45;\S^ ;\C3;
  7
CONVERTER_11
 11
0.0
 21
1.0
 31
0.0
 73
     1
 44
0.60024009603842
  0
ENDBLK
  5
110
330
108
100
AcDbEntity
  8
0
100
AcDbBlockEnd
  0
BLOCK
  5
11A
330
113
100
AcDbEntity
  8
0
100
AcDbBlockBegin
  2
*D3
 70
     1
 10
0.0
 20
0.0
 30
0.0
  3
*D3
  1

  0
LINE
  5
114
330
113
100
AcDbEntity
  8
1
  6
Continuous
 62
     2
100
AcDbLine
 10
299.779123271464
 20
408.0705123561
 30
0.0
 11
299.779123271464
 21
345.0705123561
 31
0.0
  0
LINE
  5
115
330
113
100
AcDbEntity
  8
1
  6
Continuous
 62
     2
100
AcDbLine
 10
278.1425369517
 20
408.0705123561
 30
0.0
 11
301.779123271464
 21
408.0705123561
 31
0.0
  0
LINE
  5
116
330
113
100
AcDbEntity
  8
1
  6
Continuous
 62
     2
100
AcDbLine
 10
278.1425369517
 20
345.0705123561
 30
0.0
 11
301.779123271464
 21
345.0705123561
 31
0.0
  0
SOLID
  5
117
330
113
100
AcDbEntity
  8
1
 62
     2
100
AcDbTrace
 10
300.2399070130199
 20
404.5705123561
 30
0.0
 11
299.3183395299081
 21
404.5705123561
 31
0.0
 12
299.779123271464
 22
408.0705123561
 32
0.0
 13
299.779123271464
 23
408.0705123561
 33
0.0
  0
SOLID
  5
118
330
113
100
AcDbEntity
  8
1
 62
     2
100
AcDbTrace
 10
299.3183395299081
 20
348.5705123561
 30
0.0
 11
300.2399070130199
 21
348.5705123561
 31
0.0
 12
299.779123271464
 22
345.0705123561
 32
0.0
 13
299.779123271464
 23
345.0705123561
 33
0.0
  0
MTEXT
  5
119
330
113
100
AcDbEntity
  8
1
 62
     3
100
AcDbMText
 10
297.779123271464
 20
367.480315044663
 30
0.0
 40
3.5
 41
0.0
 71
     7
 72
     1
  1
\C3;%%c\C3;\C3;63\C2;\H2.45;\S^ ;\C3;
  7
CONVERTER_11
 11
0.0
 21
1.0
 31
0.0
 73
     1
 44
0.60024009603842
  0
ENDBLK
  5
11B
330
113
100
AcDbEntity
  8
0
100
AcDbBlockEnd
  0
BLOCK
  5
125
330
11E
100
AcDbEntity
  8
0
100
AcDbBlockBegin
  2
*D4
 70
     1
 10
0.0
 20
0.0
 30
0.0
  3
*D4
  1

  0
LINE
  5
11F
330
11E
100
AcDbEntity
  8
1
  6
Continuous
 62
     2
100
AcDbLine
 10
265.3283264033001
 20
431.01868995382
 30
0.0
 11
229.4283264033001
 21
431.01868995382
 31
0.0
  0
LINE
  5
120
330
11E
100
AcDbEntity
  8
1
  6
Continuous
 62
     2
100
AcDbLine
 10
265.3283264033001
 20
403.5705123561
 30
0.0
 11
265.3283264033001
 21
433.01868995382
 31
0.0
  0
LINE
  5
121
330
11E
100
AcDbEntity
  8
1
  6
Continuous
 62
     2
100
AcDbLine
 10
229.4283264033001
 20
426.3080123561
 30
0.0
 11
229.4283264033001
 21
433.01868995382
 31
0.0
  0
SOLID
  5
122
330
11E
100
AcDbEntity
  8
1
 62
     2
100
AcDbTrace
 10
261.8283264033001
 20
430.5579062122641
 30
0.0
 11
261.8283264033001
 21
431.4794736953759
 31
0.0
 12
265.3283264033001
 22
431.01868995382
 32
0.0
 13
265.3283264033001
 23
431.01868995382
 33
0.0
  0
SOLID
  5
123
330
11E
100
AcDbEntity
  8
1
 62
     2
100
AcDbTrace
 10
232.9283264033001
 20
431.4794736953759
 30
0.0
 11
232.9283264033001
 21
430.5579062122641
 31
0.0
 12
229.4283264033001
 22
431.01868995382
 32
0.0
 13
229.4283264033001
 23
431.01868995382
 33
0.0
  0
MTEXT
  5
124
330
11E
100
AcDbEntity
  8
1
 62
     3
100
AcDbMText
 10
242.1309339279285
 20
433.01868995382
 30
0.0
 40
3.5
 41
0.0
 71
     7
 72
     1
  1
\C3;\C3;\C3;35.9\C2;\H2.45;\S^ ;\C3;
  7
CONVERTER_11
 11
0.9999999999970619
 21
2.424068405545306E-6
 31
0.0
 73
     1
 44
0.60024009603842
  0
ENDBLK
  5
126
330
11E
100
AcDbEntity
  8
0
100
AcDbBlockEnd
  0
BLOCK
  5
130
330
129
100
AcDbEntity
  8
0
100
AcDbBlockBegin
  2
*D5
 70
     1
 10
0.0
 20
0.0
 30
0.0
  3
*D5
  1

  0
LINE
  5
12A
330
129
100
AcDbEntity
  8
1
  6
Continuous
 62
     2
100
AcDbLine
 10
265.3283264033
 20
439.015398542686
 30
0.0
 11
210.3283264033
 21
439.015398542686
 31
0.0
  0
LINE
  5
12B
330
129
100
AcDbEntity
  8
1
  6
Continuous
 62
     2
100
AcDbLine
 10
265.3283264033
 20
403.5705123561
 30
0.0
 11
265.3283264033
 21
441.015398542686
 31
0.0
  0
LINE
  5
12C
330
129
100
AcDbEntity
  8
1
  6
Continuous
 62
     2
100
AcDbLine
 10
210.3283264033
 20
420.2080123561
 30
0.0
 11
210.3283264033
 21
441.015398542686
 31
0.0
  0
SOLID
  5
12D
330
129
100
AcDbEntity
  8
1
 62
     2
100
AcDbTrace
 10
261.8283264033
 20
438.5546148011301
 30
0.0
 11
261.8283264033
 21
439.4761822842419
 31
0.0
 12
265.3283264033
 22
439.015398542686
 32
0.0
 13
265.3283264033
 23
439.015398542686
 33
0.0
  0
SOLID
  5
12E
330
129
100
AcDbEntity
  8
1
 62
     2
100
AcDbTrace
 10
213.8283264033
 20
439.4761822842419
 30
0.0
 11
213.8283264033
 21
438.5546148011301
 31
0.0
 12
210.3283264033
 22
439.015398542686
 32
0.0
 13
210.3283264033
 23
439.015398542686
 33
0.0
  0
MTEXT
  5
12F
330
129
100
AcDbEntity
  8
1
 62
     3
100
AcDbMText
 10
235.82223036347
 20
441.015398542686
 30
0.0
 40
3.5
 41
0.0
 71
     7
 72
     1
  1
\C3;\C3;\C3;55\C2;\H2.45;\S^ ;\C3;
  7
CONVERTER_11
 11
0.9999999999970619
 21
2.424068405545306E-6
 31
0.0
 73
     1
 44
0.60024009603842
  0
ENDBLK
  5
131
330
129
100
AcDbEntity
  8
0
100
AcDbBlockEnd
  0
BLOCK
  5
13B
330
134
100
AcDbEntity
  8
0
100
AcDbBlockBegin
  2
*D6
 70
     1
 10
0.0
 20
0.0
 30
0.0
  3
*D6
  1

  0
LINE
  5
135
330
134
100
AcDbEntity
  8
1
  6
Continuous
 62
     2
100
AcDbLine
 10
210.3283264033
 20
447.247304442989
 30
0.0
 11
280.3283264033
 21
447.247304442989
 31
0.0
  0
LINE
  5
136
330
134
100
AcDbEntity
  8
1
  6
Continuous
 62
     2
100
AcDbLine
 10
210.3283264033
 20
420.2080123561
 30
0.0
 11
210.3283264033
 21
449.247304442989
 31
0.0
  0
LINE
  5
137
330
134
100
AcDbEntity
  8
1
  6
Continuous
 62
     2
100
AcDbLine
 10
280.3283264033
 20
404.0705123561
 30
0.0
 11
280.3283264033
 21
449.247304442989
 31
0.0
  0
SOLID
  5
138
330
134
100
AcDbEntity
  8
1
 62
     2
100
AcDbTrace
 10
213.8283264033
 20
447.7080881845449
 30
0.0
 11
213.8283264033
 21
446.7865207014331
 31
0.0
 12
210.3283264033
 22
447.247304442989
 32
0.0
 13
210.3283264033
 23
447.247304442989
 33
0.0
  0
SOLID
  5
139
330
134
100
AcDbEntity
  8
1
 62
     2
100
AcDbTrace
 10
276.8283264033
 20
446.7865207014331
 30
0.0
 11
276.8283264033
 21
447.7080881845449
 31
0.0
 12
280.3283264033
 22
447.247304442989
 32
0.0
 13
280.3283264033
 23
447.247304442989
 33
0.0
  0
MTEXT
  5
13A
330
134
100
AcDbEntity
  8
1
 62
     3
100
AcDbMText
 10
245.112524165241
 20
449.247304442989
 30
0.0
 40
3.5
 41
0.0
 71
     7
 72
     1
  1
\C3;\C3;\C3;70\C2;\H2.45;\S^ ;\C3;
  7
CONVERTER_11
 11
0.9999999999970619
 21
2.424068405545306E-6
 31
0.0
 73
     1
 44
0.60024009603842
  0
ENDBLK
  5
13C
330
134
100
AcDbEntity
  8
0
100
AcDbBlockEnd
  0
BLOCK
  5
146
330
13F
100
AcDbEntity
  8
0
100
AcDbBlockBegin
  2
*D7
 70
     1
 10
0.0
 20
0.0
 30
0.0
  3
*D7
  1

  0
LINE
  5
140
330
13F
100
AcDbEntity
  8
1
  6
Continuous
 62
     2
100
AcDbLine
 10
265.3283264033
 20
456.039133887836
 30
0.0
 11
108.5783264033
 21
456.039133887836
 31
0.0
  0
LINE
  5
141
330
13F
100
AcDbEntity
  8
1
  6
Continuous
 62
     2
100
AcDbLine
 10
265.3283264033
 20
403.5705123561
 30
0.0
 11
265.3283264033
 21
458.039133887836
 31
0.0
  0
LINE
  5
142
330
13F
100
AcDbEntity
  8
1
  6
Continuous
 62
     2
100
AcDbLine
 10
108.5783264033
 20
396.7317465561
 30
0.0
 11
108.5783264033
 21
458.039133887836
 31
0.0
  0
SOLID
  5
143
330
13F
100
AcDbEntity
  8
1
 62
     2
100
AcDbTrace
 10
261.8283264033
 20
455.5783501462801
 30
0.0
 11
261.8283264033
 21
456.4999176293919
 31
0.0
 12
265.3283264033
 22
456.039133887836
 32
0.0
 13
265.3283264033
 23
456.039133887836
 33
0.0
  0
SOLID
  5
144
330
13F
100
AcDbEntity
  8
1
 62
     2
100
AcDbTrace
 10
112.0783264033
 20
456.4999176293919
 30
0.0
 11
112.0783264033
 21
455.5783501462801
 31
0.0
 12
108.5783264033
 22
456.039133887836
 32
0.0
 13
108.5783264033
 23
456.039133887836
 33
0.0
  0
MTEXT
  5
145
330
13F
100
AcDbEntity
  8
1
 62
     3
100
AcDbMText
 10
184.5644472098778
 20
458.039133887836
 30
0.0
 40
3.5
 41
0.0
 71
     7
 72
     1
  1
\C3;\C3;\C3;156.75\C2;\H2.45;\S^ ;\C3;
  7
CONVERTER_11
 11
0.9999999999970619
 21
2.424068405545306E-6
 31
0.0
 73
     1
 44
0.60024009603842
  0
ENDBLK
  5
147
330
13F
100
AcDbEntity
  8
0
100
AcDbBlockEnd
  0
BLOCK
  5
14E
330
14A
100
AcDbEntity
  8
0
100
AcDbBlockBegin
  2
*D8
 70
     1
 10
0.0
 20
0.0
 30
0.0
  3
*D8
  1

  0
LINE
  5
14B
330
14A
100
AcDbEntity
  8
1
  6
Continuous
 62
     2
100
AcDbLine
 10
240.4317898090147
 20
412.8425829381939
 30
0.0
 11
230.8653092874648
 21
404.6745048098298
 31
0.0
  0
SOLID
  5
14C
330
14A
100
AcDbEntity
  8
1
 62
     2
100
AcDbTrace
 10
233.2278664493186
 20
407.2976032283904
 30
0.0
 11
233.8262720940854
 21
406.5967485285844
 31
0.0
 12
230.8653092874648
 22
404.6745048098298
 32
0.0
 13
230.8653092874648
 23
404.6745048098298
 33
0.0
  0
MTEXT
  5
14D
330
14A
100
AcDbEntity
  8
1
 62
     3
100
AcDbMText
 10
233.4901894603416
 20
409.5455259779181
 30
0.0
 40
3.5
 41
0.0
 71
     7
 72
     1
  1
\C3; R\C3;\C3;6\C2;\H2.45;\S^ ;\C3;
  7
CONVERTER_11
 11
0.7605028526392152
 21
0.6493345910450299
 31
0.0
 73
     1
 44
0.60024009603842
  0
ENDBLK
  5
14F
330
14A
100
AcDbEntity
  8
0
100
AcDbBlockEnd
  0
ENDSEC
  0
SECTION
  2
ENTITIES
  0
INSERT
  5
6B
330
1F
100
AcDbEntity
  8
0
100
AcDbBlockReference
  2
Urheberrecht_DE-EN
 10
101.243956732835
 20
396.082511061956
 30
0.0
  0
LINE
  5
6F
330
1F
100
AcDbEntity
  8
0
  6
Continuous
 62
     7
100
AcDbLine
 10
108.5783264033
 20
394.7317465561
 30
0.0
 11
108.5783264033
 21
358.4090653549
 31
0.0
  0
LINE
  5
70
330
1F
100
AcDbEntity
  8
0
  6
Continuous
 62
     9
100
AcDbLine
 10
110.5036093977
 20
356.1826200117
 30
0.0
 11
110.5036093977
 21
396.9584047005
 31
0.0
  0
LINE
  5
71
330
1F
100
AcDbEntity
  8
0
  6
Continuous
 62
     7
100
AcDbLine
 10
214.5283264033
 20
327.8330123561
 30
0.0
 11
218.2629480175
 21
327.8330123561
 31
0.0
  0
LINE
  5
72
330
1F
100
AcDbEntity
  8
0
  6
Continuous
 62
     7
100
AcDbLine
 10
224.7437047892
 20
327.8330123561
 30
0.0
 11
228.4283264033
 21
327.8330123561
 31
0.0
  0
LINE
  5
73
330
1F
100
AcDbEntity
  8
0
  6
Continuous
 62
     7
100
AcDbLine
 10
220.3408264033
 20
331.0705123561
 30
0.0
 11
222.6658264033
 21
331.0705123561
 31
0.0
  0
LINE
  5
74
330
1F
100
AcDbEntity
  8
0
  6
Continuous
 62
     7
100
AcDbLine
 10
209.8386440701
 20
341.7169303145
 30
0.0
 11
210.8783264033
 21
341.9955123561
 31
0.0
  0
LINE
  5
75
330
1F
100
AcDbEntity
  8
0
  6
Continuous
 62
     7
100
AcDbLine
 10
214.5283264033
 20
338.0436203682
 30
0.0
 11
218.2629480175
 21
338.0436203682
 31
0.0
  0
LINE
  5
76
330
1F
100
AcDbEntity
  8
0
  6
Continuous
 62
     7
100
AcDbLine
 10
224.7437047892
 20
338.0436203682
 30
0.0
 11
228.4283264033
 21
338.0436203682
 31
0.0
  0
LINE
  5
77
330
1F
100
AcDbEntity
  8
0
  6
Continuous
 62
     7
100
AcDbLine
 10
210.8783264033
 20
341.9955123561
 30
0.0
 11
212.5283264033
 21
341.9955123561
 31
0.0
  0
LINE
  5
78
330
1F
100
AcDbEntity
  8
0
  6
Continuous
 62
     7
100
AcDbLine
 10
220.3408264033
 20
342.2306302946
 30
0.0
 11
222.6658264033
 21
342.2306302946
 31
0.0
  0
LINE
  5
79
330
1F
100
AcDbEntity
  8
0
  6
Continuous
 62
     7
100
AcDbLine
 10
110.5036093977
 20
356.1826200117
 30
0.0
 11
209.8386440701
 21
341.7169303145
 31
0.0
  0
LINE
  5
7A
330
1F
100
AcDbEntity
  8
0
  6
Continuous
 62
     9
100
AcDbLine
 10
229.4283264033
 20
344.9705123561
 30
0.0
 11
213.5283264033
 21
344.9705123561
 31
0.0
  0
LINE
  5
7B
330
1F
100
AcDbEntity
  8
0
  6
Continuous
 62
     7
100
AcDbLine
 10
256.0783264033
 20
345.0705123561
 30
0.0
 11
276.1425369517
 21
345.0705123561
 31
0.0
  0
LINE
  5
7C
330
1F
100
AcDbEntity
  8
0
  6
Continuous
 62
     7
100
AcDbLine
 10
213.5283264033
 20
346.7205123561
 30
0.0
 11
229.4283264033
 21
346.7205123561
 31
0.0
  0
LINE
  5
7D
330
1F
100
AcDbEntity
  8
0
  6
Continuous
 62
     7
100
AcDbLine
 10
265.3283264033
 20
347.522091416
 30
0.0
 11
276.1425369517
 21
347.522091416
 31
0.0
  0
LINE
  5
7E
330
1F
100
AcDbEntity
  8
0
  6
Continuous
 62
     7
100
AcDbLine
 10
278.3396342281
 20
349.9972819973
 30
0.0
 11
265.3283264033
 21
349.9972819973
 31
0.0
  0
LINE
  5
7F
330
1F
100
AcDbEntity
  8
0
  6
Continuous
 62
     7
100
AcDbLine
 10
235.4283264033
 20
350.5705123561
 30
0.0
 11
241.1626409784
 21
350.5705123561
 31
0.0
  0
LINE
  5
80
330
1F
100
AcDbEntity
  8
0
  6
Continuous
 62
     7
100
AcDbLine
 10
265.3283264033
 20
351.4950256283
 30
0.0
 11
276.1425369517
 21
351.4950256283
 31
0.0
  0
LINE
  5
81
330
1F
100
AcDbEntity
  8
0
  6
Continuous
 62
     7
100
AcDbLine
 10
242.4940118283
 20
351.5705123561
 30
0.0
 11
254.8283264033
 21
351.5705123561
 31
0.0
  0
LWPOLYLINE
  5
82
330
1F
100
AcDbEntity
  8
DEFAULT_2
  6
DASHED
 62
     8
100
AcDbPolyline
 90
        2
 70
     0
 43
0.35
 10
254.8283264033
 20
351.5705123561
 10
265.3283264033
 20
351.5705123561
  0
LWPOLYLINE
  5
83
330
1F
100
AcDbEntity
  8
DEFAULT_2
  6
DASHED
 62
     8
100
AcDbPolyline
 90
        2
 70
     0
 43
0.35
 10
207.3283264033
 20
363.0705123561
 10
219.0784232078
 20
363.0705123561
  0
LINE
  5
84
330
1F
100
AcDbEntity
  8
0
  6
Continuous
 62
     7
100
AcDbLine
 10
213.5283264033
 20
363.6705123561
 30
0.0
 11
229.4283264033
 21
363.6705123561
 31
0.0
  0
LINE
  5
85
330
1F
100
AcDbEntity
  8
0
  6
Continuous
 62
     9
100
AcDbLine
 10
229.4283264033
 20
365.4205123561
 30
0.0
 11
213.5283264033
 21
365.4205123561
 31
0.0
  0
LWPOLYLINE
  5
86
330
1F
100
AcDbEntity
  8
DEFAULT_2
  6
DASHED
 62
     8
100
AcDbPolyline
 90
        2
 70
     0
 43
0.35
 10
219.0784232078
 20
363.0705123561
 10
265.3283264033
 20
356.5705123561
  0
LINE
  5
87
330
1F
100
AcDbEntity
  8
0
  6
Continuous
 62
     7
100
AcDbLine
 10
265.3283264033
 20
372.5975781438
 30
0.0
 11
276.1425369517
 21
372.5975781438
 31
0.0
  0
LINE
  5
88
330
1F
100
AcDbEntity
  8
0
  6
Continuous
 62
     7
100
AcDbLine
 10
278.3396342281
 20
373.2205123561
 30
0.0
 11
265.3283264033
 21
373.2205123561
 31
0.0
  0
LWPOLYLINE
  5
89
330
1F
100
AcDbEntity
  8
BG_STARTBEZUEGE
  6
DOT_CENTER
 62
     7
100
AcDbPolyline
 90
        2
 70
     0
 43
0.25
 10
283.3283264033
 20
376.5705123561
 10
105.5783264033
 20
376.5705123561
  0
LINE
  5
8A
330
1F
100
AcDbEntity
  8
0
  6
Continuous
 62
     7
100
AcDbLine
 10
223.4158264033
 20
423.0080595256
 30
0.0
 11
224.7437047892
 21
425.3080123561
 31
0.0
  0
LINE
  5
8B
330
1F
100
AcDbEntity
  8
0
  6
Continuous
 62
     7
100
AcDbLine
 10
278.3396342281
 20
379.9205123561
 30
0.0
 11
265.3283264033
 21
379.9205123561
 31
0.0
  0
LINE
  5
8C
330
1F
100
AcDbEntity
  8
0
  6
Continuous
 62
     7
100
AcDbLine
 10
265.3283264033
 20
380.5434465684
 30
0.0
 11
276.1425369517
 21
380.5434465684
 31
0.0
  0
LINE
  5
8D
330
1F
100
AcDbEntity
  8
0
  6
Continuous
 62
     7
100
AcDbLine
 10
223.4158264033
 20
330.1329651866
 30
0.0
 11
224.7437047892
 21
327.8330123561
 31
0.0
  0
LWPOLYLINE
  5
8E
330
1F
100
AcDbEntity
  8
DEFAULT_2
  6
DASHED
 62
     8
100
AcDbPolyline
 90
        2
 70
     0
 43
0.35
 10
207.3283264033
 20
363.0706705382
 10
207.3283264033
 20
390.070354174
  0
LWPOLYLINE
  5
8F
330
1F
100
AcDbEntity
  8
DEFAULT_2
  6
DASHED
 62
     8
100
AcDbPolyline
 90
        2
 70
     0
 43
0.35
 10
219.0784232078
 20
390.0705123561
 10
265.3283264033
 20
396.5705123561
  0
LINE
  5
90
330
1F
100
AcDbEntity
  8
0
  6
Continuous
 62
     9
100
AcDbLine
 10
229.4283264033
 20
387.7205123561
 30
0.0
 11
213.5283264033
 21
387.7205123561
 31
0.0
  0
LINE
  5
91
330
1F
100
AcDbEntity
  8
0
  6
Continuous
 62
     7
100
AcDbLine
 10
213.5283264033
 20
389.4705123561
 30
0.0
 11
229.4283264033
 21
389.4705123561
 31
0.0
  0
LWPOLYLINE
  5
92
330
1F
100
AcDbEntity
  8
DEFAULT_2
  6
DASHED
 62
     8
100
AcDbPolyline
 90
        2
 70
     0
 43
0.35
 10
207.3283264033
 20
390.0705123561
 10
219.0784232078
 20
390.0705123561
  0
LINE
  5
93
330
1F
100
AcDbEntity
  8
0
  6
Continuous
 62
     7
100
AcDbLine
 10
209.8386440701
 20
341.7169303145
 30
0.0
 11
209.8386440701
 21
411.4240943977
 31
0.0
  0
LWPOLYLINE
  5
94
330
1F
100
AcDbEntity
  8
BG_STARTBEZUEGE
  6
DOT_CENTER
 62
     7
100
AcDbPolyline
 90
        2
 70
     0
 43
0.25
 10
210.3283264033
 20
418.2080123561
 10
210.3283264033
 20
334.8330123561
  0
LINE
  5
95
330
1F
100
AcDbEntity
  8
0
  6
Continuous
 62
     7
100
AcDbLine
 10
210.8783264033
 20
341.9955123561
 30
0.0
 11
210.8783264033
 21
411.1455123561
 31
0.0
  0
LINE
  5
96
330
1F
100
AcDbEntity
  8
0
  6
Continuous
 62
     9
100
AcDbLine
 10
212.5283264033
 20
341.9955123561
 30
0.0
 11
212.5283264033
 21
411.1455123561
 31
0.0
  0
LINE
  5
97
330
1F
100
AcDbEntity
  8
0
  6
Continuous
 62
     7
100
AcDbLine
 10
213.5283264033
 20
328.8330123561
 30
0.0
 11
213.5283264033
 21
424.3078303275
 31
0.0
  0
LINE
  5
98
330
1F
100
AcDbEntity
  8
0
  6
Continuous
 62
     9
100
AcDbLine
 10
214.5283264033
 20
425.3080123561
 30
0.0
 11
214.5283264033
 21
389.4705123561
 31
0.0
  0
LINE
  5
99
330
1F
100
AcDbEntity
  8
0
  6
Continuous
 62
     9
100
AcDbLine
 10
214.5283264033
 20
327.8330123561
 30
0.0
 11
214.5283264033
 21
338.0436203682
 31
0.0
  0
LINE
  5
9A
330
1F
100
AcDbEntity
  8
0
  6
Continuous
 62
     9
100
AcDbLine
 10
214.5283264033
 20
346.7205123561
 30
0.0
 11
214.5283264033
 21
363.6705123561
 31
0.0
  0
LINE
  5
9B
330
1F
100
AcDbEntity
  8
0
  6
Continuous
 62
     7
100
AcDbLine
 10
218.2629480175
 20
425.3080123561
 30
0.0
 11
218.2629480175
 21
389.4705123561
 31
0.0
  0
LINE
  5
9C
330
1F
100
AcDbEntity
  8
0
  6
Continuous
 62
     7
100
AcDbLine
 10
218.2629480175
 20
363.6705123561
 30
0.0
 11
218.2629480175
 21
346.7205123561
 31
0.0
  0
LINE
  5
9D
330
1F
100
AcDbEntity
  8
0
  6
Continuous
 62
     7
100
AcDbLine
 10
218.2629480175
 20
338.0436203682
 30
0.0
 11
218.2629480175
 21
327.8330123561
 31
0.0
  0
LWPOLYLINE
  5
9E
330
1F
100
AcDbEntity
  8
DEFAULT_2
  6
DASHED
 62
     8
100
AcDbPolyline
 90
        2
 70
     0
 43
0.35
 10
219.0784232078
 20
390.0705123561
 10
219.0784232078
 20
363.0705123561
  0
LINE
  5
9F
330
1F
100
AcDbEntity
  8
0
  6
Continuous
 62
     7
100
AcDbLine
 10
219.5908264033
 20
423.0078877539
 30
0.0
 11
219.5908264033
 21
389.4705123561
 31
0.0
  0
LINE
  5
A0
330
1F
100
AcDbEntity
  8
0
  6
Continuous
 62
     7
100
AcDbLine
 10
219.5908264033
 20
330.1330887688
 30
0.0
 11
219.5908264033
 21
341.2429027568
 31
0.0
  0
LINE
  5
A1
330
1F
100
AcDbEntity
  8
0
  6
Continuous
 62
     7
100
AcDbLine
 10
219.5908264033
 20
346.7205123561
 30
0.0
 11
219.5908264033
 21
363.6705123561
 31
0.0
  0
LINE
  5
A2
330
1F
100
AcDbEntity
  8
0
  6
Continuous
 62
     9
100
AcDbLine
 10
220.3408264033
 20
422.0705123561
 30
0.0
 11
220.3408264033
 21
389.4705123561
 31
0.0
  0
LINE
  5
A3
330
1F
100
AcDbEntity
  8
0
  6
Continuous
 62
     9
100
AcDbLine
 10
220.3408264033
 20
331.0705123561
 30
0.0
 11
220.3408264033
 21
342.2306302946
 31
0.0
  0
LINE
  5
A4
330
1F
100
AcDbEntity
  8
0
  6
Continuous
 62
     9
100
AcDbLine
 10
220.3408264033
 20
346.7205123561
 30
0.0
 11
220.3408264033
 21
363.6705123561
 31
0.0
  0
LINE
  5
A5
330
1F
100
AcDbEntity
  8
0
  6
Continuous
 62
     7
100
AcDbLine
 10
242.4940118283
 20
401.5705123561
 30
0.0
 11
254.8283264033
 21
401.5705123561
 31
0.0
  0
LWPOLYLINE
  5
A6
330
1F
100
AcDbEntity
  8
DEFAULT_2
  6
DASHED
 62
     8
100
AcDbPolyline
 90
        2
 70
     0
 43
0.35
 10
254.8283264033
 20
401.5705123561
 10
265.3283264033
 20
401.5705123561
  0
LINE
  5
A7
330
1F
100
AcDbEntity
  8
0
  6
Continuous
 62
     7
100
AcDbLine
 10
265.3283264033
 20
401.6459990838
 30
0.0
 11
276.1425369517
 21
401.6459990838
 31
0.0
  0
LINE
  5
A8
330
1F
100
AcDbEntity
  8
0
  6
Continuous
 62
     7
100
AcDbLine
 10
235.4283264033
 20
402.5705123561
 30
0.0
 11
241.1626409784
 21
402.5705123561
 31
0.0
  0
LINE
  5
A9
330
1F
100
AcDbEntity
  8
0
  6
Continuous
 62
     7
100
AcDbLine
 10
278.3396342281
 20
403.1437427149
 30
0.0
 11
265.3283264033
 21
403.1437427149
 31
0.0
  0
LINE
  5
AA
330
1F
100
AcDbEntity
  8
0
  6
Continuous
 62
     9
100
AcDbLine
 10
222.6658264033
 20
422.0705123561
 30
0.0
 11
222.6658264033
 21
389.4705123561
 31
0.0
  0
LINE
  5
AB
330
1F
100
AcDbEntity
  8
0
  6
Continuous
 62
     9
100
AcDbLine
 10
222.6658264033
 20
331.0705123561
 30
0.0
 11
222.6658264033
 21
342.2306302946
 31
0.0
  0
LINE
  5
AC
330
1F
100
AcDbEntity
  8
0
  6
Continuous
 62
     9
100
AcDbLine
 10
222.6658264033
 20
346.7205123561
 30
0.0
 11
222.6658264033
 21
363.6705123561
 31
0.0
  0
LINE
  5
AD
330
1F
100
AcDbEntity
  8
0
  6
Continuous
 62
     7
100
AcDbLine
 10
223.4158264033
 20
423.0078877539
 30
0.0
 11
223.4158264033
 21
389.4705123561
 31
0.0
  0
LINE
  5
AE
330
1F
100
AcDbEntity
  8
0
  6
Continuous
 62
     7
100
AcDbLine
 10
223.4158264033
 20
330.1330887688
 30
0.0
 11
223.4158264033
 21
341.2429027568
 31
0.0
  0
LINE
  5
AF
330
1F
100
AcDbEntity
  8
0
  6
Continuous
 62
     7
100
AcDbLine
 10
223.4158264033
 20
346.7205123561
 30
0.0
 11
223.4158264033
 21
363.6705123561
 31
0.0
  0
LINE
  5
B0
330
1F
100
AcDbEntity
  8
0
  6
Continuous
 62
     7
100
AcDbLine
 10
224.7437047892
 20
425.3080123561
 30
0.0
 11
224.7437047892
 21
389.4705123561
 31
0.0
  0
LINE
  5
B1
330
1F
100
AcDbEntity
  8
0
  6
Continuous
 62
     7
100
AcDbLine
 10
224.7437047892
 20
363.6705123561
 30
0.0
 11
224.7437047892
 21
346.7205123561
 31
0.0
  0
LINE
  5
B2
330
1F
100
AcDbEntity
  8
0
  6
Continuous
 62
     7
100
AcDbLine
 10
224.7437047892
 20
338.0436203682
 30
0.0
 11
224.7437047892
 21
327.8330123561
 31
0.0
  0
LINE
  5
B3
330
1F
100
AcDbEntity
  8
0
  6
Continuous
 62
     7
100
AcDbLine
 10
110.5036093977
 20
396.9584047005
 30
0.0
 11
209.8386440701
 21
411.4240943977
 31
0.0
  0
LINE
  5
B4
330
1F
100
AcDbEntity
  8
0
  6
Continuous
 62
     7
100
AcDbLine
 10
265.3283264033
 20
405.6189332961
 30
0.0
 11
276.1425369517
 21
405.6189332961
 31
0.0
  0
LINE
  5
B5
330
1F
100
AcDbEntity
  8
RUNDUNGEN
  6
Continuous
 62
     7
100
AcDbLine
 10
276.1425369517
 20
408.0705123561
 30
0.0
 11
256.0783264033
 21
408.0705123561
 31
0.0
  0
LINE
  5
B6
330
1F
100
AcDbEntity
  8
0
  6
Continuous
 62
     7
100
AcDbLine
 10
256.0783264033
 20
408.0705123561
 30
0.0
 11
276.1425369517
 21
408.0705123561
 31
0.0
  0
LINE
  5
B7
330
1F
100
AcDbEntity
  8
0
  6
Continuous
 62
     9
100
AcDbLine
 10
228.4283264033
 20
425.3080123561
 30
0.0
 11
228.4283264033
 21
389.4705123561
 31
0.0
  0
LINE
  5
B8
330
1F
100
AcDbEntity
  8
0
  6
Continuous
 62
     9
100
AcDbLine
 10
228.4283264033
 20
327.8330123561
 30
0.0
 11
228.4283264033
 21
338.0436203682
 31
0.0
  0
LINE
  5
B9
330
1F
100
AcDbEntity
  8
0
  6
Continuous
 62
     9
100
AcDbLine
 10
228.4283264033
 20
346.7205123561
 30
0.0
 11
228.4283264033
 21
363.6705123561
 31
0.0
  0
LINE
  5
BA
330
1F
100
AcDbEntity
  8
0
  6
Continuous
 62
     7
100
AcDbLine
 10
229.4283264033
 20
328.8330123561
 30
0.0
 11
229.4283264033
 21
424.3080123561
 31
0.0
  0
LINE
  5
BB
330
1F
100
AcDbEntity
  8
0
  6
Continuous
 62
     7
100
AcDbLine
 10
210.8783264033
 20
411.1455123561
 30
0.0
 11
212.5283264033
 21
411.1455123561
 31
0.0
  0
LINE
  5
BC
330
1F
100
AcDbEntity
  8
0
  6
Continuous
 62
     7
100
AcDbLine
 10
209.8386440701
 20
411.4240943977
 30
0.0
 11
210.8783264033
 21
411.1455123561
 31
0.0
  0
LINE
  5
BD
330
1F
100
AcDbEntity
  8
RUNDUNGEN
  6
Continuous
 62
     9
100
AcDbLine
 10
235.4283264033
 20
402.5705123561
 30
0.0
 11
235.4283264033
 21
350.5705123561
 31
0.0
  0
LINE
  5
BE
330
1F
100
AcDbEntity
  8
RUNDUNGEN
  6
Continuous
 62
     9
100
AcDbLine
 10
241.1626409784
 20
350.5705123561
 30
0.0
 11
241.1626409784
 21
402.5705123561
 31
0.0
  0
LINE
  5
BF
330
1F
100
AcDbEntity
  8
RUNDUNGEN
  6
Continuous
 62
     9
100
AcDbLine
 10
241.4454836909
 20
350.6876696436
 30
0.0
 11
241.4454836909
 21
402.4533550686
 31
0.0
  0
LINE
  5
C0
330
1F
100
AcDbEntity
  8
0
  6
Continuous
 62
     7
100
AcDbLine
 10
218.2629480175
 20
327.8330123561
 30
0.0
 11
219.5908264033
 21
330.1329651866
 31
0.0
  0
LINE
  5
C1
330
1F
100
AcDbEntity
  8
0
  6
Continuous
 62
     7
100
AcDbLine
 10
220.3408264033
 20
422.0705123561
 30
0.0
 11
222.6658264033
 21
422.0705123561
 31
0.0
  0
LINE
  5
C2
330
1F
100
AcDbEntity
  8
0
  6
Continuous
 62
     7
100
AcDbLine
 10
218.2629480175
 20
425.3080123561
 30
0.0
 11
219.5908264033
 21
423.0080595256
 31
0.0
  0
LINE
  5
C3
330
1F
100
AcDbEntity
  8
RUNDUNGEN
  6
Continuous
 62
     9
100
AcDbLine
 10
242.2111691158
 20
401.6876696436
 30
0.0
 11
242.2111691158
 21
351.4533550686
 31
0.0
  0
LINE
  5
C4
330
1F
100
AcDbEntity
  8
RUNDUNGEN
  6
Continuous
 62
     9
100
AcDbLine
 10
242.4940118283
 20
401.5705123561
 30
0.0
 11
242.4940118283
 21
351.5705123561
 31
0.0
  0
LINE
  5
C5
330
1F
100
AcDbEntity
  8
0
  6
Continuous
 62
     7
100
AcDbLine
 10
241.4454836909
 20
350.6876696436
 30
0.0
 11
242.2111691158
 21
351.4533550686
 31
0.0
  0
LINE
  5
C6
330
1F
100
AcDbEntity
  8
0
  6
Continuous
 62
     7
100
AcDbLine
 10
214.5283264033
 20
425.3080123561
 30
0.0
 11
218.2629480175
 21
425.3080123561
 31
0.0
  0
LINE
  5
C7
330
1F
100
AcDbEntity
  8
0
  6
Continuous
 62
     7
100
AcDbLine
 10
224.7437047892
 20
425.3080123561
 30
0.0
 11
228.4283264033
 21
425.3080123561
 31
0.0
  0
LINE
  5
C8
330
1F
100
AcDbEntity
  8
0
  6
Continuous
 62
     7
100
AcDbLine
 10
241.4454836909
 20
402.4533550686
 30
0.0
 11
242.2111691158
 21
401.6876696436
 31
0.0
  0
LINE
  5
C9
330
1F
100
AcDbEntity
  8
RUNDUNGEN
  6
Continuous
 62
     7
100
AcDbLine
 10
254.8283264033
 20
346.3205123561
 30
0.0
 11
254.8283264033
 21
406.8205123561
 31
0.0
  0
LINE
  5
CA
330
1F
100
AcDbEntity
  8
RUNDUNGEN
  6
Continuous
 62
     9
100
AcDbLine
 10
256.0783264033
 20
345.0705123561
 30
0.0
 11
256.0783264033
 21
408.0705123561
 31
0.0
  0
LINE
  5
CB
330
1F
100
AcDbEntity
  8
0
  6
Continuous
 62
     7
100
AcDbLine
 10
265.3283264033
 20
405.6189332961
 30
0.0
 11
265.3283264033
 21
401.6459990838
 31
0.0
  0
LINE
  5
CC
330
1F
100
AcDbEntity
  8
0
  6
Continuous
 62
     7
100
AcDbLine
 10
265.3283264033
 20
380.5434465684
 30
0.0
 11
265.3283264033
 21
372.5975781438
 31
0.0
  0
LINE
  5
CD
330
1F
100
AcDbEntity
  8
0
  6
Continuous
 62
     7
100
AcDbLine
 10
265.3283264033
 20
351.4950256283
 30
0.0
 11
265.3283264033
 21
347.522091416
 31
0.0
  0
LWPOLYLINE
  5
CE
330
1F
100
AcDbEntity
  8
DEFAULT_2
  6
DASHED
 62
     8
100
AcDbPolyline
 90
        2
 70
     0
 43
0.35
 10
265.3283264033
 20
351.5705123561
 10
265.3283264033
 20
372.5975781438
  0
LWPOLYLINE
  5
CF
330
1F
100
AcDbEntity
  8
DEFAULT_2
  6
DASHED
 62
     8
100
AcDbPolyline
 90
        2
 70
     0
 43
0.35
 10
265.3283264033
 20
380.5434465684
 10
265.3283264033
 20
401.5705123561
  0
LINE
  5
D0
330
1F
100
AcDbEntity
  8
0
  6
Continuous
 62
     9
100
AcDbLine
 10
276.1425369517
 20
345.0705123561
 30
0.0
 11
276.1425369517
 21
347.522091416
 31
0.0
  0
LINE
  5
D1
330
1F
100
AcDbEntity
  8
0
  6
Continuous
 62
     9
100
AcDbLine
 10
276.1425369517
 20
351.4950256283
 30
0.0
 11
276.1425369517
 21
372.5975781438
 31
0.0
  0
LINE
  5
D2
330
1F
100
AcDbEntity
  8
0
  6
Continuous
 62
     9
100
AcDbLine
 10
276.1425369517
 20
380.5434465684
 30
0.0
 11
276.1425369517
 21
401.6459990838
 31
0.0
  0
LINE
  5
D3
330
1F
100
AcDbEntity
  8
0
  6
Continuous
 62
     9
100
AcDbLine
 10
276.1425369517
 20
405.6189332961
 30
0.0
 11
276.1425369517
 21
408.0705123561
 31
0.0
  0
LINE
  5
D4
330
1F
100
AcDbEntity
  8
0
  6
Continuous
 62
     9
100
AcDbLine
 10
277.2250687064
 20
345.6955123561
 30
0.0
 11
277.2250687064
 21
348.1271646971
 31
0.0
  0
LINE
  5
D5
330
1F
100
AcDbEntity
  8
0
  6
Continuous
 62
     9
100
AcDbLine
 10
277.2250687064
 20
351.9478193837
 30
0.0
 11
277.2250687064
 21
372.7498576695
 31
0.0
  0
LINE
  5
D6
330
1F
100
AcDbEntity
  8
0
  6
Continuous
 62
     9
100
AcDbLine
 10
277.2250687064
 20
380.3911670427
 30
0.0
 11
277.2250687064
 21
401.1932053285
 31
0.0
  0
LINE
  5
D7
330
1F
100
AcDbEntity
  8
0
  6
Continuous
 62
     9
100
AcDbLine
 10
277.2250687064
 20
405.0138600151
 30
0.0
 11
277.2250687064
 21
407.4455123561
 31
0.0
  0
LINE
  5
D8
330
1F
100
AcDbEntity
  8
0
  6
Continuous
 62
     7
100
AcDbLine
 10
280.3283264033
 20
402.0705123561
 30
0.0
 11
280.3283264033
 21
351.0705123561
 31
0.0
  0
LINE
  5
D9
330
1F
100
AcDbEntity
  8
RUNDUNGEN
  6
Continuous
 62
     7
100
AcDbLine
 10
280.3283264033
 20
351.0705123561
 30
0.0
 11
277.2250687064
 21
345.6955123561
 31
0.0
  0
LINE
  5
DA
330
1F
100
AcDbEntity
  8
0
  6
Continuous
 62
     7
100
AcDbLine
 10
277.2250687064
 20
345.6955123561
 30
0.0
 11
280.3283264033
 21
351.0705123561
 31
0.0
  0
LINE
  5
DB
330
1F
100
AcDbEntity
  8
0
  6
Continuous
 62
     7
100
AcDbLine
 10
277.2250687064
 20
407.4455123561
 30
0.0
 11
280.3283264033
 21
402.0705123561
 31
0.0
  0
LINE
  5
DC
330
1F
100
AcDbEntity
  8
RUNDUNGEN
  6
Continuous
 62
     7
100
AcDbLine
 10
280.3283264033
 20
402.0705123561
 30
0.0
 11
277.2250687064
 21
407.4455123561
 31
0.0
  0
LINE
  5
DD
330
1F
100
AcDbEntity
  8
0
  6
Continuous
 62
     7
100
AcDbLine
 10
278.3396342281
 20
373.2205123561
 30
0.0
 11
277.2250687064
 21
372.7498576695
 31
0.0
  0
LINE
  5
DE
330
1F
100
AcDbEntity
  8
0
  6
Continuous
 62
     7
100
AcDbLine
 10
277.2250687064
 20
380.3911670427
 30
0.0
 11
278.3396342281
 21
379.9205123561
 31
0.0
  0
ARC
  5
DF
330
1F
100
AcDbEntity
  8
0
  6
Continuous
 62
     7
100
AcDbCircle
 10
475.4697025818
 20
452.5212063339
 30
0.0
 40
275.6240984703998
100
AcDbArc
 50
203.8674211067
 51
204.540700682168
  0
ARC
  5
E0
330
1F
100
AcDbEntity
  8
0
  6
Continuous
 62
     7
100
AcDbCircle
 10
-32.4630497751
 20
452.5212063339
 30
0.0
 40
275.6240984704152
100
AcDbArc
 50
335.459299317832
 51
336.1325788932999
  0
ARC
  5
E1
330
1F
100
AcDbEntity
  8
0
  6
Continuous
 62
     7
100
AcDbCircle
 10
228.4280658022
 20
376.5705123561
 30
0.0
 40
50.02386593150612
100
AcDbArc
 50
356.1601404676777
 51
3.83985953232235
  0
ARC
  5
E2
330
1F
100
AcDbEntity
  8
0
  6
Continuous
 62
     7
100
AcDbCircle
 10
265.9038536862
 20
351.6722819973
 30
0.0
 40
12.54807804750586
100
AcDbArc
 50
352.3288848668323
 51
7.67111513319927
  0
ARC
  5
E3
330
1F
100
AcDbEntity
  8
0
  6
Continuous
 62
     7
100
AcDbCircle
 10
265.9038536862
 20
401.4687427149
 30
0.0
 40
12.54807804749972
100
AcDbArc
 50
352.328884866801
 51
7.67111513316774
  0
ARC
  5
E4
330
1F
100
AcDbEntity
  8
RUNDUNGEN
  6
Continuous
 62
     7
100
AcDbCircle
 10
235.4283264033
 20
408.5705123561
 30
0.0
 40
6.0
100
AcDbArc
 50
180.0
 51
270.0
  0
ARC
  5
E5
330
1F
100
AcDbEntity
  8
RUNDUNGEN
  6
Continuous
 62
     7
100
AcDbCircle
 10
235.4283264033
 20
344.5705123561
 30
0.0
 40
6.0
100
AcDbArc
 50
90.0
 51
176.1827057418954
  0
ARC
  5
E6
330
1F
100
AcDbEntity
  8
0
  6
Continuous
 62
     7
100
AcDbCircle
 10
110.8283264033
 20
358.4090653549
 30
0.0
 40
2.25
100
AcDbArc
 50
180.0
 51
261.7021731726458
  0
ARC
  5
E7
330
1F
100
AcDbEntity
  8
0
  6
Continuous
 62
     7
100
AcDbCircle
 10
110.8283264033
 20
394.7319593573
 30
0.0
 40
2.249999999996174
100
AcDbArc
 50
98.29782682735429
 51
180.0
  0
ARC
  5
E8
330
1F
100
AcDbEntity
  8
RUNDUNGEN
  6
Continuous
 62
     7
100
AcDbCircle
 10
276.1425369517
 20
406.8205123561
 30
0.0
 40
1.249999999973569
100
AcDbArc
 50
30.00000000069947
 51
90.0
  0
ARC
  5
E9
330
1F
100
AcDbEntity
  8
RUNDUNGEN
  6
Continuous
 62
     7
100
AcDbCircle
 10
276.1425369517
 20
346.3205123561
 30
0.0
 40
1.25
100
AcDbArc
 50
270.0
 51
329.9999999993005
  0
ARC
  5
EA
330
1F
100
AcDbEntity
  8
RUNDUNGEN
  6
Continuous
 62
     7
100
AcDbCircle
 10
256.0783264033
 20
346.3205123561
 30
0.0
 40
1.250000000000028
100
AcDbArc
 50
180.0
 51
270.0
  0
ARC
  5
EB
330
1F
100
AcDbEntity
  8
RUNDUNGEN
  6
Continuous
 62
     7
100
AcDbCircle
 10
256.0783264033
 20
406.8205123561
 30
0.0
 40
1.25
100
AcDbArc
 50
90.0
 51
180.0
  0
ARC
  5
EC
330
1F
100
AcDbEntity
  8
0
  6
Continuous
 62
     7
100
AcDbCircle
 10
212.5283264033
 20
340.9955123561
 30
0.0
 40
1.0
100
AcDbArc
 50
0.0
 51
90.0
  0
ARC
  5
ED
330
1F
100
AcDbEntity
  8
0
  6
Continuous
 62
     7
100
AcDbCircle
 10
214.5283264033
 20
328.8330123561
 30
0.0
 40
1.0
100
AcDbArc
 50
180.0
 51
270.0
  0
ARC
  5
EE
330
1F
100
AcDbEntity
  8
0
  6
Continuous
 62
     7
100
AcDbCircle
 10
228.4283264033
 20
328.8330123561
 30
0.0
 40
1.0
100
AcDbArc
 50
270.0
 51
0.0
  0
ARC
  5
EF
330
1F
100
AcDbEntity
  8
0
  6
Continuous
 62
     7
100
AcDbCircle
 10
212.5283264033
 20
412.1455123561
 30
0.0
 40
1.0
100
AcDbArc
 50
270.0
 51
0.0
  0
ARC
  5
F0
330
1F
100
AcDbEntity
  8
0
  6
Continuous
 62
     7
100
AcDbCircle
 10
228.4283264033
 20
424.3080123561
 30
0.0
 40
1.0
100
AcDbArc
 50
0.0
 51
90.0
  0
ARC
  5
F1
330
1F
100
AcDbEntity
  8
0
  6
Continuous
 62
     7
100
AcDbCircle
 10
214.5283264033
 20
424.3080123561
 30
0.0
 40
1.0
100
AcDbArc
 50
90.0
 51
180.0
  0
ARC
  5
F2
330
1F
100
AcDbEntity
  8
0
  6
Continuous
 62
     7
100
AcDbCircle
 10
222.6658264033
 20
330.3205123561
 30
0.0
 40
0.75
100
AcDbArc
 50
0.0
 51
90.0
  0
ARC
  5
F3
330
1F
100
AcDbEntity
  8
0
  6
Continuous
 62
     7
100
AcDbCircle
 10
220.3408264033
 20
330.3205123561
 30
0.0
 40
0.75
100
AcDbArc
 50
90.0
 51
180.0
  0
ARC
  5
F4
330
1F
100
AcDbEntity
  8
0
  6
Continuous
 62
     7
100
AcDbCircle
 10
222.6658264033
 20
422.8205123561
 30
0.0
 40
0.75
100
AcDbArc
 50
270.0
 51
0.0
  0
ARC
  5
F5
330
1F
100
AcDbEntity
  8
0
  6
Continuous
 62
     7
100
AcDbCircle
 10
220.3408264033
 20
422.8205123561
 30
0.0
 40
0.75
100
AcDbArc
 50
180.0
 51
270.0
  0
ARC
  5
F6
330
1F
100
AcDbEntity
  8
RUNDUNGEN
  6
Continuous
 62
     7
100
AcDbCircle
 10
241.1626409784
 20
402.1705123561
 30
0.0
 40
0.4000000000358928
100
AcDbArc
 50
44.99999999999712
 51
90.0
  0
ARC
  5
F7
330
1F
100
AcDbEntity
  8
RUNDUNGEN
  6
Continuous
 62
     7
100
AcDbCircle
 10
241.1626409784
 20
350.9705123561
 30
0.0
 40
0.4000000000000341
100
AcDbArc
 50
270.0
 51
314.9999999999971
  0
ARC
  5
F8
330
1F
100
AcDbEntity
  8
RUNDUNGEN
  6
Continuous
 62
     7
100
AcDbCircle
 10
242.4940118283
 20
401.9705123561
 30
0.0
 40
0.4000000000359129
100
AcDbArc
 50
225.0000000000057
 51
270.0
  0
ARC
  5
F9
330
1F
100
AcDbEntity
  8
RUNDUNGEN
  6
Continuous
 62
     7
100
AcDbCircle
 10
242.4940118283
 20
351.1705123561
 30
0.0
 40
0.3999999999999773
100
AcDbArc
 50
90.0
 51
135.0
  0
SPLINE
  5
FA
330
1F
100
AcDbEntity
  8
0
  6
Continuous
 62
     7
100
AcDbSpline
210
0.0
220
0.0
230
1.0
 70
     8
 71
     3
 72
     9
 73
     5
 74
     3
 42
0.0000000001
 43
0.0000000001
 44
0.00000001
 40
0.0
 40
0.0
 40
0.0
 40
0.0
 40
0.8945322748978417
 40
1.789064548103958
 40
1.789064548103958
 40
1.789064548103958
 40
1.789064548103958
 10
277.2250687064
 20
351.9478193837
 30
0.0
 10
277.4108725849081
 20
352.1810289400353
 30
0.0
 10
277.7824803415732
 20
352.6474480522651
 30
0.0
 10
278.1539162660367
 20
353.1140040157727
 30
0.0
 10
278.339634228093
 20
353.347281997306
 30
0.0
 11
277.2250687064
 21
351.9478193837
 31
0.0
 11
277.7824373838741
 21
352.6474822655257
 31
0.0
 11
278.339634228093
 21
353.347281997306
 31
0.0
  0
SPLINE
  5
FB
330
1F
100
AcDbEntity
  8
0
  6
Continuous
 62
     7
100
AcDbSpline
210
0.0
220
0.0
230
1.0
 70
     8
 71
     3
 72
     9
 73
     5
 74
     3
 42
0.0000000001
 43
0.0000000001
 44
0.00000001
 40
0.0
 40
0.0
 40
0.0
 40
0.0
 40
0.8945322731473722
 40
1.789064548103946
 40
1.789064548103946
 40
1.789064548103946
 40
1.789064548103946
 10
278.339634228093
 20
399.793742714894
 30
0.0
 10
278.1539162660307
 20
400.0270206963974
 30
0.0
 10
277.7824803415305
 20
400.493576659876
 30
0.0
 10
277.4108725849021
 20
400.9599957721348
 30
0.0
 10
277.2250687064
 20
401.1932053285
 30
0.0
 11
278.339634228093
 21
399.793742714894
 31
0.0
 11
277.7824373838741
 21
400.4935424465992
 31
0.0
 11
277.2250687064
 21
401.1932053285
 31
0.0
  0
SPLINE
  5
FC
330
1F
100
AcDbEntity
  8
0
  6
Continuous
 62
     7
100
AcDbSpline
210
0.0
220
0.0
230
1.0
 70
     8
 71
     3
 72
    11
 73
     7
 74
     5
 42
0.0000000001
 43
0.0000000001
 44
0.00000001
 40
0.0
 40
0.0
 40
0.0
 40
0.0
 40
0.3194240369435185
 40
0.6407308582812965
 40
0.9267062690921641
 40
1.209172374290609
 40
1.209172374290609
 40
1.209172374290609
 40
1.209172374290609
 10
276.1425369517
 20
351.4950256283
 30
0.0
 10
276.2492702936249
 20
351.5004407616145
 30
0.0
 10
276.4633660969125
 20
351.5113029467196
 30
0.0
 10
276.7605967095272
 20
351.6037346537946
 30
0.0
 10
277.0274236363147
 20
351.7418653341208
 30
0.0
 10
277.1594587250493
 20
351.8794511651243
 30
0.0
 10
277.2250687064
 20
351.9478193837
 30
0.0
 11
276.1425369517
 21
351.4950256283
 31
0.0
 11
276.4606024309044
 21
351.5244546329685
 31
0.0
 11
276.7683846278408
 21
351.616694497925
 31
0.0
 11
277.0187482795762
 21
351.7548971660546
 31
0.0
 11
277.2250687064
 21
351.9478193837
 31
0.0
  0
SPLINE
  5
FD
330
1F
100
AcDbEntity
  8
0
  6
Continuous
 62
     7
100
AcDbSpline
210
0.0
220
0.0
230
1.0
 70
     8
 71
     3
 72
    11
 73
     7
 74
     5
 42
0.0000000001
 43
0.0000000001
 44
0.00000001
 40
0.0
 40
0.0
 40
0.0
 40
0.0
 40
0.2824665656302257
 40
0.5684424498072298
 40
0.8897488044073038
 40
1.209172372486677
 40
1.209172372486677
 40
1.209172372486677
 40
1.209172372486677
 10
277.2250687064
 20
401.1932053285
 30
0.0
 10
277.1594586068535
 20
401.2615736497395
 30
0.0
 10
277.0274232785836
 20
401.3991596890919
 30
0.0
 10
276.7605961200604
 20
401.5372902921548
 30
0.0
 10
276.4633656265574
 20
401.629721814144
 30
0.0
 10
276.2492701366037
 20
401.6405839667357
 30
0.0
 10
276.1425369517
 20
401.6459990838
 30
0.0
 11
277.2250687064
 21
401.1932053285
 31
0.0
 11
277.0187479007682
 21
401.3861278151685
 31
0.0
 11
276.7683837604612
 21
401.5243305777283
 31
0.0
 11
276.4606019681748
 21
401.6165701670778
 31
0.0
 11
276.1425369517
 21
401.6459990838
 31
0.0
  0
SPLINE
  5
FE
330
1F
100
AcDbEntity
  8
0
  6
Continuous
 62
     7
100
AcDbSpline
210
0.0
220
0.0
230
1.0
 70
     8
 71
     3
 72
     9
 73
     5
 74
     3
 42
0.0000000001
 43
0.0000000001
 44
0.00000001
 40
0.0
 40
0.0
 40
0.0
 40
0.0
 40
1.088530555880642
 40
2.177061110042954
 40
2.177061110042954
 40
2.177061110042954
 40
2.177061110042954
 10
277.2250687064
 20
405.0138600151
 30
0.0
 10
277.4108814314351
 20
404.7022046730231
 30
0.0
 10
277.7825068812119
 20
404.0788939893611
 30
0.0
 10
278.1539251125684
 20
403.4554598062231
 30
0.0
 10
278.3396342281
 20
403.1437427149
 30
0.0
 11
277.2250687064
 21
405.0138600151
 31
0.0
 11
277.7824550769
 21
404.078863114
 31
0.0
 11
278.3396342281
 21
403.1437427149
 31
0.0
  0
SPLINE
  5
FF
330
1F
100
AcDbEntity
  8
0
  6
Continuous
 62
     7
100
AcDbSpline
210
0.0
220
0.0
230
1.0
 70
     8
 71
     3
 72
     9
 73
     5
 74
     3
 42
0.0000000001
 43
0.0000000001
 44
0.00000001
 40
0.0
 40
0.0
 40
0.0
 40
0.0
 40
1.088530554194493
 40
2.17706111004291
 40
2.17706111004291
 40
2.17706111004291
 40
2.17706111004291
 10
278.3396342281
 20
349.9972819973
 30
0.0
 10
278.1539251125711
 20
349.6855649059629
 30
0.0
 10
277.7825068812311
 20
349.062130722815
 30
0.0
 10
277.4108814314378
 20
348.4388200391629
 30
0.0
 10
277.2250687064
 20
348.1271646971
 30
0.0
 11
278.3396342281
 21
349.9972819973
 31
0.0
 11
277.7824550769
 21
349.0621615981625
 31
0.0
 11
277.2250687064
 21
348.1271646971
 31
0.0
  0
SPLINE
  5
100
330
1F
100
AcDbEntity
  8
0
  6
Continuous
 62
     7
100
AcDbSpline
210
0.0
220
0.0
230
1.0
 70
     8
 71
     3
 72
    15
 73
    11
 74
     9
 42
0.0000000001
 43
0.0000000001
 44
0.00000001
 40
0.0
 40
0.0
 40
0.0
 40
0.0
 40
0.1597192799849898
 40
0.3197368409725762
 40
0.4812712601287474
 40
0.6427231323161741
 40
0.8055799297129063
 40
0.9685258155907024
 40
1.132380830380888
 40
1.295959296718755
 40
1.295959296718755
 40
1.295959296718755
 40
1.295959296718755
 10
277.2250687064
 20
348.1271646971
 30
0.0
 10
277.1960064424525
 20
348.0824654673908
 30
0.0
 10
277.1378276398246
 20
347.9929835306922
 30
0.0
 10
277.0288517824222
 20
347.8743053194321
 30
0.0
 10
276.9060553283595
 20
347.7696232109716
 30
0.0
 10
276.7696632262422
 20
347.681430513616
 30
0.0
 10
276.6227275635376
 20
347.6111246984347
 30
0.0
 10
276.4672631099567
 20
347.5602751221177
 30
0.0
 10
276.3063132026516
 20
347.5281342636805
 30
0.0
 10
276.1970982879189
 20
347.524104564073
 30
0.0
 10
276.1425369517
 20
347.522091416
 30
0.0
 11
277.2250687064
 21
348.1271646971
 31
0.0
 11
277.1343334751746
 21
347.9957213016273
 31
0.0
 11
277.0269813705841
 21
347.8770572992323
 31
0.0
 11
276.9038936347235
 21
347.7724495659959
 31
0.0
 11
276.7683837604534
 21
347.6846783804729
 31
0.0
 11
276.6214569881336
 21
347.6144298215269
 31
0.0
 11
276.4666808841673
 21
347.5634816187566
 31
0.0
 11
276.305785121063
 21
347.5324813076781
 31
0.0
 11
276.1425369517
 21
347.522091416
 31
0.0
  0
SPLINE
  5
101
330
1F
100
AcDbEntity
  8
0
  6
Continuous
 62
     7
100
AcDbSpline
210
0.0
220
0.0
230
1.0
 70
     8
 71
     3
 72
    13
 73
     9
 74
     7
 42
0.0000000001
 43
0.0000000001
 44
0.00000001
 40
0.0
 40
0.0
 40
0.0
 40
0.0
 40
0.103919472713886
 40
0.2080168457433685
 40
0.3396345108994619
 40
0.4711855883733636
 40
0.7849337817151636
 40
1.098755804403948
 40
1.098755804403948
 40
1.098755804403948
 40
1.098755804403948
 10
277.2250687064
 20
372.7498576695
 30
0.0
 10
277.1927050596884
 20
372.7374363117755
 30
0.0
 10
277.1279223627607
 20
372.7125723321361
 30
0.0
 10
277.0182396069247
 20
372.6838921514516
 30
0.0
 10
276.8984691325622
 20
372.6584449740037
 30
0.0
 10
276.7084977853675
 20
372.6282348506165
 30
0.0
 10
276.456395885907
 20
372.6025679092207
 30
0.0
 10
276.2471648013047
 20
372.5992415293821
 30
0.0
 10
276.1425369517
 20
372.5975781438
 30
0.0
 11
277.2250687064
 21
372.7498576695
 31
0.0
 11
277.1273800424069
 21
372.7144150153053
 31
0.0
 11
277.0269813706332
 21
372.6869128376146
 31
0.0
 11
276.8982385152638
 21
372.6595543476623
 31
0.0
 11
276.7683837605001
 21
372.6384966020611
 31
0.0
 11
276.4562162268362
 21
372.607042512479
 31
0.0
 11
276.1425369517
 21
372.5975781438
 31
0.0
  0
SPLINE
  5
102
330
1F
100
AcDbEntity
  8
0
  6
Continuous
 62
     7
100
AcDbSpline
210
0.0
220
0.0
230
1.0
 70
     8
 71
     3
 72
    13
 73
     9
 74
     7
 42
0.0000000001
 43
0.0000000001
 44
0.00000001
 40
0.0
 40
0.0
 40
0.0
 40
0.0
 40
0.3138224605705088
 40
0.6275710913576793
 40
0.759121968231041
 40
0.890739432048697
 40
0.9948365677264941
 40
1.098755804286385
 40
1.098755804286385
 40
1.098755804286385
 40
1.098755804286385
 10
276.1425369517
 20
380.5434465684
 30
0.0
 10
276.2471649473487
 20
380.5417831786533
 30
0.0
 10
276.4563963238933
 20
380.5384567904885
 30
0.0
 10
276.7084984448674
 20
380.5127897856134
 30
0.0
 10
276.8984697963143
 20
380.4825796145381
 30
0.0
 10
277.0182400564051
 20
380.4571324532022
 30
0.0
 10
277.1279225865361
 20
380.4284523016887
 30
0.0
 10
277.1927051341553
 20
380.403588374346
 30
0.0
 10
277.2250687064
 20
380.3911670427
 30
0.0
 11
276.1425369517
 21
380.5434465684
 31
0.0
 11
276.456216664126
 21
380.5339821734973
 31
0.0
 11
276.7683846277719
 21
380.5025279878616
 31
0.0
 11
276.8982391793887
 21
380.481470242718
 31
0.0
 11
277.026981831181
 21
380.4541117633876
 31
0.0
 11
277.1273802678908
 21
380.4266096259697
 31
0.0
 11
277.2250687064
 21
380.3911670427
 31
0.0
  0
SPLINE
  5
103
330
1F
100
AcDbEntity
  8
0
  6
Continuous
 62
     7
100
AcDbSpline
210
0.0
220
0.0
230
1.0
 70
     8
 71
     3
 72
    15
 73
    11
 74
     9
 42
0.0000000001
 43
0.0000000001
 44
0.00000001
 40
0.0
 40
0.0
 40
0.0
 40
0.0
 40
0.1635787864349268
 40
0.3274341230615625
 40
0.4903801840645846
 40
0.6532371553153272
 40
0.8146888507839462
 40
0.9762230920539837
 40
1.136240333924401
 40
1.295959296708883
 40
1.295959296708883
 40
1.295959296708883
 40
1.295959296708883
 10
276.1425369517
 20
405.6189332961
 30
0.0
 10
276.1970983948139
 20
405.6169201396082
 30
0.0
 10
276.3063135239166
 20
405.612890423134
 30
0.0
 10
276.4672636890236
 20
405.5807494454396
 30
0.0
 10
276.6227283274191
 20
405.5298997121191
 30
0.0
 10
276.7696639943239
 20
405.4595937692045
 30
0.0
 10
276.9060559824244
 20
405.3714010090664
 30
0.0
 10
277.028852204383
 20
405.2667189758144
 30
0.0
 10
277.1378278254585
 20
405.1480409214342
 30
0.0
 10
277.1960065042117
 20
405.0585591582955
 30
0.0
 10
277.2250687064
 20
405.0138600151
 30
0.0
 11
276.1425369517
 21
405.6189332961
 31
0.0
 11
276.305785439105
 21
405.6085433619564
 31
0.0
 11
276.466681506259
 21
405.5775429278401
 31
0.0
 11
276.621457747715
 21
405.5265945826545
 31
0.0
 11
276.7683846278272
 21
405.4563458461145
 31
0.0
 11
276.9038942918087
 21
405.3685746609949
 31
0.0
 11
277.026981831198
 21
405.2639669712691
 31
0.0
 11
277.1343336740803
 21
405.1453031624409
 31
0.0
 11
277.2250687064
 21
405.0138600151
 31
0.0
  0
SPLINE
  5
104
330
1F
100
AcDbEntity
  8
0
  6
Continuous
 62
     7
100
AcDbSpline
210
0.0
220
0.0
230
1.0
 70
     8
 71
     3
 72
    17
 73
    13
 74
    11
 42
0.0000000001
 43
0.0000000001
 44
0.00000001
 40
0.0
 40
0.0
 40
0.0
 40
0.0
 40
0.2235602340096362
 40
0.4475666315285814
 40
0.6712655547306218
 40
0.8950713344839287
 40
1.11920332868081
 40
1.3423515113192
 40
1.454388474181877
 40
1.5664189828676
 40
1.67855429134162
 40
1.790469539298124
 40
1.790469539298124
 40
1.790469539298124
 40
1.790469539298124
 10
229.4283264033
 20
339.3167017288
 30
0.0
 10
229.4253863911427
 20
339.2421216674989
 30
0.0
 10
229.4195004993889
 20
339.0928127040171
 30
0.0
 10
229.3715428360677
 20
338.8731221855561
 30
0.0
 10
229.2942000468124
 20
338.6622980011257
 30
0.0
 10
229.1825429114805
 20
338.4668542407535
 30
0.0
 10
229.037239185052
 20
338.2950435100595
 30
0.0
 10
228.8887303979901
 20
338.1794556581134
 30
0.0
 10
228.75598477504
 20
338.1107604104259
 30
0.0
 10
228.6502971425473
 20
338.0727130586607
 30
0.0
 10
228.5403994687182
 20
338.0483103111679
 30
0.0
 10
228.4656596221626
 20
338.0451826585382
 30
0.0
 10
228.4283264033
 20
338.0436203682
 30
0.0
 11
229.4283264033
 21
339.3167017288
 31
0.0
 11
229.4129968885685
 21
339.0936676860878
 31
0.0
 11
229.3666192042768
 21
338.8745148249859
 31
0.0
 11
229.2885016670975
 21
338.6648988460464
 31
0.0
 11
229.1769754388692
 21
338.4708603770044
 31
0.0
 11
229.03152311134
 21
338.3003353898646
 31
0.0
 11
228.8545771240536
 21
338.1643749949032
 31
0.0
 11
228.7550008305332
 21
338.1130247970824
 31
0.0
 11
228.6496223455253
 21
338.0749957322265
 31
0.0
 11
228.5399578165998
 21
338.0515859372232
 31
0.0
 11
228.4283264033
 21
338.0436203682
 31
0.0
  0
SPLINE
  5
105
330
1F
100
AcDbEntity
  8
0
  6
Continuous
 62
     7
100
AcDbSpline
210
0.0
220
0.0
230
1.0
 70
     8
 71
     3
 72
    17
 73
    13
 74
    11
 42
0.0000000001
 43
0.0000000001
 44
0.00000001
 40
0.0
 40
0.0
 40
0.0
 40
0.0
 40
0.0856061207782525
 40
0.1714040658185632
 40
0.2570770785295161
 40
0.3427486324290222
 40
0.5133560119373137
 40
0.684786460756227
 40
0.8559332498429042
 40
1.026944760364596
 40
1.198166489420899
 40
1.369069305167904
 40
1.369069305167904
 40
1.369069305167904
 40
1.369069305167904
 10
220.3408264033
 20
342.2306302946
 30
0.0
 10
220.3122670759235
 20
342.229349158691
 30
0.0
 10
220.2550844260747
 20
342.2267840161327
 30
0.0
 10
220.1712420804612
 20
342.2069114598388
 30
0.0
 10
220.0910303546144
 20
342.1760897488615
 30
0.0
 10
219.9909147656483
 20
342.1209325616439
 30
0.0
 10
219.8799051933469
 20
342.0293329762993
 30
0.0
 10
219.77239184546
 20
341.8950586264785
 30
0.0
 10
219.6899707677276
 20
341.7440400199422
 30
0.0
 10
219.6329439923514
 20
341.5821564779646
 30
0.0
 10
219.5974084174286
 20
341.4140404068504
 30
0.0
 10
219.5930190441499
 20
341.2999131787053
 30
0.0
 10
219.5908264033
 20
341.2429027568
 30
0.0
 11
220.3408264033
 21
342.2306302946
 31
0.0
 11
220.2554680652845
 21
342.2241216813886
 31
0.0
 11
220.1718110341792
 21
342.2050746732303
 31
0.0
 11
220.0918505739329
 21
342.1743144732282
 31
0.0
 11
220.0167337507902
 21
342.1331188663204
 31
0.0
 11
219.8843773209833
 21
342.0254682581871
 31
0.0
 11
219.7765377938395
 21
341.8922052281764
 31
0.0
 11
219.6941780273983
 21
341.7421782563132
 31
0.0
 11
219.6365417888329
 21
341.5811720429705
 31
0.0
 11
219.6022211715708
 21
341.4134252822514
 31
0.0
 11
219.5908264033
 21
341.2429027568
 31
0.0
  0
SPLINE
  5
106
330
1F
100
AcDbEntity
  8
0
  6
Continuous
 62
     7
100
AcDbSpline
210
0.0
220
0.0
230
1.0
 70
     8
 71
     3
 72
    17
 73
    13
 74
    11
 42
0.0000000001
 43
0.0000000001
 44
0.00000001
 40
0.0
 40
0.0
 40
0.0
 40
0.0
 40
0.1709021129122426
 40
0.3421231434978371
 40
0.5131353763840089
 40
0.6842828841296257
 40
0.8557140430165772
 40
1.026322127398836
 40
1.111993247384523
 40
1.19766582128932
 40
1.283463468635701
 40
1.369069297522685
 40
1.369069297522685
 40
1.369069297522685
 40
1.369069297522685
 10
223.4158264033
 20
341.2429027568
 30
0.0
 10
223.4136337751938
 20
341.2999129439822
 30
0.0
 10
223.4092444273534
 20
341.4140397041361
 30
0.0
 10
223.373709018414
 20
341.5821555685268
 30
0.0
 10
223.3166823385875
 20
341.7440394107475
 30
0.0
 10
223.2342609849136
 20
341.8950586977608
 30
0.0
 10
223.1267471057461
 20
342.0293335515402
 30
0.0
 10
223.0157371355368
 20
342.1209331914667
 30
0.0
 10
222.9156215105255
 20
342.1760901893132
 30
0.0
 10
222.8354101152339
 20
342.2069116691127
 30
0.0
 10
222.7515680860183
 20
342.2267840552067
 30
0.0
 10
222.6943856331529
 20
342.2293491716803
 30
0.0
 10
222.6658264033
 20
342.2306302946
 30
0.0
 11
223.4158264033
 21
341.2429027568
 31
0.0
 11
223.4044317110803
 21
341.4134245829311
 31
0.0
 11
223.3701113597073
 21
341.5811706851106
 31
0.0
 11
223.3124750424572
 21
341.7421776375399
 31
0.0
 11
223.2301149918224
 21
341.8922052732174
 31
0.0
 11
223.1222749443816
 21
342.0254687956279
 31
0.0
 11
222.9899178089319
 21
342.1331196532749
 31
0.0
 11
222.9148012988256
 21
342.1743149285994
 31
0.0
 11
222.8348412117527
 21
342.2050748764987
 31
0.0
 11
222.751184453057
 21
342.2241217401433
 31
0.0
 11
222.6658264033
 21
342.2306302946
 31
0.0
  0
SPLINE
  5
107
330
1F
100
AcDbEntity
  8
0
  6
Continuous
 62
     7
100
AcDbSpline
210
0.0
220
0.0
230
1.0
 70
     8
 71
     3
 72
    17
 73
    13
 74
    11
 42
0.0000000001
 43
0.0000000001
 44
0.00000001
 40
0.0
 40
0.0
 40
0.0
 40
0.0
 40
0.1119154476661894
 40
0.2240509586530769
 40
0.3360819825981357
 40
0.4481194617026231
 40
0.6712673498095256
 40
0.8953990333267857
 40
1.119204507490569
 40
1.342903129543664
 40
1.566909390271477
 40
1.79046948887822
 40
1.79046948887822
 40
1.79046948887822
 40
1.79046948887822
 10
214.5283264033
 20
338.0436203682
 30
0.0
 10
214.4909931176769
 20
338.0451826677015
 30
0.0
 10
214.4162531366648
 20
338.0483103387096
 30
0.0
 10
214.3063551772757
 20
338.0727132298398
 30
0.0
 10
214.2006671952033
 20
338.110760833858
 30
0.0
 10
214.0679214549589
 20
338.1794563963153
 30
0.0
 10
213.9194128403325
 20
338.2950444010971
 30
0.0
 10
213.7741094345264
 20
338.4668549975929
 30
0.0
 10
213.6624525385235
 20
338.6622985366882
 30
0.0
 10
213.5851098805056
 20
338.8731225026793
 30
0.0
 10
213.5371522923882
 20
339.0928128402116
 30
0.0
 10
213.5312664105245
 20
339.2421217127427
 30
0.0
 10
213.5283264033
 20
339.3167017288
 30
0.0
 11
214.5283264033
 21
338.0436203682
 31
0.0
 11
214.4166947928462
 21
338.0515859801552
 31
0.0
 11
214.3070300808448
 21
338.0749958875861
 31
0.0
 11
214.2016511508499
 21
338.1130252372953
 31
0.0
 11
214.1020744745263
 21
338.1643758191464
 31
0.0
 11
213.92512889333
 21
338.3003362592078
 31
0.0
 11
213.7796768942972
 21
338.470861118198
 31
0.0
 11
213.668150904264
 21
338.664899371676
 31
0.0
 11
213.5900335209378
 21
338.8745150865705
 31
0.0
 11
213.5436558951849
 21
339.0936678202399
 31
0.0
 11
213.5283264033
 21
339.3167017288
 31
0.0
  0
DIMENSION
  5
112
330
1F
100
AcDbEntity
  8
1
100
AcDbDimension
  2
*D2
 10
292.135210649753
 20
396.5705123561
 30
0.0
 11
288.385210649753
 21
376.100117733226
 31
0.0
 70
    32
  1
<>
 71
     5
 42
-1.0
 53
90.0
  3
ME10_DIM_10
100
AcDbAlignedDimension
 13
265.3283264033
 23
356.5705123561
 33
0.0
 14
265.3283264033
 24
396.5705123561
 34
0.0
 50
90.0
100
AcDbRotatedDimension
  0
DIMENSION
  5
11D
330
1F
100
AcDbEntity
  8
1
100
AcDbDimension
  2
*D3
 10
299.779123271464
 20
408.0705123561
 30
0.0
 11
296.029123271464
 21
376.335315044663
 31
0.0
 70
    32
  1
<>
 71
     5
 42
-1.0
 53
90.0
  3
ME10_DIM_11
100
AcDbAlignedDimension
 13
276.1425369517
 23
345.0705123561
 33
0.0
 14
276.1425369517
 24
408.0705123561
 34
0.0
 50
90.0
100
AcDbRotatedDimension
  0
DIMENSION
  5
128
330
1F
100
AcDbEntity
  8
1
100
AcDbDimension
  2
*D4
 10
265.3283264033001
 20
431.01868995382
 30
0.0
 11
245.9459339279285
 21
434.76868995382
 31
0.0
 70
    32
  1
<>
 71
     5
 42
-1.0
 53
0.00013888888889
  3
ME10_DIM_12
100
AcDbAlignedDimension
 13
229.4283264033
 23
424.3080123561
 33
0.0
 14
265.3283264033
 24
401.5705123561
 34
0.0
100
AcDbRotatedDimension
  0
DIMENSION
  5
133
330
1F
100
AcDbEntity
  8
1
100
AcDbDimension
  2
*D5
 10
265.3283264033
 20
439.015398542686
 30
0.0
 11
237.92223036347
 21
442.765398542686
 31
0.0
 70
    32
  1
<>
 71
     5
 42
-1.0
 53
0.00013888888889
  3
ME10_DIM_13
100
AcDbAlignedDimension
 13
210.3283264033
 23
418.2080123561
 33
0.0
 14
265.3283264033
 24
401.5705123561
 34
0.0
100
AcDbRotatedDimension
  0
DIMENSION
  5
13E
330
1F
100
AcDbEntity
  8
1
100
AcDbDimension
  2
*D6
 10
210.3283264033
 20
447.247304442989
 30
0.0
 11
247.212524165241
 21
450.997304442989
 31
0.0
 70
    32
  1
<>
 71
     5
 42
-1.0
 53
0.00013888888889
  3
ME10_DIM_14
100
AcDbAlignedDimension
 13
280.3283264033
 23
402.0705123561
 33
0.0
 14
210.3283264033
 24
418.2080123561
 34
0.0
100
AcDbRotatedDimension
  0
DIMENSION
  5
149
330
1F
100
AcDbEntity
  8
1
100
AcDbDimension
  2
*D7
 10
265.3283264033
 20
456.039133887836
 30
0.0
 11
190.4794472098778
 21
459.789133887836
 31
0.0
 70
    32
  1
<>
 71
     5
 42
-1.0
 53
0.00013888888889
  3
ME10_DIM_15
100
AcDbAlignedDimension
 13
108.5783264033
 23
394.7317465561
 33
0.0
 14
265.3283264033
 24
401.5705123561
 34
0.0
100
AcDbRotatedDimension
  0
INSERT
  5
150
330
1F
100
AcDbEntity
  8
1
100
AcDbBlockReference
  2
*D8
 10
0.0
 20
0.0
 30
0.0
  0
ENDSEC
  0
SECTION
  2
OBJECTS
  0
DICTIONARY
  5
C
330
0
100
AcDbDictionary
281
     1
  3
ACAD_GROUP
350
D
  3
ACAD_LAYOUT
350
1A
  3
ACAD_MLEADERSTYLE
350
153
  3
ACAD_MLINESTYLE
350
17
  3
ACAD_PLOTSETTINGS
350
19
  3
ACAD_PLOTSTYLENAME
350
E
  3
ACAD_SCALELIST
350
49
  3
ACAD_VISUALSTYLE
350
2A
  3
AcDbVariableDictionary
350
151
  0
DICTIONARY
  5
D
102
{ACAD_REACTORS
330
C
102
}
330
C
100
AcDbDictionary
281
     1
  0
DICTIONARY
  5
1A
102
{ACAD_REACTORS
330
C
102
}
330
C
100
AcDbDictionary
281
     1
  3
Layout1
350
1E
  3
Layout2
350
26
  3
Model
350
22
  0
DICTIONARY
  5
153
102
{ACAD_REACTORS
330
C
102
}
330
C
100
AcDbDictionary
281
     1
  0
DICTIONARY
  5
17
102
{ACAD_REACTORS
330
C
102
}
330
C
100
AcDbDictionary
281
     1
  3
Standard
350
18
  0
DICTIONARY
  5
19
102
{ACAD_REACTORS
330
C
102
}
330
C
100
AcDbDictionary
281
     1
  0
ACDBDICTIONARYWDFLT
  5
E
102
{ACAD_REACTORS
330
C
102
}
330
C
100
AcDbDictionary
281
     1
  3
Normal
350
F
100
AcDbDictionaryWithDefault
340
F
  0
DICTIONARY
  5
49
102
{ACAD_REACTORS
330
C
102
}
330
C
100
AcDbDictionary
281
     1
  3
A0
350
4A
  3
A1
350
4B
  3
A2
350
4C
  3
A3
350
4D
  3
A4
350
4E
  3
A5
350
4F
  3
A6
350
50
  3
A7
350
51
  3
A8
350
52
  3
A9
350
53
  3
B0
350
54
  3
B1
350
55
  3
B2
350
56
  3
B3
350
57
  3
B4
350
58
  3
B5
350
59
  3
B6
350
5A
  3
B7
350
5B
  3
B8
350
5C
  3
B9
350
5D
  3
C0
350
5E
  3
C1
350
5F
  3
C2
350
60
  3
C3
350
61
  3
C4
350
62
  3
C5
350
63
  3
C6
350
64
  3
C7
350
65
  3
C8
350
66
  3
C9
350
67
  3
D0
350
68
  3
D1
350
69
  3
D2
350
6A
  0
DICTIONARY
  5
2A
102
{ACAD_REACTORS
330
C
102
}
330
C
100
AcDbDictionary
281
     1
  3
2dWireframe
350
2F
  3
3D Hidden
350
31
  3
3dWireframe
350
30
  3
Basic
350
32
  3
Brighten
350
36
  3
ColorChange
350
3A
  3
Conceptual
350
34
  3
Dim
350
35
  3
Facepattern
350
39
  3
Flat
350
2B
  3
FlatWithEdges
350
2C
  3
Gouraud
350
2D
  3
GouraudWithEdges
350
2E
  3
Linepattern
350
38
  3
Realistic
350
33
  3
Thicken
350
37
  0
DICTIONARY
  5
151
102
{ACAD_REACTORS
330
C
102
}
330
C
100
AcDbDictionary
281
     1
  3
CANNOSCALE
350
154
  0
LAYOUT
  5
1E
102
{ACAD_REACTORS
330
1A
102
}
330
1A
100
AcDbPlotSettings
  1

  2
none_device
  4

  6

 40
0.0
 41
0.0
 42
0.0
 43
0.0
 44
0.0
 45
0.0
 46
0.0
 47
0.0
 48
0.0
 49
0.0
140
0.0
141
0.0
142
1.0
143
1.0
 70
   688
 72
     0
 73
     0
 74
     5
  7

 75
    16
147
1.0
148
0.0
149
0.0
100
AcDbLayout
  1
Layout1
 70
     1
 71
     1
 10
0.0
 20
0.0
 11
12.0
 21
9.0
 12
0.0
 22
0.0
 32
0.0
 14
1.00000000000000E+20
 24
1.00000000000000E+20
 34
1.00000000000000E+20
 15
-1.00000000000000E+20
 25
-1.00000000000000E+20
 35
-1.00000000000000E+20
146
0.0
 13
0.0
 23
0.0
 33
0.0
 16
1.0
 26
0.0
 36
0.0
 17
0.0
 27
1.0
 37
0.0
 76
     0
330
1B
  0
LAYOUT
  5
26
102
{ACAD_REACTORS
330
1A
102
}
330
1A
100
AcDbPlotSettings
  1

  2
none_device
  4

  6

 40
0.0
 41
0.0
 42
0.0
 43
0.0
 44
0.0
 45
0.0
 46
0.0
 47
0.0
 48
0.0
 49
0.0
140
0.0
141
0.0
142
1.0
143
1.0
 70
   688
 72
     0
 73
     0
 74
     5
  7

 75
    16
147
1.0
148
0.0
149
0.0
100
AcDbLayout
  1
Layout2
 70
     1
 71
     2
 10
0.0
 20
0.0
 11
0.0
 21
0.0
 12
0.0
 22
0.0
 32
0.0
 14
0.0
 24
0.0
 34
0.0
 15
0.0
 25
0.0
 35
0.0
146
0.0
 13
0.0
 23
0.0
 33
0.0
 16
1.0
 26
0.0
 36
0.0
 17
0.0
 27
1.0
 37
0.0
 76
     0
330
23
  0
LAYOUT
  5
22
102
{ACAD_REACTORS
330
1A
102
}
330
1A
100
AcDbPlotSettings
  1

  2
none_device
  4

  6

 40
0.0
 41
0.0
 42
0.0
 43
0.0
 44
0.0
 45
0.0
 46
0.0
 47
0.0
 48
0.0
 49
0.0
140
0.0
141
0.0
142
1.0
143
1.0
 70
  1712
 72
     0
 73
     0
 74
     0
  7

 75
     0
147
1.0
148
0.0
149
0.0
100
AcDbLayout
  1
Model
 70
     1
 71
     0
 10
0.0
 20
0.0
 11
12.0
 21
9.0
 12
0.0
 22
0.0
 32
0.0
 14
87.243956732835
 24
327.8330123561
 34
0.0
 15
301.779123271464
 25
461.539133887836
 35
0.0
146
0.0
 13
0.0
 23
0.0
 33
0.0
 16
1.0
 26
0.0
 36
0.0
 17
0.0
 27
1.0
 37
0.0
 76
     0
330
1F
331
29
  0
MLINESTYLE
  5
18
102
{ACAD_REACTORS
330
17
102
}
330
17
100
AcDbMlineStyle
  2
Standard
 70
     0
  3

 62
   256
 51
90.0
 52
90.0
 71
     2
 49
0.5
 62
   256
  6
BYLAYER
 49
-0.5
 62
   256
  6
BYLAYER
  0
ACDBPLACEHOLDER
  5
F
102
{ACAD_REACTORS
330
E
102
}
330
E
  0
SCALE
  5
4A
102
{ACAD_REACTORS
330
49
102
}
330
49
100
AcDbScale
 70
     0
300
1:1
140
1.0
141
1.0
290
     1
  0
SCALE
  5
4B
102
{ACAD_REACTORS
330
49
102
}
330
49
100
AcDbScale
 70
     0
300
1:2
140
1.0
141
2.0
290
     0
  0
SCALE
  5
4C
102
{ACAD_REACTORS
330
49
102
}
330
49
100
AcDbScale
 70
     0
300
1:4
140
1.0
141
4.0
290
     0
  0
SCALE
  5
4D
102
{ACAD_REACTORS
330
49
102
}
330
49
100
AcDbScale
 70
     0
300
1:5
140
1.0
141
5.0
290
     0
  0
SCALE
  5
4E
102
{ACAD_REACTORS
330
49
102
}
330
49
100
AcDbScale
 70
     0
300
1:8
140
1.0
141
8.0
290
     0
  0
SCALE
  5
4F
102
{ACAD_REACTORS
330
49
102
}
330
49
100
AcDbScale
 70
     0
300
1:10
140
1.0
141
10.0
290
     0
  0
SCALE
  5
50
102
{ACAD_REACTORS
330
49
102
}
330
49
100
AcDbScale
 70
     0
300
1:16
140
1.0
141
16.0
290
     0
  0
SCALE
  5
51
102
{ACAD_REACTORS
330
49
102
}
330
49
100
AcDbScale
 70
     0
300
1:20
140
1.0
141
20.0
290
     0
  0
SCALE
  5
52
102
{ACAD_REACTORS
330
49
102
}
330
49
100
AcDbScale
 70
     0
300
1:30
140
1.0
141
30.0
290
     0
  0
SCALE
  5
53
102
{ACAD_REACTORS
330
49
102
}
330
49
100
AcDbScale
 70
     0
300
1:40
140
1.0
141
40.0
290
     0
  0
SCALE
  5
54
102
{ACAD_REACTORS
330
49
102
}
330
49
100
AcDbScale
 70
     0
300
1:50
140
1.0
141
50.0
290
     0
  0
SCALE
  5
55
102
{ACAD_REACTORS
330
49
102
}
330
49
100
AcDbScale
 70
     0
300
1:100
140
1.0
141
100.0
290
     0
  0
SCALE
  5
56
102
{ACAD_REACTORS
330
49
102
}
330
49
100
AcDbScale
 70
     0
300
2:1
140
2.0
141
1.0
290
     0
  0
SCALE
  5
57
102
{ACAD_REACTORS
330
49
102
}
330
49
100
AcDbScale
 70
     0
300
4:1
140
4.0
141
1.0
290
     0
  0
SCALE
  5
58
102
{ACAD_REACTORS
330
49
102
}
330
49
100
AcDbScale
 70
     0
300
8:1
140
8.0
141
1.0
290
     0
  0
SCALE
  5
59
102
{ACAD_REACTORS
330
49
102
}
330
49
100
AcDbScale
 70
     0
300
10:1
140
10.0
141
1.0
290
     0
  0
SCALE
  5
5A
102
{ACAD_REACTORS
330
49
102
}
330
49
100
AcDbScale
 70
     0
300
100:1
140
100.0
141
1.0
290
     0
  0
SCALE
  5
5B
102
{ACAD_REACTORS
330
49
102
}
330
49
100
AcDbScale
 70
     0
300
1/128" = 1'-0"
140
0.0078125
141
12.0
290
     0
  0
SCALE
  5
5C
102
{ACAD_REACTORS
330
49
102
}
330
49
100
AcDbScale
 70
     0
300
1/64" = 1'-0"
140
0.015625
141
12.0
290
     0
  0
SCALE
  5
5D
102
{ACAD_REACTORS
330
49
102
}
330
49
100
AcDbScale
 70
     0
300
1/32" = 1'-0"
140
0.03125
141
12.0
290
     0
  0
SCALE
  5
5E
102
{ACAD_REACTORS
330
49
102
}
330
49
100
AcDbScale
 70
     0
300
1/16" = 1'-0"
140
0.0625
141
12.0
290
     0
  0
SCALE
  5
5F
102
{ACAD_REACTORS
330
49
102
}
330
49
100
AcDbScale
 70
     0
300
3/32" = 1'-0"
140
0.09375
141
12.0
290
     0
  0
SCALE
  5
60
102
{ACAD_REACTORS
330
49
102
}
330
49
100
AcDbScale
 70
     0
300
1/8" = 1'-0"
140
0.125
141
12.0
290
     0
  0
SCALE
  5
61
102
{ACAD_REACTORS
330
49
102
}
330
49
100
AcDbScale
 70
     0
300
3/16" = 1'-0"
140
0.1875
141
12.0
290
     0
  0
SCALE
  5
62
102
{ACAD_REACTORS
330
49
102
}
330
49
100
AcDbScale
 70
     0
300
1/4" = 1'-0"
140
0.25
141
12.0
290
     0
  0
SCALE
  5
63
102
{ACAD_REACTORS
330
49
102
}
330
49
100
AcDbScale
 70
     0
300
3/8" = 1'-0"
140
0.375
141
12.0
290
     0
  0
SCALE
  5
64
102
{ACAD_REACTORS
330
49
102
}
330
49
100
AcDbScale
 70
     0
300
1/2" = 1'-0"
140
0.5
141
12.0
290
     0
  0
SCALE
  5
65
102
{ACAD_REACTORS
330
49
102
}
330
49
100
AcDbScale
 70
     0
300
3/4" = 1'-0"
140
0.75
141
12.0
290
     0
  0
SCALE
  5
66
102
{ACAD_REACTORS
330
49
102
}
330
49
100
AcDbScale
 70
     0
300
1" = 1'-0"
140
1.0
141
12.0
290
     0
  0
SCALE
  5
67
102
{ACAD_REACTORS
330
49
102
}
330
49
100
AcDbScale
 70
     0
300
1-1/2" = 1'-0"
140
1.5
141
12.0
290
     0
  0
SCALE
  5
68
102
{ACAD_REACTORS
330
49
102
}
330
49
100
AcDbScale
 70
     0
300
3" = 1'-0"
140
3.0
141
12.0
290
     0
  0
SCALE
  5
69
102
{ACAD_REACTORS
330
49
102
}
330
49
100
AcDbScale
 70
     0
300
6" = 1'-0"
140
6.0
141
12.0
290
     0
  0
SCALE
  5
6A
102
{ACAD_REACTORS
330
49
102
}
330
49
100
AcDbScale
 70
     0
300
1'-0" = 1'-0"
140
12.0
141
12.0
290
     0
  0
VISUALSTYLE
  5
2F
102
{ACAD_REACTORS
330
2A
102
}
330
2A
100
AcDbVisualStyle
  2
2dWireframe
 70
     4
 71
     0
 72
     2
 73
     0
 90
        0
 40
-0.6
 41
-30.0
 62
     5
 63
     7
 74
     1
 91
        4
 64
     7
 65
   257
 75
     1
175
     1
 42
1.0
 92
        0
 66
   257
 43
1.0
 76
     1
 77
     6
 78
     2
 67
     7
 79
     5
170
     0
171
     0
290
     0
174
     0
 93
        1
 44
0.0
173
     0
291
     0
 45
0.0
1001
ACAD
1000
AcDbSavedByObjectVersion
1070
     0
  0
VISUALSTYLE
  5
31
102
{ACAD_REACTORS
330
2A
102
}
330
2A
100
AcDbVisualStyle
  2
3D Hidden
 70
     6
 71
     1
 72
     2
 73
     2
 90
        0
 40
-0.6
 41
-30.0
 62
     5
 63
     7
 74
     2
 91
        2
 64
     7
 65
   257
 75
     2
175
     1
 42
40.0
 92
        0
 66
   257
 43
1.0
 76
     1
 77
     6
 78
     2
 67
     7
 79
     3
170
     0
171
     0
290
     0
174
     0
 93
        1
 44
0.0
173
     0
291
     0
 45
0.0
1001
ACAD
1000
AcDbSavedByObjectVersion
1070
     0
  0
VISUALSTYLE
  5
30
102
{ACAD_REACTORS
330
2A
102
}
330
2A
100
AcDbVisualStyle
  2
3dWireframe
 70
     5
 71
     0
 72
     2
 73
     0
 90
        0
 40
-0.6
 41
-30.0
 62
     5
 63
     7
 74
     1
 91
        4
 64
     7
 65
   257
 75
     1
175
     1
 42
1.0
 92
        0
 66
   257
 43
1.0
 76
     1
 77
     6
 78
     2
 67
     7
 79
     5
170
     0
171
     0
290
     0
174
     0
 93
        1
 44
0.0
173
     0
291
     0
 45
0.0
1001
ACAD
1000
AcDbSavedByObjectVersion
1070
     0
  0
VISUALSTYLE
  5
32
102
{ACAD_REACTORS
330
2A
102
}
330
2A
100
AcDbVisualStyle
  2
Basic
 70
     7
 71
     1
 72
     0
 73
     1
 90
        0
 40
-0.6
 41
-30.0
 62
     5
 63
     7
 74
     0
 91
        4
 64
     7
 65
   257
 75
     1
175
     1
 42
1.0
 92
        8
 66
     7
 43
1.0
 76
     1
 77
     6
 78
     2
 67
     7
 79
     5
170
     0
171
     0
290
     0
174
     0
 93
        1
 44
0.0
173
     0
291
     1
 45
0.0
1001
ACAD
1000
AcDbSavedByObjectVersion
1070
     0
  0
VISUALSTYLE
  5
36
102
{ACAD_REACTORS
330
2A
102
}
330
2A
100
AcDbVisualStyle
  2
Brighten
 70
    12
 71
     2
 72
     2
 73
     0
 90
        0
 40
-0.6
 41
-30.0
 62
     5
 63
     7
 74
     1
 91
        4
 64
     7
 65
   257
 75
     1
175
     1
 42
1.0
 92
        8
 66
     7
 43
1.0
 76
     1
 77
     6
 78
     2
 67
     7
 79
     5
170
     0
171
     0
290
     0
174
     0
 93
        1
 44
50.0
173
     0
291
     1
 45
0.0
1001
ACAD
1000
AcDbSavedByObjectVersion
1070
     0
  0
VISUALSTYLE
  5
3A
102
{ACAD_REACTORS
330
2A
102
}
330
2A
100
AcDbVisualStyle
  2
ColorChange
 70
    16
 71
     2
 72
     2
 73
     3
 90
        0
 40
-0.6
 41
-30.0
 62
     5
 63
     8
 74
     1
 91
        4
 64
     7
 65
   257
 75
     1
175
     1
 42
1.0
 92
        8
 66
     8
 43
1.0
 76
     1
 77
     6
 78
     2
 67
     7
 79
     5
170
     0
171
     0
290
     0
174
     0
 93
        1
 44
0.0
173
     0
291
     1
 45
0.0
1001
ACAD
1000
AcDbSavedByObjectVersion
1070
     0
  0
VISUALSTYLE
  5
34
102
{ACAD_REACTORS
330
2A
102
}
330
2A
100
AcDbVisualStyle
  2
Conceptual
 70
     9
 71
     3
 72
     2
 73
     0
 90
        0
 40
-0.6
 41
-30.0
 62
     5
 63
     7
 74
     2
 91
        2
 64
     7
 65
   257
 75
     1
175
     1
 42
40.0
 92
        8
 66
     7
 43
1.0
 76
     1
 77
     6
 78
     2
 67
     7
 79
     3
170
     0
171
     0
290
     0
174
     0
 93
        1
 44
0.0
173
     0
291
     0
 45
0.0
1001
ACAD
1000
AcDbSavedByObjectVersion
1070
     0
  0
VISUALSTYLE
  5
35
102
{ACAD_REACTORS
330
2A
102
}
330
2A
100
AcDbVisualStyle
  2
Dim
 70
    11
 71
     2
 72
     2
 73
     0
 90
        0
 40
-0.6
 41
-30.0
 62
     5
 63
     7
 74
     1
 91
        4
 64
     7
 65
   257
 75
     1
175
     1
 42
1.0
 92
        8
 66
     7
 43
1.0
 76
     1
 77
     6
 78
     2
 67
     7
 79
     5
170
     0
171
     0
290
     0
174
     0
 93
        1
 44
-50.0
173
     0
291
     1
 45
0.0
1001
ACAD
1000
AcDbSavedByObjectVersion
1070
     0
  0
VISUALSTYLE
  5
39
102
{ACAD_REACTORS
330
2A
102
}
330
2A
100
AcDbVisualStyle
  2
Facepattern
 70
    15
 71
     2
 72
     2
 73
     0
 90
        0
 40
-0.6
 41
-30.0
 62
     5
 63
     7
 74
     1
 91
        4
 64
     7
 65
   257
 75
     1
175
     1
 42
1.0
 92
        8
 66
     7
 43
1.0
 76
     1
 77
     6
 78
     2
 67
     7
 79
     5
170
     0
171
     0
290
     0
174
     0
 93
        1
 44
0.0
173
     0
291
     1
 45
0.0
1001
ACAD
1000
AcDbSavedByObjectVersion
1070
     0
  0
VISUALSTYLE
  5
2B
102
{ACAD_REACTORS
330
2A
102
}
330
2A
100
AcDbVisualStyle
  2
Flat
 70
     0
 71
     2
 72
     1
 73
     1
 90
        2
 40
-0.6
 41
30.0
 62
     5
 63
     7
 74
     0
 91
        4
 64
     7
 65
   257
 75
     1
175
     1
 42
1.0
 92
        8
 66
     7
 43
1.0
 76
     1
 77
     6
 78
     2
 67
     7
 79
     5
170
     0
171
     0
290
     0
174
     0
 93
       13
 44
0.0
173
     0
291
     1
 45
0.0
1001
ACAD
1000
AcDbSavedByObjectVersion
1070
     0
  0
VISUALSTYLE
  5
2C
102
{ACAD_REACTORS
330
2A
102
}
330
2A
100
AcDbVisualStyle
  2
FlatWithEdges
 70
     1
 71
     2
 72
     1
 73
     1
 90
        2
 40
-0.6
 41
30.0
 62
     5
 63
     7
 74
     1
 91
        4
 64
     7
 65
   257
 75
     1
175
     1
 42
1.0
 92
        0
 66
   257
 43
1.0
 76
     1
 77
     6
 78
     2
 67
     7
 79
     5
170
     0
171
     0
290
     0
174
     0
 93
       13
 44
0.0
173
     0
291
     1
 45
0.0
1001
ACAD
1000
AcDbSavedByObjectVersion
1070
     0
  0
VISUALSTYLE
  5
2D
102
{ACAD_REACTORS
330
2A
102
}
330
2A
100
AcDbVisualStyle
  2
Gouraud
 70
     2
 71
     2
 72
     2
 73
     1
 90
        2
 40
-0.6
 41
30.0
 62
     5
 63
     7
 74
     0
 91
        4
 64
     7
 65
   257
 75
     1
175
     1
 42
1.0
 92
        0
 66
     7
 43
1.0
 76
     1
 77
     6
 78
     2
 67
     7
 79
     5
170
     0
171
     0
290
     0
174
     0
 93
       13
 44
0.0
173
     0
291
     1
 45
0.0
1001
ACAD
1000
AcDbSavedByObjectVersion
1070
     0
  0
VISUALSTYLE
  5
2E
102
{ACAD_REACTORS
330
2A
102
}
330
2A
100
AcDbVisualStyle
  2
GouraudWithEdges
 70
     3
 71
     2
 72
     2
 73
     1
 90
        2
 40
-0.6
 41
30.0
 62
     5
 63
     7
 74
     1
 91
        4
 64
     7
 65
   257
 75
     1
175
     1
 42
1.0
 92
        0
 66
   257
 43
1.0
 76
     1
 77
     6
 78
     2
 67
     7
 79
     5
170
     0
171
     0
290
     0
174
     0
 93
       13
 44
0.0
173
     0
291
     1
 45
0.0
1001
ACAD
1000
AcDbSavedByObjectVersion
1070
     0
  0
VISUALSTYLE
  5
38
102
{ACAD_REACTORS
330
2A
102
}
330
2A
100
AcDbVisualStyle
  2
Linepattern
 70
    14
 71
     2
 72
     2
 73
     0
 90
        0
 40
-0.6
 41
-30.0
 62
     5
 63
     7
 74
     1
 91
        4
 64
     7
 65
   257
 75
     7
175
     7
 42
1.0
 92
        8
 66
     7
 43
1.0
 76
     1
 77
     6
 78
     2
 67
     7
 79
     5
170
     0
171
     0
290
     0
174
     0
 93
        1
 44
0.0
173
     0
291
     1
 45
0.0
1001
ACAD
1000
AcDbSavedByObjectVersion
1070
     0
  0
VISUALSTYLE
  5
33
102
{ACAD_REACTORS
330
2A
102
}
330
2A
100
AcDbVisualStyle
  2
Realistic
 70
     8
 71
     2
 72
     2
 73
     0
 90
        0
 40
-0.6
 41
-30.0
 62
     5
 63
     7
 74
     1
 91
        0
 64
     7
 65
   257
 75
     1
175
     1
 42
1.0
 92
        8
 66
     8
 43
1.0
 76
     1
 77
     6
 78
     2
 67
     7
 79
     5
170
     0
171
     0
290
     0
174
     0
 93
       13
 44
0.0
173
     0
291
     0
 45
0.0
1001
ACAD
1000
AcDbSavedByObjectVersion
1070
     0
  0
VISUALSTYLE
  5
37
102
{ACAD_REACTORS
330
2A
102
}
330
2A
100
AcDbVisualStyle
  2
Thicken
 70
    13
 71
     2
 72
     2
 73
     0
 90
        0
 40
-0.6
 41
-30.0
 62
     5
 63
     7
 74
     1
 91
        4
 64
     7
 65
   257
 75
     1
175
     1
 42
1.0
 92
       12
 66
     7
 43
1.0
 76
     1
 77
     6
 78
     2
 67
     7
 79
     5
170
     0
171
     0
290
     0
174
     0
 93
        1
 44
0.0
173
     0
291
     1
 45
0.0
1001
ACAD
1000
AcDbSavedByObjectVersion
1070
     0
  0
DICTIONARYVAR
  5
154
102
{ACAD_REACTORS
330
151
102
}
330
151
100
DictionaryVariables
280
     0
  1
1:1
  0
ENDSEC
  0
EOF
