  0
SECTION
  2
HEADER
  9
$ACADVER
  1
AC1015
  9
$ACADMAINTVER
 70
     6
  9
$DWGCODEPAGE
  3
ANSI_1252
  9
$INSBASE
 10
0.0
 20
0.0
 30
0.0
  9
$EXTMIN
 10
87.161157675136
 20
350.5160542016
 30
0.0
  9
$EXTMAX
 10
303.9542695381
 20
480.957483107266
 30
0.0
  9
$LIMMIN
 10
0.0
 20
0.0
  9
$LIMMAX
 10
12.0
 20
9.0
  9
$ORTHOMODE
 70
     0
  9
$REGENMODE
 70
     1
  9
$FILLMODE
 70
     1
  9
$QTEXTMODE
 70
     0
  9
$MIRRTEXT
 70
     1
  9
$LTSCALE
 40
1.0
  9
$ATTMODE
 70
     1
  9
$TEXTSIZE
 40
0.2
  9
$TRACEWID
 40
0.05
  9
$TEXTSTYLE
  7
Standard
  9
$CLAYER
  8
0
  9
$CELTYPE
  6
ByLayer
  9
$CECOLOR
 62
   256
  9
$CELTSCALE
 40
1.0
  9
$DISPSILH
 70
     0
  9
$DIMSCALE
 40
1.0
  9
$DIMASZ
 40
0.18
  9
$DIMEXO
 40
0.0625
  9
$DIMDLI
 40
0.38
  9
$DIMRND
 40
0.0
  9
$DIMDLE
 40
0.0
  9
$DIMEXE
 40
0.18
  9
$DIMTP
 40
0.0
  9
$DIMTM
 40
0.0
  9
$DIMTXT
 40
0.18
  9
$DIMCEN
 40
0.09
  9
$DIMTSZ
 40
0.0
  9
$DIMTOL
 70
     0
  9
$DIMLIM
 70
     0
  9
$DIMTIH
 70
     1
  9
$DIMTOH
 70
     1
  9
$DIMSE1
 70
     0
  9
$DIMSE2
 70
     0
  9
$DIMTAD
 70
     0
  9
$DIMZIN
 70
     0
  9
$DIMBLK
  1

  9
$DIMASO
 70
     1
  9
$DIMSHO
 70
     1
  9
$DIMPOST
  1

  9
$DIMAPOST
  1

  9
$DIMALT
 70
     0
  9
$DIMALTD
 70
     2
  9
$DIMALTF
 40
25.4
  9
$DIMLFAC
 40
1.0
  9
$DIMTOFL
 70
     0
  9
$DIMTVP
 40
0.0
  9
$DIMTIX
 70
     0
  9
$DIMSOXD
 70
     0
  9
$DIMSAH
 70
     0
  9
$DIMBLK1
  1

  9
$DIMBLK2
  1

  9
$DIMSTYLE
  2
Standard
  9
$DIMCLRD
 70
     0
  9
$DIMCLRE
 70
     0
  9
$DIMCLRT
 70
     0
  9
$DIMTFAC
 40
1.0
  9
$DIMGAP
 40
0.09
  9
$DIMJUST
 70
     0
  9
$DIMSD1
 70
     0
  9
$DIMSD2
 70
     0
  9
$DIMTOLJ
 70
     1
  9
$DIMTZIN
 70
     0
  9
$DIMALTZ
 70
     0
  9
$DIMALTTZ
 70
     0
  9
$DIMUPT
 70
     0
  9
$DIMDEC
 70
     4
  9
$DIMTDEC
 70
     4
  9
$DIMALTU
 70
     2
  9
$DIMALTTD
 70
     2
  9
$DIMTXSTY
  7
Standard
  9
$DIMAUNIT
 70
     0
  9
$DIMADEC
 70
     0
  9
$DIMALTRND
 40
0.0
  9
$DIMAZIN
 70
     0
  9
$DIMDSEP
 70
    46
  9
$DIMATFIT
 70
     3
  9
$DIMFRAC
 70
     0
  9
$DIMLDRBLK
  1

  9
$DIMLUNIT
 70
     2
  9
$DIMLWD
 70
    -2
  9
$DIMLWE
 70
    -2
  9
$DIMTMOVE
 70
     0
  9
$LUNITS
 70
     2
  9
$LUPREC
 70
     4
  9
$SKETCHINC
 40
0.1
  9
$FILLETRAD
 40
0.5
  9
$AUNITS
 70
     0
  9
$AUPREC
 70
     0
  9
$MENU
  1
.
  9
$ELEVATION
 40
0.0
  9
$PELEVATION
 40
0.0
  9
$THICKNESS
 40
0.0
  9
$LIMCHECK
 70
     0
  9
$CHAMFERA
 40
0.5
  9
$CHAMFERB
 40
0.5
  9
$CHAMFERC
 40
1.0
  9
$CHAMFERD
 40
0.0
  9
$SKPOLY
 70
     0
  9
$TDCREATE
 40
2456821.365198067
  9
$TDUCREATE
 40
2456821.281864734
  9
$TDUPDATE
 40
2456821.365198079
  9
$TDUUPDATE
 40
2456821.281864746
  9
$TDINDWG
 40
0.0000000116
  9
$TDUSRTIMER
 40
0.0000000116
  9
$USRTIMER
 70
     1
  9
$ANGBASE
 50
0.0
  9
$ANGDIR
 70
     0
  9
$PDMODE
 70
     0
  9
$PDSIZE
 40
0.0
  9
$PLINEWID
 40
0.0
  9
$SPLFRAME
 70
     0
  9
$SPLINETYPE
 70
     6
  9
$SPLINESEGS
 70
     8
  9
$HANDSEED
  5
14B
  9
$SURFTAB1
 70
     6
  9
$SURFTAB2
 70
     6
  9
$SURFTYPE
 70
     6
  9
$SURFU
 70
     6
  9
$SURFV
 70
     6
  9
$UCSBASE
  2

  9
$UCSNAME
  2

  9
$UCSORG
 10
0.0
 20
0.0
 30
0.0
  9
$UCSXDIR
 10
1.0
 20
0.0
 30
0.0
  9
$UCSYDIR
 10
0.0
 20
1.0
 30
0.0
  9
$UCSORTHOREF
  2

  9
$UCSORTHOVIEW
 70
     0
  9
$UCSORGTOP
 10
0.0
 20
0.0
 30
0.0
  9
$UCSORGBOTTOM
 10
0.0
 20
0.0
 30
0.0
  9
$UCSORGLEFT
 10
0.0
 20
0.0
 30
0.0
  9
$UCSORGRIGHT
 10
0.0
 20
0.0
 30
0.0
  9
$UCSORGFRONT
 10
0.0
 20
0.0
 30
0.0
  9
$UCSORGBACK
 10
0.0
 20
0.0
 30
0.0
  9
$PUCSBASE
  2

  9
$PUCSNAME
  2

  9
$PUCSORG
 10
0.0
 20
0.0
 30
0.0
  9
$PUCSXDIR
 10
1.0
 20
0.0
 30
0.0
  9
$PUCSYDIR
 10
0.0
 20
1.0
 30
0.0
  9
$PUCSORTHOREF
  2

  9
$PUCSORTHOVIEW
 70
     0
  9
$PUCSORGTOP
 10
0.0
 20
0.0
 30
0.0
  9
$PUCSORGBOTTOM
 10
0.0
 20
0.0
 30
0.0
  9
$PUCSORGLEFT
 10
0.0
 20
0.0
 30
0.0
  9
$PUCSORGRIGHT
 10
0.0
 20
0.0
 30
0.0
  9
$PUCSORGFRONT
 10
0.0
 20
0.0
 30
0.0
  9
$PUCSORGBACK
 10
0.0
 20
0.0
 30
0.0
  9
$USERI1
 70
     0
  9
$USERI2
 70
     0
  9
$USERI3
 70
     0
  9
$USERI4
 70
     0
  9
$USERI5
 70
     0
  9
$USERR1
 40
16.5
  9
$USERR2
 40
0.0
  9
$USERR3
 40
0.0
  9
$USERR4
 40
0.0
  9
$USERR5
 40
0.0
  9
$WORLDVIEW
 70
     1
  9
$SHADEDGE
 70
     3
  9
$SHADEDIF
 70
    70
  9
$TILEMODE
 70
     1
  9
$MAXACTVP
 70
    64
  9
$PINSBASE
 10
0.0
 20
0.0
 30
0.0
  9
$PLIMCHECK
 70
     0
  9
$PEXTMIN
 10
1.00000000000000E+20
 20
1.00000000000000E+20
 30
1.00000000000000E+20
  9
$PEXTMAX
 10
-1.00000000000000E+20
 20
-1.00000000000000E+20
 30
-1.00000000000000E+20
  9
$PLIMMIN
 10
0.0
 20
0.0
  9
$PLIMMAX
 10
12.0
 20
9.0
  9
$UNITMODE
 70
     0
  9
$VISRETAIN
 70
     1
  9
$PLINEGEN
 70
     0
  9
$PSLTSCALE
 70
     1
  9
$TREEDEPTH
 70
  3020
  9
$CMLSTYLE
  2
Standard
  9
$CMLJUST
 70
     0
  9
$CMLSCALE
 40
1.0
  9
$PROXYGRAPHICS
 70
     1
  9
$MEASUREMENT
 70
     1
  9
$CELWEIGHT
370
    -1
  9
$ENDCAPS
280
     0
  9
$JOINSTYLE
280
     0
  9
$LWDISPLAY
290
     0
  9
$INSUNITS
 70
     1
  9
$HYPERLINKBASE
  1

  9
$STYLESHEET
  1

  9
$XEDIT
290
     1
  9
$CEPSNTYPE
380
     0
  9
$PSTYLEMODE
290
     1
  9
$FINGERPRINTGUID
  2
{E1B0F5A9-CF9E-40E1-BFF2-192F40FB0756}
  9
$VERSIONGUID
  2
{FAEB1C32-E019-11D5-929B-00C0DF256EC4}
  9
$EXTNAMES
290
     1
  9
$PSVPSCALE
 40
0.0
  9
$OLESTARTUP
290
     0
  0
ENDSEC
  0
SECTION
  2
CLASSES
  0
CLASS
  1
ACDBDICTIONARYWDFLT
  2
AcDbDictionaryWithDefault
  3
ObjectDBX Classes
 90
        0
280
     0
281
     0
  0
CLASS
  1
VISUALSTYLE
  2
AcDbVisualStyle
  3
ObjectDBX Classes
 90
     4095
280
     0
281
     0
  0
CLASS
  1
SCALE
  2
AcDbScale
  3
ObjectDBX Classes
 90
     1153
280
     0
281
     0
  0
CLASS
  1

  2
exOdDbPolyline
  3

 90
        0
280
     0
281
     1
  0
CLASS
  1

  2
exOdDbSpline
  3

 90
        0
280
     0
281
     1
  0
CLASS
  1
DICTIONARYVAR
  2
AcDbDictionaryVar
  3
ObjectDBX Classes
 90
        0
280
     0
281
     0
  0
CLASS
  1
ACDBPLACEHOLDER
  2
AcDbPlaceHolder
  3
ObjectDBX Classes
 90
        0
280
     0
281
     0
  0
CLASS
  1
LAYOUT
  2
AcDbLayout
  3
ObjectDBX Classes
 90
        0
280
     0
281
     0
  0
ENDSEC
  0
SECTION
  2
TABLES
  0
TABLE
  2
VPORT
  5
8
330
0
100
AcDbSymbolTable
 70
     1
  0
VPORT
  5
29
330
8
100
AcDbSymbolTableRecord
100
AcDbViewportTableRecord
  2
*Active
 70
     0
 10
0.0
 20
0.0
 11
1.0
 21
1.0
 12
195.557713606618
 22
415.736768654433
 13
0.0
 23
0.0
 14
0.5
 24
0.5
 15
0.5
 25
0.5
 16
0.0
 26
0.0
 36
1.0
 17
0.0
 27
0.0
 37
0.0
 40
148.7961636853325
 41
1.60267857142857
 42
50.0
 43
0.0
 44
0.0
 50
0.0
 51
0.0
 71
     0
 72
   100
 73
     1
 74
     3
 75
     0
 76
     0
 77
     0
 78
     0
281
     0
 65
     1
110
0.0
120
0.0
130
0.0
111
1.0
121
0.0
131
0.0
112
0.0
122
1.0
132
0.0
 79
     0
146
0.0
  0
ENDTAB
  0
TABLE
  2
LTYPE
  5
5
330
0
100
AcDbSymbolTable
 70
     8
  0
LTYPE
  5
14
330
5
100
AcDbSymbolTableRecord
100
AcDbLinetypeTableRecord
  2
ByBlock
 70
     0
  3

 72
    65
 73
     0
 40
0.0
  0
LTYPE
  5
15
330
5
100
AcDbSymbolTableRecord
100
AcDbLinetypeTableRecord
  2
ByLayer
 70
     0
  3

 72
    65
 73
     0
 40
0.0
  0
LTYPE
  5
16
330
5
100
AcDbSymbolTableRecord
100
AcDbLinetypeTableRecord
  2
Continuous
 70
     0
  3
Solid line
 72
    65
 73
     0
 40
0.0
  0
LTYPE
  5
3B
330
5
100
AcDbSymbolTableRecord
100
AcDbLinetypeTableRecord
  2
DASHED
 70
     0
  3
Dashed
 72
    65
 73
     2
 40
15.0
 49
7.0
 74
     0
 49
-8.0
 74
     0
  0
LTYPE
  5
3C
330
5
100
AcDbSymbolTableRecord
100
AcDbLinetypeTableRecord
  2
DOTTED
 70
     0
  3
Dotted
 72
    65
 73
     2
 40
1.0
 49
0.0
 74
     0
 49
-1.0
 74
     0
  0
LTYPE
  5
3D
330
5
100
AcDbSymbolTableRecord
100
AcDbLinetypeTableRecord
  2
DOT_CENTER
 70
     0
  3
Dot_Center
 72
    65
 73
     4
 40
14.0
 49
12.0
 74
     0
 49
-1.0
 74
     0
 49
0.0
 74
     0
 49
-1.0
 74
     0
  0
LTYPE
  5
3E
330
5
100
AcDbSymbolTableRecord
100
AcDbLinetypeTableRecord
  2
LONG_DASHED
 70
     0
  3
Long_Dashed
 72
    65
 73
     2
 40
15.0
 49
10.0
 74
     0
 49
-5.0
 74
     0
  0
LTYPE
  5
3F
330
5
100
AcDbSymbolTableRecord
100
AcDbLinetypeTableRecord
  2
DASH_CENTER
 70
     0
  3
Dash_Center
 72
    65
 73
     4
 40
14.0
 49
11.0
 74
     0
 49
-1.0
 74
     0
 49
1.0
 74
     0
 49
-1.0
 74
     0
  0
LTYPE
  5
40
330
5
100
AcDbSymbolTableRecord
100
AcDbLinetypeTableRecord
  2
PHANTOM
 70
     0
  3
Phantom
 72
    65
 73
     6
 40
13.0
 49
10.0
 74
     0
 49
-1.0
 74
     0
 49
0.0
 74
     0
 49
-1.0
 74
     0
 49
0.0
 74
     0
 49
-1.0
 74
     0
  0
LTYPE
  5
41
330
5
100
AcDbSymbolTableRecord
100
AcDbLinetypeTableRecord
  2
CENTER_DASH_DASH
 70
     0
  3
Center_Dash_Dash
 72
    65
 73
     6
 40
14.0
 49
9.0
 74
     0
 49
-1.0
 74
     0
 49
1.0
 74
     0
 49
-1.0
 74
     0
 49
1.0
 74
     0
 49
-1.0
 74
     0
  0
ENDTAB
  0
TABLE
  2
LAYER
  5
2
330
0
100
AcDbSymbolTable
 70
     6
  0
LAYER
  5
10
330
2
100
AcDbSymbolTableRecord
100
AcDbLayerTableRecord
  2
0
 70
     0
 62
     7
  6
Continuous
370
    -3
390
F
  0
LAYER
  5
42
330
2
100
AcDbSymbolTableRecord
100
AcDbLayerTableRecord
  2
1
 70
     0
 62
     7
  6
Continuous
370
    -3
390
F
  0
LAYER
  5
43
330
2
100
AcDbSymbolTableRecord
100
AcDbLayerTableRecord
  2
BG_STARTBEZUEGE
 70
     0
 62
     7
  6
Continuous
370
    -3
390
F
  0
LAYER
  5
44
330
2
100
AcDbSymbolTableRecord
100
AcDbLayerTableRecord
  2
DEFAULT_2
 70
     0
 62
     7
  6
Continuous
370
    -3
390
F
  0
LAYER
  5
45
330
2
100
AcDbSymbolTableRecord
100
AcDbLayerTableRecord
  2
RUNDUNGEN
 70
     0
 62
     7
  6
Continuous
370
    -3
390
F
  0
LAYER
  5
46
330
2
100
AcDbSymbolTableRecord
100
AcDbLayerTableRecord
  2
TEIL_STARTBEZUEGE
 70
     0
 62
     7
  6
Continuous
370
    -3
390
F
  0
ENDTAB
  0
TABLE
  2
STYLE
  5
3
330
0
100
AcDbSymbolTable
 70
     2
  0
STYLE
  5
11
330
3
100
AcDbSymbolTableRecord
100
AcDbTextStyleTableRecord
  2
Standard
 70
     0
 40
0.0
 41
1.0
 50
0.0
 71
     0
 42
0.2
  3
txt
  4

  0
STYLE
  5
6D
330
3
100
AcDbSymbolTableRecord
100
AcDbTextStyleTableRecord
  2
CONVERTER_11
 70
     0
 40
0.0
 41
0.72
 50
0.0
 71
     0
 42
0.2
  3
txt.shx
  4

  0
ENDTAB
  0
TABLE
  2
VIEW
  5
6
330
0
100
AcDbSymbolTable
 70
     0
  0
ENDTAB
  0
TABLE
  2
UCS
  5
7
330
0
100
AcDbSymbolTable
 70
     0
  0
ENDTAB
  0
TABLE
  2
APPID
  5
9
330
0
100
AcDbSymbolTable
 70
     1
  0
APPID
  5
12
330
9
100
AcDbSymbolTableRecord
100
AcDbRegAppTableRecord
  2
ACAD
 70
     0
  0
ENDTAB
  0
TABLE
  2
DIMSTYLE
  5
A
330
0
100
AcDbSymbolTable
 70
     7
100
AcDbDimStyleTable
  0
DIMSTYLE
105
27
330
A
100
AcDbSymbolTableRecord
100
AcDbDimStyleTableRecord
  2
Standard
 70
     0
340
11
  0
DIMSTYLE
105
107
102
{ACAD_REACTORS
330
108
102
}
330
A
100
AcDbSymbolTableRecord
100
AcDbDimStyleTableRecord
  2
ME10_DIM_10
 70
     0
  3
\U+2300<>
 41
3.5
 42
2.0
 44
2.0
 71
     1
 73
     0
 74
     0
 77
     1
 78
     8
140
3.5
146
0.7
147
2.0
172
     1
173
     1
176
     2
177
     2
178
     3
271
     2
272
     0
340
6D
  0
DIMSTYLE
105
112
102
{ACAD_REACTORS
330
113
102
}
330
A
100
AcDbSymbolTableRecord
100
AcDbDimStyleTableRecord
  2
ME10_DIM_11
 70
     0
  3
\U+2300<>
 41
3.5
 42
2.0
 44
2.0
 71
     1
 73
     0
 74
     0
 77
     1
 78
     8
140
3.5
146
0.7
147
2.0
172
     1
173
     1
176
     2
177
     2
178
     3
271
     2
272
     0
340
6D
  0
DIMSTYLE
105
11D
102
{ACAD_REACTORS
330
11E
102
}
330
A
100
AcDbSymbolTableRecord
100
AcDbDimStyleTableRecord
  2
ME10_DIM_12
 70
     0
  3
<>
 41
3.5
 42
2.0
 44
2.0
 71
     1
 73
     0
 74
     0
 77
     1
 78
     8
140
3.5
146
0.7
147
2.0
172
     1
173
     1
176
     2
177
     2
178
     3
271
     2
272
     0
340
6D
  0
DIMSTYLE
105
128
102
{ACAD_REACTORS
330
129
102
}
330
A
100
AcDbSymbolTableRecord
100
AcDbDimStyleTableRecord
  2
ME10_DIM_13
 70
     0
  3
<>
 41
3.5
 42
2.0
 44
2.0
 71
     1
 73
     0
 74
     0
 77
     1
 78
     8
140
3.5
146
0.7
147
2.0
172
     1
173
     1
176
     2
177
     2
178
     3
271
     2
272
     0
340
6D
  0
DIMSTYLE
105
133
102
{ACAD_REACTORS
330
134
102
}
330
A
100
AcDbSymbolTableRecord
100
AcDbDimStyleTableRecord
  2
ME10_DIM_14
 70
     0
  3
<>
 41
3.5
 42
2.0
 44
2.0
 71
     1
 73
     0
 74
     0
 77
     1
 78
     8
140
3.5
146
0.7
147
2.0
172
     1
173
     1
176
     2
177
     2
178
     3
271
     2
272
     0
340
6D
  0
DIMSTYLE
105
13E
102
{ACAD_REACTORS
330
13F
102
}
330
A
100
AcDbSymbolTableRecord
100
AcDbDimStyleTableRecord
  2
ME10_DIM_15
 70
     0
  3
<>
 41
3.5
 42
2.0
 44
2.0
 71
     1
 73
     0
 74
     0
 77
     1
 78
     8
140
3.5
146
0.7
147
2.0
172
     1
173
     1
176
     2
177
     2
178
     3
271
     2
272
     0
340
6D
  0
ENDTAB
  0
TABLE
  2
BLOCK_RECORD
  5
1
330
0
100
AcDbSymbolTable
 70
     9
  0
BLOCK_RECORD
  5
1F
330
1
100
AcDbSymbolTableRecord
100
AcDbBlockTableRecord
  2
*Model_Space
340
22
  0
BLOCK_RECORD
  5
1B
330
1
100
AcDbSymbolTableRecord
100
AcDbBlockTableRecord
  2
*Paper_Space
340
1E
  0
BLOCK_RECORD
  5
23
330
1
100
AcDbSymbolTableRecord
100
AcDbBlockTableRecord
  2
*Paper_Space0
340
26
  0
BLOCK_RECORD
  5
47
330
1
100
AcDbSymbolTableRecord
100
AcDbBlockTableRecord
  2
Urheberrecht_DE-EN
340
0
102
{BLKREFS
331
6C
102
}
  0
BLOCK_RECORD
  5
FE
330
1
100
AcDbSymbolTableRecord
100
AcDbBlockTableRecord
  2
*D2
340
0
  0
BLOCK_RECORD
  5
109
330
1
100
AcDbSymbolTableRecord
100
AcDbBlockTableRecord
  2
*D3
340
0
  0
BLOCK_RECORD
  5
114
330
1
100
AcDbSymbolTableRecord
100
AcDbBlockTableRecord
  2
*D4
340
0
  0
BLOCK_RECORD
  5
11F
330
1
100
AcDbSymbolTableRecord
100
AcDbBlockTableRecord
  2
*D5
340
0
  0
BLOCK_RECORD
  5
12A
330
1
100
AcDbSymbolTableRecord
100
AcDbBlockTableRecord
  2
*D6
340
0
  0
BLOCK_RECORD
  5
135
330
1
100
AcDbSymbolTableRecord
100
AcDbBlockTableRecord
  2
*D7
340
0
  0
BLOCK_RECORD
  5
140
330
1
100
AcDbSymbolTableRecord
100
AcDbBlockTableRecord
  2
*D8
340
0
102
{BLKREFS
331
146
102
}
  0
ENDTAB
  0
ENDSEC
  0
SECTION
  2
BLOCKS
  0
BLOCK
  5
20
330
1F
100
AcDbEntity
  8
0
100
AcDbBlockBegin
  2
*Model_Space
 70
     0
 10
0.0
 20
0.0
 30
0.0
  3
*Model_Space
  1

  0
ENDBLK
  5
21
330
1F
100
AcDbEntity
  8
0
100
AcDbBlockEnd
  0
BLOCK
  5
1C
330
1B
100
AcDbEntity
 67
     1
  8
0
100
AcDbBlockBegin
  2
*Paper_Space
 70
     0
 10
0.0
 20
0.0
 30
0.0
  3
*Paper_Space
  1

  0
ENDBLK
  5
1D
330
1B
100
AcDbEntity
 67
     1
  8
0
100
AcDbBlockEnd
  0
BLOCK
  5
24
330
23
100
AcDbEntity
  8
0
100
AcDbBlockBegin
  2
*Paper_Space0
 70
     0
 10
0.0
 20
0.0
 30
0.0
  3
*Paper_Space0
  1

  0
ENDBLK
  5
25
330
23
100
AcDbEntity
  8
0
100
AcDbBlockEnd
  0
BLOCK
  5
48
330
47
100
AcDbEntity
  8
0
100
AcDbBlockBegin
  2
Urheberrecht_DE-EN
 70
     0
 10
101.161157675136
 20
416.212385464745
 30
0.0
  3
Urheberrecht_DE-EN
  1

  0
MTEXT
  5
6E
330
47
100
AcDbEntity
  8
1
 62
     1
100
AcDbMText
 10
101.161157675136
 20
416.212385464745
 30
0.0
 40
2.0
 41
0.0
 71
     7
 72
     1
  1
We own the copyright of this document. It \Pdetermined and may neither be copied or \Pmade accessible to outsiders without our\Ppermission.
  7
CONVERTER_11
 11
0.0
 21
1.0
 31
0.0
 73
     1
 44
0.90036014405762
  0
MTEXT
  5
6F
330
47
100
AcDbEntity
  8
1
 62
     1
100
AcDbMText
 10
101.161157675136
 20
359.9229985474388
 30
0.0
 40
2.0
 41
0.0
 71
     7
 72
     1
  1
F\U+00fcr diese Unterlage behalten wir das Ur-\Pheberrecht. Sie darf nur f\U+00fcr den von uns \Pbestimmten Zweck benutzt und ohne unsere \PZustimmung weder vervielf\U+00e4ltigt noch\PDritten zug\U+00e4nglich gemacht werden.
  7
CONVERTER_11
 11
0.0
 21
1.0
 31
0.0
 73
     1
 44
0.90036014405762
  0
ENDBLK
  5
49
330
47
100
AcDbEntity
  8
0
100
AcDbBlockEnd
  0
BLOCK
  5
105
330
FE
100
AcDbEntity
  8
0
100
AcDbBlockBegin
  2
*D2
 70
     1
 10
0.0
 20
0.0
 30
0.0
  3
*D2
  1

  0
LINE
  5
FF
330
FE
100
AcDbEntity
  8
1
  6
Continuous
 62
     2
100
AcDbLine
 10
293.957560949234
 20
409.2535542016
 30
0.0
 11
293.957560949234
 21
389.2535542016
 31
0.0
  0
LINE
  5
100
330
FE
100
AcDbEntity
  8
1
  6
Continuous
 62
     2
100
AcDbLine
 10
270.8283264033
 20
409.2535542016
 30
0.0
 11
295.957560949234
 21
409.2535542016
 31
0.0
  0
LINE
  5
101
330
FE
100
AcDbEntity
  8
1
  6
Continuous
 62
     2
100
AcDbLine
 10
270.8283264033
 20
389.2535542016
 30
0.0
 11
295.957560949234
 21
389.2535542016
 31
0.0
  0
SOLID
  5
102
330
FE
100
AcDbEntity
  8
1
 62
     2
100
AcDbTrace
 10
294.4183446907899
 20
405.7535542016
 30
0.0
 11
293.4967772076781
 21
405.7535542016
 31
0.0
 12
293.957560949234
 22
409.2535542016
 32
0.0
 13
293.957560949234
 23
409.2535542016
 33
0.0
  0
SOLID
  5
103
330
FE
100
AcDbEntity
  8
1
 62
     2
100
AcDbTrace
 10
293.4967772076781
 20
392.7535542016
 30
0.0
 11
294.4183446907899
 21
392.7535542016
 31
0.0
 12
293.957560949234
 22
389.2535542016
 32
0.0
 13
293.957560949234
 23
389.2535542016
 33
0.0
  0
MTEXT
  5
104
330
FE
100
AcDbEntity
  8
1
 62
     3
100
AcDbMText
 10
291.957560949234
 20
389.457764955851
 30
0.0
 40
3.5
 41
0.0
 71
     7
 72
     1
  1
\C3;%%c\C3;\C3;20\C2;\H2.45;\S^ ;\C3;
  7
CONVERTER_11
 11
0.0
 21
1.0
 31
0.0
 73
     1
 44
0.60024009603842
  0
ENDBLK
  5
106
330
FE
100
AcDbEntity
  8
0
100
AcDbBlockEnd
  0
BLOCK
  5
110
330
109
100
AcDbEntity
  8
0
100
AcDbBlockBegin
  2
*D3
 70
     1
 10
0.0
 20
0.0
 30
0.0
  3
*D3
  1

  0
LINE
  5
10A
330
109
100
AcDbEntity
  8
1
  6
Continuous
 62
     2
100
AcDbLine
 10
301.9542695381
 20
416.2535542016
 30
0.0
 11
301.9542695381
 21
382.2535542016
 31
0.0
  0
LINE
  5
10B
330
109
100
AcDbEntity
  8
1
  6
Continuous
 62
     2
100
AcDbLine
 10
250.414112841
 20
416.2535542016
 30
0.0
 11
303.9542695381
 21
416.2535542016
 31
0.0
  0
LINE
  5
10C
330
109
100
AcDbEntity
  8
1
  6
Continuous
 62
     2
100
AcDbLine
 10
250.414112841
 20
382.2535542016
 30
0.0
 11
303.9542695381
 21
382.2535542016
 31
0.0
  0
SOLID
  5
10D
330
109
100
AcDbEntity
  8
1
 62
     2
100
AcDbTrace
 10
302.4150532796559
 20
412.7535542016
 30
0.0
 11
301.4934857965441
 21
412.7535542016
 31
0.0
 12
301.9542695381
 22
416.2535542016
 32
0.0
 13
301.9542695381
 23
416.2535542016
 33
0.0
  0
SOLID
  5
10E
330
109
100
AcDbEntity
  8
1
 62
     2
100
AcDbTrace
 10
301.4934857965441
 20
385.7535542016
 30
0.0
 11
302.4150532796559
 21
385.7535542016
 31
0.0
 12
301.9542695381
 22
382.2535542016
 32
0.0
 13
301.9542695381
 23
382.2535542016
 33
0.0
  0
MTEXT
  5
10F
330
109
100
AcDbEntity
  8
1
 62
     3
100
AcDbMText
 10
299.9542695381
 20
390.280955545882
 30
0.0
 40
3.5
 41
0.0
 71
     7
 72
     1
  1
\C3;%%c\C3;\C3;34\C2;\H2.45;\S^ ;\C3;
  7
CONVERTER_11
 11
0.0
 21
1.0
 31
0.0
 73
     1
 44
0.60024009603842
  0
ENDBLK
  5
111
330
109
100
AcDbEntity
  8
0
100
AcDbBlockEnd
  0
BLOCK
  5
11B
330
114
100
AcDbEntity
  8
0
100
AcDbBlockBegin
  2
*D4
 70
     1
 10
0.0
 20
0.0
 30
0.0
  3
*D4
  1

  0
LINE
  5
115
330
114
100
AcDbEntity
  8
1
  6
Continuous
 62
     2
100
AcDbLine
 10
268.8283264033
 20
453.466534487884
 30
0.0
 11
229.4283264033
 21
453.466534487884
 31
0.0
  0
LINE
  5
116
330
114
100
AcDbEntity
  8
1
  6
Continuous
 62
     2
100
AcDbLine
 10
268.8283264033
 20
413.7535542016
 30
0.0
 11
268.8283264033
 21
455.466534487884
 31
0.0
  0
LINE
  5
117
330
114
100
AcDbEntity
  8
1
  6
Continuous
 62
     2
100
AcDbLine
 10
229.4283264033
 20
448.9910542016
 30
0.0
 11
229.4283264033
 21
455.466534487884
 31
0.0
  0
SOLID
  5
118
330
114
100
AcDbEntity
  8
1
 62
     2
100
AcDbTrace
 10
265.3283264033
 20
453.0057507463281
 30
0.0
 11
265.3283264033
 21
453.9273182294399
 31
0.0
 12
268.8283264033
 22
453.466534487884
 32
0.0
 13
268.8283264033
 23
453.466534487884
 33
0.0
  0
SOLID
  5
119
330
114
100
AcDbEntity
  8
1
 62
     2
100
AcDbTrace
 10
232.9283264033
 20
453.9273182294399
 30
0.0
 11
232.9283264033
 21
453.0057507463281
 31
0.0
 12
229.4283264033
 22
453.466534487884
 32
0.0
 13
229.4283264033
 23
453.466534487884
 33
0.0
  0
MTEXT
  5
11A
330
114
100
AcDbEntity
  8
1
 62
     3
100
AcDbMText
 10
244.8926123985872
 20
455.466534487884
 30
0.0
 40
3.5
 41
0.0
 71
     7
 72
     1
  1
\C3;\C3;\C3;39.4\C2;\H2.45;\S^ ;\C3;
  7
CONVERTER_11
 11
0.9999999999970619
 21
2.424068405545306E-6
 31
0.0
 73
     1
 44
0.60024009603842
  0
ENDBLK
  5
11C
330
114
100
AcDbEntity
  8
0
100
AcDbBlockEnd
  0
BLOCK
  5
126
330
11F
100
AcDbEntity
  8
0
100
AcDbBlockBegin
  2
*D5
 70
     1
 10
0.0
 20
0.0
 30
0.0
  3
*D5
  1

  0
LINE
  5
120
330
11F
100
AcDbEntity
  8
1
  6
Continuous
 62
     2
100
AcDbLine
 10
268.8283264033
 20
460.875249798157
 30
0.0
 11
210.3283264033
 21
460.875249798157
 31
0.0
  0
LINE
  5
121
330
11F
100
AcDbEntity
  8
1
  6
Continuous
 62
     2
100
AcDbLine
 10
268.8283264033
 20
413.7535542016
 30
0.0
 11
268.8283264033
 21
462.875249798157
 31
0.0
  0
LINE
  5
122
330
11F
100
AcDbEntity
  8
1
  6
Continuous
 62
     2
100
AcDbLine
 10
210.3283264033
 20
443.7910542016
 30
0.0
 11
210.3283264033
 21
462.875249798157
 31
0.0
  0
SOLID
  5
123
330
11F
100
AcDbEntity
  8
1
 62
     2
100
AcDbTrace
 10
265.3283264033
 20
460.4144660566011
 30
0.0
 11
265.3283264033
 21
461.3360335397128
 31
0.0
 12
268.8283264033
 22
460.875249798157
 32
0.0
 13
268.8283264033
 23
460.875249798157
 33
0.0
  0
SOLID
  5
124
330
11F
100
AcDbEntity
  8
1
 62
     2
100
AcDbTrace
 10
213.8283264033
 20
461.3360335397128
 30
0.0
 11
213.8283264033
 21
460.4144660566011
 31
0.0
 12
210.3283264033
 22
460.875249798157
 32
0.0
 13
210.3283264033
 23
460.875249798157
 33
0.0
  0
MTEXT
  5
125
330
11F
100
AcDbEntity
  8
1
 62
     3
100
AcDbMText
 10
235.341587384357
 20
462.875249798157
 30
0.0
 40
3.5
 41
0.0
 71
     7
 72
     1
  1
\C3;\C3;\C3;58.5\C2;\H2.45;\S^ ;\C3;
  7
CONVERTER_11
 11
0.9999999999970619
 21
2.424068405545306E-6
 31
0.0
 73
     1
 44
0.60024009603842
  0
ENDBLK
  5
127
330
11F
100
AcDbEntity
  8
0
100
AcDbBlockEnd
  0
BLOCK
  5
131
330
12A
100
AcDbEntity
  8
0
100
AcDbBlockBegin
  2
*D6
 70
     1
 10
0.0
 20
0.0
 30
0.0
  3
*D6
  1

  0
LINE
  5
12B
330
12A
100
AcDbEntity
  8
1
  6
Continuous
 62
     2
100
AcDbLine
 10
210.3283264033
 20
468.28396510843
 30
0.0
 11
280.3283264033
 21
468.28396510843
 31
0.0
  0
LINE
  5
12C
330
12A
100
AcDbEntity
  8
1
  6
Continuous
 62
     2
100
AcDbLine
 10
210.3283264033
 20
443.7910542016
 30
0.0
 11
210.3283264033
 21
470.28396510843
 31
0.0
  0
LINE
  5
12D
330
12A
100
AcDbEntity
  8
1
  6
Continuous
 62
     2
100
AcDbLine
 10
280.3283264033
 20
415.2535542016
 30
0.0
 11
280.3283264033
 21
470.28396510843
 31
0.0
  0
SOLID
  5
12E
330
12A
100
AcDbEntity
  8
1
 62
     2
100
AcDbTrace
 10
213.8283264033
 20
468.7447488499859
 30
0.0
 11
213.8283264033
 21
467.8231813668741
 31
0.0
 12
210.3283264033
 22
468.28396510843
 32
0.0
 13
210.3283264033
 23
468.28396510843
 33
0.0
  0
SOLID
  5
12F
330
12A
100
AcDbEntity
  8
1
 62
     2
100
AcDbTrace
 10
276.8283264033
 20
467.8231813668741
 30
0.0
 11
276.8283264033
 21
468.7447488499859
 31
0.0
 12
280.3283264033
 22
468.28396510843
 32
0.0
 13
280.3283264033
 23
468.28396510843
 33
0.0
  0
MTEXT
  5
130
330
12A
100
AcDbEntity
  8
1
 62
     3
100
AcDbMText
 10
243.994908071756
 20
470.28396510843
 30
0.0
 40
3.5
 41
0.0
 71
     7
 72
     1
  1
\C3;\C3;\C3;70\C2;\H2.45;\S^ ;\C3;
  7
CONVERTER_11
 11
0.9999999999970619
 21
2.424068405545306E-6
 31
0.0
 73
     1
 44
0.60024009603842
  0
ENDBLK
  5
132
330
12A
100
AcDbEntity
  8
0
100
AcDbBlockEnd
  0
BLOCK
  5
13C
330
135
100
AcDbEntity
  8
0
100
AcDbBlockBegin
  2
*D7
 70
     1
 10
0.0
 20
0.0
 30
0.0
  3
*D7
  1

  0
LINE
  5
136
330
135
100
AcDbEntity
  8
1
  6
Continuous
 62
     2
100
AcDbLine
 10
268.8283264033
 20
475.457483107266
 30
0.0
 11
108.5783264033
 21
475.457483107266
 31
0.0
  0
LINE
  5
137
330
135
100
AcDbEntity
  8
1
  6
Continuous
 62
     2
100
AcDbLine
 10
268.8283264033
 20
413.7535542016
 30
0.0
 11
268.8283264033
 21
477.457483107266
 31
0.0
  0
LINE
  5
138
330
135
100
AcDbEntity
  8
1
  6
Continuous
 62
     2
100
AcDbLine
 10
108.5783264033
 20
419.4147884016
 30
0.0
 11
108.5783264033
 21
477.457483107266
 31
0.0
  0
SOLID
  5
139
330
135
100
AcDbEntity
  8
1
 62
     2
100
AcDbTrace
 10
265.3283264033
 20
474.9966993657101
 30
0.0
 11
265.3283264033
 21
475.9182668488219
 31
0.0
 12
268.8283264033
 22
475.457483107266
 32
0.0
 13
268.8283264033
 23
475.457483107266
 33
0.0
  0
SOLID
  5
13A
330
135
100
AcDbEntity
  8
1
 62
     2
100
AcDbTrace
 10
112.0783264033
 20
475.9182668488219
 30
0.0
 11
112.0783264033
 21
474.9966993657101
 31
0.0
 12
108.5783264033
 22
475.457483107266
 32
0.0
 13
108.5783264033
 23
475.457483107266
 33
0.0
  0
MTEXT
  5
13B
330
135
100
AcDbEntity
  8
1
 62
     3
100
AcDbMText
 10
190.1323536758415
 20
477.457483107266
 30
0.0
 40
3.5
 41
0.0
 71
     7
 72
     1
  1
\C3;\C3;\C3;160.25\C2;\H2.45;\S^ ;\C3;
  7
CONVERTER_11
 11
0.9999999999970619
 21
2.424068405545306E-6
 31
0.0
 73
     1
 44
0.60024009603842
  0
ENDBLK
  5
13D
330
135
100
AcDbEntity
  8
0
100
AcDbBlockEnd
  0
BLOCK
  5
144
330
140
100
AcDbEntity
  8
0
100
AcDbBlockBegin
  2
*D8
 70
     1
 10
0.0
 20
0.0
 30
0.0
  3
*D8
  1

  0
LINE
  5
141
330
140
100
AcDbEntity
  8
1
  6
Continuous
 62
     2
100
AcDbLine
 10
240.4459576796791
 20
425.3777199105489
 30
0.0
 11
230.3349359301078
 21
419.0822179709877
 31
0.0
  0
SOLID
  5
142
330
140
100
AcDbEntity
  8
1
 62
     2
100
AcDbTrace
 10
233.0625303437911
 20
421.3233226920854
 30
0.0
 11
233.5496304018155
 21
420.5410055189378
 31
0.0
 12
230.3349359301078
 22
419.0822179709877
 32
0.0
 13
230.3349359301078
 23
419.0822179709877
 33
0.0
  0
MTEXT
  5
143
330
140
100
AcDbEntity
  8
1
 62
     3
100
AcDbMText
 10
233.0900193842939
 20
423.1536309297558
 30
0.0
 40
3.5
 41
0.0
 71
     7
 72
     1
  1
\C3; R\C3;\C3;6\C2;\H2.45;\S^ ;\C3;
  7
CONVERTER_11
 11
0.8488984121987094
 21
0.5285560384353867
 31
0.0
 73
     1
 44
0.60024009603842
  0
ENDBLK
  5
145
330
140
100
AcDbEntity
  8
0
100
AcDbBlockEnd
  0
ENDSEC
  0
SECTION
  2
ENTITIES
  0
INSERT
  5
6C
330
1F
100
AcDbEntity
  8
0
100
AcDbBlockReference
  2
Urheberrecht_DE-EN
 10
101.161157675136
 20
416.212385464745
 30
0.0
  0
LINE
  5
70
330
1F
100
AcDbEntity
  8
0
  6
Continuous
 62
     7
100
AcDbLine
 10
108.5783264033
 20
417.4147884016
 30
0.0
 11
108.5783264033
 21
381.0921072004
 31
0.0
  0
LINE
  5
71
330
1F
100
AcDbEntity
  8
0
  6
Continuous
 62
     9
100
AcDbLine
 10
110.5036093977
 20
378.8656618572
 30
0.0
 11
110.5036093977
 21
419.641446546
 31
0.0
  0
LINE
  5
72
330
1F
100
AcDbEntity
  8
0
  6
Continuous
 62
     7
100
AcDbLine
 10
214.5283264033
 20
350.5160542016
 30
0.0
 11
218.2629480175
 21
350.5160542016
 31
0.0
  0
LINE
  5
73
330
1F
100
AcDbEntity
  8
0
  6
Continuous
 62
     7
100
AcDbLine
 10
224.7437047892
 20
350.5160542016
 30
0.0
 11
228.4283264033
 21
350.5160542016
 31
0.0
  0
LINE
  5
74
330
1F
100
AcDbEntity
  8
0
  6
Continuous
 62
     7
100
AcDbLine
 10
220.3408264033
 20
353.7535542016
 30
0.0
 11
222.6658264033
 21
353.7535542016
 31
0.0
  0
LINE
  5
75
330
1F
100
AcDbEntity
  8
0
  6
Continuous
 62
     7
100
AcDbLine
 10
209.8386440701
 20
364.39997216
 30
0.0
 11
210.8783264033
 21
364.6785542016
 31
0.0
  0
LINE
  5
76
330
1F
100
AcDbEntity
  8
0
  6
Continuous
 62
     7
100
AcDbLine
 10
214.5283264033
 20
360.7266622136
 30
0.0
 11
218.2629480175
 21
360.7266622136
 31
0.0
  0
LINE
  5
77
330
1F
100
AcDbEntity
  8
0
  6
Continuous
 62
     7
100
AcDbLine
 10
224.7437047892
 20
360.7266622136
 30
0.0
 11
228.4283264033
 21
360.7266622136
 31
0.0
  0
LINE
  5
78
330
1F
100
AcDbEntity
  8
0
  6
Continuous
 62
     7
100
AcDbLine
 10
210.8783264033
 20
364.6785542016
 30
0.0
 11
212.5283264033
 21
364.6785542016
 31
0.0
  0
LINE
  5
79
330
1F
100
AcDbEntity
  8
0
  6
Continuous
 62
     7
100
AcDbLine
 10
220.3408264033
 20
364.91367214
 30
0.0
 11
222.6658264033
 21
364.91367214
 31
0.0
  0
LINE
  5
7A
330
1F
100
AcDbEntity
  8
0
  6
Continuous
 62
     7
100
AcDbLine
 10
110.5036093977
 20
378.8656618572
 30
0.0
 11
209.8386440701
 21
364.39997216
 31
0.0
  0
LINE
  5
7B
330
1F
100
AcDbEntity
  8
0
  6
Continuous
 62
     9
100
AcDbLine
 10
229.4283264033
 20
367.6535542016
 30
0.0
 11
213.5283264033
 21
367.6535542016
 31
0.0
  0
LINE
  5
7C
330
1F
100
AcDbEntity
  8
0
  6
Continuous
 62
     7
100
AcDbLine
 10
213.5283264033
 20
369.4035542016
 30
0.0
 11
229.4283264033
 21
369.4035542016
 31
0.0
  0
LINE
  5
7D
330
1F
100
AcDbEntity
  8
RUNDUNGEN
  6
Continuous
 62
     7
100
AcDbLine
 10
276.8105594504
 20
382.2535542016
 30
0.0
 11
262.5783264033
 21
382.2535542016
 31
0.0
  0
LINE
  5
7E
330
1F
100
AcDbEntity
  8
0
  6
Continuous
 62
     7
100
AcDbLine
 10
235.4283264033
 20
382.2535542016
 30
0.0
 11
248.414112841
 21
382.2535542016
 31
0.0
  0
LINE
  5
7F
330
1F
100
AcDbEntity
  8
0
  6
Continuous
 62
     7
100
AcDbLine
 10
262.5783264033
 20
382.2535542016
 30
0.0
 11
276.8105594504
 21
382.2535542016
 31
0.0
  0
LINE
  5
80
330
1F
100
AcDbEntity
  8
0
  6
Continuous
 62
     7
100
AcDbLine
 10
269.3283264033
 20
382.2631731448
 30
0.0
 11
276.8105594504
 21
382.2631731448
 31
0.0
  0
LINE
  5
81
330
1F
100
AcDbEntity
  8
0
  6
Continuous
 62
     7
100
AcDbLine
 10
213.5283264033
 20
386.3535542016
 30
0.0
 11
229.4283264033
 21
386.3535542016
 31
0.0
  0
LINE
  5
82
330
1F
100
AcDbEntity
  8
0
  6
Continuous
 62
     7
100
AcDbLine
 10
253.7425399657
 20
386.7535542016
 30
0.0
 11
261.3283264033
 21
386.7535542016
 31
0.0
  0
LWPOLYLINE
  5
83
330
1F
100
AcDbEntity
  8
DEFAULT_2
  6
DASHED
 62
     8
100
AcDbPolyline
 90
        2
 70
     0
 43
0.35
 10
261.3283264033
 20
386.7535542016
 10
268.8283264033
 20
386.7535542016
  0
LINE
  5
84
330
1F
100
AcDbEntity
  8
0
  6
Continuous
 62
     9
100
AcDbLine
 10
229.4283264033
 20
388.1035542016
 30
0.0
 11
213.5283264033
 21
388.1035542016
 31
0.0
  0
LINE
  5
85
330
1F
100
AcDbEntity
  8
0
  6
Continuous
 62
     7
100
AcDbLine
 10
269.3283264033
 20
390.2631731448
 30
0.0
 11
276.8105594504
 21
390.2631731448
 31
0.0
  0
LINE
  5
86
330
1F
100
AcDbEntity
  8
0
  6
Continuous
 62
     7
100
AcDbLine
 10
269.3283264033
 20
391.2535542016
 30
0.0
 11
276.8105594504
 21
391.2535542016
 31
0.0
  0
LWPOLYLINE
  5
87
330
1F
100
AcDbEntity
  8
DEFAULT_2
  6
DASHED
 62
     8
100
AcDbPolyline
 90
        2
 70
     0
 43
0.35
 10
238.8283264033
 20
392.5035542016
 10
245.7033748056
 20
392.5035542016
  0
LWPOLYLINE
  5
88
330
1F
100
AcDbEntity
  8
DEFAULT_2
  6
DASHED
 62
     8
100
AcDbPolyline
 90
        2
 70
     0
 43
0.35
 10
245.7033748056
 20
406.0035542016
 10
268.8283264033
 20
409.2535542016
  0
LWPOLYLINE
  5
89
330
1F
100
AcDbEntity
  8
TEIL_STARTBEZUEGE
  6
DOT_CENTER
 62
     7
100
AcDbPolyline
 90
        2
 70
     0
 43
0.25
 10
285.3266458222
 20
399.2535542016
 10
105.5783264033
 20
399.2535542016
  0
LWPOLYLINE
  5
8A
330
1F
100
AcDbEntity
  8
DEFAULT_2
  6
DASHED
 62
     8
100
AcDbPolyline
 90
        2
 70
     0
 43
0.35
 10
245.7033748056
 20
392.5035542016
 10
268.8283264033
 20
389.2535542016
  0
LINE
  5
8B
330
1F
100
AcDbEntity
  8
0
  6
Continuous
 62
     7
100
AcDbLine
 10
223.4158264033
 20
445.6911013711
 30
0.0
 11
224.7437047892
 21
447.9910542016
 31
0.0
  0
LWPOLYLINE
  5
8C
330
1F
100
AcDbEntity
  8
DEFAULT_2
  6
DASHED
 62
     8
100
AcDbPolyline
 90
        2
 70
     0
 43
0.35
 10
238.8283264033
 20
406.0035542016
 10
245.7033748056
 20
406.0035542016
  0
LINE
  5
8D
330
1F
100
AcDbEntity
  8
0
  6
Continuous
 62
     7
100
AcDbLine
 10
223.4158264033
 20
352.8160070321
 30
0.0
 11
224.7437047892
 21
350.5160542016
 31
0.0
  0
LINE
  5
8E
330
1F
100
AcDbEntity
  8
0
  6
Continuous
 62
     7
100
AcDbLine
 10
269.3283264033
 20
407.2535542016
 30
0.0
 11
276.8105594504
 21
407.2535542016
 31
0.0
  0
LINE
  5
8F
330
1F
100
AcDbEntity
  8
0
  6
Continuous
 62
     7
100
AcDbLine
 10
269.3283264033
 20
408.2439352583
 30
0.0
 11
276.8105594504
 21
408.2439352583
 31
0.0
  0
LINE
  5
90
330
1F
100
AcDbEntity
  8
0
  6
Continuous
 62
     9
100
AcDbLine
 10
229.4283264033
 20
410.4035542016
 30
0.0
 11
213.5283264033
 21
410.4035542016
 31
0.0
  0
LINE
  5
91
330
1F
100
AcDbEntity
  8
0
  6
Continuous
 62
     7
100
AcDbLine
 10
253.7425399657
 20
411.7535542016
 30
0.0
 11
261.3283264033
 21
411.7535542016
 31
0.0
  0
LWPOLYLINE
  5
92
330
1F
100
AcDbEntity
  8
DEFAULT_2
  6
DASHED
 62
     8
100
AcDbPolyline
 90
        2
 70
     0
 43
0.35
 10
261.3283264033
 20
411.7535542016
 10
268.8283264033
 20
411.7535542016
  0
LINE
  5
93
330
1F
100
AcDbEntity
  8
0
  6
Continuous
 62
     7
100
AcDbLine
 10
213.5283264033
 20
412.1535542016
 30
0.0
 11
229.4283264033
 21
412.1535542016
 31
0.0
  0
LINE
  5
94
330
1F
100
AcDbEntity
  8
0
  6
Continuous
 62
     7
100
AcDbLine
 10
209.8386440701
 20
364.39997216
 30
0.0
 11
209.8386440701
 21
434.1071362432
 31
0.0
  0
LWPOLYLINE
  5
95
330
1F
100
AcDbEntity
  8
BG_STARTBEZUEGE
  6
DOT_CENTER
 62
     7
100
AcDbPolyline
 90
        2
 70
     0
 43
0.25
 10
210.3283264033
 20
441.7910542016
 10
210.3283264033
 20
357.3160542016
  0
LINE
  5
96
330
1F
100
AcDbEntity
  8
0
  6
Continuous
 62
     7
100
AcDbLine
 10
210.8783264033
 20
364.6785542016
 30
0.0
 11
210.8783264033
 21
433.8285542016
 31
0.0
  0
LINE
  5
97
330
1F
100
AcDbEntity
  8
0
  6
Continuous
 62
     9
100
AcDbLine
 10
212.5283264033
 20
364.6785542016
 30
0.0
 11
212.5283264033
 21
433.8285542016
 31
0.0
  0
LINE
  5
98
330
1F
100
AcDbEntity
  8
0
  6
Continuous
 62
     7
100
AcDbLine
 10
213.5283264033
 20
351.5160542016
 30
0.0
 11
213.5283264033
 21
446.990872173
 31
0.0
  0
LINE
  5
99
330
1F
100
AcDbEntity
  8
0
  6
Continuous
 62
     9
100
AcDbLine
 10
214.5283264033
 20
447.9910542016
 30
0.0
 11
214.5283264033
 21
412.1535542016
 31
0.0
  0
LINE
  5
9A
330
1F
100
AcDbEntity
  8
0
  6
Continuous
 62
     9
100
AcDbLine
 10
214.5283264033
 20
350.5160542016
 30
0.0
 11
214.5283264033
 21
360.7266622136
 31
0.0
  0
LINE
  5
9B
330
1F
100
AcDbEntity
  8
0
  6
Continuous
 62
     9
100
AcDbLine
 10
214.5283264033
 20
369.4035542016
 30
0.0
 11
214.5283264033
 21
386.3535542016
 31
0.0
  0
LINE
  5
9C
330
1F
100
AcDbEntity
  8
0
  6
Continuous
 62
     7
100
AcDbLine
 10
269.3283264033
 20
416.2439352583
 30
0.0
 11
276.8105594504
 21
416.2439352583
 31
0.0
  0
LINE
  5
9D
330
1F
100
AcDbEntity
  8
0
  6
Continuous
 62
     7
100
AcDbLine
 10
235.4283264033
 20
416.2535542016
 30
0.0
 11
248.414112841
 21
416.2535542016
 31
0.0
  0
LINE
  5
9E
330
1F
100
AcDbEntity
  8
0
  6
Continuous
 62
     7
100
AcDbLine
 10
262.5783264033
 20
416.2535542016
 30
0.0
 11
276.8105594504
 21
416.2535542016
 31
0.0
  0
LINE
  5
9F
330
1F
100
AcDbEntity
  8
0
  6
Continuous
 62
     7
100
AcDbLine
 10
218.2629480175
 20
447.9910542016
 30
0.0
 11
218.2629480175
 21
412.1535542016
 31
0.0
  0
LINE
  5
A0
330
1F
100
AcDbEntity
  8
0
  6
Continuous
 62
     7
100
AcDbLine
 10
218.2629480175
 20
386.3535542016
 30
0.0
 11
218.2629480175
 21
369.4035542016
 31
0.0
  0
LINE
  5
A1
330
1F
100
AcDbEntity
  8
0
  6
Continuous
 62
     7
100
AcDbLine
 10
218.2629480175
 20
360.7266622136
 30
0.0
 11
218.2629480175
 21
350.5160542016
 31
0.0
  0
LINE
  5
A2
330
1F
100
AcDbEntity
  8
0
  6
Continuous
 62
     7
100
AcDbLine
 10
219.5908264033
 20
445.6909295994
 30
0.0
 11
219.5908264033
 21
412.1535542016
 31
0.0
  0
LINE
  5
A3
330
1F
100
AcDbEntity
  8
0
  6
Continuous
 62
     7
100
AcDbLine
 10
219.5908264033
 20
352.8161306142
 30
0.0
 11
219.5908264033
 21
363.9259446023
 31
0.0
  0
LINE
  5
A4
330
1F
100
AcDbEntity
  8
0
  6
Continuous
 62
     7
100
AcDbLine
 10
219.5908264033
 20
369.4035542016
 30
0.0
 11
219.5908264033
 21
386.3535542016
 31
0.0
  0
LINE
  5
A5
330
1F
100
AcDbEntity
  8
0
  6
Continuous
 62
     9
100
AcDbLine
 10
220.3408264033
 20
444.7535542016
 30
0.0
 11
220.3408264033
 21
412.1535542016
 31
0.0
  0
LINE
  5
A6
330
1F
100
AcDbEntity
  8
0
  6
Continuous
 62
     9
100
AcDbLine
 10
220.3408264033
 20
353.7535542016
 30
0.0
 11
220.3408264033
 21
364.91367214
 31
0.0
  0
LINE
  5
A7
330
1F
100
AcDbEntity
  8
0
  6
Continuous
 62
     9
100
AcDbLine
 10
220.3408264033
 20
369.4035542016
 30
0.0
 11
220.3408264033
 21
386.3535542016
 31
0.0
  0
LINE
  5
A8
330
1F
100
AcDbEntity
  8
0
  6
Continuous
 62
     9
100
AcDbLine
 10
222.6658264033
 20
444.7535542016
 30
0.0
 11
222.6658264033
 21
412.1535542016
 31
0.0
  0
LINE
  5
A9
330
1F
100
AcDbEntity
  8
0
  6
Continuous
 62
     9
100
AcDbLine
 10
222.6658264033
 20
353.7535542016
 30
0.0
 11
222.6658264033
 21
364.91367214
 31
0.0
  0
LINE
  5
AA
330
1F
100
AcDbEntity
  8
0
  6
Continuous
 62
     9
100
AcDbLine
 10
222.6658264033
 20
369.4035542016
 30
0.0
 11
222.6658264033
 21
386.3535542016
 31
0.0
  0
LINE
  5
AB
330
1F
100
AcDbEntity
  8
0
  6
Continuous
 62
     7
100
AcDbLine
 10
223.4158264033
 20
445.6909295994
 30
0.0
 11
223.4158264033
 21
412.1535542016
 31
0.0
  0
LINE
  5
AC
330
1F
100
AcDbEntity
  8
0
  6
Continuous
 62
     7
100
AcDbLine
 10
223.4158264033
 20
352.8161306142
 30
0.0
 11
223.4158264033
 21
363.9259446023
 31
0.0
  0
LINE
  5
AD
330
1F
100
AcDbEntity
  8
0
  6
Continuous
 62
     7
100
AcDbLine
 10
223.4158264033
 20
369.4035542016
 30
0.0
 11
223.4158264033
 21
386.3535542016
 31
0.0
  0
LINE
  5
AE
330
1F
100
AcDbEntity
  8
0
  6
Continuous
 62
     7
100
AcDbLine
 10
224.7437047892
 20
447.9910542016
 30
0.0
 11
224.7437047892
 21
412.1535542016
 31
0.0
  0
LINE
  5
AF
330
1F
100
AcDbEntity
  8
0
  6
Continuous
 62
     7
100
AcDbLine
 10
224.7437047892
 20
386.3535542016
 30
0.0
 11
224.7437047892
 21
369.4035542016
 31
0.0
  0
LINE
  5
B0
330
1F
100
AcDbEntity
  8
0
  6
Continuous
 62
     7
100
AcDbLine
 10
224.7437047892
 20
360.7266622136
 30
0.0
 11
224.7437047892
 21
350.5160542016
 31
0.0
  0
LINE
  5
B1
330
1F
100
AcDbEntity
  8
0
  6
Continuous
 62
     7
100
AcDbLine
 10
110.5036093977
 20
419.641446546
 30
0.0
 11
209.8386440701
 21
434.1071362432
 31
0.0
  0
LINE
  5
B2
330
1F
100
AcDbEntity
  8
0
  6
Continuous
 62
     9
100
AcDbLine
 10
228.4283264033
 20
447.9910542016
 30
0.0
 11
228.4283264033
 21
412.1535542016
 31
0.0
  0
LINE
  5
B3
330
1F
100
AcDbEntity
  8
0
  6
Continuous
 62
     9
100
AcDbLine
 10
228.4283264033
 20
350.5160542016
 30
0.0
 11
228.4283264033
 21
360.7266622136
 31
0.0
  0
LINE
  5
B4
330
1F
100
AcDbEntity
  8
0
  6
Continuous
 62
     9
100
AcDbLine
 10
228.4283264033
 20
369.4035542016
 30
0.0
 11
228.4283264033
 21
386.3535542016
 31
0.0
  0
LINE
  5
B5
330
1F
100
AcDbEntity
  8
0
  6
Continuous
 62
     7
100
AcDbLine
 10
229.4283264033
 20
351.5160542016
 30
0.0
 11
229.4283264033
 21
446.9910542016
 31
0.0
  0
LINE
  5
B6
330
1F
100
AcDbEntity
  8
0
  6
Continuous
 62
     7
100
AcDbLine
 10
210.8783264033
 20
433.8285542016
 30
0.0
 11
212.5283264033
 21
433.8285542016
 31
0.0
  0
LINE
  5
B7
330
1F
100
AcDbEntity
  8
0
  6
Continuous
 62
     7
100
AcDbLine
 10
209.8386440701
 20
434.1071362432
 30
0.0
 11
210.8783264033
 21
433.8285542016
 31
0.0
  0
LINE
  5
B8
330
1F
100
AcDbEntity
  8
RUNDUNGEN
  6
Continuous
 62
     9
100
AcDbLine
 10
235.4283264033
 20
416.2535542016
 30
0.0
 11
235.4283264033
 21
382.2535542016
 31
0.0
  0
LWPOLYLINE
  5
B9
330
1F
100
AcDbEntity
  8
DEFAULT_2
  6
DASHED
 62
     8
100
AcDbPolyline
 90
        2
 70
     0
 43
0.35
 10
238.8283264033
 20
392.5035542016
 10
238.8283264033
 20
406.0035542016
  0
LINE
  5
BA
330
1F
100
AcDbEntity
  8
0
  6
Continuous
 62
     7
100
AcDbLine
 10
218.2629480175
 20
350.5160542016
 30
0.0
 11
219.5908264033
 21
352.8160070321
 31
0.0
  0
LINE
  5
BB
330
1F
100
AcDbEntity
  8
0
  6
Continuous
 62
     7
100
AcDbLine
 10
220.3408264033
 20
444.7535542016
 30
0.0
 11
222.6658264033
 21
444.7535542016
 31
0.0
  0
LINE
  5
BC
330
1F
100
AcDbEntity
  8
0
  6
Continuous
 62
     7
100
AcDbLine
 10
218.2629480175
 20
447.9910542016
 30
0.0
 11
219.5908264033
 21
445.6911013711
 31
0.0
  0
LWPOLYLINE
  5
BD
330
1F
100
AcDbEntity
  8
DEFAULT_2
  6
DASHED
 62
     8
100
AcDbPolyline
 90
        2
 70
     0
 43
0.35
 10
245.7033748056
 20
406.0035542016
 10
245.7033748056
 20
392.5035542016
  0
LINE
  5
BE
330
1F
100
AcDbEntity
  8
0
  6
Continuous
 62
     7
100
AcDbLine
 10
249.1212196221
 20
382.5464474204
 30
0.0
 11
253.0354331845
 21
386.4606609828
 31
0.0
  0
LINE
  5
BF
330
1F
100
AcDbEntity
  8
0
  6
Continuous
 62
     7
100
AcDbLine
 10
214.5283264033
 20
447.9910542016
 30
0.0
 11
218.2629480175
 21
447.9910542016
 31
0.0
  0
LINE
  5
C0
330
1F
100
AcDbEntity
  8
0
  6
Continuous
 62
     7
100
AcDbLine
 10
224.7437047892
 20
447.9910542016
 30
0.0
 11
228.4283264033
 21
447.9910542016
 31
0.0
  0
LINE
  5
C1
330
1F
100
AcDbEntity
  8
0
  6
Continuous
 62
     7
100
AcDbLine
 10
249.1212196221
 20
415.9606609828
 30
0.0
 11
253.0354331845
 21
412.0464474204
 31
0.0
  0
LINE
  5
C2
330
1F
100
AcDbEntity
  8
RUNDUNGEN
  6
Continuous
 62
     9
100
AcDbLine
 10
248.414112841
 20
382.2535542016
 30
0.0
 11
248.414112841
 21
416.2535542016
 31
0.0
  0
LINE
  5
C3
330
1F
100
AcDbEntity
  8
RUNDUNGEN
  6
Continuous
 62
     9
100
AcDbLine
 10
249.1212196221
 20
382.5464474204
 30
0.0
 11
249.1212196221
 21
415.9606609828
 31
0.0
  0
LINE
  5
C4
330
1F
100
AcDbEntity
  8
RUNDUNGEN
  6
Continuous
 62
     9
100
AcDbLine
 10
253.0354331845
 20
412.0464474204
 30
0.0
 11
253.0354331845
 21
386.4606609828
 31
0.0
  0
LINE
  5
C5
330
1F
100
AcDbEntity
  8
RUNDUNGEN
  6
Continuous
 62
     9
100
AcDbLine
 10
253.7425399657
 20
411.7535542016
 30
0.0
 11
253.7425399657
 21
386.7535542016
 31
0.0
  0
LINE
  5
C6
330
1F
100
AcDbEntity
  8
RUNDUNGEN
  6
Continuous
 62
     7
100
AcDbLine
 10
261.3283264033
 20
415.0035542016
 30
0.0
 11
261.3283264033
 21
383.5035542016
 31
0.0
  0
LINE
  5
C7
330
1F
100
AcDbEntity
  8
RUNDUNGEN
  6
Continuous
 62
     9
100
AcDbLine
 10
262.5783264033
 20
382.2535542016
 30
0.0
 11
262.5783264033
 21
416.2535542016
 31
0.0
  0
LINE
  5
C8
330
1F
100
AcDbEntity
  8
RUNDUNGEN
  6
Continuous
 62
     7
100
AcDbLine
 10
280.3283264033
 20
385.2535542016
 30
0.0
 11
277.6944429268
 21
382.6196707251
 31
0.0
  0
LINE
  5
C9
330
1F
100
AcDbEntity
  8
0
  6
Continuous
 62
     7
100
AcDbLine
 10
277.6944429268
 20
382.6196707251
 30
0.0
 11
280.3283264033
 21
385.2535542016
 31
0.0
  0
LINE
  5
CA
330
1F
100
AcDbEntity
  8
0
  6
Continuous
 62
     7
100
AcDbLine
 10
277.6944429268
 20
415.8874376781
 30
0.0
 11
280.3283264033
 21
413.2535542016
 31
0.0
  0
LINE
  5
CB
330
1F
100
AcDbEntity
  8
RUNDUNGEN
  6
Continuous
 62
     7
100
AcDbLine
 10
280.3283264033
 20
413.2535542016
 30
0.0
 11
277.6944429268
 21
415.8874376781
 31
0.0
  0
LWPOLYLINE
  5
CC
330
1F
100
AcDbEntity
  8
DEFAULT_2
  6
DASHED
 62
     8
100
AcDbPolyline
 90
        2
 70
     0
 43
0.35
 10
268.8283264033
 20
386.7535542016
 10
268.8283264033
 20
411.7535542016
  0
LINE
  5
CD
330
1F
100
AcDbEntity
  8
0
  6
Continuous
 62
     7
100
AcDbLine
 10
269.3283264033
 20
416.2439352583
 30
0.0
 11
269.3283264033
 21
408.2439352583
 31
0.0
  0
LINE
  5
CE
330
1F
100
AcDbEntity
  8
0
  6
Continuous
 62
     7
100
AcDbLine
 10
269.3283264033
 20
407.2535542016
 30
0.0
 11
269.3283264033
 21
391.2535542016
 31
0.0
  0
LINE
  5
CF
330
1F
100
AcDbEntity
  8
0
  6
Continuous
 62
     7
100
AcDbLine
 10
269.3283264033
 20
390.2631731448
 30
0.0
 11
269.3283264033
 21
382.2631731448
 31
0.0
  0
LINE
  5
D0
330
1F
100
AcDbEntity
  8
0
  6
Continuous
 62
     9
100
AcDbLine
 10
276.8105594504
 20
382.2535542016
 30
0.0
 11
276.8105594504
 21
382.2631731448
 31
0.0
  0
LINE
  5
D1
330
1F
100
AcDbEntity
  8
0
  6
Continuous
 62
     9
100
AcDbLine
 10
276.8105594504
 20
390.2631731448
 30
0.0
 11
276.8105594504
 21
391.2535542016
 31
0.0
  0
LINE
  5
D2
330
1F
100
AcDbEntity
  8
0
  6
Continuous
 62
     9
100
AcDbLine
 10
276.8105594504
 20
407.2535542016
 30
0.0
 11
276.8105594504
 21
408.2439352583
 31
0.0
  0
LINE
  5
D3
330
1F
100
AcDbEntity
  8
0
  6
Continuous
 62
     9
100
AcDbLine
 10
276.8105594504
 20
416.2439352583
 30
0.0
 11
276.8105594504
 21
416.2535542016
 31
0.0
  0
LINE
  5
D4
330
1F
100
AcDbEntity
  8
0
  6
Continuous
 62
     9
100
AcDbLine
 10
277.6944429268
 20
382.6196707251
 30
0.0
 11
277.6944429268
 21
382.6685215793
 31
0.0
  0
LINE
  5
D5
330
1F
100
AcDbEntity
  8
0
  6
Continuous
 62
     9
100
AcDbLine
 10
277.6944429268
 20
389.8578247103
 30
0.0
 11
277.6944429268
 21
392.0642510706
 31
0.0
  0
LINE
  5
D6
330
1F
100
AcDbEntity
  8
0
  6
Continuous
 62
     9
100
AcDbLine
 10
277.6944429268
 20
406.4428573326
 30
0.0
 11
277.6944429268
 21
408.6492836929
 31
0.0
  0
LINE
  5
D7
330
1F
100
AcDbEntity
  8
0
  6
Continuous
 62
     9
100
AcDbLine
 10
277.6944429268
 20
415.8385868238
 30
0.0
 11
277.6944429268
 21
415.8874376781
 31
0.0
  0
LINE
  5
D8
330
1F
100
AcDbEntity
  8
0
  6
Continuous
 62
     7
100
AcDbLine
 10
280.3283264033
 20
385.2535542016
 30
0.0
 11
280.3283264033
 21
413.2535542016
 31
0.0
  0
ARC
  5
D9
330
1F
100
AcDbEntity
  8
0
  6
Continuous
 62
     7
100
AcDbCircle
 10
475.4697025818
 20
475.2042481793
 30
0.0
 40
275.6240984703998
100
AcDbArc
 50
203.8674211067
 51
204.540700682168
  0
ARC
  5
DA
330
1F
100
AcDbEntity
  8
0
  6
Continuous
 62
     7
100
AcDbCircle
 10
-32.4630497751
 20
475.2042481793
 30
0.0
 40
275.6240984704152
100
AcDbArc
 50
335.459299317832
 51
336.1325788932999
  0
ARC
  5
DB
330
1F
100
AcDbEntity
  8
RUNDUNGEN
  6
Continuous
 62
     7
100
AcDbCircle
 10
235.4283264033
 20
422.2535542016
 30
0.0
 40
6.0
100
AcDbArc
 50
180.0
 51
270.0
  0
ARC
  5
DC
330
1F
100
AcDbEntity
  8
RUNDUNGEN
  6
Continuous
 62
     7
100
AcDbCircle
 10
235.4283264033
 20
376.2535542016
 30
0.0
 40
6.0
100
AcDbArc
 50
90.0
 51
180.0
  0
ARC
  5
DD
330
1F
100
AcDbEntity
  8
0
  6
Continuous
 62
     7
100
AcDbCircle
 10
110.8283264033
 20
381.0921072004
 30
0.0
 40
2.25
100
AcDbArc
 50
180.0
 51
261.7021731726458
  0
ARC
  5
DE
330
1F
100
AcDbEntity
  8
0
  6
Continuous
 62
     7
100
AcDbCircle
 10
110.8283264033
 20
417.4150012028
 30
0.0
 40
2.249999999996174
100
AcDbArc
 50
98.29782682735429
 51
180.0
  0
ARC
  5
DF
330
1F
100
AcDbEntity
  8
RUNDUNGEN
  6
Continuous
 62
     7
100
AcDbCircle
 10
262.5783264033
 20
383.5035542016
 30
0.0
 40
1.25
100
AcDbArc
 50
180.0
 51
270.0
  0
ARC
  5
E0
330
1F
100
AcDbEntity
  8
RUNDUNGEN
  6
Continuous
 62
     7
100
AcDbCircle
 10
262.5783264033
 20
415.0035542016
 30
0.0
 40
1.25
100
AcDbArc
 50
90.0
 51
180.0
  0
ARC
  5
E1
330
1F
100
AcDbEntity
  8
RUNDUNGEN
  6
Continuous
 62
     7
100
AcDbCircle
 10
276.8105594504
 20
415.0035542016
 30
0.0
 40
1.249999999953063
100
AcDbArc
 50
45.00000000324074
 51
90.0
  0
ARC
  5
E2
330
1F
100
AcDbEntity
  8
RUNDUNGEN
  6
Continuous
 62
     7
100
AcDbCircle
 10
276.8105594504
 20
383.5035542016
 30
0.0
 40
1.25
100
AcDbArc
 50
270.0
 51
314.9999999967574
  0
ARC
  5
E3
330
1F
100
AcDbEntity
  8
RUNDUNGEN
  6
Continuous
 62
     7
100
AcDbCircle
 10
248.414112841
 20
415.2535542016
 30
0.0
 40
0.999999999948298
100
AcDbArc
 50
45.00000000404977
 51
90.0
  0
ARC
  5
E4
330
1F
100
AcDbEntity
  8
RUNDUNGEN
  6
Continuous
 62
     7
100
AcDbCircle
 10
248.414112841
 20
383.2535542016
 30
0.0
 40
1.0
100
AcDbArc
 50
270.0
 51
314.9999999959479
  0
ARC
  5
E5
330
1F
100
AcDbEntity
  8
RUNDUNGEN
  6
Continuous
 62
     7
100
AcDbCircle
 10
253.7425399657
 20
412.7535542016
 30
0.0
 40
1.00000000001904
100
AcDbArc
 50
225.0000000000012
 51
270.0
  0
ARC
  5
E6
330
1F
100
AcDbEntity
  8
RUNDUNGEN
  6
Continuous
 62
     7
100
AcDbCircle
 10
253.7425399657
 20
385.7535542016
 30
0.0
 40
1.0
100
AcDbArc
 50
90.0
 51
135.0000000000011
  0
ARC
  5
E7
330
1F
100
AcDbEntity
  8
0
  6
Continuous
 62
     7
100
AcDbCircle
 10
212.5283264033
 20
363.6785542016
 30
0.0
 40
1.0
100
AcDbArc
 50
0.0
 51
90.0
  0
ARC
  5
E8
330
1F
100
AcDbEntity
  8
0
  6
Continuous
 62
     7
100
AcDbCircle
 10
214.5283264033
 20
351.5160542016
 30
0.0
 40
1.0
100
AcDbArc
 50
180.0
 51
270.0
  0
ARC
  5
E9
330
1F
100
AcDbEntity
  8
0
  6
Continuous
 62
     7
100
AcDbCircle
 10
228.4283264033
 20
351.5160542016
 30
0.0
 40
1.0
100
AcDbArc
 50
270.0
 51
0.0
  0
ARC
  5
EA
330
1F
100
AcDbEntity
  8
0
  6
Continuous
 62
     7
100
AcDbCircle
 10
212.5283264033
 20
434.8285542016
 30
0.0
 40
1.0
100
AcDbArc
 50
270.0
 51
0.0
  0
ARC
  5
EB
330
1F
100
AcDbEntity
  8
0
  6
Continuous
 62
     7
100
AcDbCircle
 10
228.4283264033
 20
446.9910542016
 30
0.0
 40
1.0
100
AcDbArc
 50
0.0
 51
90.0
  0
ARC
  5
EC
330
1F
100
AcDbEntity
  8
0
  6
Continuous
 62
     7
100
AcDbCircle
 10
214.5283264033
 20
446.9910542016
 30
0.0
 40
1.0
100
AcDbArc
 50
90.0
 51
180.0
  0
ARC
  5
ED
330
1F
100
AcDbEntity
  8
0
  6
Continuous
 62
     7
100
AcDbCircle
 10
222.6658264033
 20
353.0035542016
 30
0.0
 40
0.75
100
AcDbArc
 50
0.0
 51
90.0
  0
ARC
  5
EE
330
1F
100
AcDbEntity
  8
0
  6
Continuous
 62
     7
100
AcDbCircle
 10
220.3408264033
 20
353.0035542016
 30
0.0
 40
0.75
100
AcDbArc
 50
90.0
 51
180.0
  0
ARC
  5
EF
330
1F
100
AcDbEntity
  8
0
  6
Continuous
 62
     7
100
AcDbCircle
 10
222.6658264033
 20
445.5035542016
 30
0.0
 40
0.75
100
AcDbArc
 50
270.0
 51
0.0
  0
ARC
  5
F0
330
1F
100
AcDbEntity
  8
0
  6
Continuous
 62
     7
100
AcDbCircle
 10
220.3408264033
 20
445.5035542016
 30
0.0
 40
0.75
100
AcDbArc
 50
180.0
 51
270.0
  0
SPLINE
  5
F1
330
1F
100
AcDbEntity
  8
0
  6
Continuous
 62
     7
100
AcDbSpline
210
0.0
220
0.0
230
1.0
 70
     8
 71
     3
 72
    17
 73
    13
 74
    11
 42
0.0000000001
 43
0.0000000001
 44
0.00000001
 40
0.0
 40
0.0
 40
0.0
 40
0.0
 40
0.0792460258589752
 40
0.158647639043347
 40
0.2380219323415606
 40
0.3173635019415436
 40
0.4753274630334626
 40
0.6339189555622309
 40
0.7921847812983984
 40
0.9502564376196152
 40
1.108383918603697
 40
1.266473792015716
 40
1.266473792015716
 40
1.266473792015716
 40
1.266473792015716
 10
276.8105594504
 20
407.2535542016
 30
0.0
 10
276.8369923156221
 20
407.2524828067286
 30
0.0
 10
276.8899099429123
 20
407.2503379134673
 30
0.0
 10
276.9678726317426
 20
407.2338757558858
 30
0.0
 10
277.0432676131597
 20
407.2086173891933
 30
0.0
 10
277.1389763912042
 20
407.1635785967803
 30
0.0
 10
277.2489193360022
 20
407.0890769463363
 30
0.0
 10
277.3641599282753
 20
406.9798755290083
 30
0.0
 10
277.4649503168383
 20
406.8573461916791
 30
0.0
 10
277.5522900700377
 20
406.7252650814556
 30
0.0
 10
277.629310990927
 20
406.5869799515922
 30
0.0
 10
277.6727340029347
 20
406.4908943964616
 30
0.0
 10
277.6944429268
 20
406.4428573326
 30
0.0
 11
276.8105594504
 21
407.2535542016
 31
0.0
 11
276.8896201326526
 21
407.2481374556961
 31
0.0
 11
276.9674481796907
 21
407.2324081432345
 31
0.0
 11
277.042706216426
 21
407.2071790658961
 31
0.0
 11
277.1145642403312
 21
407.1735411547389
 31
0.0
 11
277.2459859549766
 21
407.0859001487912
 31
0.0
 11
277.3618194654761
 21
406.9775772087098
 31
0.0
 11
277.4627632370799
 21
406.8556820629068
 31
0.0
 11
277.5505659569201
 21
406.7242388016844
 31
0.0
 11
277.6273345574981
 21
406.5859966872341
 31
0.0
 11
277.6944429268
 21
406.4428573326
 31
0.0
  0
SPLINE
  5
F2
330
1F
100
AcDbEntity
  8
0
  6
Continuous
 62
     7
100
AcDbSpline
210
0.0
220
0.0
230
1.0
 70
     8
 71
     3
 72
    23
 73
    19
 74
    17
 42
0.0000000001
 43
0.0000000001
 44
0.00000001
 40
0.0
 40
0.0
 40
0.0
 40
0.0
 40
0.5475351298108947
 40
1.095208590531464
 40
1.610984334031055
 40
2.126699601029727
 40
2.612787820836571
 40
3.098763984955862
 40
3.566169860112151
 40
4.033452597278756
 40
4.500735139134087
 40
4.968140850767174
 40
5.454116585074786
 40
5.940204299490788
 40
6.45591903951594
 40
6.971694327598952
 40
7.519367637748047
 40
8.066902583381964
 40
8.066902583381964
 40
8.066902583381964
 40
8.066902583381964
 10
277.6944429268
 20
389.8578247103
 30
0.0
 10
277.8120006857581
 20
389.7181628173143
 30
0.0
 10
278.0471459038173
 20
389.4388037467452
 30
0.0
 10
278.3642482582026
 20
389.0048648055867
 30
0.0
 10
278.6479939882169
 20
388.5610571028692
 30
0.0
 10
278.8864527643996
 20
388.114202832938
 30
0.0
 10
279.0802039890281
 20
387.6569201420755
 30
0.0
 10
279.2217748877882
 20
387.197415947287
 30
0.0
 10
279.3083450544657
 20
386.7307595478607
 30
0.0
 10
279.3383159628681
 20
386.2631719334233
 30
0.0
 10
279.308344241106
 20
385.7955844325529
 30
0.0
 10
279.2217736932834
 20
385.3289284006623
 30
0.0
 10
279.0802033231571
 20
384.8694244521527
 30
0.0
 10
278.8864527256188
 20
384.4121420036986
 30
0.0
 10
278.6479937911034
 20
383.9652883568964
 30
0.0
 10
278.3642477676894
 20
383.5214813047454
 30
0.0
 10
278.0471456882952
 20
383.0875425006903
 30
0.0
 10
277.8120006115152
 20
382.8081834553711
 30
0.0
 10
277.6944429268
 20
382.6685215793
 30
0.0
 11
277.6944429268
 21
389.8578247103
 31
0.0
 11
278.0422257033546
 21
389.4349277267343
 31
0.0
 11
278.3656878716042
 21
388.9929792622173
 31
0.0
 11
278.6421891678456
 21
388.5575809953864
 31
0.0
 11
278.8839659027417
 21
388.1020524594213
 31
0.0
 11
279.0724696523138
 21
387.6540032502576
 31
0.0
 11
279.2143332922486
 21
387.1891941068916
 31
0.0
 11
279.2991063589756
 21
386.7295401291124
 31
0.0
 11
279.3283264021013
 21
386.26317187812
 31
0.0
 11
279.2991056160802
 21
385.7968038693683
 31
0.0
 11
279.214332223972
 21
385.3371501178795
 31
0.0
 11
279.0724689855497
 21
384.8723413013536
 31
0.0
 11
278.8839657289445
 21
384.4242924330866
 31
0.0
 11
278.642188973813
 21
383.9687645044617
 31
0.0
 11
278.3656875483114
 21
383.5333668592077
 31
0.0
 11
278.0422254794711
 21
383.0914185085249
 31
0.0
 11
277.6944429268
 21
382.6685215793
 31
0.0
  0
SPLINE
  5
F3
330
1F
100
AcDbEntity
  8
0
  6
Continuous
 62
     7
100
AcDbSpline
210
0.0
220
0.0
230
1.0
 70
     8
 71
     3
 72
    19
 73
    15
 74
    13
 42
0.0000000001
 43
0.0000000001
 44
0.00000001
 40
0.0
 40
0.0
 40
0.0
 40
0.0
 40
1.855623739171669
 40
3.711056157258745
 40
4.639209367703328
 40
5.567147691557457
 40
6.495326169551056
 40
7.423558499794978
 40
8.351790381498118
 40
9.279968425883746
 40
10.20790602889922
 40
11.13605848216418
 40
12.99148950979024
 40
14.84711194505633
 40
14.84711194505633
 40
14.84711194505633
 40
14.84711194505633
 10
277.6944429268
 20
406.4428573326
 30
0.0
 10
277.9284366791322
 20
405.8699622362076
 30
0.0
 10
278.3964000582494
 20
404.7242311108452
 30
0.0
 10
278.8274692951852
 20
403.2354637863196
 30
0.0
 10
279.0833145662293
 20
402.0246589469116
 30
0.0
 10
279.223444503548
 20
401.1066258477958
 30
0.0
 10
279.3089661335642
 20
400.1819110888643
 30
0.0
 10
279.3380070213329
 20
399.2535518128316
 30
0.0
 10
279.3089653166772
 20
398.3251927108656
 30
0.0
 10
279.2234433111922
 20
397.400478537219
 30
0.0
 10
279.0833138257847
 20
396.4824460265453
 30
0.0
 10
278.8274694147827
 20
395.2716419725392
 30
0.0
 10
278.3963999687417
 20
393.7828758768355
 30
0.0
 10
277.9284366529393
 20
392.6371457040581
 30
0.0
 10
277.6944429268
 20
392.0642510706
 30
0.0
 11
277.6944429268
 21
406.4428573326
 31
0.0
 11
278.365636779947
 21
404.7128751729015
 31
0.0
 11
278.8839659026874
 21
402.9313128308523
 31
0.0
 11
279.074694918135
 21
402.0229677286335
 31
0.0
 11
279.2143332921901
 21
401.1055961259727
 31
0.0
 11
279.2995501554086
 21
400.1813378432217
 31
0.0
 11
279.328326402078
 21
399.2535516682128
 31
0.0
 11
279.2995494093998
 21
398.3257659650989
 31
0.0
 11
279.2143322239137
 21
397.4015081475083
 31
0.0
 11
279.0746942058875
 21
396.484137219796
 31
0.0
 11
278.883965728975
 21
395.57579277819
 31
0.0
 11
278.3656367591302
 21
393.794231839772
 31
0.0
 11
277.6944429268
 21
392.0642510706
 31
0.0
  0
SPLINE
  5
F4
330
1F
100
AcDbEntity
  8
0
  6
Continuous
 62
     7
100
AcDbSpline
210
0.0
220
0.0
230
1.0
 70
     8
 71
     3
 72
    23
 73
    19
 74
    17
 42
0.0000000001
 43
0.0000000001
 44
0.00000001
 40
0.0
 40
0.0
 40
0.0
 40
0.0
 40
0.5475351297903477
 40
1.095208590485321
 40
1.610984333995949
 40
2.126699601021081
 40
2.612787820840133
 40
3.098763984961327
 40
3.566169860117672
 40
4.033452597284277
 40
4.500735139139608
 40
4.968140850772695
 40
5.454116585080307
 40
5.940204299496257
 40
6.455919039521408
 40
6.971694327604468
 40
7.519367637743472
 40
8.066902583309776
 40
8.066902583309776
 40
8.066902583309776
 40
8.066902583309776
 10
277.6944429268
 20
415.8385868238
 30
0.0
 10
277.8120006857573
 20
415.6989249308226
 30
0.0
 10
278.0471459038142
 20
415.4195658602719
 30
0.0
 10
278.3642482582147
 20
414.9856269191387
 30
0.0
 10
278.6479939882205
 20
414.5418192164101
 30
0.0
 10
278.8864527643962
 20
414.0949649464567
 30
0.0
 10
279.0802039890264
 20
413.6376822555806
 30
0.0
 10
279.2217748877882
 20
413.1781780607877
 30
0.0
 10
279.3083450544657
 20
412.7115216613606
 30
0.0
 10
279.3383159628683
 20
412.2439340469234
 30
0.0
 10
279.308344241106
 20
411.7763465460529
 30
0.0
 10
279.2217736932834
 20
411.3096905141622
 30
0.0
 10
279.0802033231571
 20
410.8501865656527
 30
0.0
 10
278.8864527256188
 20
410.3929041171988
 30
0.0
 10
278.6479937911035
 20
409.9460504703959
 30
0.0
 10
278.3642477676904
 20
409.5022434182491
 30
0.0
 10
278.0471456883163
 20
409.0683046142102
 30
0.0
 10
277.8120006115181
 20
408.7889455689395
 30
0.0
 10
277.6944429268
 20
408.6492836929
 30
0.0
 11
277.6944429268
 21
415.8385868238
 31
0.0
 11
278.0422257033546
 21
415.4156898402608
 31
0.0
 11
278.3656878716042
 21
414.9737413757756
 31
0.0
 11
278.6421891678456
 21
414.5383431089316
 31
0.0
 11
278.8839659027417
 21
414.0828145729366
 31
0.0
 11
279.0724696523138
 21
413.6347653637596
 31
0.0
 11
279.2143332922486
 21
413.1699562203917
 31
0.0
 11
279.2991063589756
 21
412.7103022426123
 31
0.0
 11
279.3283264021013
 21
412.24393399162
 31
0.0
 11
279.2991056160802
 21
411.7775659828682
 31
0.0
 11
279.214332223972
 21
411.3179122313795
 31
0.0
 11
279.0724689855497
 21
410.8531034148536
 31
0.0
 11
278.8839657289445
 21
410.4050545465866
 31
0.0
 11
278.642188973813
 21
409.9495266179617
 31
0.0
 11
278.3656875483114
 21
409.5141289727077
 31
0.0
 11
278.0422254794711
 21
409.0721806220374
 31
0.0
 11
277.6944429268
 21
408.6492836929
 31
0.0
  0
SPLINE
  5
F5
330
1F
100
AcDbEntity
  8
0
  6
Continuous
 62
     7
100
AcDbSpline
210
0.0
220
0.0
230
1.0
 70
     8
 71
     3
 72
    13
 73
     9
 74
     7
 42
0.0000000001
 43
0.0000000001
 44
0.00000001
 40
0.0
 40
0.0
 40
0.0
 40
0.0
 40
0.2140568502599407
 40
0.428505867181272
 40
0.5617546586135536
 40
0.6949170794436175
 40
0.8486595538909385
 40
1.002196158709018
 40
1.002196158709018
 40
1.002196158709018
 40
1.002196158709018
 10
277.6944429268
 20
382.6685215793
 30
0.0
 10
277.6448874344927
 20
382.616930825128
 30
0.0
 10
277.5456856608567
 20
382.5136547990248
 30
0.0
 10
277.3874271009309
 20
382.410490475187
 30
0.0
 10
277.2420267676322
 20
382.3424806599346
 30
0.0
 10
277.1086821697667
 20
382.2987879469713
 30
0.0
 10
276.9642707045993
 20
382.2690306746803
 30
0.0
 10
276.8617736449407
 20
382.2651247824754
 30
0.0
 10
276.8105594504
 20
382.2631731448
 30
0.0
 11
277.6944429268
 21
382.6685215793
 31
0.0
 11
277.540406869152
 21
382.5198836699785
 31
0.0
 11
277.3618194654807
 21
382.401161641237
 31
0.0
 11
277.2410012582915
 21
382.3449637655677
 31
0.0
 11
277.1145642402628
 21
382.303179668194
 31
0.0
 11
276.963765934035
 21
382.2732360664064
 31
0.0
 11
276.8105594504
 21
382.2631731448
 31
0.0
  0
SPLINE
  5
F6
330
1F
100
AcDbEntity
  8
0
  6
Continuous
 62
     7
100
AcDbSpline
210
0.0
220
0.0
230
1.0
 70
     8
 71
     3
 72
    13
 73
     9
 74
     7
 42
0.0000000001
 43
0.0000000001
 44
0.00000001
 40
0.0
 40
0.0
 40
0.0
 40
0.0
 40
0.1535366048162543
 40
0.3072790792568769
 40
0.4404415000897773
 40
0.5736902915333505
 40
0.7881393084673796
 40
1.00219615872969
 40
1.00219615872969
 40
1.00219615872969
 40
1.00219615872969
 10
276.8105594504
 20
416.2439352583
 30
0.0
 10
276.8617736449402
 20
416.2419836206326
 30
0.0
 10
276.9642707045959
 20
416.2380777284437
 30
0.0
 10
277.1086821697718
 20
416.2083204561994
 30
0.0
 10
277.2420267676364
 20
416.1646277432195
 30
0.0
 10
277.3874271009281
 20
416.0966179279316
 30
0.0
 10
277.5456856608524
 20
415.993453604079
 30
0.0
 10
277.6448874344921
 20
415.8901775779725
 30
0.0
 10
277.6944429268
 20
415.8385868238
 30
0.0
 11
276.8105594504
 21
416.2439352583
 31
0.0
 11
276.963765934035
 21
416.2338723367214
 31
0.0
 11
277.1145642402627
 21
416.2039287349679
 31
0.0
 11
277.2410012582915
 21
416.1621446375854
 31
0.0
 11
277.3618194654807
 21
416.1059467618893
 31
0.0
 11
277.5404068691519
 21
415.9872247331248
 31
0.0
 11
277.6944429268
 21
415.8385868238
 31
0.0
  0
SPLINE
  5
F7
330
1F
100
AcDbEntity
  8
0
  6
Continuous
 62
     7
100
AcDbSpline
210
0.0
220
0.0
230
1.0
 70
     8
 71
     3
 72
    17
 73
    13
 74
    11
 42
0.0000000001
 43
0.0000000001
 44
0.00000001
 40
0.0
 40
0.0
 40
0.0
 40
0.0
 40
0.1580898734676799
 40
0.31621735443444
 40
0.4742890107652993
 40
0.6325548365245903
 40
0.7911463290633007
 40
0.9491102901563866
 40
1.028451859755144
 40
1.107826153046401
 40
1.18722776622136
 40
1.266473792078469
 40
1.266473792078469
 40
1.266473792078469
 40
1.266473792078469
 10
277.6944429268
 20
392.0642510706
 30
0.0
 10
277.6727340029382
 20
392.0162140067162
 30
0.0
 10
277.6293109909475
 20
391.9201284515634
 30
0.0
 10
277.5522900700278
 20
391.7818433216975
 30
0.0
 10
277.4649503168342
 20
391.6497622114658
 30
0.0
 10
277.3641599282807
 20
391.5272328741102
 30
0.0
 10
277.2489193360057
 20
391.4180314567664
 30
0.0
 10
277.1389763912051
 20
391.3435298063201
 30
0.0
 10
277.0432676131625
 20
391.2984910139081
 30
0.0
 10
276.9678726317441
 20
391.2732326472322
 30
0.0
 10
276.8899099429078
 20
391.2567704897105
 30
0.0
 10
276.8369923156213
 20
391.254625596464
 30
0.0
 10
276.8105594504
 20
391.2535542016
 30
0.0
 11
277.6944429268
 21
392.0642510706
 31
0.0
 11
277.627334557498
 21
391.9211117159044
 31
0.0
 11
277.5505659569201
 21
391.782869601474
 31
0.0
 11
277.4627632370799
 21
391.6514263402399
 31
0.0
 11
277.3618194654761
 21
391.5295311944068
 31
0.0
 11
277.2459859549766
 21
391.421208254311
 31
0.0
 11
277.1145642403312
 21
391.3335672483612
 31
0.0
 11
277.0427062164259
 21
391.2999293372069
 31
0.0
 11
276.9674481796907
 21
391.2747002598904
 31
0.0
 11
276.8896201326527
 21
391.2589709474758
 31
0.0
 11
276.8105594504
 21
391.2535542016
 31
0.0
  0
SPLINE
  5
F8
330
1F
100
AcDbEntity
  8
0
  6
Continuous
 62
     7
100
AcDbSpline
210
0.0
220
0.0
230
1.0
 70
     8
 71
     3
 72
    13
 73
     9
 74
     7
 42
0.0000000001
 43
0.0000000001
 44
0.00000001
 40
0.0
 40
0.0
 40
0.0
 40
0.0
 40
0.1535366048180835
 40
0.3072790792653377
 40
0.4404415000954556
 40
0.5736902915277371
 40
0.7881393084490211
 40
1.002196158709042
 40
1.002196158709042
 40
1.002196158709042
 40
1.002196158709042
 10
276.8105594504
 20
390.2631731448
 30
0.0
 10
276.8617736449408
 20
390.2612215071248
 30
0.0
 10
276.9642707045992
 20
390.2573156149197
 30
0.0
 10
277.1086821697668
 20
390.2275583426288
 30
0.0
 10
277.242026767632
 20
390.1838656296653
 30
0.0
 10
277.3874271009309
 20
390.1158558144132
 30
0.0
 10
277.5456856608566
 20
390.0126914905753
 30
0.0
 10
277.6448874344927
 20
389.909415464472
 30
0.0
 10
277.6944429268
 20
389.8578247103
 30
0.0
 11
276.8105594504
 21
390.2631731448
 31
0.0
 11
276.963765934035
 21
390.2531102231936
 31
0.0
 11
277.1145642402627
 21
390.223166621406
 31
0.0
 11
277.2410012582915
 21
390.1813825240323
 31
0.0
 11
277.3618194654807
 21
390.125184648363
 31
0.0
 11
277.5404068691519
 21
390.0064626196216
 31
0.0
 11
277.6944429268
 21
389.8578247103
 31
0.0
  0
SPLINE
  5
F9
330
1F
100
AcDbEntity
  8
0
  6
Continuous
 62
     7
100
AcDbSpline
210
0.0
220
0.0
230
1.0
 70
     8
 71
     3
 72
    13
 73
     9
 74
     7
 42
0.0000000001
 43
0.0000000001
 44
0.00000001
 40
0.0
 40
0.0
 40
0.0
 40
0.0
 40
0.21405685026223
 40
0.428505867196275
 40
0.5617546586409989
 40
0.694917079479785
 40
0.8486595539299181
 40
1.002196158748132
 40
1.002196158748132
 40
1.002196158748132
 40
1.002196158748132
 10
277.6944429268
 20
408.6492836929
 30
0.0
 10
277.6448874344921
 20
408.5976929387276
 30
0.0
 10
277.5456856608525
 20
408.4944169126209
 30
0.0
 10
277.3874271009277
 20
408.3912525887684
 30
0.0
 10
277.242026767634
 20
408.3232427734795
 30
0.0
 10
277.1086821697703
 20
408.2795500604842
 30
0.0
 10
276.9642707046004
 20
408.2497927881801
 30
0.0
 10
276.8617736449409
 20
408.2458868959752
 30
0.0
 10
276.8105594504
 20
408.2439352583
 30
0.0
 11
277.6944429268
 21
408.6492836929
 31
0.0
 11
277.540406869152
 21
408.5006457835752
 31
0.0
 11
277.3618194654807
 21
408.3819237548108
 31
0.0
 11
277.2410012582915
 21
408.325725879112
 31
0.0
 11
277.1145642402628
 21
408.2839417817105
 31
0.0
 11
276.963765934035
 21
408.2539981799084
 31
0.0
 11
276.8105594504
 21
408.2439352583
 31
0.0
  0
SPLINE
  5
FA
330
1F
100
AcDbEntity
  8
0
  6
Continuous
 62
     7
100
AcDbSpline
210
0.0
220
0.0
230
1.0
 70
     8
 71
     3
 72
    17
 73
    13
 74
    11
 42
0.0000000001
 43
0.0000000001
 44
0.00000001
 40
0.0
 40
0.0
 40
0.0
 40
0.0
 40
0.2235602340096362
 40
0.4475666315285258
 40
0.6712655547305661
 40
0.8950713344838731
 40
1.119203328683998
 40
1.342351511340051
 40
1.454388474215885
 40
1.566418982910291
 40
1.678554291386589
 40
1.790469539343206
 40
1.790469539343206
 40
1.790469539343206
 40
1.790469539343206
 10
229.4283264033
 20
361.9997435743
 30
0.0
 10
229.4253863911428
 20
361.9251635129988
 30
0.0
 10
229.4195004993888
 20
361.775854549517
 30
0.0
 10
229.3715428360678
 20
361.5561640310562
 30
0.0
 10
229.2942000468123
 20
361.3453398466256
 30
0.0
 10
229.1825429114799
 20
361.1498960862525
 30
0.0
 10
229.0372391850464
 20
360.9780853555537
 30
0.0
 10
228.8887303979866
 20
360.8624975035909
 30
0.0
 10
228.7559847750422
 20
360.7938022558646
 30
0.0
 10
228.6502971425506
 20
360.7557549040708
 30
0.0
 10
228.5403994687192
 20
360.7313521565681
 30
0.0
 10
228.4656596221626
 20
360.7282245039381
 30
0.0
 10
228.4283264033
 20
360.7266622136
 30
0.0
 11
229.4283264033
 21
361.9997435743
 31
0.0
 11
229.4129968885685
 21
361.7767095315878
 31
0.0
 11
229.3666192042768
 21
361.557556670486
 31
0.0
 11
229.2885016670975
 21
361.3479406915464
 31
0.0
 11
229.1769754388692
 21
361.1539022225044
 31
0.0
 11
229.03152311134
 21
360.9833772353604
 31
0.0
 11
228.8545771240536
 21
360.84741684037
 31
0.0
 11
228.7550008305332
 21
360.7960666425205
 31
0.0
 11
228.6496223455253
 21
360.758037577639
 31
0.0
 11
228.5399578165998
 21
360.7346277826248
 31
0.0
 11
228.4283264033
 21
360.7266622136
 31
0.0
  0
SPLINE
  5
FB
330
1F
100
AcDbEntity
  8
0
  6
Continuous
 62
     7
100
AcDbSpline
210
0.0
220
0.0
230
1.0
 70
     8
 71
     3
 72
    17
 73
    13
 74
    11
 42
0.0000000001
 43
0.0000000001
 44
0.00000001
 40
0.0
 40
0.0
 40
0.0
 40
0.0
 40
0.0856061207761219
 40
0.1714040658060091
 40
0.2570770785091045
 40
0.3427486324071347
 40
0.5133560119153904
 40
0.6847864607342594
 40
0.8559332498209864
 40
1.026944760342624
 40
1.198166489398983
 40
1.369069305145988
 40
1.369069305145988
 40
1.369069305145988
 40
1.369069305145988
 10
220.3408264033
 20
364.91367214
 30
0.0
 10
220.3122670759242
 20
364.9123910040984
 30
0.0
 10
220.2550844260797
 20
364.909825861555
 30
0.0
 10
220.1712420804595
 20
364.8899533053206
 30
0.0
 10
220.0910303546111
 20
364.8591315943598
 30
0.0
 10
219.990914765648
 20
364.8039744071436
 30
0.0
 10
219.8799051933468
 20
364.7123748217992
 30
0.0
 10
219.77239184546
 20
364.5781004719786
 30
0.0
 10
219.6899707677276
 20
364.4270818654421
 30
0.0
 10
219.6329439923514
 20
364.2651983234646
 30
0.0
 10
219.5974084174286
 20
364.0970822523506
 30
0.0
 10
219.5930190441499
 20
363.9829550242052
 30
0.0
 10
219.5908264033
 20
363.9259446023
 30
0.0
 11
220.3408264033
 21
364.91367214
 31
0.0
 11
220.2554680652845
 21
364.9071635268166
 31
0.0
 11
220.1718110341792
 21
364.8881165187053
 31
0.0
 11
220.0918505739329
 21
364.8573563187251
 31
0.0
 11
220.0167337507902
 21
364.8161607118204
 31
0.0
 11
219.8843773209833
 21
364.7085101036871
 31
0.0
 11
219.7765377938395
 21
364.5752470736764
 31
0.0
 11
219.6941780273983
 21
364.4252201018132
 31
0.0
 11
219.6365417888329
 21
364.2642138884706
 31
0.0
 11
219.6022211715708
 21
364.0964671277513
 31
0.0
 11
219.5908264033
 21
363.9259446023
 31
0.0
  0
SPLINE
  5
FC
330
1F
100
AcDbEntity
  8
0
  6
Continuous
 62
     7
100
AcDbSpline
210
0.0
220
0.0
230
1.0
 70
     8
 71
     3
 72
    17
 73
    13
 74
    11
 42
0.0000000001
 43
0.0000000001
 44
0.00000001
 40
0.0
 40
0.0
 40
0.0
 40
0.0
 40
0.1709021129122426
 40
0.3421231434977814
 40
0.5131353763840066
 40
0.6842828841296235
 40
0.8557140430166633
 40
1.026322127398886
 40
1.111993247383097
 40
1.197665821280016
 40
1.283463468616
 40
1.36906929750084
 40
1.36906929750084
 40
1.36906929750084
 40
1.36906929750084
 10
223.4158264033
 20
363.9259446023
 30
0.0
 10
223.4136337751938
 20
363.9829547894821
 30
0.0
 10
223.4092444273533
 20
364.0970815496359
 30
0.0
 10
223.3737090184139
 20
364.2651974140267
 30
0.0
 10
223.3166823385875
 20
364.4270812562474
 30
0.0
 10
223.2342609849136
 20
364.578100543261
 30
0.0
 10
223.1267471057461
 20
364.7123753970402
 30
0.0
 10
223.0157371355371
 20
364.8039750369664
 30
0.0
 10
222.9156215105287
 20
364.8591320348116
 30
0.0
 10
222.8354101152355
 20
364.8899535145946
 30
0.0
 10
222.7515680860133
 20
364.909825900629
 30
0.0
 10
222.6943856331521
 20
364.9123910170876
 30
0.0
 10
222.6658264033
 20
364.91367214
 30
0.0
 11
223.4158264033
 21
363.9259446023
 31
0.0
 11
223.4044317110803
 21
364.0964664284311
 31
0.0
 11
223.3701113597073
 21
364.2642125306106
 31
0.0
 11
223.3124750424572
 21
364.4252194830399
 31
0.0
 11
223.2301149918224
 21
364.5752471187174
 31
0.0
 11
223.1222749443816
 21
364.708510641128
 31
0.0
 11
222.9899178089319
 21
364.816161498775
 31
0.0
 11
222.9148012988256
 21
364.8573567740964
 31
0.0
 11
222.8348412117527
 21
364.8881167219737
 31
0.0
 11
222.751184453057
 21
364.9071635855715
 31
0.0
 11
222.6658264033
 21
364.91367214
 31
0.0
  0
SPLINE
  5
FD
330
1F
100
AcDbEntity
  8
0
  6
Continuous
 62
     7
100
AcDbSpline
210
0.0
220
0.0
230
1.0
 70
     8
 71
     3
 72
    17
 73
    13
 74
    11
 42
0.0000000001
 43
0.0000000001
 44
0.00000001
 40
0.0
 40
0.0
 40
0.0
 40
0.0
 40
0.111915447668188
 40
0.2240509586648657
 40
0.3360819826173533
 40
0.4481194617232737
 40
0.6712673498301416
 40
0.8953990333474449
 40
1.119204507511278
 40
1.342903129564373
 40
1.56690939029213
 40
1.790469488898873
 40
1.790469488898873
 40
1.790469488898873
 40
1.790469488898873
 10
214.5283264033
 20
360.7266622136
 30
0.0
 10
214.4909931176762
 20
360.728224513109
 30
0.0
 10
214.4162531366601
 20
360.7313521841319
 30
0.0
 10
214.3063551772774
 20
360.7557550753218
 30
0.0
 10
214.2006671952063
 20
360.7938026793564
 30
0.0
 10
214.0679214549593
 20
360.862498241815
 30
0.0
 10
213.9194128403325
 20
360.978086246597
 30
0.0
 10
213.7741094345264
 20
361.1498968430928
 30
0.0
 10
213.6624525385236
 20
361.3453403821882
 30
0.0
 10
213.5851098805057
 20
361.5561643481793
 30
0.0
 10
213.5371522923883
 20
361.7758546857118
 30
0.0
 10
213.5312664105245
 20
361.9251635582427
 30
0.0
 10
213.5283264033
 20
361.9997435743
 30
0.0
 11
214.5283264033
 21
360.7266622136
 31
0.0
 11
214.4166947928462
 21
360.7346278255833
 31
0.0
 11
214.3070300808448
 21
360.758037733061
 31
0.0
 11
214.2016511508499
 21
360.7960670827922
 31
0.0
 11
214.1020744745263
 21
360.8474176646464
 31
0.0
 11
213.92512889333
 21
360.9833781047077
 31
0.0
 11
213.7796768942972
 21
361.153902963698
 31
0.0
 11
213.668150904264
 21
361.347941217176
 31
0.0
 11
213.5900335209378
 21
361.5575569320705
 31
0.0
 11
213.5436558951849
 21
361.7767096657399
 31
0.0
 11
213.5283264033
 21
361.9997435743
 31
0.0
  0
DIMENSION
  5
108
330
1F
100
AcDbEntity
  8
1
100
AcDbDimension
  2
*D2
 10
293.957560949234
 20
409.2535542016
 30
0.0
 11
290.207560949234
 21
398.312764955851
 31
0.0
 70
    32
  1
<>
 71
     5
 42
-1.0
 53
90.0
  3
ME10_DIM_10
100
AcDbAlignedDimension
 13
268.8283264033
 23
389.2535542016
 33
0.0
 14
268.8283264033
 24
409.2535542016
 34
0.0
 50
90.0
100
AcDbRotatedDimension
  0
DIMENSION
  5
113
330
1F
100
AcDbEntity
  8
1
100
AcDbDimension
  2
*D3
 10
301.9542695381
 20
416.2535542016
 30
0.0
 11
298.2042695381
 21
399.135955545882
 31
0.0
 70
    32
  1
<>
 71
     5
 42
-1.0
 53
90.0
  3
ME10_DIM_11
100
AcDbAlignedDimension
 13
248.414112841
 23
382.2535542016
 33
0.0
 14
248.414112841
 24
416.2535542016
 34
0.0
 50
90.0
100
AcDbRotatedDimension
  0
DIMENSION
  5
11E
330
1F
100
AcDbEntity
  8
1
100
AcDbDimension
  2
*D4
 10
268.8283264033
 20
453.466534487884
 30
0.0
 11
248.7076123985872
 21
457.216534487884
 31
0.0
 70
    32
  1
<>
 71
     5
 42
-1.0
 53
0.00013888888889
  3
ME10_DIM_12
100
AcDbAlignedDimension
 13
229.4283264033
 23
446.9910542016
 33
0.0
 14
268.8283264033
 24
411.7535542016
 34
0.0
100
AcDbRotatedDimension
  0
DIMENSION
  5
129
330
1F
100
AcDbEntity
  8
1
100
AcDbDimension
  2
*D5
 10
268.8283264033
 20
460.875249798157
 30
0.0
 11
239.156587384357
 21
464.625249798157
 31
0.0
 70
    32
  1
<>
 71
     5
 42
-1.0
 53
0.00013888888889
  3
ME10_DIM_13
100
AcDbAlignedDimension
 13
210.3283264033
 23
441.7910542016
 33
0.0
 14
268.8283264033
 24
411.7535542016
 34
0.0
100
AcDbRotatedDimension
  0
DIMENSION
  5
134
330
1F
100
AcDbEntity
  8
1
100
AcDbDimension
  2
*D6
 10
210.3283264033
 20
468.28396510843
 30
0.0
 11
246.094908071756
 21
472.03396510843
 31
0.0
 70
    32
  1
<>
 71
     5
 42
-1.0
 53
0.00013888888889
  3
ME10_DIM_14
100
AcDbAlignedDimension
 13
280.3283264033
 23
413.2535542016
 33
0.0
 14
210.3283264033
 24
441.7910542016
 34
0.0
100
AcDbRotatedDimension
  0
DIMENSION
  5
13F
330
1F
100
AcDbEntity
  8
1
100
AcDbDimension
  2
*D7
 10
268.8283264033
 20
475.457483107266
 30
0.0
 11
196.0473536758415
 21
479.207483107266
 31
0.0
 70
    32
  1
<>
 71
     5
 42
-1.0
 53
0.00013888888889
  3
ME10_DIM_15
100
AcDbAlignedDimension
 13
108.5783264033
 23
417.4147884016
 33
0.0
 14
268.8283264033
 24
411.7535542016
 34
0.0
100
AcDbRotatedDimension
  0
INSERT
  5
146
330
1F
100
AcDbEntity
  8
1
100
AcDbBlockReference
  2
*D8
 10
0.0
 20
0.0
 30
0.0
  0
ENDSEC
  0
SECTION
  2
OBJECTS
  0
DICTIONARY
  5
C
330
0
100
AcDbDictionary
281
     1
  3
ACAD_GROUP
350
D
  3
ACAD_LAYOUT
350
1A
  3
ACAD_MLEADERSTYLE
350
149
  3
ACAD_MLINESTYLE
350
17
  3
ACAD_PLOTSETTINGS
350
19
  3
ACAD_PLOTSTYLENAME
350
E
  3
ACAD_SCALELIST
350
4A
  3
ACAD_VISUALSTYLE
350
2A
  3
AcDbVariableDictionary
350
147
  0
DICTIONARY
  5
D
102
{ACAD_REACTORS
330
C
102
}
330
C
100
AcDbDictionary
281
     1
  0
DICTIONARY
  5
1A
102
{ACAD_REACTORS
330
C
102
}
330
C
100
AcDbDictionary
281
     1
  3
Layout1
350
1E
  3
Layout2
350
26
  3
Model
350
22
  0
DICTIONARY
  5
149
102
{ACAD_REACTORS
330
C
102
}
330
C
100
AcDbDictionary
281
     1
  0
DICTIONARY
  5
17
102
{ACAD_REACTORS
330
C
102
}
330
C
100
AcDbDictionary
281
     1
  3
Standard
350
18
  0
DICTIONARY
  5
19
102
{ACAD_REACTORS
330
C
102
}
330
C
100
AcDbDictionary
281
     1
  0
ACDBDICTIONARYWDFLT
  5
E
102
{ACAD_REACTORS
330
C
102
}
330
C
100
AcDbDictionary
281
     1
  3
Normal
350
F
100
AcDbDictionaryWithDefault
340
F
  0
DICTIONARY
  5
4A
102
{ACAD_REACTORS
330
C
102
}
330
C
100
AcDbDictionary
281
     1
  3
A0
350
4B
  3
A1
350
4C
  3
A2
350
4D
  3
A3
350
4E
  3
A4
350
4F
  3
A5
350
50
  3
A6
350
51
  3
A7
350
52
  3
A8
350
53
  3
A9
350
54
  3
B0
350
55
  3
B1
350
56
  3
B2
350
57
  3
B3
350
58
  3
B4
350
59
  3
B5
350
5A
  3
B6
350
5B
  3
B7
350
5C
  3
B8
350
5D
  3
B9
350
5E
  3
C0
350
5F
  3
C1
350
60
  3
C2
350
61
  3
C3
350
62
  3
C4
350
63
  3
C5
350
64
  3
C6
350
65
  3
C7
350
66
  3
C8
350
67
  3
C9
350
68
  3
D0
350
69
  3
D1
350
6A
  3
D2
350
6B
  0
DICTIONARY
  5
2A
102
{ACAD_REACTORS
330
C
102
}
330
C
100
AcDbDictionary
281
     1
  3
2dWireframe
350
2F
  3
3D Hidden
350
31
  3
3dWireframe
350
30
  3
Basic
350
32
  3
Brighten
350
36
  3
ColorChange
350
3A
  3
Conceptual
350
34
  3
Dim
350
35
  3
Facepattern
350
39
  3
Flat
350
2B
  3
FlatWithEdges
350
2C
  3
Gouraud
350
2D
  3
GouraudWithEdges
350
2E
  3
Linepattern
350
38
  3
Realistic
350
33
  3
Thicken
350
37
  0
DICTIONARY
  5
147
102
{ACAD_REACTORS
330
C
102
}
330
C
100
AcDbDictionary
281
     1
  3
CANNOSCALE
350
14A
  0
LAYOUT
  5
1E
102
{ACAD_REACTORS
330
1A
102
}
330
1A
100
AcDbPlotSettings
  1

  2
none_device
  4

  6

 40
0.0
 41
0.0
 42
0.0
 43
0.0
 44
0.0
 45
0.0
 46
0.0
 47
0.0
 48
0.0
 49
0.0
140
0.0
141
0.0
142
1.0
143
1.0
 70
   688
 72
     0
 73
     0
 74
     5
  7

 75
    16
147
1.0
148
0.0
149
0.0
100
AcDbLayout
  1
Layout1
 70
     1
 71
     1
 10
0.0
 20
0.0
 11
12.0
 21
9.0
 12
0.0
 22
0.0
 32
0.0
 14
1.00000000000000E+20
 24
1.00000000000000E+20
 34
1.00000000000000E+20
 15
-1.00000000000000E+20
 25
-1.00000000000000E+20
 35
-1.00000000000000E+20
146
0.0
 13
0.0
 23
0.0
 33
0.0
 16
1.0
 26
0.0
 36
0.0
 17
0.0
 27
1.0
 37
0.0
 76
     0
330
1B
  0
LAYOUT
  5
26
102
{ACAD_REACTORS
330
1A
102
}
330
1A
100
AcDbPlotSettings
  1

  2
none_device
  4

  6

 40
0.0
 41
0.0
 42
0.0
 43
0.0
 44
0.0
 45
0.0
 46
0.0
 47
0.0
 48
0.0
 49
0.0
140
0.0
141
0.0
142
1.0
143
1.0
 70
   688
 72
     0
 73
     0
 74
     5
  7

 75
    16
147
1.0
148
0.0
149
0.0
100
AcDbLayout
  1
Layout2
 70
     1
 71
     2
 10
0.0
 20
0.0
 11
0.0
 21
0.0
 12
0.0
 22
0.0
 32
0.0
 14
0.0
 24
0.0
 34
0.0
 15
0.0
 25
0.0
 35
0.0
146
0.0
 13
0.0
 23
0.0
 33
0.0
 16
1.0
 26
0.0
 36
0.0
 17
0.0
 27
1.0
 37
0.0
 76
     0
330
23
  0
LAYOUT
  5
22
102
{ACAD_REACTORS
330
1A
102
}
330
1A
100
AcDbPlotSettings
  1

  2
none_device
  4

  6

 40
0.0
 41
0.0
 42
0.0
 43
0.0
 44
0.0
 45
0.0
 46
0.0
 47
0.0
 48
0.0
 49
0.0
140
0.0
141
0.0
142
1.0
143
1.0
 70
  1712
 72
     0
 73
     0
 74
     0
  7

 75
     0
147
1.0
148
0.0
149
0.0
100
AcDbLayout
  1
Model
 70
     1
 71
     0
 10
0.0
 20
0.0
 11
12.0
 21
9.0
 12
0.0
 22
0.0
 32
0.0
 14
87.161157675136
 24
350.5160542016
 34
0.0
 15
303.9542695381
 25
480.957483107266
 35
0.0
146
0.0
 13
0.0
 23
0.0
 33
0.0
 16
1.0
 26
0.0
 36
0.0
 17
0.0
 27
1.0
 37
0.0
 76
     0
330
1F
331
29
  0
MLINESTYLE
  5
18
102
{ACAD_REACTORS
330
17
102
}
330
17
100
AcDbMlineStyle
  2
Standard
 70
     0
  3

 62
   256
 51
90.0
 52
90.0
 71
     2
 49
0.5
 62
   256
  6
BYLAYER
 49
-0.5
 62
   256
  6
BYLAYER
  0
ACDBPLACEHOLDER
  5
F
102
{ACAD_REACTORS
330
E
102
}
330
E
  0
SCALE
  5
4B
102
{ACAD_REACTORS
330
4A
102
}
330
4A
100
AcDbScale
 70
     0
300
1:1
140
1.0
141
1.0
290
     1
  0
SCALE
  5
4C
102
{ACAD_REACTORS
330
4A
102
}
330
4A
100
AcDbScale
 70
     0
300
1:2
140
1.0
141
2.0
290
     0
  0
SCALE
  5
4D
102
{ACAD_REACTORS
330
4A
102
}
330
4A
100
AcDbScale
 70
     0
300
1:4
140
1.0
141
4.0
290
     0
  0
SCALE
  5
4E
102
{ACAD_REACTORS
330
4A
102
}
330
4A
100
AcDbScale
 70
     0
300
1:5
140
1.0
141
5.0
290
     0
  0
SCALE
  5
4F
102
{ACAD_REACTORS
330
4A
102
}
330
4A
100
AcDbScale
 70
     0
300
1:8
140
1.0
141
8.0
290
     0
  0
SCALE
  5
50
102
{ACAD_REACTORS
330
4A
102
}
330
4A
100
AcDbScale
 70
     0
300
1:10
140
1.0
141
10.0
290
     0
  0
SCALE
  5
51
102
{ACAD_REACTORS
330
4A
102
}
330
4A
100
AcDbScale
 70
     0
300
1:16
140
1.0
141
16.0
290
     0
  0
SCALE
  5
52
102
{ACAD_REACTORS
330
4A
102
}
330
4A
100
AcDbScale
 70
     0
300
1:20
140
1.0
141
20.0
290
     0
  0
SCALE
  5
53
102
{ACAD_REACTORS
330
4A
102
}
330
4A
100
AcDbScale
 70
     0
300
1:30
140
1.0
141
30.0
290
     0
  0
SCALE
  5
54
102
{ACAD_REACTORS
330
4A
102
}
330
4A
100
AcDbScale
 70
     0
300
1:40
140
1.0
141
40.0
290
     0
  0
SCALE
  5
55
102
{ACAD_REACTORS
330
4A
102
}
330
4A
100
AcDbScale
 70
     0
300
1:50
140
1.0
141
50.0
290
     0
  0
SCALE
  5
56
102
{ACAD_REACTORS
330
4A
102
}
330
4A
100
AcDbScale
 70
     0
300
1:100
140
1.0
141
100.0
290
     0
  0
SCALE
  5
57
102
{ACAD_REACTORS
330
4A
102
}
330
4A
100
AcDbScale
 70
     0
300
2:1
140
2.0
141
1.0
290
     0
  0
SCALE
  5
58
102
{ACAD_REACTORS
330
4A
102
}
330
4A
100
AcDbScale
 70
     0
300
4:1
140
4.0
141
1.0
290
     0
  0
SCALE
  5
59
102
{ACAD_REACTORS
330
4A
102
}
330
4A
100
AcDbScale
 70
     0
300
8:1
140
8.0
141
1.0
290
     0
  0
SCALE
  5
5A
102
{ACAD_REACTORS
330
4A
102
}
330
4A
100
AcDbScale
 70
     0
300
10:1
140
10.0
141
1.0
290
     0
  0
SCALE
  5
5B
102
{ACAD_REACTORS
330
4A
102
}
330
4A
100
AcDbScale
 70
     0
300
100:1
140
100.0
141
1.0
290
     0
  0
SCALE
  5
5C
102
{ACAD_REACTORS
330
4A
102
}
330
4A
100
AcDbScale
 70
     0
300
1/128" = 1'-0"
140
0.0078125
141
12.0
290
     0
  0
SCALE
  5
5D
102
{ACAD_REACTORS
330
4A
102
}
330
4A
100
AcDbScale
 70
     0
300
1/64" = 1'-0"
140
0.015625
141
12.0
290
     0
  0
SCALE
  5
5E
102
{ACAD_REACTORS
330
4A
102
}
330
4A
100
AcDbScale
 70
     0
300
1/32" = 1'-0"
140
0.03125
141
12.0
290
     0
  0
SCALE
  5
5F
102
{ACAD_REACTORS
330
4A
102
}
330
4A
100
AcDbScale
 70
     0
300
1/16" = 1'-0"
140
0.0625
141
12.0
290
     0
  0
SCALE
  5
60
102
{ACAD_REACTORS
330
4A
102
}
330
4A
100
AcDbScale
 70
     0
300
3/32" = 1'-0"
140
0.09375
141
12.0
290
     0
  0
SCALE
  5
61
102
{ACAD_REACTORS
330
4A
102
}
330
4A
100
AcDbScale
 70
     0
300
1/8" = 1'-0"
140
0.125
141
12.0
290
     0
  0
SCALE
  5
62
102
{ACAD_REACTORS
330
4A
102
}
330
4A
100
AcDbScale
 70
     0
300
3/16" = 1'-0"
140
0.1875
141
12.0
290
     0
  0
SCALE
  5
63
102
{ACAD_REACTORS
330
4A
102
}
330
4A
100
AcDbScale
 70
     0
300
1/4" = 1'-0"
140
0.25
141
12.0
290
     0
  0
SCALE
  5
64
102
{ACAD_REACTORS
330
4A
102
}
330
4A
100
AcDbScale
 70
     0
300
3/8" = 1'-0"
140
0.375
141
12.0
290
     0
  0
SCALE
  5
65
102
{ACAD_REACTORS
330
4A
102
}
330
4A
100
AcDbScale
 70
     0
300
1/2" = 1'-0"
140
0.5
141
12.0
290
     0
  0
SCALE
  5
66
102
{ACAD_REACTORS
330
4A
102
}
330
4A
100
AcDbScale
 70
     0
300
3/4" = 1'-0"
140
0.75
141
12.0
290
     0
  0
SCALE
  5
67
102
{ACAD_REACTORS
330
4A
102
}
330
4A
100
AcDbScale
 70
     0
300
1" = 1'-0"
140
1.0
141
12.0
290
     0
  0
SCALE
  5
68
102
{ACAD_REACTORS
330
4A
102
}
330
4A
100
AcDbScale
 70
     0
300
1-1/2" = 1'-0"
140
1.5
141
12.0
290
     0
  0
SCALE
  5
69
102
{ACAD_REACTORS
330
4A
102
}
330
4A
100
AcDbScale
 70
     0
300
3" = 1'-0"
140
3.0
141
12.0
290
     0
  0
SCALE
  5
6A
102
{ACAD_REACTORS
330
4A
102
}
330
4A
100
AcDbScale
 70
     0
300
6" = 1'-0"
140
6.0
141
12.0
290
     0
  0
SCALE
  5
6B
102
{ACAD_REACTORS
330
4A
102
}
330
4A
100
AcDbScale
 70
     0
300
1'-0" = 1'-0"
140
12.0
141
12.0
290
     0
  0
VISUALSTYLE
  5
2F
102
{ACAD_REACTORS
330
2A
102
}
330
2A
100
AcDbVisualStyle
  2
2dWireframe
 70
     4
 71
     0
 72
     2
 73
     0
 90
        0
 40
-0.6
 41
-30.0
 62
     5
 63
     7
 74
     1
 91
        4
 64
     7
 65
   257
 75
     1
175
     1
 42
1.0
 92
        0
 66
   257
 43
1.0
 76
     1
 77
     6
 78
     2
 67
     7
 79
     5
170
     0
171
     0
290
     0
174
     0
 93
        1
 44
0.0
173
     0
291
     0
 45
0.0
1001
ACAD
1000
AcDbSavedByObjectVersion
1070
     0
  0
VISUALSTYLE
  5
31
102
{ACAD_REACTORS
330
2A
102
}
330
2A
100
AcDbVisualStyle
  2
3D Hidden
 70
     6
 71
     1
 72
     2
 73
     2
 90
        0
 40
-0.6
 41
-30.0
 62
     5
 63
     7
 74
     2
 91
        2
 64
     7
 65
   257
 75
     2
175
     1
 42
40.0
 92
        0
 66
   257
 43
1.0
 76
     1
 77
     6
 78
     2
 67
     7
 79
     3
170
     0
171
     0
290
     0
174
     0
 93
        1
 44
0.0
173
     0
291
     0
 45
0.0
1001
ACAD
1000
AcDbSavedByObjectVersion
1070
     0
  0
VISUALSTYLE
  5
30
102
{ACAD_REACTORS
330
2A
102
}
330
2A
100
AcDbVisualStyle
  2
3dWireframe
 70
     5
 71
     0
 72
     2
 73
     0
 90
        0
 40
-0.6
 41
-30.0
 62
     5
 63
     7
 74
     1
 91
        4
 64
     7
 65
   257
 75
     1
175
     1
 42
1.0
 92
        0
 66
   257
 43
1.0
 76
     1
 77
     6
 78
     2
 67
     7
 79
     5
170
     0
171
     0
290
     0
174
     0
 93
        1
 44
0.0
173
     0
291
     0
 45
0.0
1001
ACAD
1000
AcDbSavedByObjectVersion
1070
     0
  0
VISUALSTYLE
  5
32
102
{ACAD_REACTORS
330
2A
102
}
330
2A
100
AcDbVisualStyle
  2
Basic
 70
     7
 71
     1
 72
     0
 73
     1
 90
        0
 40
-0.6
 41
-30.0
 62
     5
 63
     7
 74
     0
 91
        4
 64
     7
 65
   257
 75
     1
175
     1
 42
1.0
 92
        8
 66
     7
 43
1.0
 76
     1
 77
     6
 78
     2
 67
     7
 79
     5
170
     0
171
     0
290
     0
174
     0
 93
        1
 44
0.0
173
     0
291
     1
 45
0.0
1001
ACAD
1000
AcDbSavedByObjectVersion
1070
     0
  0
VISUALSTYLE
  5
36
102
{ACAD_REACTORS
330
2A
102
}
330
2A
100
AcDbVisualStyle
  2
Brighten
 70
    12
 71
     2
 72
     2
 73
     0
 90
        0
 40
-0.6
 41
-30.0
 62
     5
 63
     7
 74
     1
 91
        4
 64
     7
 65
   257
 75
     1
175
     1
 42
1.0
 92
        8
 66
     7
 43
1.0
 76
     1
 77
     6
 78
     2
 67
     7
 79
     5
170
     0
171
     0
290
     0
174
     0
 93
        1
 44
50.0
173
     0
291
     1
 45
0.0
1001
ACAD
1000
AcDbSavedByObjectVersion
1070
     0
  0
VISUALSTYLE
  5
3A
102
{ACAD_REACTORS
330
2A
102
}
330
2A
100
AcDbVisualStyle
  2
ColorChange
 70
    16
 71
     2
 72
     2
 73
     3
 90
        0
 40
-0.6
 41
-30.0
 62
     5
 63
     8
 74
     1
 91
        4
 64
     7
 65
   257
 75
     1
175
     1
 42
1.0
 92
        8
 66
     8
 43
1.0
 76
     1
 77
     6
 78
     2
 67
     7
 79
     5
170
     0
171
     0
290
     0
174
     0
 93
        1
 44
0.0
173
     0
291
     1
 45
0.0
1001
ACAD
1000
AcDbSavedByObjectVersion
1070
     0
  0
VISUALSTYLE
  5
34
102
{ACAD_REACTORS
330
2A
102
}
330
2A
100
AcDbVisualStyle
  2
Conceptual
 70
     9
 71
     3
 72
     2
 73
     0
 90
        0
 40
-0.6
 41
-30.0
 62
     5
 63
     7
 74
     2
 91
        2
 64
     7
 65
   257
 75
     1
175
     1
 42
40.0
 92
        8
 66
     7
 43
1.0
 76
     1
 77
     6
 78
     2
 67
     7
 79
     3
170
     0
171
     0
290
     0
174
     0
 93
        1
 44
0.0
173
     0
291
     0
 45
0.0
1001
ACAD
1000
AcDbSavedByObjectVersion
1070
     0
  0
VISUALSTYLE
  5
35
102
{ACAD_REACTORS
330
2A
102
}
330
2A
100
AcDbVisualStyle
  2
Dim
 70
    11
 71
     2
 72
     2
 73
     0
 90
        0
 40
-0.6
 41
-30.0
 62
     5
 63
     7
 74
     1
 91
        4
 64
     7
 65
   257
 75
     1
175
     1
 42
1.0
 92
        8
 66
     7
 43
1.0
 76
     1
 77
     6
 78
     2
 67
     7
 79
     5
170
     0
171
     0
290
     0
174
     0
 93
        1
 44
-50.0
173
     0
291
     1
 45
0.0
1001
ACAD
1000
AcDbSavedByObjectVersion
1070
     0
  0
VISUALSTYLE
  5
39
102
{ACAD_REACTORS
330
2A
102
}
330
2A
100
AcDbVisualStyle
  2
Facepattern
 70
    15
 71
     2
 72
     2
 73
     0
 90
        0
 40
-0.6
 41
-30.0
 62
     5
 63
     7
 74
     1
 91
        4
 64
     7
 65
   257
 75
     1
175
     1
 42
1.0
 92
        8
 66
     7
 43
1.0
 76
     1
 77
     6
 78
     2
 67
     7
 79
     5
170
     0
171
     0
290
     0
174
     0
 93
        1
 44
0.0
173
     0
291
     1
 45
0.0
1001
ACAD
1000
AcDbSavedByObjectVersion
1070
     0
  0
VISUALSTYLE
  5
2B
102
{ACAD_REACTORS
330
2A
102
}
330
2A
100
AcDbVisualStyle
  2
Flat
 70
     0
 71
     2
 72
     1
 73
     1
 90
        2
 40
-0.6
 41
30.0
 62
     5
 63
     7
 74
     0
 91
        4
 64
     7
 65
   257
 75
     1
175
     1
 42
1.0
 92
        8
 66
     7
 43
1.0
 76
     1
 77
     6
 78
     2
 67
     7
 79
     5
170
     0
171
     0
290
     0
174
     0
 93
       13
 44
0.0
173
     0
291
     1
 45
0.0
1001
ACAD
1000
AcDbSavedByObjectVersion
1070
     0
  0
VISUALSTYLE
  5
2C
102
{ACAD_REACTORS
330
2A
102
}
330
2A
100
AcDbVisualStyle
  2
FlatWithEdges
 70
     1
 71
     2
 72
     1
 73
     1
 90
        2
 40
-0.6
 41
30.0
 62
     5
 63
     7
 74
     1
 91
        4
 64
     7
 65
   257
 75
     1
175
     1
 42
1.0
 92
        0
 66
   257
 43
1.0
 76
     1
 77
     6
 78
     2
 67
     7
 79
     5
170
     0
171
     0
290
     0
174
     0
 93
       13
 44
0.0
173
     0
291
     1
 45
0.0
1001
ACAD
1000
AcDbSavedByObjectVersion
1070
     0
  0
VISUALSTYLE
  5
2D
102
{ACAD_REACTORS
330
2A
102
}
330
2A
100
AcDbVisualStyle
  2
Gouraud
 70
     2
 71
     2
 72
     2
 73
     1
 90
        2
 40
-0.6
 41
30.0
 62
     5
 63
     7
 74
     0
 91
        4
 64
     7
 65
   257
 75
     1
175
     1
 42
1.0
 92
        0
 66
     7
 43
1.0
 76
     1
 77
     6
 78
     2
 67
     7
 79
     5
170
     0
171
     0
290
     0
174
     0
 93
       13
 44
0.0
173
     0
291
     1
 45
0.0
1001
ACAD
1000
AcDbSavedByObjectVersion
1070
     0
  0
VISUALSTYLE
  5
2E
102
{ACAD_REACTORS
330
2A
102
}
330
2A
100
AcDbVisualStyle
  2
GouraudWithEdges
 70
     3
 71
     2
 72
     2
 73
     1
 90
        2
 40
-0.6
 41
30.0
 62
     5
 63
     7
 74
     1
 91
        4
 64
     7
 65
   257
 75
     1
175
     1
 42
1.0
 92
        0
 66
   257
 43
1.0
 76
     1
 77
     6
 78
     2
 67
     7
 79
     5
170
     0
171
     0
290
     0
174
     0
 93
       13
 44
0.0
173
     0
291
     1
 45
0.0
1001
ACAD
1000
AcDbSavedByObjectVersion
1070
     0
  0
VISUALSTYLE
  5
38
102
{ACAD_REACTORS
330
2A
102
}
330
2A
100
AcDbVisualStyle
  2
Linepattern
 70
    14
 71
     2
 72
     2
 73
     0
 90
        0
 40
-0.6
 41
-30.0
 62
     5
 63
     7
 74
     1
 91
        4
 64
     7
 65
   257
 75
     7
175
     7
 42
1.0
 92
        8
 66
     7
 43
1.0
 76
     1
 77
     6
 78
     2
 67
     7
 79
     5
170
     0
171
     0
290
     0
174
     0
 93
        1
 44
0.0
173
     0
291
     1
 45
0.0
1001
ACAD
1000
AcDbSavedByObjectVersion
1070
     0
  0
VISUALSTYLE
  5
33
102
{ACAD_REACTORS
330
2A
102
}
330
2A
100
AcDbVisualStyle
  2
Realistic
 70
     8
 71
     2
 72
     2
 73
     0
 90
        0
 40
-0.6
 41
-30.0
 62
     5
 63
     7
 74
     1
 91
        0
 64
     7
 65
   257
 75
     1
175
     1
 42
1.0
 92
        8
 66
     8
 43
1.0
 76
     1
 77
     6
 78
     2
 67
     7
 79
     5
170
     0
171
     0
290
     0
174
     0
 93
       13
 44
0.0
173
     0
291
     0
 45
0.0
1001
ACAD
1000
AcDbSavedByObjectVersion
1070
     0
  0
VISUALSTYLE
  5
37
102
{ACAD_REACTORS
330
2A
102
}
330
2A
100
AcDbVisualStyle
  2
Thicken
 70
    13
 71
     2
 72
     2
 73
     0
 90
        0
 40
-0.6
 41
-30.0
 62
     5
 63
     7
 74
     1
 91
        4
 64
     7
 65
   257
 75
     1
175
     1
 42
1.0
 92
       12
 66
     7
 43
1.0
 76
     1
 77
     6
 78
     2
 67
     7
 79
     5
170
     0
171
     0
290
     0
174
     0
 93
        1
 44
0.0
173
     0
291
     1
 45
0.0
1001
ACAD
1000
AcDbSavedByObjectVersion
1070
     0
  0
DICTIONARYVAR
  5
14A
102
{ACAD_REACTORS
330
147
102
}
330
147
100
DictionaryVariables
280
     0
  1
1:1
  0
ENDSEC
  0
EOF
