  0
SECTION
  2
HEADER
  9
$ACADVER
  1
AC1015
  9
$ACADMAINTVER
 70
     6
  9
$DWGCODEPAGE
  3
ANSI_1252
  9
$INSBASE
 10
0.0
 20
0.0
 30
0.0
  9
$EXTMIN
 10
88.368114642543
 20
371.2667636973
 30
0.0
  9
$EXTMAX
 10
303.452306552381
 20
501.41353486119
 30
0.0
  9
$LIMMIN
 10
0.0
 20
0.0
  9
$LIMMAX
 10
12.0
 20
9.0
  9
$ORTHOMODE
 70
     0
  9
$REGENMODE
 70
     1
  9
$FILLMODE
 70
     1
  9
$QTEXTMODE
 70
     0
  9
$MIRRTEXT
 70
     1
  9
$LTSCALE
 40
1.0
  9
$ATTMODE
 70
     1
  9
$TEXTSIZE
 40
0.2
  9
$TRACEWID
 40
0.05
  9
$TEXTSTYLE
  7
Standard
  9
$CLAYER
  8
0
  9
$CELTYPE
  6
ByLayer
  9
$CECOLOR
 62
   256
  9
$CELTSCALE
 40
1.0
  9
$DISPSILH
 70
     0
  9
$DIMSCALE
 40
1.0
  9
$DIMASZ
 40
0.18
  9
$DIMEXO
 40
0.0625
  9
$DIMDLI
 40
0.38
  9
$DIMRND
 40
0.0
  9
$DIMDLE
 40
0.0
  9
$DIMEXE
 40
0.18
  9
$DIMTP
 40
0.0
  9
$DIMTM
 40
0.0
  9
$DIMTXT
 40
0.18
  9
$DIMCEN
 40
0.09
  9
$DIMTSZ
 40
0.0
  9
$DIMTOL
 70
     0
  9
$DIMLIM
 70
     0
  9
$DIMTIH
 70
     1
  9
$DIMTOH
 70
     1
  9
$DIMSE1
 70
     0
  9
$DIMSE2
 70
     0
  9
$DIMTAD
 70
     0
  9
$DIMZIN
 70
     0
  9
$DIMBLK
  1

  9
$DIMASO
 70
     1
  9
$DIMSHO
 70
     1
  9
$DIMPOST
  1

  9
$DIMAPOST
  1

  9
$DIMALT
 70
     0
  9
$DIMALTD
 70
     2
  9
$DIMALTF
 40
25.4
  9
$DIMLFAC
 40
1.0
  9
$DIMTOFL
 70
     0
  9
$DIMTVP
 40
0.0
  9
$DIMTIX
 70
     0
  9
$DIMSOXD
 70
     0
  9
$DIMSAH
 70
     0
  9
$DIMBLK1
  1

  9
$DIMBLK2
  1

  9
$DIMSTYLE
  2
Standard
  9
$DIMCLRD
 70
     0
  9
$DIMCLRE
 70
     0
  9
$DIMCLRT
 70
     0
  9
$DIMTFAC
 40
1.0
  9
$DIMGAP
 40
0.09
  9
$DIMJUST
 70
     0
  9
$DIMSD1
 70
     0
  9
$DIMSD2
 70
     0
  9
$DIMTOLJ
 70
     1
  9
$DIMTZIN
 70
     0
  9
$DIMALTZ
 70
     0
  9
$DIMALTTZ
 70
     0
  9
$DIMUPT
 70
     0
  9
$DIMDEC
 70
     4
  9
$DIMTDEC
 70
     4
  9
$DIMALTU
 70
     2
  9
$DIMALTTD
 70
     2
  9
$DIMTXSTY
  7
Standard
  9
$DIMAUNIT
 70
     0
  9
$DIMADEC
 70
     0
  9
$DIMALTRND
 40
0.0
  9
$DIMAZIN
 70
     0
  9
$DIMDSEP
 70
    46
  9
$DIMATFIT
 70
     3
  9
$DIMFRAC
 70
     0
  9
$DIMLDRBLK
  1

  9
$DIMLUNIT
 70
     2
  9
$DIMLWD
 70
    -2
  9
$DIMLWE
 70
    -2
  9
$DIMTMOVE
 70
     0
  9
$LUNITS
 70
     2
  9
$LUPREC
 70
     4
  9
$SKETCHINC
 40
0.1
  9
$FILLETRAD
 40
0.5
  9
$AUNITS
 70
     0
  9
$AUPREC
 70
     0
  9
$MENU
  1
.
  9
$ELEVATION
 40
0.0
  9
$PELEVATION
 40
0.0
  9
$THICKNESS
 40
0.0
  9
$LIMCHECK
 70
     0
  9
$CHAMFERA
 40
0.5
  9
$CHAMFERB
 40
0.5
  9
$CHAMFERC
 40
1.0
  9
$CHAMFERD
 40
0.0
  9
$SKPOLY
 70
     0
  9
$TDCREATE
 40
2456821.365273391
  9
$TDUCREATE
 40
2456821.281940058
  9
$TDUPDATE
 40
2456821.365273403
  9
$TDUUPDATE
 40
2456821.28194007
  9
$TDINDWG
 40
0.0000000116
  9
$TDUSRTIMER
 40
0.0000000116
  9
$USRTIMER
 70
     1
  9
$ANGBASE
 50
0.0
  9
$ANGDIR
 70
     0
  9
$PDMODE
 70
     0
  9
$PDSIZE
 40
0.0
  9
$PLINEWID
 40
0.0
  9
$SPLFRAME
 70
     0
  9
$SPLINETYPE
 70
     6
  9
$SPLINESEGS
 70
     8
  9
$HANDSEED
  5
14B
  9
$SURFTAB1
 70
     6
  9
$SURFTAB2
 70
     6
  9
$SURFTYPE
 70
     6
  9
$SURFU
 70
     6
  9
$SURFV
 70
     6
  9
$UCSBASE
  2

  9
$UCSNAME
  2

  9
$UCSORG
 10
0.0
 20
0.0
 30
0.0
  9
$UCSXDIR
 10
1.0
 20
0.0
 30
0.0
  9
$UCSYDIR
 10
0.0
 20
1.0
 30
0.0
  9
$UCSORTHOREF
  2

  9
$UCSORTHOVIEW
 70
     0
  9
$UCSORGTOP
 10
0.0
 20
0.0
 30
0.0
  9
$UCSORGBOTTOM
 10
0.0
 20
0.0
 30
0.0
  9
$UCSORGLEFT
 10
0.0
 20
0.0
 30
0.0
  9
$UCSORGRIGHT
 10
0.0
 20
0.0
 30
0.0
  9
$UCSORGFRONT
 10
0.0
 20
0.0
 30
0.0
  9
$UCSORGBACK
 10
0.0
 20
0.0
 30
0.0
  9
$PUCSBASE
  2

  9
$PUCSNAME
  2

  9
$PUCSORG
 10
0.0
 20
0.0
 30
0.0
  9
$PUCSXDIR
 10
1.0
 20
0.0
 30
0.0
  9
$PUCSYDIR
 10
0.0
 20
1.0
 30
0.0
  9
$PUCSORTHOREF
  2

  9
$PUCSORTHOVIEW
 70
     0
  9
$PUCSORGTOP
 10
0.0
 20
0.0
 30
0.0
  9
$PUCSORGBOTTOM
 10
0.0
 20
0.0
 30
0.0
  9
$PUCSORGLEFT
 10
0.0
 20
0.0
 30
0.0
  9
$PUCSORGRIGHT
 10
0.0
 20
0.0
 30
0.0
  9
$PUCSORGFRONT
 10
0.0
 20
0.0
 30
0.0
  9
$PUCSORGBACK
 10
0.0
 20
0.0
 30
0.0
  9
$USERI1
 70
     0
  9
$USERI2
 70
     0
  9
$USERI3
 70
     0
  9
$USERI4
 70
     0
  9
$USERI5
 70
     0
  9
$USERR1
 40
16.5
  9
$USERR2
 40
0.0
  9
$USERR3
 40
0.0
  9
$USERR4
 40
0.0
  9
$USERR5
 40
0.0
  9
$WORLDVIEW
 70
     1
  9
$SHADEDGE
 70
     3
  9
$SHADEDIF
 70
    70
  9
$TILEMODE
 70
     1
  9
$MAXACTVP
 70
    64
  9
$PINSBASE
 10
0.0
 20
0.0
 30
0.0
  9
$PLIMCHECK
 70
     0
  9
$PEXTMIN
 10
1.00000000000000E+20
 20
1.00000000000000E+20
 30
1.00000000000000E+20
  9
$PEXTMAX
 10
-1.00000000000000E+20
 20
-1.00000000000000E+20
 30
-1.00000000000000E+20
  9
$PLIMMIN
 10
0.0
 20
0.0
  9
$PLIMMAX
 10
12.0
 20
9.0
  9
$UNITMODE
 70
     0
  9
$VISRETAIN
 70
     1
  9
$PLINEGEN
 70
     0
  9
$PSLTSCALE
 70
     1
  9
$TREEDEPTH
 70
  3020
  9
$CMLSTYLE
  2
Standard
  9
$CMLJUST
 70
     0
  9
$CMLSCALE
 40
1.0
  9
$PROXYGRAPHICS
 70
     1
  9
$MEASUREMENT
 70
     1
  9
$CELWEIGHT
370
    -1
  9
$ENDCAPS
280
     0
  9
$JOINSTYLE
280
     0
  9
$LWDISPLAY
290
     0
  9
$INSUNITS
 70
     1
  9
$HYPERLINKBASE
  1

  9
$STYLESHEET
  1

  9
$XEDIT
290
     1
  9
$CEPSNTYPE
380
     0
  9
$PSTYLEMODE
290
     1
  9
$FINGERPRINTGUID
  2
{177176EF-055E-477C-83EC-02315CBA6EBA}
  9
$VERSIONGUID
  2
{FAEB1C32-E019-11D5-929B-00C0DF256EC4}
  9
$EXTNAMES
290
     1
  9
$PSVPSCALE
 40
0.0
  9
$OLESTARTUP
290
     0
  0
ENDSEC
  0
SECTION
  2
CLASSES
  0
CLASS
  1
ACDBDICTIONARYWDFLT
  2
AcDbDictionaryWithDefault
  3
ObjectDBX Classes
 90
        0
280
     0
281
     0
  0
CLASS
  1
VISUALSTYLE
  2
AcDbVisualStyle
  3
ObjectDBX Classes
 90
     4095
280
     0
281
     0
  0
CLASS
  1
SCALE
  2
AcDbScale
  3
ObjectDBX Classes
 90
     1153
280
     0
281
     0
  0
CLASS
  1

  2
exOdDbPolyline
  3

 90
        0
280
     0
281
     1
  0
CLASS
  1

  2
exOdDbSpline
  3

 90
        0
280
     0
281
     1
  0
CLASS
  1
DICTIONARYVAR
  2
AcDbDictionaryVar
  3
ObjectDBX Classes
 90
        0
280
     0
281
     0
  0
CLASS
  1
ACDBPLACEHOLDER
  2
AcDbPlaceHolder
  3
ObjectDBX Classes
 90
        0
280
     0
281
     0
  0
CLASS
  1
LAYOUT
  2
AcDbLayout
  3
ObjectDBX Classes
 90
        0
280
     0
281
     0
  0
ENDSEC
  0
SECTION
  2
TABLES
  0
TABLE
  2
VPORT
  5
8
330
0
100
AcDbSymbolTable
 70
     1
  0
VPORT
  5
29
330
8
100
AcDbSymbolTableRecord
100
AcDbViewportTableRecord
  2
*Active
 70
     0
 10
0.0
 20
0.0
 11
1.0
 21
1.0
 12
195.910210597462
 22
436.340149279245
 13
0.0
 23
0.0
 14
0.5
 24
0.5
 15
0.5
 25
0.5
 16
0.0
 26
0.0
 36
1.0
 17
0.0
 27
0.0
 37
0.0
 40
147.6232448094265
 41
1.60267857142857
 42
50.0
 43
0.0
 44
0.0
 50
0.0
 51
0.0
 71
     0
 72
   100
 73
     1
 74
     3
 75
     0
 76
     0
 77
     0
 78
     0
281
     0
 65
     1
110
0.0
120
0.0
130
0.0
111
1.0
121
0.0
131
0.0
112
0.0
122
1.0
132
0.0
 79
     0
146
0.0
  0
ENDTAB
  0
TABLE
  2
LTYPE
  5
5
330
0
100
AcDbSymbolTable
 70
     8
  0
LTYPE
  5
14
330
5
100
AcDbSymbolTableRecord
100
AcDbLinetypeTableRecord
  2
ByBlock
 70
     0
  3

 72
    65
 73
     0
 40
0.0
  0
LTYPE
  5
15
330
5
100
AcDbSymbolTableRecord
100
AcDbLinetypeTableRecord
  2
ByLayer
 70
     0
  3

 72
    65
 73
     0
 40
0.0
  0
LTYPE
  5
16
330
5
100
AcDbSymbolTableRecord
100
AcDbLinetypeTableRecord
  2
Continuous
 70
     0
  3
Solid line
 72
    65
 73
     0
 40
0.0
  0
LTYPE
  5
3B
330
5
100
AcDbSymbolTableRecord
100
AcDbLinetypeTableRecord
  2
DASHED
 70
     0
  3
Dashed
 72
    65
 73
     2
 40
15.0
 49
7.0
 74
     0
 49
-8.0
 74
     0
  0
LTYPE
  5
3C
330
5
100
AcDbSymbolTableRecord
100
AcDbLinetypeTableRecord
  2
DOTTED
 70
     0
  3
Dotted
 72
    65
 73
     2
 40
1.0
 49
0.0
 74
     0
 49
-1.0
 74
     0
  0
LTYPE
  5
3D
330
5
100
AcDbSymbolTableRecord
100
AcDbLinetypeTableRecord
  2
DOT_CENTER
 70
     0
  3
Dot_Center
 72
    65
 73
     4
 40
14.0
 49
12.0
 74
     0
 49
-1.0
 74
     0
 49
0.0
 74
     0
 49
-1.0
 74
     0
  0
LTYPE
  5
3E
330
5
100
AcDbSymbolTableRecord
100
AcDbLinetypeTableRecord
  2
LONG_DASHED
 70
     0
  3
Long_Dashed
 72
    65
 73
     2
 40
15.0
 49
10.0
 74
     0
 49
-5.0
 74
     0
  0
LTYPE
  5
3F
330
5
100
AcDbSymbolTableRecord
100
AcDbLinetypeTableRecord
  2
DASH_CENTER
 70
     0
  3
Dash_Center
 72
    65
 73
     4
 40
14.0
 49
11.0
 74
     0
 49
-1.0
 74
     0
 49
1.0
 74
     0
 49
-1.0
 74
     0
  0
LTYPE
  5
40
330
5
100
AcDbSymbolTableRecord
100
AcDbLinetypeTableRecord
  2
PHANTOM
 70
     0
  3
Phantom
 72
    65
 73
     6
 40
13.0
 49
10.0
 74
     0
 49
-1.0
 74
     0
 49
0.0
 74
     0
 49
-1.0
 74
     0
 49
0.0
 74
     0
 49
-1.0
 74
     0
  0
LTYPE
  5
41
330
5
100
AcDbSymbolTableRecord
100
AcDbLinetypeTableRecord
  2
CENTER_DASH_DASH
 70
     0
  3
Center_Dash_Dash
 72
    65
 73
     6
 40
14.0
 49
9.0
 74
     0
 49
-1.0
 74
     0
 49
1.0
 74
     0
 49
-1.0
 74
     0
 49
1.0
 74
     0
 49
-1.0
 74
     0
  0
ENDTAB
  0
TABLE
  2
LAYER
  5
2
330
0
100
AcDbSymbolTable
 70
     6
  0
LAYER
  5
10
330
2
100
AcDbSymbolTableRecord
100
AcDbLayerTableRecord
  2
0
 70
     0
 62
     7
  6
Continuous
370
    -3
390
F
  0
LAYER
  5
42
330
2
100
AcDbSymbolTableRecord
100
AcDbLayerTableRecord
  2
1
 70
     0
 62
     7
  6
Continuous
370
    -3
390
F
  0
LAYER
  5
43
330
2
100
AcDbSymbolTableRecord
100
AcDbLayerTableRecord
  2
BG_STARTBEZUEGE
 70
     0
 62
     7
  6
Continuous
370
    -3
390
F
  0
LAYER
  5
44
330
2
100
AcDbSymbolTableRecord
100
AcDbLayerTableRecord
  2
DEFAULT_2
 70
     0
 62
     7
  6
Continuous
370
    -3
390
F
  0
LAYER
  5
45
330
2
100
AcDbSymbolTableRecord
100
AcDbLayerTableRecord
  2
RUNDUNGEN
 70
     0
 62
     7
  6
Continuous
370
    -3
390
F
  0
LAYER
  5
46
330
2
100
AcDbSymbolTableRecord
100
AcDbLayerTableRecord
  2
TEIL_STARTBEZUEGE
 70
     0
 62
     7
  6
Continuous
370
    -3
390
F
  0
ENDTAB
  0
TABLE
  2
STYLE
  5
3
330
0
100
AcDbSymbolTable
 70
     2
  0
STYLE
  5
11
330
3
100
AcDbSymbolTableRecord
100
AcDbTextStyleTableRecord
  2
Standard
 70
     0
 40
0.0
 41
1.0
 50
0.0
 71
     0
 42
0.2
  3
txt
  4

  0
STYLE
  5
6D
330
3
100
AcDbSymbolTableRecord
100
AcDbTextStyleTableRecord
  2
CONVERTER_11
 70
     0
 40
0.0
 41
0.72
 50
0.0
 71
     0
 42
0.2
  3
txt.shx
  4

  0
ENDTAB
  0
TABLE
  2
VIEW
  5
6
330
0
100
AcDbSymbolTable
 70
     0
  0
ENDTAB
  0
TABLE
  2
UCS
  5
7
330
0
100
AcDbSymbolTable
 70
     0
  0
ENDTAB
  0
TABLE
  2
APPID
  5
9
330
0
100
AcDbSymbolTable
 70
     1
  0
APPID
  5
12
330
9
100
AcDbSymbolTableRecord
100
AcDbRegAppTableRecord
  2
ACAD
 70
     0
  0
ENDTAB
  0
TABLE
  2
DIMSTYLE
  5
A
330
0
100
AcDbSymbolTable
 70
     7
100
AcDbDimStyleTable
  0
DIMSTYLE
105
27
330
A
100
AcDbSymbolTableRecord
100
AcDbDimStyleTableRecord
  2
Standard
 70
     0
340
11
  0
DIMSTYLE
105
107
102
{ACAD_REACTORS
330
108
102
}
330
A
100
AcDbSymbolTableRecord
100
AcDbDimStyleTableRecord
  2
ME10_DIM_10
 70
     0
  3
\U+2300<>
 41
3.5
 42
2.0
 44
2.0
 71
     1
 73
     0
 74
     0
 77
     1
 78
     8
140
3.5
146
0.7
147
2.0
172
     1
173
     1
176
     2
177
     2
178
     3
271
     2
272
     0
340
6D
  0
DIMSTYLE
105
112
102
{ACAD_REACTORS
330
113
102
}
330
A
100
AcDbSymbolTableRecord
100
AcDbDimStyleTableRecord
  2
ME10_DIM_11
 70
     0
  3
\U+2300<>
 41
3.5
 42
2.0
 44
2.0
 71
     1
 73
     0
 74
     0
 77
     1
 78
     8
140
3.5
146
0.7
147
2.0
172
     1
173
     1
176
     2
177
     2
178
     3
271
     2
272
     0
340
6D
  0
DIMSTYLE
105
11D
102
{ACAD_REACTORS
330
11E
102
}
330
A
100
AcDbSymbolTableRecord
100
AcDbDimStyleTableRecord
  2
ME10_DIM_12
 70
     0
  3
<>
 41
3.5
 42
2.0
 44
2.0
 71
     1
 73
     0
 74
     0
 77
     1
 78
     8
140
3.5
146
0.7
147
2.0
172
     1
173
     1
176
     2
177
     2
178
     3
271
     2
272
     0
340
6D
  0
DIMSTYLE
105
128
102
{ACAD_REACTORS
330
129
102
}
330
A
100
AcDbSymbolTableRecord
100
AcDbDimStyleTableRecord
  2
ME10_DIM_13
 70
     0
  3
<>
 41
3.5
 42
2.0
 44
2.0
 71
     1
 73
     0
 74
     0
 77
     1
 78
     8
140
3.5
146
0.7
147
2.0
172
     1
173
     1
176
     2
177
     2
178
     3
271
     2
272
     0
340
6D
  0
DIMSTYLE
105
133
102
{ACAD_REACTORS
330
134
102
}
330
A
100
AcDbSymbolTableRecord
100
AcDbDimStyleTableRecord
  2
ME10_DIM_14
 70
     0
  3
<>
 41
3.5
 42
2.0
 44
2.0
 71
     1
 73
     0
 74
     0
 77
     1
 78
     8
140
3.5
146
0.7
147
2.0
172
     1
173
     1
176
     2
177
     2
178
     3
271
     2
272
     0
340
6D
  0
DIMSTYLE
105
13E
102
{ACAD_REACTORS
330
13F
102
}
330
A
100
AcDbSymbolTableRecord
100
AcDbDimStyleTableRecord
  2
ME10_DIM_15
 70
     0
  3
<>
 41
3.5
 42
2.0
 44
2.0
 71
     1
 73
     0
 74
     0
 77
     1
 78
     8
140
3.5
146
0.7
147
2.0
172
     1
173
     1
176
     2
177
     2
178
     3
271
     2
272
     0
340
6D
  0
ENDTAB
  0
TABLE
  2
BLOCK_RECORD
  5
1
330
0
100
AcDbSymbolTable
 70
     9
  0
BLOCK_RECORD
  5
1F
330
1
100
AcDbSymbolTableRecord
100
AcDbBlockTableRecord
  2
*Model_Space
340
22
  0
BLOCK_RECORD
  5
1B
330
1
100
AcDbSymbolTableRecord
100
AcDbBlockTableRecord
  2
*Paper_Space
340
1E
  0
BLOCK_RECORD
  5
23
330
1
100
AcDbSymbolTableRecord
100
AcDbBlockTableRecord
  2
*Paper_Space0
340
26
  0
BLOCK_RECORD
  5
47
330
1
100
AcDbSymbolTableRecord
100
AcDbBlockTableRecord
  2
Urheberrecht_DE-EN
340
0
102
{BLKREFS
331
6C
102
}
  0
BLOCK_RECORD
  5
FE
330
1
100
AcDbSymbolTableRecord
100
AcDbBlockTableRecord
  2
*D2
340
0
  0
BLOCK_RECORD
  5
109
330
1
100
AcDbSymbolTableRecord
100
AcDbBlockTableRecord
  2
*D3
340
0
  0
BLOCK_RECORD
  5
114
330
1
100
AcDbSymbolTableRecord
100
AcDbBlockTableRecord
  2
*D4
340
0
  0
BLOCK_RECORD
  5
11F
330
1
100
AcDbSymbolTableRecord
100
AcDbBlockTableRecord
  2
*D5
340
0
  0
BLOCK_RECORD
  5
12A
330
1
100
AcDbSymbolTableRecord
100
AcDbBlockTableRecord
  2
*D6
340
0
  0
BLOCK_RECORD
  5
135
330
1
100
AcDbSymbolTableRecord
100
AcDbBlockTableRecord
  2
*D7
340
0
  0
BLOCK_RECORD
  5
140
330
1
100
AcDbSymbolTableRecord
100
AcDbBlockTableRecord
  2
*D8
340
0
102
{BLKREFS
331
146
102
}
  0
ENDTAB
  0
ENDSEC
  0
SECTION
  2
BLOCKS
  0
BLOCK
  5
20
330
1F
100
AcDbEntity
  8
0
100
AcDbBlockBegin
  2
*Model_Space
 70
     0
 10
0.0
 20
0.0
 30
0.0
  3
*Model_Space
  1

  0
ENDBLK
  5
21
330
1F
100
AcDbEntity
  8
0
100
AcDbBlockEnd
  0
BLOCK
  5
1C
330
1B
100
AcDbEntity
 67
     1
  8
0
100
AcDbBlockBegin
  2
*Paper_Space
 70
     0
 10
0.0
 20
0.0
 30
0.0
  3
*Paper_Space
  1

  0
ENDBLK
  5
1D
330
1B
100
AcDbEntity
 67
     1
  8
0
100
AcDbBlockEnd
  0
BLOCK
  5
24
330
23
100
AcDbEntity
  8
0
100
AcDbBlockBegin
  2
*Paper_Space0
 70
     0
 10
0.0
 20
0.0
 30
0.0
  3
*Paper_Space0
  1

  0
ENDBLK
  5
25
330
23
100
AcDbEntity
  8
0
100
AcDbBlockEnd
  0
BLOCK
  5
48
330
47
100
AcDbEntity
  8
0
100
AcDbBlockBegin
  2
Urheberrecht_DE-EN
 70
     0
 10
102.368114642543
 20
441.820560975788
 30
0.0
  3
Urheberrecht_DE-EN
  1

  0
MTEXT
  5
6E
330
47
100
AcDbEntity
  8
1
 62
     1
100
AcDbMText
 10
102.368114642543
 20
441.820560975788
 30
0.0
 40
2.0
 41
0.0
 71
     7
 72
     1
  1
We own the copyright of this document. It \Pdetermined and may neither be copied or \Pmade accessible to outsiders without our\Ppermission.
  7
CONVERTER_11
 11
0.0
 21
1.0
 31
0.0
 73
     1
 44
0.90036014405762
  0
MTEXT
  5
6F
330
47
100
AcDbEntity
  8
1
 62
     1
100
AcDbMText
 10
102.368114642543
 20
385.5311740584818
 30
0.0
 40
2.0
 41
0.0
 71
     7
 72
     1
  1
F\U+00fcr diese Unterlage behalten wir das Ur-\Pheberrecht. Sie darf nur f\U+00fcr den von uns \Pbestimmten Zweck benutzt und ohne unsere \PZustimmung weder vervielf\U+00e4ltigt noch\PDritten zug\U+00e4nglich gemacht werden.
  7
CONVERTER_11
 11
0.0
 21
1.0
 31
0.0
 73
     1
 44
0.90036014405762
  0
ENDBLK
  5
49
330
47
100
AcDbEntity
  8
0
100
AcDbBlockEnd
  0
BLOCK
  5
105
330
FE
100
AcDbEntity
  8
0
100
AcDbBlockBegin
  2
*D2
 70
     1
 10
0.0
 20
0.0
 30
0.0
  3
*D2
  1

  0
LINE
  5
FF
330
FE
100
AcDbEntity
  8
1
  6
Continuous
 62
     2
100
AcDbLine
 10
293.420725371112
 20
428.0042636973
 30
0.0
 11
293.420725371112
 21
412.0042636973
 31
0.0
  0
LINE
  5
100
330
FE
100
AcDbEntity
  8
1
  6
Continuous
 62
     2
100
AcDbLine
 10
271.7283264033
 20
428.0042636973
 30
0.0
 11
295.420725371112
 21
428.0042636973
 31
0.0
  0
LINE
  5
101
330
FE
100
AcDbEntity
  8
1
  6
Continuous
 62
     2
100
AcDbLine
 10
271.7283264033
 20
412.0042636973
 30
0.0
 11
295.420725371112
 21
412.0042636973
 31
0.0
  0
SOLID
  5
102
330
FE
100
AcDbEntity
  8
1
 62
     2
100
AcDbTrace
 10
293.8815091126679
 20
424.5042636973
 30
0.0
 11
292.9599416295561
 21
424.5042636973
 31
0.0
 12
293.420725371112
 22
428.0042636973
 32
0.0
 13
293.420725371112
 23
428.0042636973
 33
0.0
  0
SOLID
  5
103
330
FE
100
AcDbEntity
  8
1
 62
     2
100
AcDbTrace
 10
292.9599416295561
 20
415.5042636973
 30
0.0
 11
293.8815091126679
 21
415.5042636973
 31
0.0
 12
293.420725371112
 22
412.0042636973
 32
0.0
 13
293.420725371112
 23
412.0042636973
 33
0.0
  0
MTEXT
  5
104
330
FE
100
AcDbEntity
  8
1
 62
     3
100
AcDbMText
 10
291.420725371112
 20
411.102921882861
 30
0.0
 40
3.5
 41
0.0
 71
     7
 72
     1
  1
\C3;%%c\C3;\C3;16\C2;\H2.45;\S^ ;\C3;
  7
CONVERTER_11
 11
0.0
 21
1.0
 31
0.0
 73
     1
 44
0.60024009603842
  0
ENDBLK
  5
106
330
FE
100
AcDbEntity
  8
0
100
AcDbBlockEnd
  0
BLOCK
  5
110
330
109
100
AcDbEntity
  8
0
100
AcDbBlockBegin
  2
*D3
 70
     1
 10
0.0
 20
0.0
 30
0.0
  3
*D3
  1

  0
LINE
  5
10A
330
109
100
AcDbEntity
  8
1
  6
Continuous
 62
     2
100
AcDbLine
 10
301.452306552381
 20
434.0042636973
 30
0.0
 11
301.452306552381
 21
406.0042636973
 31
0.0
  0
LINE
  5
10B
330
109
100
AcDbEntity
  8
1
  6
Continuous
 62
     2
100
AcDbLine
 10
254.314112841
 20
434.0042636973
 30
0.0
 11
303.452306552381
 21
434.0042636973
 31
0.0
  0
LINE
  5
10C
330
109
100
AcDbEntity
  8
1
  6
Continuous
 62
     2
100
AcDbLine
 10
254.314112841
 20
406.0042636973
 30
0.0
 11
303.452306552381
 21
406.0042636973
 31
0.0
  0
SOLID
  5
10D
330
109
100
AcDbEntity
  8
1
 62
     2
100
AcDbTrace
 10
301.9130902939369
 20
430.5042636973
 30
0.0
 11
300.9915228108251
 21
430.5042636973
 31
0.0
 12
301.452306552381
 22
434.0042636973
 32
0.0
 13
301.452306552381
 23
434.0042636973
 33
0.0
  0
SOLID
  5
10E
330
109
100
AcDbEntity
  8
1
 62
     2
100
AcDbTrace
 10
300.9915228108251
 20
409.5042636973
 30
0.0
 11
301.9130902939369
 21
409.5042636973
 31
0.0
 12
301.452306552381
 22
406.0042636973
 32
0.0
 13
301.452306552381
 23
406.0042636973
 33
0.0
  0
MTEXT
  5
10F
330
109
100
AcDbEntity
  8
1
 62
     3
100
AcDbMText
 10
299.452306552381
 20
411.218360628279
 30
0.0
 40
3.5
 41
0.0
 71
     7
 72
     1
  1
\C3;%%c\C3;\C3;28\C2;\H2.45;\S^ ;\C3;
  7
CONVERTER_11
 11
0.0
 21
1.0
 31
0.0
 73
     1
 44
0.60024009603842
  0
ENDBLK
  5
111
330
109
100
AcDbEntity
  8
0
100
AcDbBlockEnd
  0
BLOCK
  5
11B
330
114
100
AcDbEntity
  8
0
100
AcDbBlockBegin
  2
*D4
 70
     1
 10
0.0
 20
0.0
 30
0.0
  3
*D4
  1

  0
LINE
  5
115
330
114
100
AcDbEntity
  8
1
  6
Continuous
 62
     2
100
AcDbLine
 10
269.7283264033
 20
473.047696816731
 30
0.0
 11
229.4283264033
 21
473.047696816731
 31
0.0
  0
LINE
  5
116
330
114
100
AcDbEntity
  8
1
  6
Continuous
 62
     2
100
AcDbLine
 10
269.7283264033
 20
433.0042636973
 30
0.0
 11
269.7283264033
 21
475.047696816731
 31
0.0
  0
LINE
  5
117
330
114
100
AcDbEntity
  8
1
  6
Continuous
 62
     2
100
AcDbLine
 10
229.4283264033
 20
469.7417636973
 30
0.0
 11
229.4283264033
 21
475.047696816731
 31
0.0
  0
SOLID
  5
118
330
114
100
AcDbEntity
  8
1
 62
     2
100
AcDbTrace
 10
266.2283264033
 20
472.5869130751751
 30
0.0
 11
266.2283264033
 21
473.5084805582869
 31
0.0
 12
269.7283264033
 22
473.047696816731
 32
0.0
 13
269.7283264033
 23
473.047696816731
 33
0.0
  0
SOLID
  5
119
330
114
100
AcDbEntity
  8
1
 62
     2
100
AcDbTrace
 10
232.9283264033
 20
473.5084805582869
 30
0.0
 11
232.9283264033
 21
472.5869130751751
 31
0.0
 12
229.4283264033
 22
473.047696816731
 32
0.0
 13
229.4283264033
 23
473.047696816731
 33
0.0
  0
MTEXT
  5
11A
330
114
100
AcDbEntity
  8
1
 62
     3
100
AcDbMText
 10
245.731731654451
 20
475.047696816731
 30
0.0
 40
3.5
 41
0.0
 71
     7
 72
     1
  1
\C3;\C3;\C3;40.3\C2;\H2.45;\S^ ;\C3;
  7
CONVERTER_11
 11
0.9999999999970619
 21
2.424068405545306E-6
 31
0.0
 73
     1
 44
0.60024009603842
  0
ENDBLK
  5
11C
330
114
100
AcDbEntity
  8
0
100
AcDbBlockEnd
  0
BLOCK
  5
126
330
11F
100
AcDbEntity
  8
0
100
AcDbBlockBegin
  2
*D5
 70
     1
 10
0.0
 20
0.0
 30
0.0
  3
*D5
  1

  0
LINE
  5
120
330
11F
100
AcDbEntity
  8
1
  6
Continuous
 62
     2
100
AcDbLine
 10
210.3283264033
 20
480.318136840767
 30
0.0
 11
269.7283264033
 21
480.318136840767
 31
0.0
  0
LINE
  5
121
330
11F
100
AcDbEntity
  8
1
  6
Continuous
 62
     2
100
AcDbLine
 10
210.3283264033
 20
463.2857873204
 30
0.0
 11
210.3283264033
 21
482.318136840767
 31
0.0
  0
LINE
  5
122
330
11F
100
AcDbEntity
  8
1
  6
Continuous
 62
     2
100
AcDbLine
 10
269.7283264033
 20
433.0042636973
 30
0.0
 11
269.7283264033
 21
482.318136840767
 31
0.0
  0
SOLID
  5
123
330
11F
100
AcDbEntity
  8
1
 62
     2
100
AcDbTrace
 10
213.8283264033
 20
480.7789205823229
 30
0.0
 11
213.8283264033
 21
479.8573530992111
 31
0.0
 12
210.3283264033
 22
480.318136840767
 32
0.0
 13
210.3283264033
 23
480.318136840767
 33
0.0
  0
SOLID
  5
124
330
11F
100
AcDbEntity
  8
1
 62
     2
100
AcDbTrace
 10
266.2283264033
 20
479.8573530992111
 30
0.0
 11
266.2283264033
 21
480.7789205823229
 31
0.0
 12
269.7283264033
 22
480.318136840767
 32
0.0
 13
269.7283264033
 23
480.318136840767
 33
0.0
  0
MTEXT
  5
125
330
11F
100
AcDbEntity
  8
1
 62
     3
100
AcDbMText
 10
237.865353923527
 20
482.318136840767
 30
0.0
 40
3.5
 41
0.0
 71
     7
 72
     1
  1
\C3;\C3;\C3;59.4\C2;\H2.45;\S^ ;\C3;
  7
CONVERTER_11
 11
0.9999999999970619
 21
2.424068405545306E-6
 31
0.0
 73
     1
 44
0.60024009603842
  0
ENDBLK
  5
127
330
11F
100
AcDbEntity
  8
0
100
AcDbBlockEnd
  0
BLOCK
  5
131
330
12A
100
AcDbEntity
  8
0
100
AcDbBlockBegin
  2
*D6
 70
     1
 10
0.0
 20
0.0
 30
0.0
  3
*D6
  1

  0
LINE
  5
12B
330
12A
100
AcDbEntity
  8
1
  6
Continuous
 62
     2
100
AcDbLine
 10
210.3283264033
 20
488.303702113069
 30
0.0
 11
280.3283264033
 21
488.303702113069
 31
0.0
  0
LINE
  5
12C
330
12A
100
AcDbEntity
  8
1
  6
Continuous
 62
     2
100
AcDbLine
 10
210.3283264033
 20
463.2857873204
 30
0.0
 11
210.3283264033
 21
490.303702113069
 31
0.0
  0
LINE
  5
12D
330
12A
100
AcDbEntity
  8
1
  6
Continuous
 62
     2
100
AcDbLine
 10
280.3283264033
 20
432.7542636973
 30
0.0
 11
280.3283264033
 21
490.303702113069
 31
0.0
  0
SOLID
  5
12E
330
12A
100
AcDbEntity
  8
1
 62
     2
100
AcDbTrace
 10
213.8283264033
 20
488.7644858546249
 30
0.0
 11
213.8283264033
 21
487.8429183715131
 31
0.0
 12
210.3283264033
 22
488.303702113069
 32
0.0
 13
210.3283264033
 23
488.303702113069
 33
0.0
  0
SOLID
  5
12F
330
12A
100
AcDbEntity
  8
1
 62
     2
100
AcDbTrace
 10
276.8283264033
 20
487.8429183715131
 30
0.0
 11
276.8283264033
 21
488.7644858546249
 31
0.0
 12
280.3283264033
 22
488.303702113069
 32
0.0
 13
280.3283264033
 23
488.303702113069
 33
0.0
  0
MTEXT
  5
130
330
12A
100
AcDbEntity
  8
1
 62
     3
100
AcDbMText
 10
242.321667375212
 20
490.303702113069
 30
0.0
 40
3.5
 41
0.0
 71
     7
 72
     1
  1
\C3;\C3;\C3;70\C2;\H2.45;\S^ ;\C3;
  7
CONVERTER_11
 11
0.9999999999970619
 21
2.424068405545306E-6
 31
0.0
 73
     1
 44
0.60024009603842
  0
ENDBLK
  5
132
330
12A
100
AcDbEntity
  8
0
100
AcDbBlockEnd
  0
BLOCK
  5
13C
330
135
100
AcDbEntity
  8
0
100
AcDbBlockBegin
  2
*D7
 70
     1
 10
0.0
 20
0.0
 30
0.0
  3
*D7
  1

  0
LINE
  5
136
330
135
100
AcDbEntity
  8
1
  6
Continuous
 62
     2
100
AcDbLine
 10
269.7283264033
 20
495.91353486119
 30
0.0
 11
108.5783264033
 21
495.91353486119
 31
0.0
  0
LINE
  5
137
330
135
100
AcDbEntity
  8
1
  6
Continuous
 62
     2
100
AcDbLine
 10
269.7283264033
 20
433.0042636973
 30
0.0
 11
269.7283264033
 21
497.91353486119
 31
0.0
  0
LINE
  5
138
330
135
100
AcDbEntity
  8
1
  6
Continuous
 62
     2
100
AcDbLine
 10
108.5783264033
 20
440.1654978973
 30
0.0
 11
108.5783264033
 21
497.91353486119
 31
0.0
  0
SOLID
  5
139
330
135
100
AcDbEntity
  8
1
 62
     2
100
AcDbTrace
 10
266.2283264033
 20
495.4527511196341
 30
0.0
 11
266.2283264033
 21
496.3743186027459
 31
0.0
 12
269.7283264033
 22
495.91353486119
 32
0.0
 13
269.7283264033
 23
495.91353486119
 33
0.0
  0
SOLID
  5
13A
330
135
100
AcDbEntity
  8
1
 62
     2
100
AcDbTrace
 10
112.0783264033
 20
496.3743186027459
 30
0.0
 11
112.0783264033
 21
495.4527511196341
 31
0.0
 12
108.5783264033
 22
495.91353486119
 32
0.0
 13
108.5783264033
 23
495.91353486119
 33
0.0
  0
MTEXT
  5
13B
330
135
100
AcDbEntity
  8
1
 62
     3
100
AcDbMText
 10
198.1880102376326
 20
497.91353486119
 30
0.0
 40
3.5
 41
0.0
 71
     7
 72
     1
  1
\C3;\C3;\C3;161.15\C2;\H2.45;\S^ ;\C3;
  7
CONVERTER_11
 11
0.9999999999970619
 21
2.424068405545306E-6
 31
0.0
 73
     1
 44
0.60024009603842
  0
ENDBLK
  5
13D
330
135
100
AcDbEntity
  8
0
100
AcDbBlockEnd
  0
BLOCK
  5
144
330
140
100
AcDbEntity
  8
0
100
AcDbBlockBegin
  2
*D8
 70
     1
 10
0.0
 20
0.0
 30
0.0
  3
*D8
  1

  0
LINE
  5
141
330
140
100
AcDbEntity
  8
1
  6
Continuous
 62
     2
100
AcDbLine
 10
240.6964110327723
 20
442.302422204412
 30
0.0
 11
229.928844467975
 21
437.6051600223763
 31
0.0
  0
SOLID
  5
142
330
140
100
AcDbEntity
  8
1
 62
     2
100
AcDbTrace
 10
232.9526309356293
 20
439.4269824765448
 30
0.0
 11
233.3211202581999
 21
438.5822918556188
 31
0.0
 12
229.928844467975
 22
437.6051600223763
 32
0.0
 13
229.928844467975
 23
437.6051600223763
 33
0.0
  0
MTEXT
  5
143
330
140
100
AcDbEntity
  8
1
 62
     3
100
AcDbMText
 10
233.0956838144456
 20
441.1686913048647
 30
0.0
 40
3.5
 41
0.0
 71
     7
 72
     1
  1
\C3; R\C3;\C3;6\C2;\H2.45;\S^ ;\C3;
  7
CONVERTER_11
 11
0.9165803225541869
 21
0.3998506124872922
 31
0.0
 73
     1
 44
0.60024009603842
  0
ENDBLK
  5
145
330
140
100
AcDbEntity
  8
0
100
AcDbBlockEnd
  0
ENDSEC
  0
SECTION
  2
ENTITIES
  0
INSERT
  5
6C
330
1F
100
AcDbEntity
  8
0
100
AcDbBlockReference
  2
Urheberrecht_DE-EN
 10
102.368114642543
 20
441.820560975788
 30
0.0
  0
LINE
  5
70
330
1F
100
AcDbEntity
  8
0
  6
Continuous
 62
     7
100
AcDbLine
 10
108.5783264033
 20
438.1654978973
 30
0.0
 11
108.5783264033
 21
401.8428166961
 31
0.0
  0
LINE
  5
71
330
1F
100
AcDbEntity
  8
0
  6
Continuous
 62
     9
100
AcDbLine
 10
110.5036093977
 20
399.6163713529
 30
0.0
 11
110.5036093977
 21
440.3921560417
 31
0.0
  0
LINE
  5
72
330
1F
100
AcDbEntity
  8
0
  6
Continuous
 62
     7
100
AcDbLine
 10
214.5283264033
 20
371.2667636973
 30
0.0
 11
218.2629480175
 21
371.2667636973
 31
0.0
  0
LINE
  5
73
330
1F
100
AcDbEntity
  8
0
  6
Continuous
 62
     7
100
AcDbLine
 10
224.7437047892
 20
371.2667636973
 30
0.0
 11
228.4283264033
 21
371.2667636973
 31
0.0
  0
LINE
  5
74
330
1F
100
AcDbEntity
  8
0
  6
Continuous
 62
     7
100
AcDbLine
 10
220.3408264033
 20
374.5042636973
 30
0.0
 11
222.6658264033
 21
374.5042636973
 31
0.0
  0
LINE
  5
75
330
1F
100
AcDbEntity
  8
0
  6
Continuous
 62
     7
100
AcDbLine
 10
209.8386440701
 20
385.1506816557
 30
0.0
 11
210.8783264033
 21
385.4292636973
 31
0.0
  0
LINE
  5
76
330
1F
100
AcDbEntity
  8
0
  6
Continuous
 62
     7
100
AcDbLine
 10
214.5283264033
 20
381.4773717094
 30
0.0
 11
218.2629480175
 21
381.4773717094
 31
0.0
  0
LINE
  5
77
330
1F
100
AcDbEntity
  8
0
  6
Continuous
 62
     7
100
AcDbLine
 10
224.7437047892
 20
381.4773717094
 30
0.0
 11
228.4283264033
 21
381.4773717094
 31
0.0
  0
LINE
  5
78
330
1F
100
AcDbEntity
  8
0
  6
Continuous
 62
     7
100
AcDbLine
 10
210.8783264033
 20
385.4292636973
 30
0.0
 11
212.5283264033
 21
385.4292636973
 31
0.0
  0
LINE
  5
79
330
1F
100
AcDbEntity
  8
0
  6
Continuous
 62
     7
100
AcDbLine
 10
220.3408264033
 20
385.6643816358
 30
0.0
 11
222.6658264033
 21
385.6643816358
 31
0.0
  0
LINE
  5
7A
330
1F
100
AcDbEntity
  8
0
  6
Continuous
 62
     7
100
AcDbLine
 10
110.5036093977
 20
399.6163713529
 30
0.0
 11
209.8386440701
 21
385.1506816557
 31
0.0
  0
LINE
  5
7B
330
1F
100
AcDbEntity
  8
0
  6
Continuous
 62
     9
100
AcDbLine
 10
229.4283264033
 20
388.4042636973
 30
0.0
 11
213.5283264033
 21
388.4042636973
 31
0.0
  0
LINE
  5
7C
330
1F
100
AcDbEntity
  8
0
  6
Continuous
 62
     7
100
AcDbLine
 10
213.5283264033
 20
390.1542636973
 30
0.0
 11
229.4283264033
 21
390.1542636973
 31
0.0
  0
LINE
  5
7D
330
1F
100
AcDbEntity
  8
RUNDUNGEN
  6
Continuous
 62
     7
100
AcDbLine
 10
276.5605594504
 20
406.0042636973
 30
0.0
 11
263.7783264033
 21
406.0042636973
 31
0.0
  0
LINE
  5
7E
330
1F
100
AcDbEntity
  8
0
  6
Continuous
 62
     7
100
AcDbLine
 10
235.4283264033
 20
406.0042636973
 30
0.0
 11
252.314112841
 21
406.0042636973
 31
0.0
  0
LINE
  5
7F
330
1F
100
AcDbEntity
  8
0
  6
Continuous
 62
     7
100
AcDbLine
 10
263.7783264033
 20
406.0042636973
 30
0.0
 11
276.5605594504
 21
406.0042636973
 31
0.0
  0
LINE
  5
80
330
1F
100
AcDbEntity
  8
0
  6
Continuous
 62
     7
100
AcDbLine
 10
269.5283264033
 20
406.0265660968
 30
0.0
 11
276.5605594504
 21
406.0265660968
 31
0.0
  0
LINE
  5
81
330
1F
100
AcDbEntity
  8
0
  6
Continuous
 62
     7
100
AcDbLine
 10
213.5283264033
 20
407.1042636973
 30
0.0
 11
229.4283264033
 21
407.1042636973
 31
0.0
  0
LINE
  5
82
330
1F
100
AcDbEntity
  8
0
  6
Continuous
 62
     9
100
AcDbLine
 10
229.4283264033
 20
408.8542636973
 30
0.0
 11
213.5283264033
 21
408.8542636973
 31
0.0
  0
LINE
  5
83
330
1F
100
AcDbEntity
  8
0
  6
Continuous
 62
     7
100
AcDbLine
 10
256.1425399657
 20
409.0042636973
 30
0.0
 11
262.5283264033
 21
409.0042636973
 31
0.0
  0
LWPOLYLINE
  5
84
330
1F
100
AcDbEntity
  8
DEFAULT_2
  6
DASHED
 62
     8
100
AcDbPolyline
 90
        2
 70
     0
 43
0.35
 10
262.5283264033
 20
409.0042636973
 10
269.7283264033
 20
409.0042636973
  0
LINE
  5
85
330
1F
100
AcDbEntity
  8
0
  6
Continuous
 62
     7
100
AcDbLine
 10
269.5283264033
 20
412.3313262032
 30
0.0
 11
276.5605594504
 21
412.3313262032
 31
0.0
  0
LINE
  5
86
330
1F
100
AcDbEntity
  8
0
  6
Continuous
 62
     7
100
AcDbLine
 10
269.5283264033
 20
413.6995035908
 30
0.0
 11
276.5605594504
 21
413.6995035908
 31
0.0
  0
LWPOLYLINE
  5
87
330
1F
100
AcDbEntity
  8
DEFAULT_2
  6
DASHED
 62
     8
100
AcDbPolyline
 90
        2
 70
     0
 43
0.35
 10
250.1610596668
 20
425.2542636973
 10
269.7283264033
 20
428.0042636973
  0
LWPOLYLINE
  5
88
330
1F
100
AcDbEntity
  8
DEFAULT_2
  6
DASHED
 62
     8
100
AcDbPolyline
 90
        2
 70
     0
 43
0.35
 10
242.7283264033
 20
414.7542636973
 10
250.1610596668
 20
414.7542636973
  0
LWPOLYLINE
  5
89
330
1F
100
AcDbEntity
  8
TEIL_STARTBEZUEGE
  6
DOT_CENTER
 62
     7
100
AcDbPolyline
 90
        2
 70
     0
 43
0.25
 10
284.8741056461
 20
420.0042636973
 10
105.5783264033
 20
420.0042636973
  0
LINE
  5
8A
330
1F
100
AcDbEntity
  8
0
  6
Continuous
 62
     7
100
AcDbLine
 10
223.4158264033
 20
466.4418108668
 30
0.0
 11
224.7437047892
 21
468.7417636973
 31
0.0
  0
LWPOLYLINE
  5
8B
330
1F
100
AcDbEntity
  8
DEFAULT_2
  6
DASHED
 62
     8
100
AcDbPolyline
 90
        2
 70
     0
 43
0.35
 10
242.7283264033
 20
425.2542636973
 10
250.1610596668
 20
425.2542636973
  0
LINE
  5
8C
330
1F
100
AcDbEntity
  8
0
  6
Continuous
 62
     7
100
AcDbLine
 10
269.5283264033
 20
426.3090238037
 30
0.0
 11
276.5605594504
 21
426.3090238037
 31
0.0
  0
LWPOLYLINE
  5
8D
330
1F
100
AcDbEntity
  8
DEFAULT_2
  6
DASHED
 62
     8
100
AcDbPolyline
 90
        2
 70
     0
 43
0.35
 10
250.1610596668
 20
414.7542636973
 10
269.7283264033
 20
412.0042636973
  0
LINE
  5
8E
330
1F
100
AcDbEntity
  8
0
  6
Continuous
 62
     7
100
AcDbLine
 10
223.4158264033
 20
373.5667165278
 30
0.0
 11
224.7437047892
 21
371.2667636973
 31
0.0
  0
LINE
  5
8F
330
1F
100
AcDbEntity
  8
0
  6
Continuous
 62
     7
100
AcDbLine
 10
269.5283264033
 20
427.6772011914
 30
0.0
 11
276.5605594504
 21
427.6772011914
 31
0.0
  0
LINE
  5
90
330
1F
100
AcDbEntity
  8
0
  6
Continuous
 62
     7
100
AcDbLine
 10
256.1425399657
 20
431.0042636973
 30
0.0
 11
262.5283264033
 21
431.0042636973
 31
0.0
  0
LWPOLYLINE
  5
91
330
1F
100
AcDbEntity
  8
DEFAULT_2
  6
DASHED
 62
     8
100
AcDbPolyline
 90
        2
 70
     0
 43
0.35
 10
262.5283264033
 20
431.0042636973
 10
269.7283264033
 20
431.0042636973
  0
LINE
  5
92
330
1F
100
AcDbEntity
  8
0
  6
Continuous
 62
     9
100
AcDbLine
 10
229.4283264033
 20
431.1542636973
 30
0.0
 11
213.5283264033
 21
431.1542636973
 31
0.0
  0
LINE
  5
93
330
1F
100
AcDbEntity
  8
0
  6
Continuous
 62
     7
100
AcDbLine
 10
213.5283264033
 20
432.9042636973
 30
0.0
 11
229.4283264033
 21
432.9042636973
 31
0.0
  0
LINE
  5
94
330
1F
100
AcDbEntity
  8
0
  6
Continuous
 62
     7
100
AcDbLine
 10
269.5283264033
 20
433.9819612978
 30
0.0
 11
276.5605594504
 21
433.9819612978
 31
0.0
  0
LINE
  5
95
330
1F
100
AcDbEntity
  8
0
  6
Continuous
 62
     7
100
AcDbLine
 10
235.4283264033
 20
434.0042636973
 30
0.0
 11
252.314112841
 21
434.0042636973
 31
0.0
  0
LINE
  5
96
330
1F
100
AcDbEntity
  8
0
  6
Continuous
 62
     7
100
AcDbLine
 10
263.7783264033
 20
434.0042636973
 30
0.0
 11
276.5605594504
 21
434.0042636973
 31
0.0
  0
LINE
  5
97
330
1F
100
AcDbEntity
  8
0
  6
Continuous
 62
     7
100
AcDbLine
 10
209.8386440701
 20
385.1506816557
 30
0.0
 11
209.8386440701
 21
454.8578457389
 31
0.0
  0
LWPOLYLINE
  5
98
330
1F
100
AcDbEntity
  8
BG_STARTBEZUEGE
  6
DOT_CENTER
 62
     7
100
AcDbPolyline
 90
        2
 70
     0
 43
0.25
 10
210.3283264033
 20
461.2857873204
 10
210.3283264033
 20
376.406130668
  0
LINE
  5
99
330
1F
100
AcDbEntity
  8
0
  6
Continuous
 62
     7
100
AcDbLine
 10
210.8783264033
 20
385.4292636973
 30
0.0
 11
210.8783264033
 21
454.5792636973
 31
0.0
  0
LINE
  5
9A
330
1F
100
AcDbEntity
  8
0
  6
Continuous
 62
     9
100
AcDbLine
 10
212.5283264033
 20
385.4292636973
 30
0.0
 11
212.5283264033
 21
454.5792636973
 31
0.0
  0
LINE
  5
9B
330
1F
100
AcDbEntity
  8
0
  6
Continuous
 62
     7
100
AcDbLine
 10
213.5283264033
 20
372.2667636973
 30
0.0
 11
213.5283264033
 21
467.7415816687
 31
0.0
  0
LINE
  5
9C
330
1F
100
AcDbEntity
  8
0
  6
Continuous
 62
     9
100
AcDbLine
 10
214.5283264033
 20
468.7417636973
 30
0.0
 11
214.5283264033
 21
432.9042636973
 31
0.0
  0
LINE
  5
9D
330
1F
100
AcDbEntity
  8
0
  6
Continuous
 62
     9
100
AcDbLine
 10
214.5283264033
 20
371.2667636973
 30
0.0
 11
214.5283264033
 21
381.4773717094
 31
0.0
  0
LINE
  5
9E
330
1F
100
AcDbEntity
  8
0
  6
Continuous
 62
     9
100
AcDbLine
 10
214.5283264033
 20
390.1542636973
 30
0.0
 11
214.5283264033
 21
407.1042636973
 31
0.0
  0
LINE
  5
9F
330
1F
100
AcDbEntity
  8
0
  6
Continuous
 62
     7
100
AcDbLine
 10
218.2629480175
 20
468.7417636973
 30
0.0
 11
218.2629480175
 21
432.9042636973
 31
0.0
  0
LINE
  5
A0
330
1F
100
AcDbEntity
  8
0
  6
Continuous
 62
     7
100
AcDbLine
 10
218.2629480175
 20
407.1042636973
 30
0.0
 11
218.2629480175
 21
390.1542636973
 31
0.0
  0
LINE
  5
A1
330
1F
100
AcDbEntity
  8
0
  6
Continuous
 62
     7
100
AcDbLine
 10
218.2629480175
 20
381.4773717094
 30
0.0
 11
218.2629480175
 21
371.2667636973
 31
0.0
  0
LINE
  5
A2
330
1F
100
AcDbEntity
  8
0
  6
Continuous
 62
     7
100
AcDbLine
 10
219.5908264033
 20
466.4416390951
 30
0.0
 11
219.5908264033
 21
432.9042636973
 31
0.0
  0
LINE
  5
A3
330
1F
100
AcDbEntity
  8
0
  6
Continuous
 62
     7
100
AcDbLine
 10
219.5908264033
 20
373.56684011
 30
0.0
 11
219.5908264033
 21
384.676654098
 31
0.0
  0
LINE
  5
A4
330
1F
100
AcDbEntity
  8
0
  6
Continuous
 62
     7
100
AcDbLine
 10
219.5908264033
 20
390.1542636973
 30
0.0
 11
219.5908264033
 21
407.1042636973
 31
0.0
  0
LINE
  5
A5
330
1F
100
AcDbEntity
  8
0
  6
Continuous
 62
     9
100
AcDbLine
 10
220.3408264033
 20
465.5042636973
 30
0.0
 11
220.3408264033
 21
432.9042636973
 31
0.0
  0
LINE
  5
A6
330
1F
100
AcDbEntity
  8
0
  6
Continuous
 62
     9
100
AcDbLine
 10
220.3408264033
 20
374.5042636973
 30
0.0
 11
220.3408264033
 21
385.6643816358
 31
0.0
  0
LINE
  5
A7
330
1F
100
AcDbEntity
  8
0
  6
Continuous
 62
     9
100
AcDbLine
 10
220.3408264033
 20
390.1542636973
 30
0.0
 11
220.3408264033
 21
407.1042636973
 31
0.0
  0
LINE
  5
A8
330
1F
100
AcDbEntity
  8
0
  6
Continuous
 62
     9
100
AcDbLine
 10
222.6658264033
 20
465.5042636973
 30
0.0
 11
222.6658264033
 21
432.9042636973
 31
0.0
  0
LINE
  5
A9
330
1F
100
AcDbEntity
  8
0
  6
Continuous
 62
     9
100
AcDbLine
 10
222.6658264033
 20
374.5042636973
 30
0.0
 11
222.6658264033
 21
385.6643816358
 31
0.0
  0
LINE
  5
AA
330
1F
100
AcDbEntity
  8
0
  6
Continuous
 62
     9
100
AcDbLine
 10
222.6658264033
 20
390.1542636973
 30
0.0
 11
222.6658264033
 21
407.1042636973
 31
0.0
  0
LINE
  5
AB
330
1F
100
AcDbEntity
  8
0
  6
Continuous
 62
     7
100
AcDbLine
 10
223.4158264033
 20
466.4416390951
 30
0.0
 11
223.4158264033
 21
432.9042636973
 31
0.0
  0
LINE
  5
AC
330
1F
100
AcDbEntity
  8
0
  6
Continuous
 62
     7
100
AcDbLine
 10
223.4158264033
 20
373.56684011
 30
0.0
 11
223.4158264033
 21
384.676654098
 31
0.0
  0
LINE
  5
AD
330
1F
100
AcDbEntity
  8
0
  6
Continuous
 62
     7
100
AcDbLine
 10
223.4158264033
 20
390.1542636973
 30
0.0
 11
223.4158264033
 21
407.1042636973
 31
0.0
  0
LINE
  5
AE
330
1F
100
AcDbEntity
  8
0
  6
Continuous
 62
     7
100
AcDbLine
 10
224.7437047892
 20
468.7417636973
 30
0.0
 11
224.7437047892
 21
432.9042636973
 31
0.0
  0
LINE
  5
AF
330
1F
100
AcDbEntity
  8
0
  6
Continuous
 62
     7
100
AcDbLine
 10
224.7437047892
 20
407.1042636973
 30
0.0
 11
224.7437047892
 21
390.1542636973
 31
0.0
  0
LINE
  5
B0
330
1F
100
AcDbEntity
  8
0
  6
Continuous
 62
     7
100
AcDbLine
 10
224.7437047892
 20
381.4773717094
 30
0.0
 11
224.7437047892
 21
371.2667636973
 31
0.0
  0
LINE
  5
B1
330
1F
100
AcDbEntity
  8
0
  6
Continuous
 62
     7
100
AcDbLine
 10
110.5036093977
 20
440.3921560417
 30
0.0
 11
209.8386440701
 21
454.8578457389
 31
0.0
  0
LINE
  5
B2
330
1F
100
AcDbEntity
  8
0
  6
Continuous
 62
     9
100
AcDbLine
 10
228.4283264033
 20
468.7417636973
 30
0.0
 11
228.4283264033
 21
432.9042636973
 31
0.0
  0
LINE
  5
B3
330
1F
100
AcDbEntity
  8
0
  6
Continuous
 62
     9
100
AcDbLine
 10
228.4283264033
 20
371.2667636973
 30
0.0
 11
228.4283264033
 21
381.4773717094
 31
0.0
  0
LINE
  5
B4
330
1F
100
AcDbEntity
  8
0
  6
Continuous
 62
     9
100
AcDbLine
 10
228.4283264033
 20
390.1542636973
 30
0.0
 11
228.4283264033
 21
407.1042636973
 31
0.0
  0
LINE
  5
B5
330
1F
100
AcDbEntity
  8
0
  6
Continuous
 62
     7
100
AcDbLine
 10
229.4283264033
 20
372.2667636973
 30
0.0
 11
229.4283264033
 21
467.7417636973
 31
0.0
  0
LINE
  5
B6
330
1F
100
AcDbEntity
  8
0
  6
Continuous
 62
     7
100
AcDbLine
 10
210.8783264033
 20
454.5792636973
 30
0.0
 11
212.5283264033
 21
454.5792636973
 31
0.0
  0
LINE
  5
B7
330
1F
100
AcDbEntity
  8
0
  6
Continuous
 62
     7
100
AcDbLine
 10
209.8386440701
 20
454.8578457389
 30
0.0
 11
210.8783264033
 21
454.5792636973
 31
0.0
  0
LINE
  5
B8
330
1F
100
AcDbEntity
  8
RUNDUNGEN
  6
Continuous
 62
     9
100
AcDbLine
 10
235.4283264033
 20
434.0042636973
 30
0.0
 11
235.4283264033
 21
406.0042636973
 31
0.0
  0
LINE
  5
B9
330
1F
100
AcDbEntity
  8
0
  6
Continuous
 62
     7
100
AcDbLine
 10
218.2629480175
 20
371.2667636973
 30
0.0
 11
219.5908264033
 21
373.5667165278
 31
0.0
  0
LINE
  5
BA
330
1F
100
AcDbEntity
  8
0
  6
Continuous
 62
     7
100
AcDbLine
 10
220.3408264033
 20
465.5042636973
 30
0.0
 11
222.6658264033
 21
465.5042636973
 31
0.0
  0
LINE
  5
BB
330
1F
100
AcDbEntity
  8
0
  6
Continuous
 62
     7
100
AcDbLine
 10
218.2629480175
 20
468.7417636973
 30
0.0
 11
219.5908264033
 21
466.4418108668
 31
0.0
  0
LWPOLYLINE
  5
BC
330
1F
100
AcDbEntity
  8
DEFAULT_2
  6
DASHED
 62
     8
100
AcDbPolyline
 90
        2
 70
     0
 43
0.35
 10
242.7283264033
 20
414.7544067969
 10
242.7283264033
 20
425.2541205977
  0
LINE
  5
BD
330
1F
100
AcDbEntity
  8
0
  6
Continuous
 62
     7
100
AcDbLine
 10
253.0212196221
 20
406.2971569161
 30
0.0
 11
255.4354331845
 21
408.7113704785
 31
0.0
  0
LINE
  5
BE
330
1F
100
AcDbEntity
  8
0
  6
Continuous
 62
     7
100
AcDbLine
 10
214.5283264033
 20
468.7417636973
 30
0.0
 11
218.2629480175
 21
468.7417636973
 31
0.0
  0
LINE
  5
BF
330
1F
100
AcDbEntity
  8
0
  6
Continuous
 62
     7
100
AcDbLine
 10
224.7437047892
 20
468.7417636973
 30
0.0
 11
228.4283264033
 21
468.7417636973
 31
0.0
  0
LINE
  5
C0
330
1F
100
AcDbEntity
  8
0
  6
Continuous
 62
     7
100
AcDbLine
 10
253.0212196221
 20
433.7113704785
 30
0.0
 11
255.4354331845
 21
431.2971569161
 31
0.0
  0
LWPOLYLINE
  5
C1
330
1F
100
AcDbEntity
  8
DEFAULT_2
  6
DASHED
 62
     8
100
AcDbPolyline
 90
        2
 70
     0
 43
0.35
 10
250.1610596668
 20
425.2542636973
 10
250.1610596668
 20
414.7542636973
  0
LINE
  5
C2
330
1F
100
AcDbEntity
  8
RUNDUNGEN
  6
Continuous
 62
     9
100
AcDbLine
 10
252.314112841
 20
406.0042636973
 30
0.0
 11
252.314112841
 21
434.0042636973
 31
0.0
  0
LINE
  5
C3
330
1F
100
AcDbEntity
  8
RUNDUNGEN
  6
Continuous
 62
     9
100
AcDbLine
 10
253.0212196221
 20
406.2971569161
 30
0.0
 11
253.0212196221
 21
433.7113704785
 31
0.0
  0
LINE
  5
C4
330
1F
100
AcDbEntity
  8
RUNDUNGEN
  6
Continuous
 62
     9
100
AcDbLine
 10
255.4354331845
 20
431.2971569161
 30
0.0
 11
255.4354331845
 21
408.7113704785
 31
0.0
  0
LINE
  5
C5
330
1F
100
AcDbEntity
  8
RUNDUNGEN
  6
Continuous
 62
     9
100
AcDbLine
 10
256.1425399657
 20
431.0042636973
 30
0.0
 11
256.1425399657
 21
409.0042636973
 31
0.0
  0
LINE
  5
C6
330
1F
100
AcDbEntity
  8
RUNDUNGEN
  6
Continuous
 62
     7
100
AcDbLine
 10
262.5283264033
 20
407.2542636973
 30
0.0
 11
262.5283264033
 21
432.7542636973
 31
0.0
  0
LINE
  5
C7
330
1F
100
AcDbEntity
  8
RUNDUNGEN
  6
Continuous
 62
     9
100
AcDbLine
 10
263.7783264033
 20
406.0042636973
 30
0.0
 11
263.7783264033
 21
434.0042636973
 31
0.0
  0
LINE
  5
C8
330
1F
100
AcDbEntity
  8
RUNDUNGEN
  6
Continuous
 62
     7
100
AcDbLine
 10
280.3283264033
 20
409.2542636973
 30
0.0
 11
277.4444429268
 21
406.3703802208
 31
0.0
  0
LINE
  5
C9
330
1F
100
AcDbEntity
  8
0
  6
Continuous
 62
     7
100
AcDbLine
 10
277.4444429268
 20
406.3703802208
 30
0.0
 11
280.3283264033
 21
409.2542636973
 31
0.0
  0
LINE
  5
CA
330
1F
100
AcDbEntity
  8
0
  6
Continuous
 62
     7
100
AcDbLine
 10
277.4444429268
 20
433.6381471738
 30
0.0
 11
280.3283264033
 21
430.7542636973
 31
0.0
  0
LINE
  5
CB
330
1F
100
AcDbEntity
  8
RUNDUNGEN
  6
Continuous
 62
     7
100
AcDbLine
 10
280.3283264033
 20
430.7542636973
 30
0.0
 11
277.4444429268
 21
433.6381471738
 31
0.0
  0
LINE
  5
CC
330
1F
100
AcDbEntity
  8
0
  6
Continuous
 62
     7
100
AcDbLine
 10
269.5283264033
 20
433.9819612978
 30
0.0
 11
269.5283264033
 21
427.6772011914
 31
0.0
  0
LINE
  5
CD
330
1F
100
AcDbEntity
  8
0
  6
Continuous
 62
     7
100
AcDbLine
 10
269.5283264033
 20
426.3090238037
 30
0.0
 11
269.5283264033
 21
413.6995035908
 31
0.0
  0
LINE
  5
CE
330
1F
100
AcDbEntity
  8
0
  6
Continuous
 62
     7
100
AcDbLine
 10
269.5283264033
 20
412.3313262032
 30
0.0
 11
269.5283264033
 21
406.0265660968
 31
0.0
  0
LWPOLYLINE
  5
CF
330
1F
100
AcDbEntity
  8
DEFAULT_2
  6
DASHED
 62
     8
100
AcDbPolyline
 90
        2
 70
     0
 43
0.35
 10
269.7283264033
 20
409.004455962
 10
269.7283264033
 20
431.0040714326
  0
LINE
  5
D0
330
1F
100
AcDbEntity
  8
0
  6
Continuous
 62
     9
100
AcDbLine
 10
276.5605594504
 20
406.0042636973
 30
0.0
 11
276.5605594504
 21
406.0265660968
 31
0.0
  0
LINE
  5
D1
330
1F
100
AcDbEntity
  8
0
  6
Continuous
 62
     9
100
AcDbLine
 10
276.5605594504
 20
412.3313262032
 30
0.0
 11
276.5605594504
 21
413.6995035908
 31
0.0
  0
LINE
  5
D2
330
1F
100
AcDbEntity
  8
0
  6
Continuous
 62
     9
100
AcDbLine
 10
276.5605594504
 20
426.3090238037
 30
0.0
 11
276.5605594504
 21
427.6772011914
 31
0.0
  0
LINE
  5
D3
330
1F
100
AcDbEntity
  8
0
  6
Continuous
 62
     9
100
AcDbLine
 10
276.5605594504
 20
433.9819612978
 30
0.0
 11
276.5605594504
 21
434.0042636973
 31
0.0
  0
LINE
  5
D4
330
1F
100
AcDbEntity
  8
0
  6
Continuous
 62
     9
100
AcDbLine
 10
277.4444429268
 20
406.3703802208
 30
0.0
 11
277.4444429268
 21
406.4571462561
 31
0.0
  0
LINE
  5
D5
330
1F
100
AcDbEntity
  8
0
  6
Continuous
 62
     9
100
AcDbLine
 10
277.4444429268
 20
411.9007460439
 30
0.0
 11
277.4444429268
 21
414.5606639094
 31
0.0
  0
LINE
  5
D6
330
1F
100
AcDbEntity
  8
0
  6
Continuous
 62
     9
100
AcDbLine
 10
277.4444429268
 20
425.4478634851
 30
0.0
 11
277.4444429268
 21
428.1077813507
 31
0.0
  0
LINE
  5
D7
330
1F
100
AcDbEntity
  8
0
  6
Continuous
 62
     9
100
AcDbLine
 10
277.4444429268
 20
433.5513811385
 30
0.0
 11
277.4444429268
 21
433.6381471738
 31
0.0
  0
LINE
  5
D8
330
1F
100
AcDbEntity
  8
0
  6
Continuous
 62
     7
100
AcDbLine
 10
280.3283264033
 20
409.2542636973
 30
0.0
 11
280.3283264033
 21
430.7542636973
 31
0.0
  0
ARC
  5
D9
330
1F
100
AcDbEntity
  8
0
  6
Continuous
 62
     7
100
AcDbCircle
 10
-32.4630497756
 20
495.9549576753
 30
0.0
 40
275.6240984709531
100
AcDbArc
 50
335.4592993178373
 51
336.1325788933
  0
ARC
  5
DA
330
1F
100
AcDbEntity
  8
0
  6
Continuous
 62
     7
100
AcDbCircle
 10
475.4697025813
 20
495.9549576748
 30
0.0
 40
275.6240984699002
100
AcDbArc
 50
203.8674211067
 51
204.5407006821545
  0
ARC
  5
DB
330
1F
100
AcDbEntity
  8
RUNDUNGEN
  6
Continuous
 62
     7
100
AcDbCircle
 10
235.4283264033
 20
440.0042636973
 30
0.0
 40
6.0
100
AcDbArc
 50
180.0
 51
270.0
  0
ARC
  5
DC
330
1F
100
AcDbEntity
  8
RUNDUNGEN
  6
Continuous
 62
     7
100
AcDbCircle
 10
235.4283264033
 20
400.0042636973
 30
0.0
 40
6.0
100
AcDbArc
 50
90.0
 51
180.0
  0
ARC
  5
DD
330
1F
100
AcDbEntity
  8
0
  6
Continuous
 62
     7
100
AcDbCircle
 10
110.8283264033
 20
401.8428166961
 30
0.0
 40
2.25
100
AcDbArc
 50
180.0
 51
261.7021731726458
  0
ARC
  5
DE
330
1F
100
AcDbEntity
  8
0
  6
Continuous
 62
     7
100
AcDbCircle
 10
110.8283264033
 20
438.1657106985
 30
0.0
 40
2.249999999996174
100
AcDbArc
 50
98.29782682735429
 51
180.0
  0
ARC
  5
DF
330
1F
100
AcDbEntity
  8
RUNDUNGEN
  6
Continuous
 62
     7
100
AcDbCircle
 10
276.5605594504
 20
432.7542636973
 30
0.0
 40
1.249999999953063
100
AcDbArc
 50
45.00000000324074
 51
90.0
  0
ARC
  5
E0
330
1F
100
AcDbEntity
  8
RUNDUNGEN
  6
Continuous
 62
     7
100
AcDbCircle
 10
276.5605594504
 20
407.2542636973
 30
0.0
 40
1.25
100
AcDbArc
 50
270.0
 51
314.9999999967574
  0
ARC
  5
E1
330
1F
100
AcDbEntity
  8
RUNDUNGEN
  6
Continuous
 62
     7
100
AcDbCircle
 10
263.7783264033
 20
432.7542636973
 30
0.0
 40
1.25
100
AcDbArc
 50
90.0
 51
180.0
  0
ARC
  5
E2
330
1F
100
AcDbEntity
  8
RUNDUNGEN
  6
Continuous
 62
     7
100
AcDbCircle
 10
263.7783264033
 20
407.2542636973
 30
0.0
 40
1.25
100
AcDbArc
 50
180.0
 51
270.0
  0
ARC
  5
E3
330
1F
100
AcDbEntity
  8
RUNDUNGEN
  6
Continuous
 62
     7
100
AcDbCircle
 10
252.314112841
 20
433.0042636973
 30
0.0
 40
0.999999999948298
100
AcDbArc
 50
45.00000000404977
 51
90.0
  0
ARC
  5
E4
330
1F
100
AcDbEntity
  8
RUNDUNGEN
  6
Continuous
 62
     7
100
AcDbCircle
 10
252.314112841
 20
407.0042636973
 30
0.0
 40
1.0
100
AcDbArc
 50
270.0
 51
314.9999999959479
  0
ARC
  5
E5
330
1F
100
AcDbEntity
  8
RUNDUNGEN
  6
Continuous
 62
     7
100
AcDbCircle
 10
256.1425399657
 20
432.0042636973
 30
0.0
 40
1.00000000001904
100
AcDbArc
 50
225.0000000000012
 51
270.0
  0
ARC
  5
E6
330
1F
100
AcDbEntity
  8
RUNDUNGEN
  6
Continuous
 62
     7
100
AcDbCircle
 10
256.1425399657
 20
408.0042636973
 30
0.0
 40
1.0
100
AcDbArc
 50
90.0
 51
135.0000000000011
  0
ARC
  5
E7
330
1F
100
AcDbEntity
  8
0
  6
Continuous
 62
     7
100
AcDbCircle
 10
212.5283264033
 20
384.4292636973
 30
0.0
 40
1.0
100
AcDbArc
 50
0.0
 51
90.0
  0
ARC
  5
E8
330
1F
100
AcDbEntity
  8
0
  6
Continuous
 62
     7
100
AcDbCircle
 10
214.5283264033
 20
372.2667636973
 30
0.0
 40
1.0
100
AcDbArc
 50
180.0
 51
270.0
  0
ARC
  5
E9
330
1F
100
AcDbEntity
  8
0
  6
Continuous
 62
     7
100
AcDbCircle
 10
228.4283264033
 20
372.2667636973
 30
0.0
 40
1.0
100
AcDbArc
 50
270.0
 51
0.0
  0
ARC
  5
EA
330
1F
100
AcDbEntity
  8
0
  6
Continuous
 62
     7
100
AcDbCircle
 10
212.5283264033
 20
455.5792636973
 30
0.0
 40
1.0
100
AcDbArc
 50
270.0
 51
0.0
  0
ARC
  5
EB
330
1F
100
AcDbEntity
  8
0
  6
Continuous
 62
     7
100
AcDbCircle
 10
228.4283264033
 20
467.7417636973
 30
0.0
 40
1.0
100
AcDbArc
 50
0.0
 51
90.0
  0
ARC
  5
EC
330
1F
100
AcDbEntity
  8
0
  6
Continuous
 62
     7
100
AcDbCircle
 10
214.5283264033
 20
467.7417636973
 30
0.0
 40
1.0
100
AcDbArc
 50
90.0
 51
180.0
  0
ARC
  5
ED
330
1F
100
AcDbEntity
  8
0
  6
Continuous
 62
     7
100
AcDbCircle
 10
222.6658264033
 20
373.7542636973
 30
0.0
 40
0.75
100
AcDbArc
 50
0.0
 51
90.0
  0
ARC
  5
EE
330
1F
100
AcDbEntity
  8
0
  6
Continuous
 62
     7
100
AcDbCircle
 10
220.3408264033
 20
373.7542636973
 30
0.0
 40
0.75
100
AcDbArc
 50
90.0
 51
180.0
  0
ARC
  5
EF
330
1F
100
AcDbEntity
  8
0
  6
Continuous
 62
     7
100
AcDbCircle
 10
222.6658264033
 20
466.2542636973
 30
0.0
 40
0.75
100
AcDbArc
 50
270.0
 51
0.0
  0
ARC
  5
F0
330
1F
100
AcDbEntity
  8
0
  6
Continuous
 62
     7
100
AcDbCircle
 10
220.3408264033
 20
466.2542636973
 30
0.0
 40
0.75
100
AcDbArc
 50
180.0
 51
270.0
  0
SPLINE
  5
F1
330
1F
100
AcDbEntity
  8
0
  6
Continuous
 62
     7
100
AcDbSpline
210
0.0
220
0.0
230
1.0
 70
     8
 71
     3
 72
    13
 73
     9
 74
     7
 42
0.0000000001
 43
0.0000000001
 44
0.00000001
 40
0.0
 40
0.0
 40
0.0
 40
0.0
 40
0.215527432636498
 40
0.4314008861201126
 40
0.5662218746809309
 40
0.7009779940535337
 40
0.8588063975145699
 40
1.016388139798406
 40
1.016388139798406
 40
1.016388139798406
 40
1.016388139798406
 10
277.4444429268
 20
428.1077813507
 30
0.0
 10
277.3966077046892
 20
428.0539278150228
 30
0.0
 10
277.3008604628932
 20
427.9461342839272
 30
0.0
 10
277.1450539023097
 20
427.8365188624181
 30
0.0
 10
277.0002346350806
 20
427.7637093197621
 30
0.0
 10
276.8655821179109
 20
427.7162648747638
 30
0.0
 10
276.7183467823803
 20
427.6836650202787
 30
0.0
 10
276.6131277994839
 20
427.679354677416
 30
0.0
 10
276.5605594504
 20
427.6772011914
 30
0.0
 11
277.4444429268
 21
428.1077813507
 31
0.0
 11
277.2952062657838
 21
427.9522805686196
 31
0.0
 11
277.1196744818703
 21
427.8266225376184
 31
0.0
 11
276.9990874372938
 21
427.7663277315666
 31
0.0
 11
276.8721047801838
 21
427.7212210081028
 31
0.0
 11
276.7177507600541
 21
427.6882871135738
 31
0.0
 11
276.5605594504
 21
427.6772011914
 31
0.0
  0
SPLINE
  5
F2
330
1F
100
AcDbEntity
  8
0
  6
Continuous
 62
     7
100
AcDbSpline
210
0.0
220
0.0
230
1.0
 70
     8
 71
     3
 72
    19
 73
    15
 74
    13
 42
0.0000000001
 43
0.0000000001
 44
0.00000001
 40
0.0
 40
0.0
 40
0.0
 40
0.0
 40
0.0817347758974558
 40
0.1636547658920205
 40
0.2454797815506666
 40
0.327265096748413
 40
0.4089294290229114
 40
0.4906100323230527
 40
0.5722196571470145
 40
0.6538277051867962
 40
0.8167607585315525
 40
0.9799185438602251
 40
1.142995920452377
 40
1.30595600697291
 40
1.30595600697291
 40
1.30595600697291
 40
1.30595600697291
 10
276.5605594504
 20
426.3090238037
 30
0.0
 10
276.5878248636549
 20
426.3078312793377
 30
0.0
 10
276.6424174746237
 20
426.3054435283082
 30
0.0
 10
276.7226040862129
 20
426.2872161170212
 30
0.0
 10
276.799733096049
 20
426.2593676009706
 30
0.0
 10
276.872816201462
 20
426.222271837288
 30
0.0
 10
276.9413877280204
 20
426.177591266569
 30
0.0
 10
277.0053555765892
 20
426.1266759548859
 30
0.0
 10
277.0649355004702
 20
426.0707539723422
 30
0.0
 10
277.1387080389065
 20
425.9908002853307
 30
0.0
 10
277.2213812229755
 20
425.8825227643725
 30
0.0
 10
277.306772934944
 20
425.7434101708524
 30
0.0
 10
277.3816212312275
 20
425.5983252661658
 30
0.0
 10
277.4235073843754
 20
425.4980053822912
 30
0.0
 10
277.4444429268
 20
425.4478634851
 30
0.0
 11
276.5605594504
 21
426.3090238037
 31
0.0
 11
276.6420727430996
 21
426.3030107591907
 31
0.0
 11
276.7221219814086
 21
426.2856037431666
 31
0.0
 11
276.7990839344273
 21
426.2578154187284
 31
0.0
 11
276.872106254398
 21
426.2209836584108
 31
0.0
 11
276.9406240444207
 21
426.1765497117456
 31
0.0
 11
277.0046444967437
 21
426.1258239526105
 31
0.0
 11
277.0642384078682
 21
426.0700682657185
 31
0.0
 11
277.1196754160187
 21
426.0101799393754
 31
0.0
 11
277.2190386675161
 21
425.8810516151235
 31
0.0
 11
277.3050275160591
 21
425.7423923895393
 31
0.0
 11
277.3796381061576
 21
425.5973838015132
 31
0.0
 11
277.4444429268
 21
425.4478634851
 31
0.0
  0
SPLINE
  5
F3
330
1F
100
AcDbEntity
  8
0
  6
Continuous
 62
     7
100
AcDbSpline
210
0.0
220
0.0
230
1.0
 70
     8
 71
     3
 72
    23
 73
    19
 74
    17
 42
0.0000000001
 43
0.0000000001
 44
0.00000001
 40
0.0
 40
0.0
 40
0.0
 40
0.0
 40
0.4045796683722508
 40
0.8092579138347707
 40
1.192148523295194
 40
1.575003113750279
 40
1.938545534890266
 40
2.30200565426502
 40
2.653694253971956
 40
3.005361369096786
 40
3.357028596485992
 40
3.708717297728006
 40
4.072176790126949
 40
4.435718602164261
 40
4.818572840246594
 40
5.201463089231166
 40
5.606141105601096
 40
6.010720543411788
 40
6.010720543411788
 40
6.010720543411788
 40
6.010720543411788
 10
277.4444429268
 20
411.9007460439
 30
0.0
 10
277.5271822057705
 20
411.7942110421436
 30
0.0
 10
277.6926809233932
 20
411.5811150810472
 30
0.0
 10
277.9142526380749
 20
411.2508216334589
 30
0.0
 10
278.1112479447728
 20
410.9137593655797
 30
0.0
 10
278.2760534374647
 20
410.5748372814843
 30
0.0
 10
278.4091258641299
 20
410.229139184268
 30
0.0
 10
278.5059436704984
 20
409.8821910044113
 30
0.0
 10
278.5646820227488
 20
409.5307854172762
 30
0.0
 10
278.5847732297784
 20
409.1789449444108
 30
0.0
 10
278.5646821951436
 20
408.8271044244757
 30
0.0
 10
278.5059438381812
 20
408.4756989647695
 30
0.0
 10
278.4091257274557
 20
408.1287512535329
 30
0.0
 10
278.2760530214665
 20
407.7830538360458
 30
0.0
 10
278.1112474577053
 20
407.4441322837879
 30
0.0
 10
277.9142522161367
 20
407.1070703475241
 30
0.0
 10
277.6926807382681
 20
406.7767770724284
 30
0.0
 10
277.5271821439631
 20
406.5636812088851
 30
0.0
 10
277.4444429268
 20
406.4571462561
 30
0.0
 11
277.4444429268
 21
411.9007460439
 31
0.0
 11
277.688889000951
 21
411.5783630032599
 31
0.0
 11
277.9146531938592
 21
411.2425133173123
 31
0.0
 11
278.106970490633
 21
410.9114252985399
 31
0.0
 11
278.2737586420917
 21
410.5668105136489
 31
0.0
 11
278.4036555078086
 21
410.2272668548283
 31
0.0
 11
278.5005912423578
 21
409.8769716625357
 31
0.0
 11
278.5583497825656
 21
409.5300583849044
 31
0.0
 11
278.578076325846
 21
409.1789449796485
 31
0.0
 11
278.5583499190549
 21
408.8278314542828
 31
0.0
 11
278.5005913016851
 21
408.4809180865657
 31
0.0
 11
278.4036553738644
 21
408.1306235982955
 31
0.0
 11
278.2737583081166
 21
407.7910806681534
 31
0.0
 11
278.1069700357586
 21
407.4464663332492
 31
0.0
 11
277.914652827511
 21
407.1153786799317
 31
0.0
 11
277.6888888106956
 21
406.7795291516538
 31
0.0
 11
277.4444429268
 21
406.4571462561
 31
0.0
  0
SPLINE
  5
F4
330
1F
100
AcDbEntity
  8
0
  6
Continuous
 62
     7
100
AcDbSpline
210
0.0
220
0.0
230
1.0
 70
     8
 71
     3
 72
    19
 73
    15
 74
    13
 42
0.0000000001
 43
0.0000000001
 44
0.00000001
 40
0.0
 40
0.0
 40
0.0
 40
0.0
 40
1.398113192453265
 40
2.796206055110166
 40
3.495623481875917
 40
4.194871600771229
 40
4.894208814748909
 40
5.59360592177499
 40
6.293003243681899
 40
6.992340665310198
 40
7.691587395639066
 40
8.391003447571372
 40
9.789095198808237
 40
11.18720725146985
 40
11.18720725146985
 40
11.18720725146985
 40
11.18720725146985
 10
277.4444429268
 20
425.4478634851
 30
0.0
 10
277.6086363253686
 20
425.01148065074
 30
0.0
 10
277.9370207349893
 20
424.1387213274104
 30
0.0
 10
278.2349871441115
 20
423.0097925577485
 30
0.0
 10
278.4110081320129
 20
422.0940825230863
 30
0.0
 10
278.5068832809437
 20
421.4009765845791
 30
0.0
 10
278.5650230128657
 20
420.7037288472188
 30
0.0
 10
278.5846032135098
 20
420.0042612860767
 30
0.0
 10
278.5650232060823
 20
419.3047936483384
 30
0.0
 10
278.5068834628194
 20
418.6075462276744
 30
0.0
 10
278.4110079775575
 20
417.9144411913094
 30
0.0
 10
278.2349865715424
 20
416.9987325563544
 30
0.0
 10
277.9370202814064
 20
415.8698050293261
 30
0.0
 10
277.6086361730636
 20
414.9970463948871
 30
0.0
 10
277.4444429268
 20
414.5606639094
 30
0.0
 11
277.4444429268
 21
425.4478634851
 31
0.0
 11
277.9145137365466
 21
424.1311425834903
 31
0.0
 11
278.2737586419438
 21
422.7799924250851
 31
0.0
 11
278.4049893571428
 21
422.0929966199654
 31
0.0
 11
278.500591242335
 21
421.4003147223195
 31
0.0
 11
278.5585947182262
 21
420.7033870821455
 31
0.0
 11
278.5780763258427
 21
420.0042613564844
 31
0.0
 11
278.558594870492
 21
419.3051354116161
 31
0.0
 11
278.5005913017549
 21
418.6082075708008
 31
0.0
 11
278.404989208137
 21
417.9155271036506
 31
0.0
 11
278.2737583081313
 21
417.228532733525
 31
0.0
 11
277.9145133454507
 21
415.8773837403842
 31
0.0
 11
277.4444429268
 21
414.5606639094
 31
0.0
  0
SPLINE
  5
F5
330
1F
100
AcDbEntity
  8
0
  6
Continuous
 62
     7
100
AcDbSpline
210
0.0
220
0.0
230
1.0
 70
     8
 71
     3
 72
    23
 73
    19
 74
    17
 42
0.0000000001
 43
0.0000000001
 44
0.00000001
 40
0.0
 40
0.0
 40
0.0
 40
0.0
 40
0.4045796683722055
 40
0.8092579138347726
 40
1.192148523295196
 40
1.575003113750281
 40
1.938545534890215
 40
2.302005654264969
 40
2.653694253971961
 40
3.005361369096734
 40
3.357028596485997
 40
3.708717297727954
 40
4.072176790126953
 40
4.435718602164318
 40
4.8185728402466
 40
5.201463089231122
 40
5.606141105601052
 40
6.010720543411744
 40
6.010720543411744
 40
6.010720543411744
 40
6.010720543411744
 10
277.4444429268
 20
433.5513811385
 30
0.0
 10
277.5271822057704
 20
433.4448461367436
 30
0.0
 10
277.6926809233931
 20
433.2317501756472
 30
0.0
 10
277.9142526380749
 20
432.9014567280589
 30
0.0
 10
278.1112479447728
 20
432.5643944601798
 30
0.0
 10
278.2760534374647
 20
432.2254723760843
 30
0.0
 10
278.4091258641299
 20
431.879774278868
 30
0.0
 10
278.5059436704985
 20
431.5328260990113
 30
0.0
 10
278.5646820227487
 20
431.1814205118762
 30
0.0
 10
278.5847732297784
 20
430.8295800390106
 30
0.0
 10
278.5646821951435
 20
430.4777395190758
 30
0.0
 10
278.5059438381812
 20
430.1263340593695
 30
0.0
 10
278.4091257274557
 20
429.7793863481328
 30
0.0
 10
278.2760530214666
 20
429.4336889306459
 30
0.0
 10
278.1112474577052
 20
429.0947673783878
 30
0.0
 10
277.9142522161367
 20
428.7577054421242
 30
0.0
 10
277.6926807382681
 20
428.4274121670285
 30
0.0
 10
277.5271821439632
 20
428.2143163034851
 30
0.0
 10
277.4444429268
 20
428.1077813507
 30
0.0
 11
277.4444429268
 21
433.5513811385
 31
0.0
 11
277.688889000951
 21
433.22899809786
 31
0.0
 11
277.9146531938592
 21
432.8931484119123
 31
0.0
 11
278.106970490633
 21
432.5620603931399
 31
0.0
 11
278.2737586420917
 21
432.2174456082489
 31
0.0
 11
278.4036555078086
 21
431.8779019494283
 31
0.0
 11
278.5005912423578
 21
431.5276067571357
 31
0.0
 11
278.5583497825656
 21
431.1806934795044
 31
0.0
 11
278.578076325846
 21
430.8295800742485
 31
0.0
 11
278.5583499190549
 21
430.4784665488827
 31
0.0
 11
278.5005913016851
 21
430.1315531811657
 31
0.0
 11
278.4036553738644
 21
429.7812586928955
 31
0.0
 11
278.2737583081166
 21
429.4417157627533
 31
0.0
 11
278.1069700357586
 21
429.0971014278492
 31
0.0
 11
277.914652827511
 21
428.7660137745318
 31
0.0
 11
277.6888888106956
 21
428.4301642462539
 31
0.0
 11
277.4444429268
 21
428.1077813507
 31
0.0
  0
SPLINE
  5
F6
330
1F
100
AcDbEntity
  8
0
  6
Continuous
 62
     7
100
AcDbSpline
210
0.0
220
0.0
230
1.0
 70
     8
 71
     3
 72
    13
 73
     9
 74
     7
 42
0.0000000001
 43
0.0000000001
 44
0.00000001
 40
0.0
 40
0.0
 40
0.0
 40
0.0
 40
0.2155274326388235
 40
0.4314008861409065
 40
0.5662218747256206
 40
0.7009779941070079
 40
0.858806397534677
 40
1.016388139790616
 40
1.016388139790616
 40
1.016388139790616
 40
1.016388139790616
 10
277.4444429268
 20
406.4571462561
 30
0.0
 10
277.3966077046886
 20
406.4032927204221
 30
0.0
 10
277.3008604628877
 20
406.2954991893213
 30
0.0
 10
277.1450539022837
 20
406.1858837678133
 30
0.0
 10
277.0002346350315
 20
406.1130742251654
 30
0.0
 10
276.8655821178619
 20
406.0656297801699
 30
0.0
 10
276.7183467823509
 20
406.0330299256775
 30
0.0
 10
276.6131277994747
 20
406.0287195828156
 30
0.0
 10
276.5605594504
 20
406.0265660968
 30
0.0
 11
277.4444429268
 21
406.4571462561
 31
0.0
 11
277.2952062657806
 21
406.3016454740194
 31
0.0
 11
277.1196744818443
 21
406.1759874430184
 31
0.0
 11
276.9990874372411
 21
406.1156926369666
 31
0.0
 11
276.8721047801217
 21
406.0705859135028
 31
0.0
 11
276.7177507600261
 21
406.0376520189739
 31
0.0
 11
276.5605594504
 21
406.0265660968
 31
0.0
  0
SPLINE
  5
F7
330
1F
100
AcDbEntity
  8
0
  6
Continuous
 62
     7
100
AcDbSpline
210
0.0
220
0.0
230
1.0
 70
     8
 71
     3
 72
    13
 73
     9
 74
     7
 42
0.0000000001
 43
0.0000000001
 44
0.00000001
 40
0.0
 40
0.0
 40
0.0
 40
0.0
 40
0.1575825051339071
 40
0.3154116525251118
 40
0.4501675780427989
 40
0.5849883928850195
 40
0.8008613044980557
 40
1.016388169298651
 40
1.016388169298651
 40
1.016388169298651
 40
1.016388169298651
 10
276.5605594504
 20
433.9819612978
 30
0.0
 10
276.6131280543185
 20
433.9798078153402
 30
0.0
 10
276.718347540573
 20
433.9754974798702
 30
0.0
 10
276.8655833128102
 20
433.9428975042159
 30
0.0
 10
277.0002358546138
 20
433.8954527332542
 30
0.0
 10
277.1450546886221
 20
433.8226430163184
 30
0.0
 10
277.3008608204289
 20
433.7130277722239
 30
0.0
 10
277.3966078257914
 20
433.6052345276673
 30
0.0
 10
277.4444429268
 20
433.5513811385
 30
0.0
 11
276.5605594504
 21
433.9819612978
 31
0.0
 11
276.7177515231369
 21
433.9708753520599
 31
0.0
 11
276.8721062543618
 21
433.9379412251589
 31
0.0
 11
276.9990886445401
 21
433.8928343293809
 31
0.0
 11
277.1196754160529
 21
433.8325393656539
 31
0.0
 11
277.2952066613877
 21
433.7068815132152
 31
0.0
 11
277.4444429268
 21
433.5513811385
 31
0.0
  0
SPLINE
  5
F8
330
1F
100
AcDbEntity
  8
0
  6
Continuous
 62
     7
100
AcDbSpline
210
0.0
220
0.0
230
1.0
 70
     8
 71
     3
 72
    19
 73
    15
 74
    13
 42
0.0000000001
 43
0.0000000001
 44
0.00000001
 40
0.0
 40
0.0
 40
0.0
 40
0.0
 40
0.1629604597869614
 40
0.3260382021530389
 40
0.4891963539234526
 40
0.6521298047268032
 40
0.7337380768171291
 40
0.8153478915682485
 40
0.8970282629286899
 40
0.9786924259957331
 40
1.060477265136828
 40
1.142301714351533
 40
1.224221473948307
 40
1.305956089244091
 40
1.305956089244091
 40
1.305956089244091
 40
1.305956089244091
 10
277.4444429268
 20
414.5606639094
 30
0.0
 10
277.4235073379261
 20
414.5105218967174
 30
0.0
 10
277.3816210928432
 20
414.4102017841652
 30
0.0
 10
277.3067726088272
 20
414.2651165594775
 30
0.0
 10
277.2213806090036
 20
414.1260036977681
 30
0.0
 10
277.1387071492113
 20
414.0177259747564
 30
0.0
 10
277.0649344019315
 20
413.9377721115439
 30
0.0
 10
277.0053543064994
 20
413.8818502112325
 30
0.0
 10
276.9413861957188
 20
413.8309353340476
 30
0.0
 10
276.8728147532969
 20
413.7862552049362
 30
0.0
 10
276.7997322054587
 20
413.749159286335
 30
0.0
 10
276.7226037040371
 20
413.7213105330189
 30
0.0
 10
276.6424172912215
 20
413.7030836293405
 30
0.0
 10
276.5878248102817
 20
413.7006960366088
 30
0.0
 10
276.5605594504
 20
413.6995035908
 30
0.0
 11
277.4444429268
 21
414.5606639094
 31
0.0
 11
277.3796379583379
 21
414.4111432502368
 31
0.0
 11
277.3050271740984
 21
414.2661343507499
 31
0.0
 11
277.2190380540003
 21
414.127474862384
 31
0.0
 11
277.1196744818331
 21
413.9983462833751
 31
0.0
 11
277.064237281512
 21
413.938457829612
 31
0.0
 11
277.0046430888298
 21
413.8827021656642
 31
0.0
 11
276.9406225569794
 21
413.8319768803799
 31
0.0
 11
276.8721047801548
 21
413.787543224347
 31
0.0
 11
276.799083005674
 21
413.7507114396357
 31
0.0
 11
276.7221216722874
 21
413.7229230670199
 31
0.0
 11
276.642072602269
 21
413.7055163613697
 31
0.0
 11
276.5605594504
 21
413.6995035908
 31
0.0
  0
SPLINE
  5
F9
330
1F
100
AcDbEntity
  8
0
  6
Continuous
 62
     7
100
AcDbSpline
210
0.0
220
0.0
230
1.0
 70
     8
 71
     3
 72
    13
 73
     9
 74
     7
 42
0.0000000001
 43
0.0000000001
 44
0.00000001
 40
0.0
 40
0.0
 40
0.0
 40
0.0
 40
0.1575825051339071
 40
0.3154116525250999
 40
0.450167578042806
 40
0.5849883928850013
 40
0.8008613044980706
 40
1.016388169298625
 40
1.016388169298625
 40
1.016388169298625
 40
1.016388169298625
 10
276.5605594504
 20
412.3313262032
 30
0.0
 10
276.6131280543185
 20
412.3291727207402
 30
0.0
 10
276.7183475405729
 20
412.3248623852701
 30
0.0
 10
276.8655833128103
 20
412.2922624096159
 30
0.0
 10
277.0002358546138
 20
412.2448176386542
 30
0.0
 10
277.1450546886221
 20
412.1720079217182
 30
0.0
 10
277.3008608204289
 20
412.0623926776238
 30
0.0
 10
277.3966078257914
 20
411.9545994330674
 30
0.0
 10
277.4444429268
 20
411.9007460439
 30
0.0
 11
276.5605594504
 21
412.3313262032
 31
0.0
 11
276.7177515231369
 21
412.3202402574598
 31
0.0
 11
276.8721062543618
 21
412.2873061305589
 31
0.0
 11
276.9990886445401
 21
412.2421992347809
 31
0.0
 11
277.1196754160529
 21
412.1819042710539
 31
0.0
 11
277.2952066613877
 21
412.0562464186152
 31
0.0
 11
277.4444429268
 21
411.9007460439
 31
0.0
  0
SPLINE
  5
FA
330
1F
100
AcDbEntity
  8
0
  6
Continuous
 62
     7
100
AcDbSpline
210
0.0
220
0.0
230
1.0
 70
     8
 71
     3
 72
    17
 73
    13
 74
    11
 42
0.0000000001
 43
0.0000000001
 44
0.00000001
 40
0.0
 40
0.0
 40
0.0
 40
0.0
 40
0.2235602340969124
 40
0.4475666316280366
 40
0.6712655548300236
 40
0.8950713345833798
 40
1.119203328780304
 40
1.342351511418694
 40
1.454388474281371
 40
1.566418982967075
 40
1.678554291441095
 40
1.790469539397599
 40
1.790469539397599
 40
1.790469539397599
 40
1.790469539397599
 10
229.4283264033
 20
382.7504530701
 30
0.0
 10
229.4253863911442
 20
382.6758730087696
 30
0.0
 10
229.4195004993941
 20
382.5265640452542
 30
0.0
 10
229.3715428360697
 20
382.3068735267598
 30
0.0
 10
229.2942000468123
 20
382.0960493423258
 30
0.0
 10
229.1825429114804
 20
381.9006055819535
 30
0.0
 10
229.037239185052
 20
381.7287948512594
 30
0.0
 10
228.8887303979902
 20
381.6132069993135
 30
0.0
 10
228.75598477504
 20
381.5445117516259
 30
0.0
 10
228.6502971425473
 20
381.5064643998607
 30
0.0
 10
228.5403994687182
 20
381.482061652368
 30
0.0
 10
228.4656596221626
 20
381.4789339997383
 30
0.0
 10
228.4283264033
 20
381.4773717094
 30
0.0
 11
229.4283264033
 21
382.7504530701
 31
0.0
 11
229.4129968885685
 21
382.5274190273003
 31
0.0
 11
229.3666192042768
 21
382.3082661661859
 31
0.0
 11
229.2885016670975
 21
382.0986501872464
 31
0.0
 11
229.1769754388692
 21
381.9046117182044
 31
0.0
 11
229.03152311134
 21
381.7340867310646
 31
0.0
 11
228.8545771240536
 21
381.5981263361032
 31
0.0
 11
228.7550008305332
 21
381.5467761382824
 31
0.0
 11
228.6496223455253
 21
381.5087470734265
 31
0.0
 11
228.5399578165998
 21
381.4853372784232
 31
0.0
 11
228.4283264033
 21
381.4773717094
 31
0.0
  0
SPLINE
  5
FB
330
1F
100
AcDbEntity
  8
0
  6
Continuous
 62
     7
100
AcDbSpline
210
0.0
220
0.0
230
1.0
 70
     8
 71
     3
 72
    17
 73
    13
 74
    11
 42
0.0000000001
 43
0.0000000001
 44
0.00000001
 40
0.0
 40
0.0
 40
0.0
 40
0.0
 40
0.0856061207782569
 40
0.1714040658185549
 40
0.2570770785294874
 40
0.3427486324290208
 40
0.5133560119372764
 40
0.6847864607561897
 40
0.8559332498429166
 40
1.026944760364555
 40
1.198166489420914
 40
1.369069305167918
 40
1.369069305167918
 40
1.369069305167918
 40
1.369069305167918
 10
220.3408264033
 20
385.6643816358
 30
0.0
 10
220.3122670759235
 20
385.663100499891
 30
0.0
 10
220.2550844260747
 20
385.6605353573325
 30
0.0
 10
220.1712420804612
 20
385.6406628010388
 30
0.0
 10
220.0910303546143
 20
385.6098410900616
 30
0.0
 10
219.9909147656483
 20
385.5546839028437
 30
0.0
 10
219.879905193347
 20
385.4630843174996
 30
0.0
 10
219.7723918454599
 20
385.3288099676786
 30
0.0
 10
219.6899707677277
 20
385.1777913611422
 30
0.0
 10
219.6329439923514
 20
385.0159078191645
 30
0.0
 10
219.5974084174286
 20
384.8477917480504
 30
0.0
 10
219.5930190441499
 20
384.7336645199052
 30
0.0
 10
219.5908264033
 20
384.676654098
 30
0.0
 11
220.3408264033
 21
385.6643816358
 31
0.0
 11
220.2554680652845
 21
385.6578730225885
 31
0.0
 11
220.1718110341792
 21
385.6388260144303
 31
0.0
 11
220.0918505739329
 21
385.6080658144282
 31
0.0
 11
220.0167337507902
 21
385.5668702075204
 31
0.0
 11
219.8843773209833
 21
385.4592195993872
 31
0.0
 11
219.7765377938395
 21
385.3259565693764
 31
0.0
 11
219.6941780273983
 21
385.1759295975132
 31
0.0
 11
219.6365417888329
 21
385.0149233841706
 31
0.0
 11
219.6022211715708
 21
384.8471766234513
 31
0.0
 11
219.5908264033
 21
384.676654098
 31
0.0
  0
SPLINE
  5
FC
330
1F
100
AcDbEntity
  8
0
  6
Continuous
 62
     7
100
AcDbSpline
210
0.0
220
0.0
230
1.0
 70
     8
 71
     3
 72
    17
 73
    13
 74
    11
 42
0.0000000001
 43
0.0000000001
 44
0.00000001
 40
0.0
 40
0.0
 40
0.0
 40
0.0
 40
0.1709021129122426
 40
0.3421231434977814
 40
0.5131353763840066
 40
0.6842828841296235
 40
0.8557140430166191
 40
1.026322127398914
 40
1.111993247384574
 40
1.19766582128935
 40
1.283463468635744
 40
1.369069297522724
 40
1.369069297522724
 40
1.369069297522724
 40
1.369069297522724
 10
223.4158264033
 20
384.676654098
 30
0.0
 10
223.4136337751938
 20
384.7336642851822
 30
0.0
 10
223.4092444273533
 20
384.847791045336
 30
0.0
 10
223.3737090184139
 20
385.0159069097267
 30
0.0
 10
223.3166823385875
 20
385.1777907519476
 30
0.0
 10
223.2342609849135
 20
385.3288100389607
 30
0.0
 10
223.1267471057461
 20
385.4630848927403
 30
0.0
 10
223.0157371355368
 20
385.5546845326668
 30
0.0
 10
222.9156215105255
 20
385.6098415305133
 30
0.0
 10
222.8354101152339
 20
385.6406630103126
 30
0.0
 10
222.7515680860183
 20
385.6605353964068
 30
0.0
 10
222.6943856331529
 20
385.6631005128803
 30
0.0
 10
222.6658264033
 20
385.6643816358
 30
0.0
 11
223.4158264033
 21
384.676654098
 31
0.0
 11
223.4044317110803
 21
384.8471759241311
 31
0.0
 11
223.3701113597073
 21
385.0149220263106
 31
0.0
 11
223.3124750424572
 21
385.1759289787399
 31
0.0
 11
223.2301149918224
 21
385.3259566144174
 31
0.0
 11
223.1222749443816
 21
385.459220136828
 31
0.0
 11
222.9899178089319
 21
385.566870994475
 31
0.0
 11
222.9148012988256
 21
385.6080662697995
 31
0.0
 11
222.8348412117527
 21
385.6388262176986
 31
0.0
 11
222.751184453057
 21
385.6578730813434
 31
0.0
 11
222.6658264033
 21
385.6643816358
 31
0.0
  0
SPLINE
  5
FD
330
1F
100
AcDbEntity
  8
0
  6
Continuous
 62
     7
100
AcDbSpline
210
0.0
220
0.0
230
1.0
 70
     8
 71
     3
 72
    17
 73
    13
 74
    11
 42
0.0000000001
 43
0.0000000001
 44
0.00000001
 40
0.0
 40
0.0
 40
0.0
 40
0.0
 40
0.1119154476661854
 40
0.224050958653061
 40
0.336081982598139
 40
0.4481194617026264
 40
0.6712673498095636
 40
0.8953990333267804
 40
1.119204507490564
 40
1.342903129543659
 40
1.566909390283706
 40
1.790469488977725
 40
1.790469488977725
 40
1.790469488977725
 40
1.790469488977725
 10
214.5283264033
 20
381.4773717094
 30
0.0
 10
214.4909931176769
 20
381.4789340089015
 30
0.0
 10
214.4162531366647
 20
381.4820616799096
 30
0.0
 10
214.3063551772759
 20
381.5064645710399
 30
0.0
 10
214.2006671952033
 20
381.544512175058
 30
0.0
 10
214.0679214549589
 20
381.6132077375153
 30
0.0
 10
213.9194128403327
 20
381.7287957422973
 30
0.0
 10
213.7741094345263
 20
381.9006063387926
 30
0.0
 10
213.6624525385238
 20
382.0960498778884
 30
0.0
 10
213.5851098805035
 20
382.3068738438828
 30
0.0
 10
213.537152292383
 20
382.5265641814491
 30
0.0
 10
213.5312664105231
 20
382.6758730540135
 30
0.0
 10
213.5283264033
 20
382.7504530701
 30
0.0
 11
214.5283264033
 21
381.4773717094
 31
0.0
 11
214.4166947928462
 21
381.4853373213552
 31
0.0
 11
214.3070300808448
 21
381.508747228786
 31
0.0
 11
214.2016511508499
 21
381.5467765784953
 31
0.0
 11
214.1020744745263
 21
381.5981271603464
 31
0.0
 11
213.92512889333
 21
381.7340876004078
 31
0.0
 11
213.7796768942972
 21
381.904612459398
 31
0.0
 11
213.668150904264
 21
382.098650712876
 31
0.0
 11
213.5900335209378
 21
382.3082664277704
 31
0.0
 11
213.5436558951849
 21
382.5274191614524
 31
0.0
 11
213.5283264033
 21
382.7504530701
 31
0.0
  0
DIMENSION
  5
108
330
1F
100
AcDbEntity
  8
1
100
AcDbDimension
  2
*D2
 10
293.420725371112
 20
428.0042636973
 30
0.0
 11
289.670725371112
 21
419.537921882861
 31
0.0
 70
    32
  1
<>
 71
     5
 42
-1.0
 53
90.0
  3
ME10_DIM_10
100
AcDbAlignedDimension
 13
269.7283264033
 23
412.0042636973
 33
0.0
 14
269.7283264033
 24
428.0042636973
 34
0.0
 50
90.0
100
AcDbRotatedDimension
  0
DIMENSION
  5
113
330
1F
100
AcDbEntity
  8
1
100
AcDbDimension
  2
*D3
 10
301.452306552381
 20
434.0042636973
 30
0.0
 11
297.702306552381
 21
420.073360628279
 31
0.0
 70
    32
  1
<>
 71
     5
 42
-1.0
 53
90.0
  3
ME10_DIM_11
100
AcDbAlignedDimension
 13
252.314112841
 23
406.0042636973
 33
0.0
 14
252.314112841
 24
434.0042636973
 34
0.0
 50
90.0
100
AcDbRotatedDimension
  0
DIMENSION
  5
11E
330
1F
100
AcDbEntity
  8
1
100
AcDbDimension
  2
*D4
 10
269.7283264033
 20
473.047696816731
 30
0.0
 11
249.546731654451
 21
476.797696816731
 31
0.0
 70
    32
  1
<>
 71
     5
 42
-1.0
 53
0.00013888888889
  3
ME10_DIM_12
100
AcDbAlignedDimension
 13
229.4283264033
 23
467.7417636973
 33
0.0
 14
269.7283264033
 24
431.0042636973
 34
0.0
100
AcDbRotatedDimension
  0
DIMENSION
  5
129
330
1F
100
AcDbEntity
  8
1
100
AcDbDimension
  2
*D5
 10
210.3283264033
 20
480.318136840767
 30
0.0
 11
241.680353923527
 21
484.068136840767
 31
0.0
 70
    32
  1
<>
 71
     5
 42
-1.0
 53
0.00013888888889
  3
ME10_DIM_13
100
AcDbAlignedDimension
 13
269.7283264033
 23
431.0042636973
 33
0.0
 14
210.3283264033
 24
461.2857873204
 34
0.0
100
AcDbRotatedDimension
  0
DIMENSION
  5
134
330
1F
100
AcDbEntity
  8
1
100
AcDbDimension
  2
*D6
 10
210.3283264033
 20
488.303702113069
 30
0.0
 11
244.421667375212
 21
492.053702113069
 31
0.0
 70
    32
  1
<>
 71
     5
 42
-1.0
 53
0.00013888888889
  3
ME10_DIM_14
100
AcDbAlignedDimension
 13
280.3283264033
 23
430.7542636973
 33
0.0
 14
210.3283264033
 24
461.2857873204
 34
0.0
100
AcDbRotatedDimension
  0
DIMENSION
  5
13F
330
1F
100
AcDbEntity
  8
1
100
AcDbDimension
  2
*D7
 10
269.7283264033
 20
495.91353486119
 30
0.0
 11
203.2630102376326
 21
499.66353486119
 31
0.0
 70
    32
  1
<>
 71
     5
 42
-1.0
 53
0.00013888888889
  3
ME10_DIM_15
100
AcDbAlignedDimension
 13
108.5783264033
 23
438.1654978973
 33
0.0
 14
269.7283264033
 24
431.0042636973
 34
0.0
100
AcDbRotatedDimension
  0
INSERT
  5
146
330
1F
100
AcDbEntity
  8
1
100
AcDbBlockReference
  2
*D8
 10
0.0
 20
0.0
 30
0.0
  0
ENDSEC
  0
SECTION
  2
OBJECTS
  0
DICTIONARY
  5
C
330
0
100
AcDbDictionary
281
     1
  3
ACAD_GROUP
350
D
  3
ACAD_LAYOUT
350
1A
  3
ACAD_MLEADERSTYLE
350
149
  3
ACAD_MLINESTYLE
350
17
  3
ACAD_PLOTSETTINGS
350
19
  3
ACAD_PLOTSTYLENAME
350
E
  3
ACAD_SCALELIST
350
4A
  3
ACAD_VISUALSTYLE
350
2A
  3
AcDbVariableDictionary
350
147
  0
DICTIONARY
  5
D
102
{ACAD_REACTORS
330
C
102
}
330
C
100
AcDbDictionary
281
     1
  0
DICTIONARY
  5
1A
102
{ACAD_REACTORS
330
C
102
}
330
C
100
AcDbDictionary
281
     1
  3
Layout1
350
1E
  3
Layout2
350
26
  3
Model
350
22
  0
DICTIONARY
  5
149
102
{ACAD_REACTORS
330
C
102
}
330
C
100
AcDbDictionary
281
     1
  0
DICTIONARY
  5
17
102
{ACAD_REACTORS
330
C
102
}
330
C
100
AcDbDictionary
281
     1
  3
Standard
350
18
  0
DICTIONARY
  5
19
102
{ACAD_REACTORS
330
C
102
}
330
C
100
AcDbDictionary
281
     1
  0
ACDBDICTIONARYWDFLT
  5
E
102
{ACAD_REACTORS
330
C
102
}
330
C
100
AcDbDictionary
281
     1
  3
Normal
350
F
100
AcDbDictionaryWithDefault
340
F
  0
DICTIONARY
  5
4A
102
{ACAD_REACTORS
330
C
102
}
330
C
100
AcDbDictionary
281
     1
  3
A0
350
4B
  3
A1
350
4C
  3
A2
350
4D
  3
A3
350
4E
  3
A4
350
4F
  3
A5
350
50
  3
A6
350
51
  3
A7
350
52
  3
A8
350
53
  3
A9
350
54
  3
B0
350
55
  3
B1
350
56
  3
B2
350
57
  3
B3
350
58
  3
B4
350
59
  3
B5
350
5A
  3
B6
350
5B
  3
B7
350
5C
  3
B8
350
5D
  3
B9
350
5E
  3
C0
350
5F
  3
C1
350
60
  3
C2
350
61
  3
C3
350
62
  3
C4
350
63
  3
C5
350
64
  3
C6
350
65
  3
C7
350
66
  3
C8
350
67
  3
C9
350
68
  3
D0
350
69
  3
D1
350
6A
  3
D2
350
6B
  0
DICTIONARY
  5
2A
102
{ACAD_REACTORS
330
C
102
}
330
C
100
AcDbDictionary
281
     1
  3
2dWireframe
350
2F
  3
3D Hidden
350
31
  3
3dWireframe
350
30
  3
Basic
350
32
  3
Brighten
350
36
  3
ColorChange
350
3A
  3
Conceptual
350
34
  3
Dim
350
35
  3
Facepattern
350
39
  3
Flat
350
2B
  3
FlatWithEdges
350
2C
  3
Gouraud
350
2D
  3
GouraudWithEdges
350
2E
  3
Linepattern
350
38
  3
Realistic
350
33
  3
Thicken
350
37
  0
DICTIONARY
  5
147
102
{ACAD_REACTORS
330
C
102
}
330
C
100
AcDbDictionary
281
     1
  3
CANNOSCALE
350
14A
  0
LAYOUT
  5
1E
102
{ACAD_REACTORS
330
1A
102
}
330
1A
100
AcDbPlotSettings
  1

  2
none_device
  4

  6

 40
0.0
 41
0.0
 42
0.0
 43
0.0
 44
0.0
 45
0.0
 46
0.0
 47
0.0
 48
0.0
 49
0.0
140
0.0
141
0.0
142
1.0
143
1.0
 70
   688
 72
     0
 73
     0
 74
     5
  7

 75
    16
147
1.0
148
0.0
149
0.0
100
AcDbLayout
  1
Layout1
 70
     1
 71
     1
 10
0.0
 20
0.0
 11
12.0
 21
9.0
 12
0.0
 22
0.0
 32
0.0
 14
1.00000000000000E+20
 24
1.00000000000000E+20
 34
1.00000000000000E+20
 15
-1.00000000000000E+20
 25
-1.00000000000000E+20
 35
-1.00000000000000E+20
146
0.0
 13
0.0
 23
0.0
 33
0.0
 16
1.0
 26
0.0
 36
0.0
 17
0.0
 27
1.0
 37
0.0
 76
     0
330
1B
  0
LAYOUT
  5
26
102
{ACAD_REACTORS
330
1A
102
}
330
1A
100
AcDbPlotSettings
  1

  2
none_device
  4

  6

 40
0.0
 41
0.0
 42
0.0
 43
0.0
 44
0.0
 45
0.0
 46
0.0
 47
0.0
 48
0.0
 49
0.0
140
0.0
141
0.0
142
1.0
143
1.0
 70
   688
 72
     0
 73
     0
 74
     5
  7

 75
    16
147
1.0
148
0.0
149
0.0
100
AcDbLayout
  1
Layout2
 70
     1
 71
     2
 10
0.0
 20
0.0
 11
0.0
 21
0.0
 12
0.0
 22
0.0
 32
0.0
 14
0.0
 24
0.0
 34
0.0
 15
0.0
 25
0.0
 35
0.0
146
0.0
 13
0.0
 23
0.0
 33
0.0
 16
1.0
 26
0.0
 36
0.0
 17
0.0
 27
1.0
 37
0.0
 76
     0
330
23
  0
LAYOUT
  5
22
102
{ACAD_REACTORS
330
1A
102
}
330
1A
100
AcDbPlotSettings
  1

  2
none_device
  4

  6

 40
0.0
 41
0.0
 42
0.0
 43
0.0
 44
0.0
 45
0.0
 46
0.0
 47
0.0
 48
0.0
 49
0.0
140
0.0
141
0.0
142
1.0
143
1.0
 70
  1712
 72
     0
 73
     0
 74
     0
  7

 75
     0
147
1.0
148
0.0
149
0.0
100
AcDbLayout
  1
Model
 70
     1
 71
     0
 10
0.0
 20
0.0
 11
12.0
 21
9.0
 12
0.0
 22
0.0
 32
0.0
 14
88.368114642543
 24
371.2667636973
 34
0.0
 15
303.452306552381
 25
501.41353486119
 35
0.0
146
0.0
 13
0.0
 23
0.0
 33
0.0
 16
1.0
 26
0.0
 36
0.0
 17
0.0
 27
1.0
 37
0.0
 76
     0
330
1F
331
29
  0
MLINESTYLE
  5
18
102
{ACAD_REACTORS
330
17
102
}
330
17
100
AcDbMlineStyle
  2
Standard
 70
     0
  3

 62
   256
 51
90.0
 52
90.0
 71
     2
 49
0.5
 62
   256
  6
BYLAYER
 49
-0.5
 62
   256
  6
BYLAYER
  0
ACDBPLACEHOLDER
  5
F
102
{ACAD_REACTORS
330
E
102
}
330
E
  0
SCALE
  5
4B
102
{ACAD_REACTORS
330
4A
102
}
330
4A
100
AcDbScale
 70
     0
300
1:1
140
1.0
141
1.0
290
     1
  0
SCALE
  5
4C
102
{ACAD_REACTORS
330
4A
102
}
330
4A
100
AcDbScale
 70
     0
300
1:2
140
1.0
141
2.0
290
     0
  0
SCALE
  5
4D
102
{ACAD_REACTORS
330
4A
102
}
330
4A
100
AcDbScale
 70
     0
300
1:4
140
1.0
141
4.0
290
     0
  0
SCALE
  5
4E
102
{ACAD_REACTORS
330
4A
102
}
330
4A
100
AcDbScale
 70
     0
300
1:5
140
1.0
141
5.0
290
     0
  0
SCALE
  5
4F
102
{ACAD_REACTORS
330
4A
102
}
330
4A
100
AcDbScale
 70
     0
300
1:8
140
1.0
141
8.0
290
     0
  0
SCALE
  5
50
102
{ACAD_REACTORS
330
4A
102
}
330
4A
100
AcDbScale
 70
     0
300
1:10
140
1.0
141
10.0
290
     0
  0
SCALE
  5
51
102
{ACAD_REACTORS
330
4A
102
}
330
4A
100
AcDbScale
 70
     0
300
1:16
140
1.0
141
16.0
290
     0
  0
SCALE
  5
52
102
{ACAD_REACTORS
330
4A
102
}
330
4A
100
AcDbScale
 70
     0
300
1:20
140
1.0
141
20.0
290
     0
  0
SCALE
  5
53
102
{ACAD_REACTORS
330
4A
102
}
330
4A
100
AcDbScale
 70
     0
300
1:30
140
1.0
141
30.0
290
     0
  0
SCALE
  5
54
102
{ACAD_REACTORS
330
4A
102
}
330
4A
100
AcDbScale
 70
     0
300
1:40
140
1.0
141
40.0
290
     0
  0
SCALE
  5
55
102
{ACAD_REACTORS
330
4A
102
}
330
4A
100
AcDbScale
 70
     0
300
1:50
140
1.0
141
50.0
290
     0
  0
SCALE
  5
56
102
{ACAD_REACTORS
330
4A
102
}
330
4A
100
AcDbScale
 70
     0
300
1:100
140
1.0
141
100.0
290
     0
  0
SCALE
  5
57
102
{ACAD_REACTORS
330
4A
102
}
330
4A
100
AcDbScale
 70
     0
300
2:1
140
2.0
141
1.0
290
     0
  0
SCALE
  5
58
102
{ACAD_REACTORS
330
4A
102
}
330
4A
100
AcDbScale
 70
     0
300
4:1
140
4.0
141
1.0
290
     0
  0
SCALE
  5
59
102
{ACAD_REACTORS
330
4A
102
}
330
4A
100
AcDbScale
 70
     0
300
8:1
140
8.0
141
1.0
290
     0
  0
SCALE
  5
5A
102
{ACAD_REACTORS
330
4A
102
}
330
4A
100
AcDbScale
 70
     0
300
10:1
140
10.0
141
1.0
290
     0
  0
SCALE
  5
5B
102
{ACAD_REACTORS
330
4A
102
}
330
4A
100
AcDbScale
 70
     0
300
100:1
140
100.0
141
1.0
290
     0
  0
SCALE
  5
5C
102
{ACAD_REACTORS
330
4A
102
}
330
4A
100
AcDbScale
 70
     0
300
1/128" = 1'-0"
140
0.0078125
141
12.0
290
     0
  0
SCALE
  5
5D
102
{ACAD_REACTORS
330
4A
102
}
330
4A
100
AcDbScale
 70
     0
300
1/64" = 1'-0"
140
0.015625
141
12.0
290
     0
  0
SCALE
  5
5E
102
{ACAD_REACTORS
330
4A
102
}
330
4A
100
AcDbScale
 70
     0
300
1/32" = 1'-0"
140
0.03125
141
12.0
290
     0
  0
SCALE
  5
5F
102
{ACAD_REACTORS
330
4A
102
}
330
4A
100
AcDbScale
 70
     0
300
1/16" = 1'-0"
140
0.0625
141
12.0
290
     0
  0
SCALE
  5
60
102
{ACAD_REACTORS
330
4A
102
}
330
4A
100
AcDbScale
 70
     0
300
3/32" = 1'-0"
140
0.09375
141
12.0
290
     0
  0
SCALE
  5
61
102
{ACAD_REACTORS
330
4A
102
}
330
4A
100
AcDbScale
 70
     0
300
1/8" = 1'-0"
140
0.125
141
12.0
290
     0
  0
SCALE
  5
62
102
{ACAD_REACTORS
330
4A
102
}
330
4A
100
AcDbScale
 70
     0
300
3/16" = 1'-0"
140
0.1875
141
12.0
290
     0
  0
SCALE
  5
63
102
{ACAD_REACTORS
330
4A
102
}
330
4A
100
AcDbScale
 70
     0
300
1/4" = 1'-0"
140
0.25
141
12.0
290
     0
  0
SCALE
  5
64
102
{ACAD_REACTORS
330
4A
102
}
330
4A
100
AcDbScale
 70
     0
300
3/8" = 1'-0"
140
0.375
141
12.0
290
     0
  0
SCALE
  5
65
102
{ACAD_REACTORS
330
4A
102
}
330
4A
100
AcDbScale
 70
     0
300
1/2" = 1'-0"
140
0.5
141
12.0
290
     0
  0
SCALE
  5
66
102
{ACAD_REACTORS
330
4A
102
}
330
4A
100
AcDbScale
 70
     0
300
3/4" = 1'-0"
140
0.75
141
12.0
290
     0
  0
SCALE
  5
67
102
{ACAD_REACTORS
330
4A
102
}
330
4A
100
AcDbScale
 70
     0
300
1" = 1'-0"
140
1.0
141
12.0
290
     0
  0
SCALE
  5
68
102
{ACAD_REACTORS
330
4A
102
}
330
4A
100
AcDbScale
 70
     0
300
1-1/2" = 1'-0"
140
1.5
141
12.0
290
     0
  0
SCALE
  5
69
102
{ACAD_REACTORS
330
4A
102
}
330
4A
100
AcDbScale
 70
     0
300
3" = 1'-0"
140
3.0
141
12.0
290
     0
  0
SCALE
  5
6A
102
{ACAD_REACTORS
330
4A
102
}
330
4A
100
AcDbScale
 70
     0
300
6" = 1'-0"
140
6.0
141
12.0
290
     0
  0
SCALE
  5
6B
102
{ACAD_REACTORS
330
4A
102
}
330
4A
100
AcDbScale
 70
     0
300
1'-0" = 1'-0"
140
12.0
141
12.0
290
     0
  0
VISUALSTYLE
  5
2F
102
{ACAD_REACTORS
330
2A
102
}
330
2A
100
AcDbVisualStyle
  2
2dWireframe
 70
     4
 71
     0
 72
     2
 73
     0
 90
        0
 40
-0.6
 41
-30.0
 62
     5
 63
     7
 74
     1
 91
        4
 64
     7
 65
   257
 75
     1
175
     1
 42
1.0
 92
        0
 66
   257
 43
1.0
 76
     1
 77
     6
 78
     2
 67
     7
 79
     5
170
     0
171
     0
290
     0
174
     0
 93
        1
 44
0.0
173
     0
291
     0
 45
0.0
1001
ACAD
1000
AcDbSavedByObjectVersion
1070
     0
  0
VISUALSTYLE
  5
31
102
{ACAD_REACTORS
330
2A
102
}
330
2A
100
AcDbVisualStyle
  2
3D Hidden
 70
     6
 71
     1
 72
     2
 73
     2
 90
        0
 40
-0.6
 41
-30.0
 62
     5
 63
     7
 74
     2
 91
        2
 64
     7
 65
   257
 75
     2
175
     1
 42
40.0
 92
        0
 66
   257
 43
1.0
 76
     1
 77
     6
 78
     2
 67
     7
 79
     3
170
     0
171
     0
290
     0
174
     0
 93
        1
 44
0.0
173
     0
291
     0
 45
0.0
1001
ACAD
1000
AcDbSavedByObjectVersion
1070
     0
  0
VISUALSTYLE
  5
30
102
{ACAD_REACTORS
330
2A
102
}
330
2A
100
AcDbVisualStyle
  2
3dWireframe
 70
     5
 71
     0
 72
     2
 73
     0
 90
        0
 40
-0.6
 41
-30.0
 62
     5
 63
     7
 74
     1
 91
        4
 64
     7
 65
   257
 75
     1
175
     1
 42
1.0
 92
        0
 66
   257
 43
1.0
 76
     1
 77
     6
 78
     2
 67
     7
 79
     5
170
     0
171
     0
290
     0
174
     0
 93
        1
 44
0.0
173
     0
291
     0
 45
0.0
1001
ACAD
1000
AcDbSavedByObjectVersion
1070
     0
  0
VISUALSTYLE
  5
32
102
{ACAD_REACTORS
330
2A
102
}
330
2A
100
AcDbVisualStyle
  2
Basic
 70
     7
 71
     1
 72
     0
 73
     1
 90
        0
 40
-0.6
 41
-30.0
 62
     5
 63
     7
 74
     0
 91
        4
 64
     7
 65
   257
 75
     1
175
     1
 42
1.0
 92
        8
 66
     7
 43
1.0
 76
     1
 77
     6
 78
     2
 67
     7
 79
     5
170
     0
171
     0
290
     0
174
     0
 93
        1
 44
0.0
173
     0
291
     1
 45
0.0
1001
ACAD
1000
AcDbSavedByObjectVersion
1070
     0
  0
VISUALSTYLE
  5
36
102
{ACAD_REACTORS
330
2A
102
}
330
2A
100
AcDbVisualStyle
  2
Brighten
 70
    12
 71
     2
 72
     2
 73
     0
 90
        0
 40
-0.6
 41
-30.0
 62
     5
 63
     7
 74
     1
 91
        4
 64
     7
 65
   257
 75
     1
175
     1
 42
1.0
 92
        8
 66
     7
 43
1.0
 76
     1
 77
     6
 78
     2
 67
     7
 79
     5
170
     0
171
     0
290
     0
174
     0
 93
        1
 44
50.0
173
     0
291
     1
 45
0.0
1001
ACAD
1000
AcDbSavedByObjectVersion
1070
     0
  0
VISUALSTYLE
  5
3A
102
{ACAD_REACTORS
330
2A
102
}
330
2A
100
AcDbVisualStyle
  2
ColorChange
 70
    16
 71
     2
 72
     2
 73
     3
 90
        0
 40
-0.6
 41
-30.0
 62
     5
 63
     8
 74
     1
 91
        4
 64
     7
 65
   257
 75
     1
175
     1
 42
1.0
 92
        8
 66
     8
 43
1.0
 76
     1
 77
     6
 78
     2
 67
     7
 79
     5
170
     0
171
     0
290
     0
174
     0
 93
        1
 44
0.0
173
     0
291
     1
 45
0.0
1001
ACAD
1000
AcDbSavedByObjectVersion
1070
     0
  0
VISUALSTYLE
  5
34
102
{ACAD_REACTORS
330
2A
102
}
330
2A
100
AcDbVisualStyle
  2
Conceptual
 70
     9
 71
     3
 72
     2
 73
     0
 90
        0
 40
-0.6
 41
-30.0
 62
     5
 63
     7
 74
     2
 91
        2
 64
     7
 65
   257
 75
     1
175
     1
 42
40.0
 92
        8
 66
     7
 43
1.0
 76
     1
 77
     6
 78
     2
 67
     7
 79
     3
170
     0
171
     0
290
     0
174
     0
 93
        1
 44
0.0
173
     0
291
     0
 45
0.0
1001
ACAD
1000
AcDbSavedByObjectVersion
1070
     0
  0
VISUALSTYLE
  5
35
102
{ACAD_REACTORS
330
2A
102
}
330
2A
100
AcDbVisualStyle
  2
Dim
 70
    11
 71
     2
 72
     2
 73
     0
 90
        0
 40
-0.6
 41
-30.0
 62
     5
 63
     7
 74
     1
 91
        4
 64
     7
 65
   257
 75
     1
175
     1
 42
1.0
 92
        8
 66
     7
 43
1.0
 76
     1
 77
     6
 78
     2
 67
     7
 79
     5
170
     0
171
     0
290
     0
174
     0
 93
        1
 44
-50.0
173
     0
291
     1
 45
0.0
1001
ACAD
1000
AcDbSavedByObjectVersion
1070
     0
  0
VISUALSTYLE
  5
39
102
{ACAD_REACTORS
330
2A
102
}
330
2A
100
AcDbVisualStyle
  2
Facepattern
 70
    15
 71
     2
 72
     2
 73
     0
 90
        0
 40
-0.6
 41
-30.0
 62
     5
 63
     7
 74
     1
 91
        4
 64
     7
 65
   257
 75
     1
175
     1
 42
1.0
 92
        8
 66
     7
 43
1.0
 76
     1
 77
     6
 78
     2
 67
     7
 79
     5
170
     0
171
     0
290
     0
174
     0
 93
        1
 44
0.0
173
     0
291
     1
 45
0.0
1001
ACAD
1000
AcDbSavedByObjectVersion
1070
     0
  0
VISUALSTYLE
  5
2B
102
{ACAD_REACTORS
330
2A
102
}
330
2A
100
AcDbVisualStyle
  2
Flat
 70
     0
 71
     2
 72
     1
 73
     1
 90
        2
 40
-0.6
 41
30.0
 62
     5
 63
     7
 74
     0
 91
        4
 64
     7
 65
   257
 75
     1
175
     1
 42
1.0
 92
        8
 66
     7
 43
1.0
 76
     1
 77
     6
 78
     2
 67
     7
 79
     5
170
     0
171
     0
290
     0
174
     0
 93
       13
 44
0.0
173
     0
291
     1
 45
0.0
1001
ACAD
1000
AcDbSavedByObjectVersion
1070
     0
  0
VISUALSTYLE
  5
2C
102
{ACAD_REACTORS
330
2A
102
}
330
2A
100
AcDbVisualStyle
  2
FlatWithEdges
 70
     1
 71
     2
 72
     1
 73
     1
 90
        2
 40
-0.6
 41
30.0
 62
     5
 63
     7
 74
     1
 91
        4
 64
     7
 65
   257
 75
     1
175
     1
 42
1.0
 92
        0
 66
   257
 43
1.0
 76
     1
 77
     6
 78
     2
 67
     7
 79
     5
170
     0
171
     0
290
     0
174
     0
 93
       13
 44
0.0
173
     0
291
     1
 45
0.0
1001
ACAD
1000
AcDbSavedByObjectVersion
1070
     0
  0
VISUALSTYLE
  5
2D
102
{ACAD_REACTORS
330
2A
102
}
330
2A
100
AcDbVisualStyle
  2
Gouraud
 70
     2
 71
     2
 72
     2
 73
     1
 90
        2
 40
-0.6
 41
30.0
 62
     5
 63
     7
 74
     0
 91
        4
 64
     7
 65
   257
 75
     1
175
     1
 42
1.0
 92
        0
 66
     7
 43
1.0
 76
     1
 77
     6
 78
     2
 67
     7
 79
     5
170
     0
171
     0
290
     0
174
     0
 93
       13
 44
0.0
173
     0
291
     1
 45
0.0
1001
ACAD
1000
AcDbSavedByObjectVersion
1070
     0
  0
VISUALSTYLE
  5
2E
102
{ACAD_REACTORS
330
2A
102
}
330
2A
100
AcDbVisualStyle
  2
GouraudWithEdges
 70
     3
 71
     2
 72
     2
 73
     1
 90
        2
 40
-0.6
 41
30.0
 62
     5
 63
     7
 74
     1
 91
        4
 64
     7
 65
   257
 75
     1
175
     1
 42
1.0
 92
        0
 66
   257
 43
1.0
 76
     1
 77
     6
 78
     2
 67
     7
 79
     5
170
     0
171
     0
290
     0
174
     0
 93
       13
 44
0.0
173
     0
291
     1
 45
0.0
1001
ACAD
1000
AcDbSavedByObjectVersion
1070
     0
  0
VISUALSTYLE
  5
38
102
{ACAD_REACTORS
330
2A
102
}
330
2A
100
AcDbVisualStyle
  2
Linepattern
 70
    14
 71
     2
 72
     2
 73
     0
 90
        0
 40
-0.6
 41
-30.0
 62
     5
 63
     7
 74
     1
 91
        4
 64
     7
 65
   257
 75
     7
175
     7
 42
1.0
 92
        8
 66
     7
 43
1.0
 76
     1
 77
     6
 78
     2
 67
     7
 79
     5
170
     0
171
     0
290
     0
174
     0
 93
        1
 44
0.0
173
     0
291
     1
 45
0.0
1001
ACAD
1000
AcDbSavedByObjectVersion
1070
     0
  0
VISUALSTYLE
  5
33
102
{ACAD_REACTORS
330
2A
102
}
330
2A
100
AcDbVisualStyle
  2
Realistic
 70
     8
 71
     2
 72
     2
 73
     0
 90
        0
 40
-0.6
 41
-30.0
 62
     5
 63
     7
 74
     1
 91
        0
 64
     7
 65
   257
 75
     1
175
     1
 42
1.0
 92
        8
 66
     8
 43
1.0
 76
     1
 77
     6
 78
     2
 67
     7
 79
     5
170
     0
171
     0
290
     0
174
     0
 93
       13
 44
0.0
173
     0
291
     0
 45
0.0
1001
ACAD
1000
AcDbSavedByObjectVersion
1070
     0
  0
VISUALSTYLE
  5
37
102
{ACAD_REACTORS
330
2A
102
}
330
2A
100
AcDbVisualStyle
  2
Thicken
 70
    13
 71
     2
 72
     2
 73
     0
 90
        0
 40
-0.6
 41
-30.0
 62
     5
 63
     7
 74
     1
 91
        4
 64
     7
 65
   257
 75
     1
175
     1
 42
1.0
 92
       12
 66
     7
 43
1.0
 76
     1
 77
     6
 78
     2
 67
     7
 79
     5
170
     0
171
     0
290
     0
174
     0
 93
        1
 44
0.0
173
     0
291
     1
 45
0.0
1001
ACAD
1000
AcDbSavedByObjectVersion
1070
     0
  0
DICTIONARYVAR
  5
14A
102
{ACAD_REACTORS
330
147
102
}
330
147
100
DictionaryVariables
280
     0
  1
1:1
  0
ENDSEC
  0
EOF
