  0
SECTION
  2
HEADER
  9
$ACADVER
  1
AC1015
  9
$ACADMAINTVER
 70
     6
  9
$DWGCODEPAGE
  3
ANSI_1252
  9
$INSBASE
 10
0.0
 20
0.0
 30
0.0
  9
$EXTMIN
 10
-93.9953910255581
 20
-13.02699999999999
 30
0.0
  9
$EXTMAX
 10
91.5633423910158
 20
87.8142386332495
 30
0.0
  9
$LIMMIN
 10
0.0
 20
0.0
  9
$LIMMAX
 10
12.0
 20
9.0
  9
$ORTHOMODE
 70
     0
  9
$REGENMODE
 70
     1
  9
$FILLMODE
 70
     1
  9
$QTEXTMODE
 70
     0
  9
$MIRRTEXT
 70
     1
  9
$LTSCALE
 40
1.0
  9
$ATTMODE
 70
     1
  9
$TEXTSIZE
 40
0.2
  9
$TRACEWID
 40
0.05
  9
$TEXTSTYLE
  7
Standard
  9
$CLAYER
  8
0
  9
$CELTYPE
  6
ByLayer
  9
$CECOLOR
 62
   256
  9
$CELTSCALE
 40
1.0
  9
$DISPSILH
 70
     0
  9
$DIMSCALE
 40
1.0
  9
$DIMASZ
 40
0.18
  9
$DIMEXO
 40
0.0625
  9
$DIMDLI
 40
0.38
  9
$DIMRND
 40
0.0
  9
$DIMDLE
 40
0.0
  9
$DIMEXE
 40
0.18
  9
$DIMTP
 40
0.0
  9
$DIMTM
 40
0.0
  9
$DIMTXT
 40
0.18
  9
$DIMCEN
 40
0.09
  9
$DIMTSZ
 40
0.0
  9
$DIMTOL
 70
     0
  9
$DIMLIM
 70
     0
  9
$DIMTIH
 70
     1
  9
$DIMTOH
 70
     1
  9
$DIMSE1
 70
     0
  9
$DIMSE2
 70
     0
  9
$DIMTAD
 70
     0
  9
$DIMZIN
 70
     0
  9
$DIMBLK
  1

  9
$DIMASO
 70
     1
  9
$DIMSHO
 70
     1
  9
$DIMPOST
  1

  9
$DIMAPOST
  1

  9
$DIMALT
 70
     0
  9
$DIMALTD
 70
     2
  9
$DIMALTF
 40
25.4
  9
$DIMLFAC
 40
1.0
  9
$DIMTOFL
 70
     0
  9
$DIMTVP
 40
0.0
  9
$DIMTIX
 70
     0
  9
$DIMSOXD
 70
     0
  9
$DIMSAH
 70
     0
  9
$DIMBLK1
  1

  9
$DIMBLK2
  1

  9
$DIMSTYLE
  2
Standard
  9
$DIMCLRD
 70
     0
  9
$DIMCLRE
 70
     0
  9
$DIMCLRT
 70
     0
  9
$DIMTFAC
 40
1.0
  9
$DIMGAP
 40
0.09
  9
$DIMJUST
 70
     0
  9
$DIMSD1
 70
     0
  9
$DIMSD2
 70
     0
  9
$DIMTOLJ
 70
     1
  9
$DIMTZIN
 70
     0
  9
$DIMALTZ
 70
     0
  9
$DIMALTTZ
 70
     0
  9
$DIMUPT
 70
     0
  9
$DIMDEC
 70
     4
  9
$DIMTDEC
 70
     4
  9
$DIMALTU
 70
     2
  9
$DIMALTTD
 70
     2
  9
$DIMTXSTY
  7
Standard
  9
$DIMAUNIT
 70
     0
  9
$DIMADEC
 70
     0
  9
$DIMALTRND
 40
0.0
  9
$DIMAZIN
 70
     0
  9
$DIMDSEP
 70
    46
  9
$DIMATFIT
 70
     3
  9
$DIMFRAC
 70
     0
  9
$DIMLDRBLK
  1

  9
$DIMLUNIT
 70
     2
  9
$DIMLWD
 70
    -2
  9
$DIMLWE
 70
    -2
  9
$DIMTMOVE
 70
     0
  9
$LUNITS
 70
     2
  9
$LUPREC
 70
     4
  9
$SKETCHINC
 40
0.1
  9
$FILLETRAD
 40
0.5
  9
$AUNITS
 70
     0
  9
$AUPREC
 70
     0
  9
$MENU
  1
.
  9
$ELEVATION
 40
0.0
  9
$PELEVATION
 40
0.0
  9
$THICKNESS
 40
0.0
  9
$LIMCHECK
 70
     0
  9
$CHAMFERA
 40
0.5
  9
$CHAMFERB
 40
0.5
  9
$CHAMFERC
 40
1.0
  9
$CHAMFERD
 40
0.0
  9
$SKPOLY
 70
     0
  9
$TDCREATE
 40
2455954.665338206
  9
$TDUCREATE
 40
2455954.623671539
  9
$TDUPDATE
 40
2455954.665338218
  9
$TDUUPDATE
 40
2455954.623671551
  9
$TDINDWG
 40
0.0000000116
  9
$TDUSRTIMER
 40
0.0000000116
  9
$USRTIMER
 70
     1
  9
$ANGBASE
 50
0.0
  9
$ANGDIR
 70
     0
  9
$PDMODE
 70
     0
  9
$PDSIZE
 40
0.0
  9
$PLINEWID
 40
0.0
  9
$SPLFRAME
 70
     0
  9
$SPLINETYPE
 70
     6
  9
$SPLINESEGS
 70
     8
  9
$HANDSEED
  5
12A
  9
$SURFTAB1
 70
     6
  9
$SURFTAB2
 70
     6
  9
$SURFTYPE
 70
     6
  9
$SURFU
 70
     6
  9
$SURFV
 70
     6
  9
$UCSBASE
  2

  9
$UCSNAME
  2

  9
$UCSORG
 10
0.0
 20
0.0
 30
0.0
  9
$UCSXDIR
 10
1.0
 20
0.0
 30
0.0
  9
$UCSYDIR
 10
0.0
 20
1.0
 30
0.0
  9
$UCSORTHOREF
  2

  9
$UCSORTHOVIEW
 70
     0
  9
$UCSORGTOP
 10
0.0
 20
0.0
 30
0.0
  9
$UCSORGBOTTOM
 10
0.0
 20
0.0
 30
0.0
  9
$UCSORGLEFT
 10
0.0
 20
0.0
 30
0.0
  9
$UCSORGRIGHT
 10
0.0
 20
0.0
 30
0.0
  9
$UCSORGFRONT
 10
0.0
 20
0.0
 30
0.0
  9
$UCSORGBACK
 10
0.0
 20
0.0
 30
0.0
  9
$PUCSBASE
  2

  9
$PUCSNAME
  2

  9
$PUCSORG
 10
0.0
 20
0.0
 30
0.0
  9
$PUCSXDIR
 10
1.0
 20
0.0
 30
0.0
  9
$PUCSYDIR
 10
0.0
 20
1.0
 30
0.0
  9
$PUCSORTHOREF
  2

  9
$PUCSORTHOVIEW
 70
     0
  9
$PUCSORGTOP
 10
0.0
 20
0.0
 30
0.0
  9
$PUCSORGBOTTOM
 10
0.0
 20
0.0
 30
0.0
  9
$PUCSORGLEFT
 10
0.0
 20
0.0
 30
0.0
  9
$PUCSORGRIGHT
 10
0.0
 20
0.0
 30
0.0
  9
$PUCSORGFRONT
 10
0.0
 20
0.0
 30
0.0
  9
$PUCSORGBACK
 10
0.0
 20
0.0
 30
0.0
  9
$USERI1
 70
     0
  9
$USERI2
 70
     0
  9
$USERI3
 70
     0
  9
$USERI4
 70
     0
  9
$USERI5
 70
     0
  9
$USERR1
 40
16.5
  9
$USERR2
 40
0.0
  9
$USERR3
 40
0.0
  9
$USERR4
 40
0.0
  9
$USERR5
 40
0.0
  9
$WORLDVIEW
 70
     1
  9
$SHADEDGE
 70
     3
  9
$SHADEDIF
 70
    70
  9
$TILEMODE
 70
     1
  9
$MAXACTVP
 70
    64
  9
$PINSBASE
 10
0.0
 20
0.0
 30
0.0
  9
$PLIMCHECK
 70
     0
  9
$PEXTMIN
 10
1.00000000000000E+20
 20
1.00000000000000E+20
 30
1.00000000000000E+20
  9
$PEXTMAX
 10
-1.00000000000000E+20
 20
-1.00000000000000E+20
 30
-1.00000000000000E+20
  9
$PLIMMIN
 10
0.0
 20
0.0
  9
$PLIMMAX
 10
12.0
 20
9.0
  9
$UNITMODE
 70
     0
  9
$VISRETAIN
 70
     1
  9
$PLINEGEN
 70
     0
  9
$PSLTSCALE
 70
     1
  9
$TREEDEPTH
 70
  3020
  9
$CMLSTYLE
  2
Standard
  9
$CMLJUST
 70
     0
  9
$CMLSCALE
 40
1.0
  9
$PROXYGRAPHICS
 70
     1
  9
$MEASUREMENT
 70
     1
  9
$CELWEIGHT
370
    -1
  9
$ENDCAPS
280
     0
  9
$JOINSTYLE
280
     0
  9
$LWDISPLAY
290
     0
  9
$INSUNITS
 70
     1
  9
$HYPERLINKBASE
  1

  9
$STYLESHEET
  1

  9
$XEDIT
290
     1
  9
$CEPSNTYPE
380
     0
  9
$PSTYLEMODE
290
     1
  9
$FINGERPRINTGUID
  2
{7F07CE53-A3FA-41A5-8351-004B6E3E4310}
  9
$VERSIONGUID
  2
{FAEB1C32-E019-11D5-929B-00C0DF256EC4}
  9
$EXTNAMES
290
     1
  9
$PSVPSCALE
 40
0.0
  9
$OLESTARTUP
290
     0
  0
ENDSEC
  0
SECTION
  2
CLASSES
  0
CLASS
  1
ACDBDICTIONARYWDFLT
  2
AcDbDictionaryWithDefault
  3
ObjectDBX Classes
 90
        0
280
     0
281
     0
  0
CLASS
  1
VISUALSTYLE
  2
AcDbVisualStyle
  3
ObjectDBX Classes
 90
     4095
280
     0
281
     0
  0
CLASS
  1
SCALE
  2
AcDbScale
  3
ObjectDBX Classes
 90
     1153
280
     0
281
     0
  0
CLASS
  1

  2
exOdDbPolyline
  3

 90
        0
280
     0
281
     1
  0
CLASS
  1
DICTIONARYVAR
  2
AcDbDictionaryVar
  3
ObjectDBX Classes
 90
        0
280
     0
281
     0
  0
CLASS
  1
ACDBPLACEHOLDER
  2
AcDbPlaceHolder
  3
ObjectDBX Classes
 90
        0
280
     0
281
     0
  0
CLASS
  1
LAYOUT
  2
AcDbLayout
  3
ObjectDBX Classes
 90
        0
280
     0
281
     0
  0
ENDSEC
  0
SECTION
  2
TABLES
  0
TABLE
  2
VPORT
  5
8
330
0
100
AcDbSymbolTable
 70
     1
  0
VPORT
  5
29
330
8
100
AcDbSymbolTableRecord
100
AcDbViewportTableRecord
  2
*Active
 70
     0
 10
0.0
 20
0.0
 11
1.0
 21
1.0
 12
-1.21602431727116
 22
37.39361931662476
 13
0.0
 23
0.0
 14
0.5
 24
0.5
 15
0.5
 25
0.5
 16
0.0
 26
0.0
 36
1.0
 17
0.0
 27
0.0
 37
0.0
 40
127.3584175873087
 41
1.60267857142857
 42
50.0
 43
0.0
 44
0.0
 50
0.0
 51
0.0
 71
     0
 72
   100
 73
     1
 74
     3
 75
     0
 76
     0
 77
     0
 78
     0
281
     0
 65
     1
110
0.0
120
0.0
130
0.0
111
1.0
121
0.0
131
0.0
112
0.0
122
1.0
132
0.0
 79
     0
146
0.0
  0
ENDTAB
  0
TABLE
  2
LTYPE
  5
5
330
0
100
AcDbSymbolTable
 70
     8
  0
LTYPE
  5
14
330
5
100
AcDbSymbolTableRecord
100
AcDbLinetypeTableRecord
  2
ByBlock
 70
     0
  3

 72
    65
 73
     0
 40
0.0
  0
LTYPE
  5
15
330
5
100
AcDbSymbolTableRecord
100
AcDbLinetypeTableRecord
  2
ByLayer
 70
     0
  3

 72
    65
 73
     0
 40
0.0
  0
LTYPE
  5
16
330
5
100
AcDbSymbolTableRecord
100
AcDbLinetypeTableRecord
  2
Continuous
 70
     0
  3
Solid line
 72
    65
 73
     0
 40
0.0
  0
LTYPE
  5
3B
330
5
100
AcDbSymbolTableRecord
100
AcDbLinetypeTableRecord
  2
DASHED
 70
     0
  3
Dashed
 72
    65
 73
     2
 40
15.0
 49
7.0
 74
     0
 49
-8.0
 74
     0
  0
LTYPE
  5
3C
330
5
100
AcDbSymbolTableRecord
100
AcDbLinetypeTableRecord
  2
DOTTED
 70
     0
  3
Dotted
 72
    65
 73
     2
 40
1.0
 49
0.0
 74
     0
 49
-1.0
 74
     0
  0
LTYPE
  5
3D
330
5
100
AcDbSymbolTableRecord
100
AcDbLinetypeTableRecord
  2
DOT_CENTER
 70
     0
  3
Dot_Center
 72
    65
 73
     4
 40
14.0
 49
12.0
 74
     0
 49
-1.0
 74
     0
 49
0.0
 74
     0
 49
-1.0
 74
     0
  0
LTYPE
  5
3E
330
5
100
AcDbSymbolTableRecord
100
AcDbLinetypeTableRecord
  2
LONG_DASHED
 70
     0
  3
Long_Dashed
 72
    65
 73
     2
 40
15.0
 49
10.0
 74
     0
 49
-5.0
 74
     0
  0
LTYPE
  5
3F
330
5
100
AcDbSymbolTableRecord
100
AcDbLinetypeTableRecord
  2
DASH_CENTER
 70
     0
  3
Dash_Center
 72
    65
 73
     4
 40
14.0
 49
11.0
 74
     0
 49
-1.0
 74
     0
 49
1.0
 74
     0
 49
-1.0
 74
     0
  0
LTYPE
  5
40
330
5
100
AcDbSymbolTableRecord
100
AcDbLinetypeTableRecord
  2
PHANTOM
 70
     0
  3
Phantom
 72
    65
 73
     6
 40
13.0
 49
10.0
 74
     0
 49
-1.0
 74
     0
 49
0.0
 74
     0
 49
-1.0
 74
     0
 49
0.0
 74
     0
 49
-1.0
 74
     0
  0
LTYPE
  5
41
330
5
100
AcDbSymbolTableRecord
100
AcDbLinetypeTableRecord
  2
CENTER_DASH_DASH
 70
     0
  3
Center_Dash_Dash
 72
    65
 73
     6
 40
14.0
 49
9.0
 74
     0
 49
-1.0
 74
     0
 49
1.0
 74
     0
 49
-1.0
 74
     0
 49
1.0
 74
     0
 49
-1.0
 74
     0
  0
ENDTAB
  0
TABLE
  2
LAYER
  5
2
330
0
100
AcDbSymbolTable
 70
     5
  0
LAYER
  5
10
330
2
100
AcDbSymbolTableRecord
100
AcDbLayerTableRecord
  2
0
 70
     0
 62
     7
  6
Continuous
370
    -3
390
F
  0
LAYER
  5
42
330
2
100
AcDbSymbolTableRecord
100
AcDbLayerTableRecord
  2
1
 70
     0
 62
     7
  6
Continuous
370
    -3
390
F
  0
LAYER
  5
43
330
2
100
AcDbSymbolTableRecord
100
AcDbLayerTableRecord
  2
10
 70
     0
 62
     7
  6
Continuous
370
    -3
390
F
  0
LAYER
  5
44
330
2
100
AcDbSymbolTableRecord
100
AcDbLayerTableRecord
  2
6
 70
     0
 62
     7
  6
Continuous
370
    -3
390
F
  0
LAYER
  5
45
330
2
100
AcDbSymbolTableRecord
100
AcDbLayerTableRecord
  2
RAHMEN
 70
     0
 62
     7
  6
Continuous
370
    -3
390
F
  0
ENDTAB
  0
TABLE
  2
STYLE
  5
3
330
0
100
AcDbSymbolTable
 70
     5
  0
STYLE
  5
11
330
3
100
AcDbSymbolTableRecord
100
AcDbTextStyleTableRecord
  2
Standard
 70
     0
 40
0.0
 41
1.0
 50
0.0
 71
     0
 42
0.2
  3
txt
  4

  0
STYLE
  5
6C
330
3
100
AcDbSymbolTableRecord
100
AcDbTextStyleTableRecord
  2
CONVERTER_11
 70
     0
 40
0.0
 41
0.8571123
 50
0.0
 71
     0
 42
0.2
  3
txt.shx
  4

  0
STYLE
  5
6E
330
3
100
AcDbSymbolTableRecord
100
AcDbTextStyleTableRecord
  2
CONVERTER_12
 70
     0
 40
0.0
 41
0.9171099
 50
0.0
 71
     0
 42
0.2
  3
txt.shx
  4

  0
STYLE
  5
70
330
3
100
AcDbSymbolTableRecord
100
AcDbTextStyleTableRecord
  2
CONVERTER_13
 70
     0
 40
0.0
 41
0.8313993
 50
0.0
 71
     0
 42
0.2
  3
txt.shx
  4

  0
STYLE
  5
E8
330
3
100
AcDbSymbolTableRecord
100
AcDbTextStyleTableRecord
  2
CONVERTER_14
 70
     0
 40
0.0
 41
0.72
 50
0.0
 71
     0
 42
0.2
  3
txt.shx
  4

  0
ENDTAB
  0
TABLE
  2
VIEW
  5
6
330
0
100
AcDbSymbolTable
 70
     0
  0
ENDTAB
  0
TABLE
  2
UCS
  5
7
330
0
100
AcDbSymbolTable
 70
     0
  0
ENDTAB
  0
TABLE
  2
APPID
  5
9
330
0
100
AcDbSymbolTable
 70
     1
  0
APPID
  5
12
330
9
100
AcDbSymbolTableRecord
100
AcDbRegAppTableRecord
  2
ACAD
 70
     0
  0
ENDTAB
  0
TABLE
  2
DIMSTYLE
  5
A
330
0
100
AcDbSymbolTable
 70
     7
100
AcDbDimStyleTable
  0
DIMSTYLE
105
27
330
A
100
AcDbSymbolTableRecord
100
AcDbDimStyleTableRecord
  2
Standard
 70
     0
340
11
  0
DIMSTYLE
105
EC
102
{ACAD_REACTORS
330
ED
102
}
330
A
100
AcDbSymbolTableRecord
100
AcDbDimStyleTableRecord
  2
ME10_DIM_10
 70
     0
  3
\U+2300<>
 41
3.5
 42
2.0
 44
2.0
 71
     1
 73
     0
 74
     0
 77
     1
 78
     8
140
3.5
146
0.7
147
2.0
172
     1
173
     1
176
     2
177
     2
178
     3
271
     2
272
     0
340
E8
  0
DIMSTYLE
105
F7
102
{ACAD_REACTORS
330
F8
102
}
330
A
100
AcDbSymbolTableRecord
100
AcDbDimStyleTableRecord
  2
ME10_DIM_11
 70
     0
  3
<>
 41
3.5
 42
2.0
 44
2.0
 71
     1
 73
     0
 74
     0
 77
     1
 78
     8
140
3.5
146
0.7
147
2.0
172
     1
173
     1
176
     2
177
     2
178
     3
271
     2
272
     0
340
E8
  0
DIMSTYLE
105
103
102
{ACAD_REACTORS
330
104
102
}
330
A
100
AcDbSymbolTableRecord
100
AcDbDimStyleTableRecord
  2
ME10_DIM_12
 70
     0
  3
<>
 41
3.5
 42
2.0
 44
2.0
 71
     1
 73
     0
 74
     0
 77
     1
 78
     8
140
3.5
146
0.7
147
2.0
172
     1
173
     1
176
     2
177
     2
178
     3
271
     2
272
     0
340
E8
  0
DIMSTYLE
105
10E
102
{ACAD_REACTORS
330
10F
102
}
330
A
100
AcDbSymbolTableRecord
100
AcDbDimStyleTableRecord
  2
ME10_DIM_13
 70
     0
  3
<>
 41
3.5
 42
2.0
 44
2.0
 71
     1
 73
     0
 74
     0
 77
     1
 78
     8
140
3.5
146
0.7
147
2.0
172
     1
173
     1
176
     2
177
     2
178
     3
271
     2
272
     0
340
E8
  0
DIMSTYLE
105
119
102
{ACAD_REACTORS
330
11A
102
}
330
A
100
AcDbSymbolTableRecord
100
AcDbDimStyleTableRecord
  2
ME10_DIM_14
 70
     0
 41
3.5
 42
0.5
 44
2.00000000000001
 73
     0
 74
     0
 77
     1
 78
     8
140
3.506
147
1.0518
172
     1
173
     1
176
     2
177
     2
178
     3
271
     2
340
E8
  0
DIMSTYLE
105
124
102
{ACAD_REACTORS
330
125
102
}
330
A
100
AcDbSymbolTableRecord
100
AcDbDimStyleTableRecord
  2
ME10_DIM_15
 70
     0
  3
ER<>
 41
3.5
 42
2.0
 44
2.0
 71
     1
 73
     0
 74
     0
 77
     1
 78
     8
140
3.5
146
0.7
147
2.0
172
     1
173
     1
176
     2
177
     2
178
     3
271
     2
272
     0
340
E8
  0
ENDTAB
  0
TABLE
  2
BLOCK_RECORD
  5
1
330
0
100
AcDbSymbolTable
 70
     8
  0
BLOCK_RECORD
  5
1F
330
1
100
AcDbSymbolTableRecord
100
AcDbBlockTableRecord
  2
*Model_Space
340
22
  0
BLOCK_RECORD
  5
1B
330
1
100
AcDbSymbolTableRecord
100
AcDbBlockTableRecord
  2
*Paper_Space
340
1E
  0
BLOCK_RECORD
  5
23
330
1
100
AcDbSymbolTableRecord
100
AcDbBlockTableRecord
  2
*Paper_Space0
340
26
  0
BLOCK_RECORD
  5
46
330
1
100
AcDbSymbolTableRecord
100
AcDbBlockTableRecord
  2
Urheberrecht
340
0
102
{BLKREFS
331
6B
102
}
  0
BLOCK_RECORD
  5
E2
330
1
100
AcDbSymbolTableRecord
100
AcDbBlockTableRecord
  2
*D2
340
0
  0
BLOCK_RECORD
  5
EE
330
1
100
AcDbSymbolTableRecord
100
AcDbBlockTableRecord
  2
*D3
340
0
  0
BLOCK_RECORD
  5
F9
330
1
100
AcDbSymbolTableRecord
100
AcDbBlockTableRecord
  2
*D4
340
0
  0
BLOCK_RECORD
  5
105
330
1
100
AcDbSymbolTableRecord
100
AcDbBlockTableRecord
  2
*D5
340
0
  0
BLOCK_RECORD
  5
110
330
1
100
AcDbSymbolTableRecord
100
AcDbBlockTableRecord
  2
*D6
340
0
  0
BLOCK_RECORD
  5
11B
330
1
100
AcDbSymbolTableRecord
100
AcDbBlockTableRecord
  2
*D7
340
0
  0
ENDTAB
  0
ENDSEC
  0
SECTION
  2
BLOCKS
  0
BLOCK
  5
20
330
1F
100
AcDbEntity
  8
0
100
AcDbBlockBegin
  2
*Model_Space
 70
     0
 10
0.0
 20
0.0
 30
0.0
  3
*Model_Space
  1

  0
ENDBLK
  5
21
330
1F
100
AcDbEntity
  8
0
100
AcDbBlockEnd
  0
BLOCK
  5
1C
330
1B
100
AcDbEntity
 67
     1
  8
0
100
AcDbBlockBegin
  2
*Paper_Space
 70
     0
 10
0.0
 20
0.0
 30
0.0
  3
*Paper_Space
  1

  0
ENDBLK
  5
1D
330
1B
100
AcDbEntity
 67
     1
  8
0
100
AcDbBlockEnd
  0
BLOCK
  5
24
330
23
100
AcDbEntity
  8
0
100
AcDbBlockBegin
  2
*Paper_Space0
 70
     0
 10
0.0
 20
0.0
 30
0.0
  3
*Paper_Space0
  1

  0
ENDBLK
  5
25
330
23
100
AcDbEntity
  8
0
100
AcDbBlockEnd
  0
BLOCK
  5
47
330
46
100
AcDbEntity
  8
0
100
AcDbBlockBegin
  2
Urheberrecht
 70
     0
 10
-93.9953910255581
 20
-5.92572068022093
 30
0.0
  3
Urheberrecht
  1

  0
MTEXT
  5
6D
330
46
100
AcDbEntity
  8
RAHMEN
 62
     1
100
AcDbMText
 10
-79.9953910255581
 20
-5.92572068022093
 30
0.0
 40
2.0
 41
0.0
 71
     7
 72
     1
  1
Dritten zug\U+00e4nglich gemacht werden.
  7
CONVERTER_11
 11
6.123031769111886E-17
 21
1.0
 31
0.0
 73
     1
 44
1.32052821128451
  0
MTEXT
  5
6F
330
46
100
AcDbEntity
  8
RAHMEN
 62
     1
100
AcDbMText
 10
-82.9953910255581
 20
-5.92572068022093
 30
0.0
 40
2.0
 41
0.0
 71
     7
 72
     1
  1
Zustimmung weder vervielf\U+00e4ltigt noch
  7
CONVERTER_12
 11
6.123031769111886E-17
 21
1.0
 31
0.0
 73
     1
 44
1.32052821128451
  0
MTEXT
  5
71
330
46
100
AcDbEntity
  8
RAHMEN
 62
     1
100
AcDbMText
 10
-85.9953910255581
 20
-5.92572068022093
 30
0.0
 40
2.0
 41
0.0
 71
     7
 72
     1
  1
bestimmten Zweck benutzt und ohne unsere
  7
CONVERTER_13
 11
6.123031769111886E-17
 21
1.0
 31
0.0
 73
     1
 44
1.32052821128451
  0
MTEXT
  5
72
330
46
100
AcDbEntity
  8
RAHMEN
 62
     1
100
AcDbMText
 10
-88.9953910255581
 20
-5.92572068022093
 30
0.0
 40
2.0
 41
0.0
 71
     7
 72
     1
  1
heberrecht. Sie darf nur f\U+00fcr den von uns
  7
CONVERTER_13
 11
6.123031769111886E-17
 21
1.0
 31
0.0
 73
     1
 44
1.32052821128451
  0
MTEXT
  5
73
330
46
100
AcDbEntity
  8
RAHMEN
 62
     1
100
AcDbMText
 10
-91.9953910255581
 20
-5.92572068022093
 30
0.0
 40
2.0
 41
0.0
 71
     7
 72
     1
  1
F\U+00fcr diese Unterlage behalten wir das Ur-
  7
CONVERTER_13
 11
6.123031769111886E-17
 21
1.0
 31
0.0
 73
     1
 44
1.32052821128451
  0
ENDBLK
  5
48
330
46
100
AcDbEntity
  8
0
100
AcDbBlockEnd
  0
BLOCK
  5
EA
330
E2
100
AcDbEntity
  8
0
100
AcDbBlockBegin
  2
*D2
 70
     1
 10
0.0
 20
0.0
 30
0.0
  3
*D2
  1

  0
LINE
  5
E3
330
E2
100
AcDbEntity
  8
1
  6
Continuous
 62
     2
100
AcDbLine
 10
89.5633423910158
 20
3.0
 30
0.0
 11
89.5633423910158
 21
37.0
 31
0.0
  0
LINE
  5
E4
330
E2
100
AcDbEntity
  8
1
  6
Continuous
 62
     2
100
AcDbLine
 10
30.24278643096017
 20
3.0
 30
0.0
 11
91.5633423910158
 21
3.0
 31
0.0
  0
LINE
  5
E5
330
E2
100
AcDbEntity
  8
1
  6
Continuous
 62
     2
100
AcDbLine
 10
22.50000000000001
 20
37.0
 30
0.0
 11
91.5633423910158
 21
37.0
 31
0.0
  0
SOLID
  5
E6
330
E2
100
AcDbEntity
  8
1
 62
     2
100
AcDbTrace
 10
89.10255864945991
 20
6.5
 30
0.0
 11
90.02412613257168
 21
6.5
 31
0.0
 12
89.5633423910158
 22
3.0
 32
0.0
 13
89.5633423910158
 23
3.0
 33
0.0
  0
SOLID
  5
E7
330
E2
100
AcDbEntity
  8
1
 62
     2
100
AcDbTrace
 10
90.02412613257168
 20
33.5
 30
0.0
 11
89.10255864945991
 21
33.5
 31
0.0
 12
89.5633423910158
 22
37.0
 32
0.0
 13
89.5633423910158
 23
37.0
 33
0.0
  0
MTEXT
  5
E9
330
E2
100
AcDbEntity
  8
1
 62
     3
100
AcDbMText
 10
87.5633423910158
 20
11.5609242350485
 30
0.0
 40
3.5
 41
0.0
 71
     7
 72
     1
  1
\C3;%%c\C3;\C3;34\C2;\H2.45;\S^ ;\C3;
  7
CONVERTER_14
 11
0.0
 21
1.0
 31
0.0
 73
     1
 44
0.60024009603842
  0
ENDBLK
  5
EB
330
E2
100
AcDbEntity
  8
0
100
AcDbBlockEnd
  0
BLOCK
  5
F5
330
EE
100
AcDbEntity
  8
0
100
AcDbBlockBegin
  2
*D3
 70
     1
 10
0.0
 20
0.0
 30
0.0
  3
*D3
  1

  0
LINE
  5
EF
330
EE
100
AcDbEntity
  8
1
  6
Continuous
 62
     2
100
AcDbLine
 10
56.90105833259464
 20
65.4681995244529
 30
0.0
 11
-1.6
 21
65.4681995244529
 31
0.0
  0
LINE
  5
F0
330
EE
100
AcDbEntity
  8
1
  6
Continuous
 62
     2
100
AcDbLine
 10
56.90105833259464
 20
32.58332594637264
 30
0.0
 11
56.90105833259464
 21
67.4681995244529
 31
0.0
  0
LINE
  5
F1
330
EE
100
AcDbEntity
  8
1
  6
Continuous
 62
     2
100
AcDbLine
 10
-1.6
 20
46.60600000000002
 30
0.0
 11
-1.6
 21
67.4681995244529
 31
0.0
  0
SOLID
  5
F2
330
EE
100
AcDbEntity
  8
1
 62
     2
100
AcDbTrace
 10
53.40105833259464
 20
65.00741578289701
 30
0.0
 11
53.40105833259464
 21
65.92898326600879
 31
0.0
 12
56.90105833259464
 22
65.4681995244529
 32
0.0
 13
56.90105833259464
 23
65.4681995244529
 33
0.0
  0
SOLID
  5
F3
330
EE
100
AcDbEntity
  8
1
 62
     2
100
AcDbTrace
 10
1.9
 20
65.92898326600879
 30
0.0
 11
1.9
 21
65.00741578289701
 31
0.0
 12
-1.6
 22
65.4681995244529
 32
0.0
 13
-1.6
 23
65.4681995244529
 33
0.0
  0
MTEXT
  5
F4
330
EE
100
AcDbEntity
  8
1
 62
     3
100
AcDbMText
 10
25.733781722516
 20
67.4681995244529
 30
0.0
 40
3.5
 41
0.0
 71
     7
 72
     1
  1
\C3;\C3;\C3;58.5\C2;\H2.45;\S^ ;\C3;
  7
CONVERTER_14
 11
0.9999999999970619
 21
2.424068405545306E-6
 31
0.0
 73
     1
 44
0.60024009603842
  0
ENDBLK
  5
F6
330
EE
100
AcDbEntity
  8
0
100
AcDbBlockEnd
  0
BLOCK
  5
101
330
F9
100
AcDbEntity
  8
0
100
AcDbBlockBegin
  2
*D4
 70
     1
 10
0.0
 20
0.0
 30
0.0
  3
*D4
  1

  0
LINE
  5
FA
330
F9
100
AcDbEntity
  8
1
  6
Continuous
 62
     2
100
AcDbLine
 10
56.90105833259464
 20
82.3142386332495
 30
0.0
 11
-70.0
 21
82.3142386332495
 31
0.0
  0
LINE
  5
FB
330
F9
100
AcDbEntity
  8
1
  6
Continuous
 62
     2
100
AcDbLine
 10
56.90105833259464
 20
75.3280078018971
 30
0.0
 11
56.90105833259464
 21
84.3142386332495
 31
0.0
  0
LINE
  5
FC
330
F9
100
AcDbEntity
  8
1
  6
Continuous
 62
     2
100
AcDbLine
 10
56.90105833259464
 20
32.58332594637264
 30
0.0
 11
56.90105833259464
 21
71.7752403002553
 31
0.0
  0
LINE
  5
FD
330
F9
100
AcDbEntity
  8
1
  6
Continuous
 62
     2
100
AcDbLine
 10
-70.0
 20
32.52110148296524
 30
0.0
 11
-70.0
 21
84.3142386332495
 31
0.0
  0
SOLID
  5
FE
330
F9
100
AcDbEntity
  8
1
 62
     2
100
AcDbTrace
 10
53.40105833259464
 20
81.85345489169362
 30
0.0
 11
53.40105833259464
 21
82.77502237480539
 31
0.0
 12
56.90105833259464
 22
82.3142386332495
 32
0.0
 13
56.90105833259464
 23
82.3142386332495
 33
0.0
  0
SOLID
  5
FF
330
F9
100
AcDbEntity
  8
1
 62
     2
100
AcDbTrace
 10
-66.5
 20
82.77502237480539
 30
0.0
 11
-66.5
 21
81.85345489169362
 31
0.0
 12
-70.0
 22
82.3142386332495
 32
0.0
 13
-70.0
 23
82.3142386332495
 33
0.0
  0
MTEXT
  5
100
330
F9
100
AcDbEntity
  8
1
 62
     3
100
AcDbMText
 10
-11.87336712604805
 20
84.3142386332495
 30
0.0
 40
3.5
 41
0.0
 71
     7
 72
     1
  1
\C3;\C3;\C3;126.9\C2;\H2.45;\S^ ;\C3;
  7
CONVERTER_14
 11
0.9999999999970619
 21
2.424068405545306E-6
 31
0.0
 73
     1
 44
0.60024009603842
  0
ENDBLK
  5
102
330
F9
100
AcDbEntity
  8
0
100
AcDbBlockEnd
  0
BLOCK
  5
10C
330
105
100
AcDbEntity
  8
0
100
AcDbBlockBegin
  2
*D5
 70
     1
 10
0.0
 20
0.0
 30
0.0
  3
*D5
  1

  0
LINE
  5
106
330
105
100
AcDbEntity
  8
1
  6
Continuous
 62
     2
100
AcDbLine
 10
56.90105833259464
 20
56.5103850777119
 30
0.0
 11
17.50000000000001
 21
56.5103850777119
 31
0.0
  0
LINE
  5
107
330
105
100
AcDbEntity
  8
1
  6
Continuous
 62
     2
100
AcDbLine
 10
56.90105833259464
 20
32.58332594637264
 30
0.0
 11
56.90105833259464
 21
58.5103850777119
 31
0.0
  0
LINE
  5
108
330
105
100
AcDbEntity
  8
1
  6
Continuous
 62
     2
100
AcDbLine
 10
17.50000000000001
 20
52.77500000000003
 30
0.0
 11
17.50000000000001
 21
58.5103850777119
 31
0.0
  0
SOLID
  5
109
330
105
100
AcDbEntity
  8
1
 62
     2
100
AcDbTrace
 10
53.40105833259464
 20
56.04960133615602
 30
0.0
 11
53.40105833259464
 21
56.97116881926779
 31
0.0
 12
56.90105833259464
 22
56.5103850777119
 32
0.0
 13
56.90105833259464
 23
56.5103850777119
 33
0.0
  0
SOLID
  5
10A
330
105
100
AcDbEntity
  8
1
 62
     2
100
AcDbTrace
 10
21.00000000000001
 20
56.97116881926779
 30
0.0
 11
21.00000000000001
 21
56.04960133615602
 31
0.0
 12
17.50000000000001
 22
56.5103850777119
 32
0.0
 13
17.50000000000001
 23
56.5103850777119
 33
0.0
  0
MTEXT
  5
10B
330
105
100
AcDbEntity
  8
1
 62
     3
100
AcDbMText
 10
33.2209102153145
 20
58.5103850777119
 30
0.0
 40
3.5
 41
0.0
 71
     7
 72
     1
  1
\C3;\C3;\C3;39.4\C2;\H2.45;\S^ ;\C3;
  7
CONVERTER_14
 11
0.9999999999970619
 21
2.424068405545306E-6
 31
0.0
 73
     1
 44
0.60024009603842
  0
ENDBLK
  5
10D
330
105
100
AcDbEntity
  8
0
100
AcDbBlockEnd
  0
BLOCK
  5
117
330
110
100
AcDbEntity
  8
0
100
AcDbBlockBegin
  2
*D6
 70
     1
 10
0.0
 20
0.0
 30
0.0
  3
*D6
  1

  0
LINE
  5
111
330
110
100
AcDbEntity
  8
10
  6
Continuous
 62
     2
100
AcDbLine
 10
-1.59999999999999
 20
73.7575203557656
 30
0.0
 11
68.4
 21
73.7575203557656
 31
0.0
  0
LINE
  5
112
330
110
100
AcDbEntity
  8
10
  6
Continuous
 62
     2
100
AcDbLine
 10
-1.6
 20
45.10600000000002
 30
0.0
 11
-1.6
 21
75.75752035576562
 31
0.0
  0
LINE
  5
113
330
110
100
AcDbEntity
  8
10
  6
Continuous
 62
     2
100
AcDbLine
 10
68.4
 20
35.48699999999999
 30
0.0
 11
68.4
 21
75.75752035576562
 31
0.0
  0
SOLID
  5
114
330
110
100
AcDbEntity
  8
10
 62
     2
100
AcDbTrace
 10
1.90000000000001
 20
74.2183040973215
 30
0.0
 11
1.90000000000001
 21
73.29673661420972
 31
0.0
 12
-1.59999999999999
 22
73.7575203557656
 32
0.0
 13
-1.59999999999999
 23
73.7575203557656
 33
0.0
  0
SOLID
  5
115
330
110
100
AcDbEntity
  8
10
 62
     2
100
AcDbTrace
 10
64.9
 20
73.29673661420972
 30
0.0
 11
64.9
 21
74.2183040973215
 31
0.0
 12
68.4
 22
73.7575203557656
 32
0.0
 13
68.4
 23
73.7575203557656
 33
0.0
  0
MTEXT
  5
116
330
110
100
AcDbEntity
  8
10
 62
     3
100
AcDbMText
 10
30.9213485227439
 20
74.8093203557656
 30
0.0
 40
3.506
 41
0.0
 71
     7
 72
     1
  1
70
  7
CONVERTER_14
 11
0.9999999999970619
 21
2.424068405545306E-6
 31
0.0
 73
     1
 44
0.60024009603842
  0
ENDBLK
  5
118
330
110
100
AcDbEntity
  8
0
100
AcDbBlockEnd
  0
BLOCK
  5
122
330
11B
100
AcDbEntity
  8
0
100
AcDbBlockBegin
  2
*D7
 70
     1
 10
0.0
 20
0.0
 30
0.0
  3
*D7
  1

  0
LINE
  5
11C
330
11B
100
AcDbEntity
  8
1
  6
Continuous
 62
     2
100
AcDbLine
 10
80.0983967427458
 20
30.00003376296663
 30
0.0
 11
80.0983967427458
 21
9.99996623750788
 31
0.0
  0
LINE
  5
11D
330
11B
100
AcDbEntity
  8
1
  6
Continuous
 62
     2
100
AcDbLine
 10
58.9010000033763
 20
30.00003376296663
 30
0.0
 11
82.0983967427458
 21
30.00003376296663
 31
0.0
  0
LINE
  5
11E
330
11B
100
AcDbEntity
  8
1
  6
Continuous
 62
     2
100
AcDbLine
 10
58.90100000000001
 20
9.99996623750788
 30
0.0
 11
82.0983967427458
 21
9.99996623750788
 31
0.0
  0
SOLID
  5
11F
330
11B
100
AcDbEntity
  8
1
 62
     2
100
AcDbTrace
 10
80.55918048430169
 20
26.50003376296663
 30
0.0
 11
79.63761300118992
 21
26.50003376296663
 31
0.0
 12
80.0983967427458
 22
30.00003376296663
 32
0.0
 13
80.0983967427458
 23
30.00003376296663
 33
0.0
  0
SOLID
  5
120
330
11B
100
AcDbEntity
  8
1
 62
     2
100
AcDbTrace
 10
79.63761300118992
 20
13.49996623750788
 30
0.0
 11
80.55918048430169
 21
13.49996623750788
 31
0.0
 12
80.0983967427458
 22
9.99996623750788
 32
0.0
 13
80.0983967427458
 23
9.99996623750788
 33
0.0
  0
MTEXT
  5
121
330
11B
100
AcDbEntity
  8
1
 62
     3
100
AcDbMText
 10
78.0983967427458
 20
15.486128476347
 30
0.0
 40
3.5
 41
0.0
 71
     7
 72
     1
  1
\C3;ER\C3;\C3;20\C2;\H2.45;\S^ ;\C3;
  7
CONVERTER_14
 11
0.0
 21
1.0
 31
0.0
 73
     1
 44
0.60024009603842
  0
ENDBLK
  5
123
330
11B
100
AcDbEntity
  8
0
100
AcDbBlockEnd
  0
ENDSEC
  0
SECTION
  2
ENTITIES
  0
INSERT
  5
6B
330
1F
100
AcDbEntity
  8
1
100
AcDbBlockReference
  2
Urheberrecht
 10
-93.9953910255581
 20
-5.92572068022093
 30
0.0
  0
POINT
  5
74
330
1F
100
AcDbEntity
  8
10
 62
   250
100
AcDbPoint
 10
41.4
 20
7.5
 30
0.0
  0
POINT
  5
75
330
1F
100
AcDbEntity
  8
10
 62
   250
100
AcDbPoint
 10
68.4
 20
34.987
 30
0.0
  0
LWPOLYLINE
  5
76
330
1F
100
AcDbEntity
  8
1
  6
Continuous
 62
     7
100
AcDbPolyline
 90
        2
 70
     0
 43
0.5
 10
41.81442713809841
 20
32.5
 10
42.90000000000001
 20
32.5
  0
LWPOLYLINE
  5
77
330
1F
100
AcDbEntity
  8
1
  6
Continuous
 62
     7
100
AcDbPolyline
 90
        2
 70
     0
 43
0.5
 10
20.5
 20
37.0
 10
36.48599999999999
 20
37.0
  0
LWPOLYLINE
  5
78
330
1F
100
AcDbEntity
  8
1
  6
Continuous
 62
     7
100
AcDbPolyline
 90
        2
 70
     0
 43
0.5
 10
28.24278643096016
 20
3.0
 10
36.48557286192032
 20
3.0
  0
LWPOLYLINE
  5
79
330
1F
100
AcDbEntity
  8
1
  6
DASHED
 62
     7
100
AcDbPolyline
 90
        2
 70
     0
 43
0.35
 10
56.901
 20
9.99996623750788
 10
33.776
 20
13.25
  0
LWPOLYLINE
  5
7A
330
1F
100
AcDbEntity
  8
1
  6
Continuous
 62
     7
100
AcDbPolyline
 90
        2
 70
     0
 43
0.5
 10
56.8996350404313
 20
9.00099960477779
 10
56.90020321537895
 20
9.41684122402809
  0
LWPOLYLINE
  5
7B
330
1F
100
AcDbEntity
  8
1
  6
Continuous
 62
     7
100
AcDbPolyline
 90
        2
 70
     0
 43
0.5
 10
20.5
 20
3.0
 10
28.24278643096016
 20
3.0
  0
LWPOLYLINE
  5
7C
330
1F
100
AcDbEntity
  8
1
  6
Continuous
 62
     7
100
AcDbPolyline
 90
        2
 70
     0
 43
0.5
 10
37.19278640814481
 20
3.29278640814482
 10
41.10700000000211
 20
7.2070000000021
  0
LWPOLYLINE
  5
7D
330
1F
100
AcDbEntity
  8
1
  6
Continuous
 62
     7
100
AcDbPolyline
 90
        2
 70
     0
 43
0.5
 10
41.81442713807918
 20
7.5
 10
42.90000000000001
 20
7.5
  0
LWPOLYLINE
  5
7E
330
1F
100
AcDbEntity
  8
1
  6
DOT_CENTER
 62
     7
100
AcDbPolyline
 90
        2
 70
     0
 43
0.25
 10
15.59099999999999
 20
20.0
 10
71.31700000000001
 20
20.0
  0
LWPOLYLINE
  5
7F
330
1F
100
AcDbEntity
  8
6
  6
Continuous
 62
     3
100
AcDbPolyline
 90
        2
 70
     0
 43
0.25
 10
48.9
 20
37.0
 10
67.9
 20
37.0
  0
LWPOLYLINE
  5
80
330
1F
100
AcDbEntity
  8
1
  6
Continuous
 62
     7
100
AcDbPolyline
 90
        2
 70
     0
 43
0.5
 10
37.19278640811051
 20
36.70721359188948
 10
41.1072135918895
 20
32.79278640811052
  0
LWPOLYLINE
  5
81
330
1F
100
AcDbEntity
  8
1
  6
Continuous
 62
     7
100
AcDbPolyline
 90
        2
 70
     0
 43
0.5
 10
56.9
 20
31.001
 10
56.90041725673279
 20
30.58332601048023
  0
LWPOLYLINE
  5
82
330
1F
100
AcDbEntity
  8
1
  6
Continuous
 62
     7
100
AcDbPolyline
 90
        2
 70
     0
 43
0.5
 10
56.034
 20
32.5
 10
56.9
 20
31.001
  0
LWPOLYLINE
  5
83
330
1F
100
AcDbEntity
  8
1
  6
Continuous
 62
     7
100
AcDbPolyline
 90
        2
 70
     0
 43
0.25
 10
56.496
 20
31.7
 10
42.90000000000001
 20
31.7
  0
LWPOLYLINE
  5
84
330
1F
100
AcDbEntity
  8
1
  6
Continuous
 62
     7
100
AcDbPolyline
 90
        2
 70
     0
 43
0.25
 10
42.90000000000001
 20
31.7
 10
42.90000000000001
 20
32.5
  0
LWPOLYLINE
  5
85
330
1F
100
AcDbEntity
  8
1
  6
DASHED
 62
     7
100
AcDbPolyline
 90
        2
 70
     0
 43
0.35
 10
33.776
 20
26.75
 10
33.776
 20
20.0
  0
LWPOLYLINE
  5
86
330
1F
100
AcDbEntity
  8
1
  6
DASHED
 62
     7
100
AcDbPolyline
 90
        2
 70
     0
 43
0.35
 10
26.9
 20
26.75
 10
26.9
 20
13.25
  0
LWPOLYLINE
  5
87
330
1F
100
AcDbEntity
  8
1
  6
DASHED
 62
     7
100
AcDbPolyline
 90
        2
 70
     0
 43
0.35
 10
33.776
 20
26.75
 10
26.9
 20
26.75
  0
LWPOLYLINE
  5
88
330
1F
100
AcDbEntity
  8
1
  6
Continuous
 62
     7
100
AcDbPolyline
 90
        2
 70
     0
 43
0.25
 10
56.496
 20
8.3
 10
42.90000000000001
 20
8.3
  0
LWPOLYLINE
  5
89
330
1F
100
AcDbEntity
  8
1
  6
Continuous
 62
     7
100
AcDbPolyline
 90
        2
 70
     0
 43
0.25
 10
42.90000000000001
 20
8.3
 10
42.90000000000001
 20
7.5
  0
LWPOLYLINE
  5
8A
330
1F
100
AcDbEntity
  8
1
  6
DASHED
 62
     7
100
AcDbPolyline
 90
        2
 70
     0
 43
0.35
 10
33.776
 20
13.25
 10
33.776
 20
20.0
  0
LWPOLYLINE
  5
8B
330
1F
100
AcDbEntity
  8
1
  6
Continuous
 62
     7
100
AcDbPolyline
 90
        2
 70
     0
 43
0.5
 10
56.034
 20
7.5
 10
56.90105599403984
 20
9.00346351936676
  0
LWPOLYLINE
  5
8C
330
1F
100
AcDbEntity
  8
1
  6
Continuous
 62
     7
100
AcDbPolyline
 90
        2
 70
     0
 43
0.5
 10
56.901
 20
13.25
 10
56.901
 20
9.99996623750788
  0
LWPOLYLINE
  5
8D
330
1F
100
AcDbEntity
  8
1
  6
DASHED
 62
     7
100
AcDbPolyline
 90
        2
 70
     0
 43
0.35
 10
33.776
 20
13.25
 10
26.9
 20
13.25
  0
LWPOLYLINE
  5
8E
330
1F
100
AcDbEntity
  8
1
  6
Continuous
 62
     7
100
AcDbPolyline
 90
        2
 70
     0
 43
0.5
 10
56.90105833259464
 20
30.58332594637264
 10
56.9010000033763
 20
30.00003376296663
  0
LWPOLYLINE
  5
8F
330
1F
100
AcDbEntity
  8
1
  6
DASHED
 62
     7
100
AcDbPolyline
 90
        2
 70
     0
 43
0.35
 10
56.9010000033763
 20
30.00003376296663
 10
33.776
 20
26.75
  0
LWPOLYLINE
  5
90
330
1F
100
AcDbEntity
  8
1
  6
Continuous
 62
     7
100
AcDbPolyline
 90
        2
 70
     0
 43
0.5
 10
56.9010000033763
 20
30.00003376296663
 10
56.90000000000001
 20
20.0
  0
LWPOLYLINE
  5
91
330
1F
100
AcDbEntity
  8
1
  6
Continuous
 62
     7
100
AcDbPolyline
 90
        2
 70
     0
 43
0.5
 10
56.901
 20
9.99996623750788
 10
56.901
 20
9.5
  0
LWPOLYLINE
  5
92
330
1F
100
AcDbEntity
  8
1
  6
Continuous
 62
     7
100
AcDbPolyline
 90
        2
 70
     0
 43
0.5
 10
56.901
 20
13.25
 10
56.90000000000001
 20
20.0
  0
LWPOLYLINE
  5
93
330
1F
100
AcDbEntity
  8
1
  6
Continuous
 62
     7
100
AcDbPolyline
 90
        2
 70
     0
 43
0.5
 10
42.90000000000001
 20
32.5
 10
42.90000000000001
 20
7.5
  0
LWPOLYLINE
  5
94
330
1F
100
AcDbEntity
  8
1
  6
Continuous
 62
     7
100
AcDbPolyline
 90
        2
 70
     0
 43
0.5
 10
42.90000000000001
 20
32.5
 10
56.034
 20
32.5
  0
LWPOLYLINE
  5
95
330
1F
100
AcDbEntity
  8
1
  6
Continuous
 62
     7
100
AcDbPolyline
 90
        2
 70
     0
 43
0.5
 10
42.90000000000001
 20
7.5
 10
56.034
 20
7.5
  0
LWPOLYLINE
  5
96
330
1F
100
AcDbEntity
  8
1
  6
Continuous
 62
     7
100
AcDbPolyline
 90
        2
 70
     0
 43
0.25
 10
41.39999999054231
 20
8.52205545112936
 10
41.39999999054231
 20
31.62205545112937
  0
LWPOLYLINE
  5
97
330
1F
100
AcDbEntity
  8
1
  6
Continuous
 62
     7
100
AcDbPolyline
 90
        2
 70
     0
 43
0.25
 10
36.89982304851942
 20
4.18563516398143
 10
36.89982304851942
 20
35.98563516398143
  0
LWPOLYLINE
  5
98
330
1F
100
AcDbEntity
  8
1
  6
Continuous
 62
     7
100
AcDbPolyline
 90
        2
 70
     0
 43
0.5
 10
56.034
 20
32.5
 10
56.034
 20
7.5
  0
LWPOLYLINE
  5
99
330
1F
100
AcDbEntity
  8
10
  6
DOT_CENTER
 62
     7
100
AcDbPolyline
 90
        2
 70
     0
 43
0.25
 10
-72.32099999999998
 20
20.00000000000003
 10
17.50000000000001
 20
20.00000000000003
  0
LWPOLYLINE
  5
9A
330
1F
100
AcDbEntity
  8
10
  6
Continuous
 62
     7
100
AcDbPolyline
 90
        2
 70
     0
 43
0.5
 10
-2.10699999999999
 20
42.15100000000001
 10
-2.106
 20
-2.14099999999996
  0
LWPOLYLINE
  5
9B
330
1F
100
AcDbEntity
  8
10
  6
Continuous
 62
     7
100
AcDbPolyline
 90
        2
 70
     0
 43
0.5
 10
-1.07499999999999
 20
-1.875
 10
-1.07499999999999
 20
41.87500000000003
  0
LWPOLYLINE
  5
9C
330
1F
100
AcDbEntity
  8
10
  6
DOT_CENTER
 62
     7
100
AcDbPolyline
 90
        2
 70
     0
 43
0.25
 10
-1.6
 20
-4.91699999999986
 10
-1.6
 20
44.60600000000002
  0
LWPOLYLINE
  5
9D
330
1F
100
AcDbEntity
  8
10
  6
Continuous
 62
     7
100
AcDbPolyline
 90
        2
 70
     0
 43
0.5
 10
2.6
 20
28.05000000000001
 10
1.6
 20
29.05000000000001
  0
LWPOLYLINE
  5
9E
330
1F
100
AcDbEntity
  8
10
  6
Continuous
 62
     7
100
AcDbPolyline
 90
        2
 70
     0
 43
0.5
 10
2.6
 20
28.05000000000001
 10
17.50000000000001
 20
28.05000000000001
  0
LWPOLYLINE
  5
9F
330
1F
100
AcDbEntity
  8
10
  6
Continuous
 62
     7
100
AcDbPolyline
 90
        2
 70
     0
 43
0.5
 10
5.96400000000001
 20
28.05000000000001
 10
5.96400000000001
 20
51.77500000000003
  0
LWPOLYLINE
  5
A0
330
1F
100
AcDbEntity
  8
10
  6
Continuous
 62
     7
100
AcDbPolyline
 90
        2
 70
     0
 43
0.5
 10
7.62500000000001
 20
28.05000000000001
 10
7.62500000000001
 20
48.12500000000003
  0
LWPOLYLINE
  5
A1
330
1F
100
AcDbEntity
  8
10
  6
DOT_CENTER
 62
     7
100
AcDbPolyline
 90
        2
 70
     0
 43
0.25
 10
9.50000000000001
 20
52.50400000000002
 10
9.50000000000001
 20
-12.90199999999999
  0
LWPOLYLINE
  5
A2
330
1F
100
AcDbEntity
  8
10
  6
Continuous
 62
     7
100
AcDbPolyline
 90
        2
 70
     0
 43
0.5
 10
2.6
 20
11.95000000000002
 10
1.6
 20
10.95000000000002
  0
LWPOLYLINE
  5
A3
330
1F
100
AcDbEntity
  8
10
  6
Continuous
 62
     7
100
AcDbPolyline
 90
        2
 70
     0
 43
0.5
 10
2.6
 20
11.95000000000002
 10
17.50000000000001
 20
11.95000000000002
  0
LWPOLYLINE
  5
A4
330
1F
100
AcDbEntity
  8
10
  6
Continuous
 62
     7
100
AcDbPolyline
 90
        2
 70
     0
 43
0.5
 10
5.96400000000001
 20
-11.77499999999986
 10
5.96400000000001
 20
-5.834
  0
LWPOLYLINE
  5
A5
330
1F
100
AcDbEntity
  8
10
  6
Continuous
 62
     7
100
AcDbPolyline
 90
        2
 70
     0
 43
0.5
 10
5.96400000000001
 20
1.5
 10
5.96400000000001
 20
11.95000000000002
  0
LWPOLYLINE
  5
A6
330
1F
100
AcDbEntity
  8
10
  6
Continuous
 62
     7
100
AcDbPolyline
 90
        2
 70
     0
 43
0.5
 10
7.62500000000001
 20
-8.125
 10
7.62500000000001
 20
-2.19999999999999
  0
LWPOLYLINE
  5
A7
330
1F
100
AcDbEntity
  8
10
  6
Continuous
 62
     7
100
AcDbPolyline
 90
        2
 70
     0
 43
0.5
 10
7.62500000000001
 20
1.5
 10
7.62500000000001
 20
11.95000000000002
  0
LWPOLYLINE
  5
A8
330
1F
100
AcDbEntity
  8
10
  6
Continuous
 62
     7
100
AcDbPolyline
 90
        2
 70
     0
 43
0.5
 10
11.37500000000001
 20
-8.125
 10
11.37500000000001
 20
-2.19999999999999
  0
LWPOLYLINE
  5
A9
330
1F
100
AcDbEntity
  8
10
  6
Continuous
 62
     7
100
AcDbPolyline
 90
        2
 70
     0
 43
0.5
 10
11.37500000000001
 20
1.5
 10
11.37500000000001
 20
11.95000000000002
  0
LWPOLYLINE
  5
AA
330
1F
100
AcDbEntity
  8
10
  6
Continuous
 62
     7
100
AcDbPolyline
 90
        2
 70
     0
 43
0.5
 10
13.03600000000001
 20
-11.77499999999986
 10
13.03600000000001
 20
-5.834
  0
LWPOLYLINE
  5
AB
330
1F
100
AcDbEntity
  8
10
  6
Continuous
 62
     7
100
AcDbPolyline
 90
        2
 70
     0
 43
0.5
 10
13.03600000000001
 20
1.5
 10
13.03600000000001
 20
11.95000000000002
  0
LWPOLYLINE
  5
AC
330
1F
100
AcDbEntity
  8
10
  6
Continuous
 62
     7
100
AcDbPolyline
 90
        2
 70
     0
 43
0.5
 10
11.37500000000001
 20
48.12500000000003
 10
11.37500000000001
 20
28.05000000000001
  0
LWPOLYLINE
  5
AD
330
1F
100
AcDbEntity
  8
10
  6
Continuous
 62
     7
100
AcDbPolyline
 90
        2
 70
     0
 43
0.5
 10
13.03600000000001
 20
51.77500000000003
 10
13.03600000000001
 20
28.05000000000001
  0
LWPOLYLINE
  5
AE
330
1F
100
AcDbEntity
  8
10
  6
Continuous
 62
     7
100
AcDbPolyline
 90
        2
 70
     0
 43
0.5
 10
1.6
 20
42.87500000000003
 10
1.6
 20
-2.875
  0
LWPOLYLINE
  5
AF
330
1F
100
AcDbEntity
  8
10
  6
Continuous
 62
     7
100
AcDbPolyline
 90
        2
 70
     0
 43
0.5
 10
1.6
 20
1.5
 10
17.50000000000001
 20
1.5
  0
LWPOLYLINE
  5
B0
330
1F
100
AcDbEntity
  8
10
  6
Continuous
 62
     7
100
AcDbPolyline
 90
        2
 70
     0
 43
0.5
 10
1.6
 20
-5.834
 10
5.96400000000001
 20
-5.834
  0
LWPOLYLINE
  5
B1
330
1F
100
AcDbEntity
  8
10
  6
Continuous
 62
     7
100
AcDbPolyline
 90
        2
 70
     0
 43
0.5
 10
5.96400000000001
 20
-5.834
 10
7.62500000000001
 20
-2.19999999999999
  0
LWPOLYLINE
  5
B2
330
1F
100
AcDbEntity
  8
10
  6
Continuous
 62
     7
100
AcDbPolyline
 90
        2
 70
     0
 43
0.5
 10
7.62500000000001
 20
-2.19999999999999
 10
7.62500000000001
 20
-1.18399999999997
  0
LWPOLYLINE
  5
B3
330
1F
100
AcDbEntity
  8
10
  6
Continuous
 62
     7
100
AcDbPolyline
 90
        2
 70
     0
 43
0.5
 10
7.62500000000001
 20
-1.18399999999997
 10
11.37500000000001
 20
-1.18399999999997
  0
LWPOLYLINE
  5
B4
330
1F
100
AcDbEntity
  8
10
  6
Continuous
 62
     7
100
AcDbPolyline
 90
        2
 70
     0
 43
0.5
 10
11.37500000000001
 20
-1.18399999999997
 10
11.37500000000001
 20
-2.19999999999999
  0
LWPOLYLINE
  5
B5
330
1F
100
AcDbEntity
  8
10
  6
Continuous
 62
     7
100
AcDbPolyline
 90
        2
 70
     0
 43
0.5
 10
11.37500000000001
 20
-2.19999999999999
 10
13.03600000000001
 20
-5.834
  0
LWPOLYLINE
  5
B6
330
1F
100
AcDbEntity
  8
10
  6
Continuous
 62
     7
100
AcDbPolyline
 90
        2
 70
     0
 43
0.5
 10
13.03600000000001
 20
-5.834
 10
17.50000000000001
 20
-5.834
  0
LWPOLYLINE
  5
B7
330
1F
100
AcDbEntity
  8
10
  6
Continuous
 62
     7
100
AcDbPolyline
 90
        2
 70
     0
 43
0.5
 10
-69.99999999999999
 20
30.52110148296524
 10
-69.99999999999999
 20
9.47923028532861
  0
LWPOLYLINE
  5
B8
330
1F
100
AcDbEntity
  8
10
  6
Continuous
 62
     7
100
AcDbPolyline
 90
        2
 70
     0
 43
0.5
 10
1.6
 20
42.87500000000003
 10
1.6
 20
50.77500000000003
  0
LWPOLYLINE
  5
B9
330
1F
100
AcDbEntity
  8
10
  6
Continuous
 62
     7
100
AcDbPolyline
 90
        2
 70
     0
 43
0.5
 10
16.50000000000001
 20
51.77500000000003
 10
13.03600000000001
 20
51.77500000000003
  0
LWPOLYLINE
  5
BA
330
1F
100
AcDbEntity
  8
10
  6
Continuous
 62
     7
100
AcDbPolyline
 90
        2
 70
     0
 43
0.5
 10
5.96400000000001
 20
51.77500000000003
 10
2.6
 20
51.77500000000003
  0
LWPOLYLINE
  5
BB
330
1F
100
AcDbEntity
  8
10
  6
Continuous
 62
     7
100
AcDbPolyline
 90
        2
 70
     0
 43
0.5
 10
2.6
 20
-11.77499999999998
 10
5.96400000000001
 20
-11.77499999999986
  0
LWPOLYLINE
  5
BC
330
1F
100
AcDbEntity
  8
10
  6
Continuous
 62
     7
100
AcDbPolyline
 90
        2
 70
     0
 43
0.5
 10
13.03600000000001
 20
-11.77499999999986
 10
16.50000000000001
 20
-11.77499999999998
  0
LWPOLYLINE
  5
BD
330
1F
100
AcDbEntity
  8
10
  6
Continuous
 62
     7
100
AcDbPolyline
 90
        2
 70
     0
 43
0.5
 10
17.50000000000001
 20
-10.77499999999998
 10
17.50000000000001
 20
50.77500000000003
  0
LWPOLYLINE
  5
BE
330
1F
100
AcDbEntity
  8
10
  6
Continuous
 62
     7
100
AcDbPolyline
 90
        2
 70
     0
 43
0.5
 10
1.6
 20
-2.875
 10
1.6
 20
-10.77499999999998
  0
LWPOLYLINE
  5
BF
330
1F
100
AcDbEntity
  8
10
  6
Continuous
 62
     7
100
AcDbPolyline
 90
        2
 70
     0
 43
0.5
 10
-2.10699999999999
 20
42.15100000000001
 10
-68.28859467189578
 20
32.50017023249191
  0
LWPOLYLINE
  5
C0
330
1F
100
AcDbEntity
  8
10
  6
Continuous
 62
     7
100
AcDbPolyline
 90
        2
 70
     0
 43
0.5
 10
0.6
 20
41.87500000000003
 10
-1.07499999999999
 20
41.87500000000003
  0
LWPOLYLINE
  5
C1
330
1F
100
AcDbEntity
  8
10
  6
Continuous
 62
     7
100
AcDbPolyline
 90
        2
 70
     0
 43
0.5
 10
-1.07499999999999
 20
41.87500000000003
 10
-2.10699999999999
 20
42.15100000000001
  0
LWPOLYLINE
  5
C2
330
1F
100
AcDbEntity
  8
10
  6
Continuous
 62
     7
100
AcDbPolyline
 90
        2
 70
     0
 43
0.5
 10
5.96400000000001
 20
51.77500000000003
 10
7.62500000000001
 20
48.89800000000003
  0
LWPOLYLINE
  5
C3
330
1F
100
AcDbEntity
  8
10
  6
Continuous
 62
     7
100
AcDbPolyline
 90
        2
 70
     0
 43
0.5
 10
11.37500000000001
 20
48.89800000000003
 10
11.37500000000001
 20
48.12500000000003
  0
LWPOLYLINE
  5
C4
330
1F
100
AcDbEntity
  8
10
  6
Continuous
 62
     7
100
AcDbPolyline
 90
        2
 70
     0
 43
0.5
 10
11.37500000000001
 20
48.12500000000003
 10
7.62500000000001
 20
48.12500000000003
  0
LWPOLYLINE
  5
C5
330
1F
100
AcDbEntity
  8
10
  6
Continuous
 62
     7
100
AcDbPolyline
 90
        2
 70
     0
 43
0.5
 10
7.62500000000001
 20
48.12500000000003
 10
7.62500000000001
 20
48.89800000000003
  0
LWPOLYLINE
  5
C6
330
1F
100
AcDbEntity
  8
10
  6
Continuous
 62
     7
100
AcDbPolyline
 90
        2
 70
     0
 43
0.5
 10
13.03600000000001
 20
51.77500000000003
 10
11.37500000000001
 20
48.89800000000003
  0
LWPOLYLINE
  5
C7
330
1F
100
AcDbEntity
  8
10
  6
Continuous
 62
     7
100
AcDbPolyline
 90
        2
 70
     0
 43
0.5
 10
5.96400000000001
 20
-11.77499999999986
 10
7.62500000000001
 20
-8.89799999999997
  0
LWPOLYLINE
  5
C8
330
1F
100
AcDbEntity
  8
10
  6
Continuous
 62
     7
100
AcDbPolyline
 90
        2
 70
     0
 43
0.5
 10
11.37500000000001
 20
-8.89799999999997
 10
11.37500000000001
 20
-8.125
  0
LWPOLYLINE
  5
C9
330
1F
100
AcDbEntity
  8
10
  6
Continuous
 62
     7
100
AcDbPolyline
 90
        2
 70
     0
 43
0.5
 10
11.37500000000001
 20
-8.125
 10
7.62500000000001
 20
-8.125
  0
LWPOLYLINE
  5
CA
330
1F
100
AcDbEntity
  8
10
  6
Continuous
 62
     7
100
AcDbPolyline
 90
        2
 70
     0
 43
0.5
 10
7.62500000000001
 20
-8.125
 10
7.62500000000001
 20
-8.89799999999997
  0
LWPOLYLINE
  5
CB
330
1F
100
AcDbEntity
  8
10
  6
Continuous
 62
     7
100
AcDbPolyline
 90
        2
 70
     0
 43
0.5
 10
13.03600000000001
 20
-11.77499999999986
 10
11.37500000000001
 20
-8.89799999999997
  0
LWPOLYLINE
  5
CC
330
1F
100
AcDbEntity
  8
10
  6
Continuous
 62
     7
100
AcDbPolyline
 90
        2
 70
     0
 43
0.5
 10
0.6
 20
-1.875
 10
-1.07499999999999
 20
-1.875
  0
LWPOLYLINE
  5
CD
330
1F
100
AcDbEntity
  8
10
  6
Continuous
 62
     7
100
AcDbPolyline
 90
        2
 70
     0
 43
0.5
 10
-1.07499999999999
 20
-1.875
 10
-2.10699999999999
 20
-2.15099999999995
  0
LWPOLYLINE
  5
CE
330
1F
100
AcDbEntity
  8
10
  6
Continuous
 62
     7
100
AcDbPolyline
 90
        2
 70
     0
 43
0.5
 10
-2.10699999999999
 20
-2.15099999999995
 10
-68.2886043863813
 20
7.50016295242622
  0
LWPOLYLINE
  5
CF
330
1F
100
AcDbEntity
  8
6
  6
Continuous
 62
     4
100
AcDbPolyline
 90
        2
 70
     0
 43
0.25
 10
68.4
 20
3.0
 10
49.40000000000001
 20
3.0
  0
LWPOLYLINE
  5
D0
330
1F
100
AcDbEntity
  8
6
  6
Continuous
 62
     4
100
AcDbPolyline
 90
        2
 70
     0
 43
0.25
 10
68.4
 20
37.0
 10
68.4
 20
3.0
  0
LWPOLYLINE
  5
D1
330
1F
100
AcDbEntity
  8
6
  6
Continuous
 62
     4
100
AcDbPolyline
 90
        2
 70
     0
 43
0.25
 10
49.40000000000001
 20
37.0
 10
49.40000000000001
 20
3.0
  0
LWPOLYLINE
  5
D2
330
1F
100
AcDbEntity
  8
6
  6
Continuous
 62
     4
100
AcDbPolyline
 90
        2
 70
     0
 43
0.25
 10
68.4
 20
37.0
 10
49.40000000000001
 20
37.0
  0
LWPOLYLINE
  5
D3
330
1F
100
AcDbEntity
  8
1
  6
Continuous
 62
     7
100
AcDbPolyline
 90
        2
 70
     0
 43
0.5
 10
17.5
 20
40.0
 42
0.31616878959595
 10
19.48286576878085
 20
37.17768925245957
 42
0.31616878959595
  0
LWPOLYLINE
  5
D4
330
1F
100
AcDbEntity
  8
1
  6
Continuous
 62
     7
100
AcDbPolyline
 90
        2
 70
     0
 43
0.5
 10
19.48286576878085
 20
37.17768925245957
 42
0.08669152874786
 10
20.5
 20
37.0
 42
0.08669152874786
  0
LWPOLYLINE
  5
D5
330
1F
100
AcDbEntity
  8
1
  6
Continuous
 62
     7
100
AcDbPolyline
 90
        2
 70
     0
 43
0.5
 10
20.5
 20
3.0
 42
0.4142135623731
 10
17.5
 20
0.0
 42
0.4142135623731
  0
LWPOLYLINE
  5
D6
330
1F
100
AcDbEntity
  8
1
  6
Continuous
 62
     7
100
AcDbPolyline
 90
        2
 70
     0
 43
0.5
 10
41.1072135918895
 20
32.79278640811052
 42
0.19892862020262
 10
41.81442713809841
 20
32.5
 42
0.19892862020262
  0
LWPOLYLINE
  5
D7
330
1F
100
AcDbEntity
  8
1
  6
Continuous
 62
     7
100
AcDbPolyline
 90
        2
 70
     0
 43
0.5
 10
37.19278640811051
 20
36.70721359188948
 42
0.198817612294
 10
36.48599999999999
 20
37.0
 42
0.198817612294
  0
LWPOLYLINE
  5
D8
330
1F
100
AcDbEntity
  8
1
  6
Continuous
 62
     7
100
AcDbPolyline
 90
        2
 70
     0
 43
0.5
 10
41.81442713807918
 20
7.5
 42
0.19900712588294
 10
41.10700000000211
 20
7.2070000000021
 42
0.19900712588294
  0
LWPOLYLINE
  5
D9
330
1F
100
AcDbEntity
  8
1
  6
Continuous
 62
     7
100
AcDbPolyline
 90
        2
 70
     0
 43
0.5
 10
36.48557286192032
 20
3.0
 42
0.19892862021037
 10
37.19278640814481
 20
3.29278640814482
 42
0.19892862021037
  0
LWPOLYLINE
  5
DA
330
1F
100
AcDbEntity
  8
10
  6
Continuous
 62
     7
100
AcDbPolyline
 90
        2
 70
     0
 43
0.5
 10
2.6
 20
51.77500000000003
 42
0.4142135623731
 10
1.6
 20
50.77500000000003
 42
0.4142135623731
  0
LWPOLYLINE
  5
DB
330
1F
100
AcDbEntity
  8
10
  6
Continuous
 62
     7
100
AcDbPolyline
 90
        2
 70
     0
 43
0.5
 10
17.50000000000001
 20
50.77500000000003
 42
0.4142135623731
 10
16.50000000000001
 20
51.77500000000003
 42
0.4142135623731
  0
LWPOLYLINE
  5
DC
330
1F
100
AcDbEntity
  8
10
  6
Continuous
 62
     7
100
AcDbPolyline
 90
        2
 70
     0
 43
0.5
 10
16.50000000000001
 20
-11.77499999999998
 42
0.4142135623731
 10
17.50000000000001
 20
-10.77499999999998
 42
0.4142135623731
  0
LWPOLYLINE
  5
DD
330
1F
100
AcDbEntity
  8
10
  6
Continuous
 62
     7
100
AcDbPolyline
 90
        2
 70
     0
 43
0.5
 10
1.6
 20
-10.77499999999998
 42
0.4142135623731
 10
2.6
 20
-11.77499999999998
 42
0.4142135623731
  0
LWPOLYLINE
  5
DE
330
1F
100
AcDbEntity
  8
10
  6
Continuous
 62
     7
100
AcDbPolyline
 90
        2
 70
     0
 43
0.5
 10
0.6
 20
41.87500000000003
 42
0.4142135623731
 10
1.6
 20
42.87500000000003
 42
0.4142135623731
  0
LWPOLYLINE
  5
DF
330
1F
100
AcDbEntity
  8
10
  6
Continuous
 62
     7
100
AcDbPolyline
 90
        2
 70
     0
 43
0.5
 10
1.6
 20
-2.875
 42
0.4142135623731
 10
0.6
 20
-1.875
 42
0.4142135623731
  0
LWPOLYLINE
  5
E0
330
1F
100
AcDbEntity
  8
1
  6
Continuous
 62
     7
100
AcDbPolyline
 90
        2
 70
     0
 43
0.5
 10
-69.99999999999999
 20
9.47923028532861
 42
0.37240896429117
 10
-68.2886043863813
 20
7.50016295242622
 42
0.37240896429117
  0
LWPOLYLINE
  5
E1
330
1F
100
AcDbEntity
  8
1
  6
Continuous
 62
     7
100
AcDbPolyline
 90
        2
 70
     0
 43
0.5
 10
-68.28859467189578
 20
32.50017023249191
 42
0.37241036163794
 10
-69.99999999999999
 20
30.52110148296524
 42
0.37241036163794
  0
DIMENSION
  5
ED
330
1F
100
AcDbEntity
  8
1
100
AcDbDimension
  2
*D2
 10
89.5633423910158
 20
3.0
 30
0.0
 11
85.8133423910158
 21
20.4159242350485
 31
0.0
 70
    32
  1
<>
 71
     5
 42
-1.0
 53
90.0
  3
ME10_DIM_10
100
AcDbAlignedDimension
 13
20.5
 23
37.0
 33
0.0
 14
28.24278643096016
 24
3.0
 34
0.0
 50
90.0
100
AcDbRotatedDimension
  0
DIMENSION
  5
F8
330
1F
100
AcDbEntity
  8
1
100
AcDbDimension
  2
*D3
 10
56.90105833259464
 20
65.4681995244529
 30
0.0
 11
29.548781722516
 21
69.2181995244529
 31
0.0
 70
    32
  1
<>
 71
     5
 42
-1.0
 53
0.00013888888889
  3
ME10_DIM_11
100
AcDbAlignedDimension
 13
-1.6
 23
44.60600000000002
 33
0.0
 14
56.90105833259464
 24
30.58332594637264
 34
0.0
100
AcDbRotatedDimension
  0
DIMENSION
  5
104
330
1F
100
AcDbEntity
  8
1
100
AcDbDimension
  2
*D4
 10
56.90105833259464
 20
82.3142386332495
 30
0.0
 11
-7.21836712604805
 21
86.0642386332495
 31
0.0
 70
    32
  1
<>
 71
     5
 42
-1.0
 53
0.00013888888889
  3
ME10_DIM_12
100
AcDbAlignedDimension
 13
-69.99999999999999
 23
30.52110148296524
 33
0.0
 14
56.90105833259464
 24
30.58332594637264
 34
0.0
100
AcDbRotatedDimension
  0
DIMENSION
  5
10F
330
1F
100
AcDbEntity
  8
1
100
AcDbDimension
  2
*D5
 10
56.90105833259464
 20
56.5103850777119
 30
0.0
 11
37.0359102153145
 21
60.2603850777119
 31
0.0
 70
    32
  1
<>
 71
     5
 42
-1.0
 53
0.00013888888889
  3
ME10_DIM_13
100
AcDbAlignedDimension
 13
17.50000000000001
 23
50.77500000000003
 33
0.0
 14
56.90105833259464
 24
30.58332594637264
 34
0.0
100
AcDbRotatedDimension
  0
DIMENSION
  5
11A
330
1F
100
AcDbEntity
  8
10
100
AcDbDimension
  2
*D6
 10
-1.59999999999999
 20
73.7575203557656
 30
0.0
 11
33.0249485227439
 21
76.5623203557656
 31
0.0
 70
    32
  1
<>
 71
     5
 42
-1.0
 53
0.00013888888889
  3
ME10_DIM_14
100
AcDbAlignedDimension
 13
68.4
 23
34.987
 33
0.0
 14
-1.6
 24
44.60600000000002
 34
0.0
100
AcDbRotatedDimension
  0
DIMENSION
  5
125
330
1F
100
AcDbEntity
  8
1
100
AcDbDimension
  2
*D7
 10
80.0983967427458
 20
30.00003376296663
 30
0.0
 11
76.3483967427458
 21
20.071128476347
 31
0.0
 70
    32
  1
<>
 71
     5
 42
-1.0
 53
90.0
  3
ME10_DIM_15
100
AcDbAlignedDimension
 13
56.901
 23
9.99996623750788
 33
0.0
 14
56.9010000033763
 24
30.00003376296663
 34
0.0
 50
90.0
100
AcDbRotatedDimension
  0
ENDSEC
  0
SECTION
  2
OBJECTS
  0
DICTIONARY
  5
C
330
0
100
AcDbDictionary
281
     1
  3
ACAD_GROUP
350
D
  3
ACAD_LAYOUT
350
1A
  3
ACAD_MLEADERSTYLE
350
128
  3
ACAD_MLINESTYLE
350
17
  3
ACAD_PLOTSETTINGS
350
19
  3
ACAD_PLOTSTYLENAME
350
E
  3
ACAD_SCALELIST
350
49
  3
ACAD_VISUALSTYLE
350
2A
  3
AcDbVariableDictionary
350
126
  0
DICTIONARY
  5
D
102
{ACAD_REACTORS
330
C
102
}
330
C
100
AcDbDictionary
281
     1
  0
DICTIONARY
  5
1A
102
{ACAD_REACTORS
330
C
102
}
330
C
100
AcDbDictionary
281
     1
  3
Layout1
350
1E
  3
Layout2
350
26
  3
Model
350
22
  0
DICTIONARY
  5
128
102
{ACAD_REACTORS
330
C
102
}
330
C
100
AcDbDictionary
281
     1
  0
DICTIONARY
  5
17
102
{ACAD_REACTORS
330
C
102
}
330
C
100
AcDbDictionary
281
     1
  3
Standard
350
18
  0
DICTIONARY
  5
19
102
{ACAD_REACTORS
330
C
102
}
330
C
100
AcDbDictionary
281
     1
  0
ACDBDICTIONARYWDFLT
  5
E
102
{ACAD_REACTORS
330
C
102
}
330
C
100
AcDbDictionary
281
     1
  3
Normal
350
F
100
AcDbDictionaryWithDefault
340
F
  0
DICTIONARY
  5
49
102
{ACAD_REACTORS
330
C
102
}
330
C
100
AcDbDictionary
281
     1
  3
A0
350
4A
  3
A1
350
4B
  3
A2
350
4C
  3
A3
350
4D
  3
A4
350
4E
  3
A5
350
4F
  3
A6
350
50
  3
A7
350
51
  3
A8
350
52
  3
A9
350
53
  3
B0
350
54
  3
B1
350
55
  3
B2
350
56
  3
B3
350
57
  3
B4
350
58
  3
B5
350
59
  3
B6
350
5A
  3
B7
350
5B
  3
B8
350
5C
  3
B9
350
5D
  3
C0
350
5E
  3
C1
350
5F
  3
C2
350
60
  3
C3
350
61
  3
C4
350
62
  3
C5
350
63
  3
C6
350
64
  3
C7
350
65
  3
C8
350
66
  3
C9
350
67
  3
D0
350
68
  3
D1
350
69
  3
D2
350
6A
  0
DICTIONARY
  5
2A
102
{ACAD_REACTORS
330
C
102
}
330
C
100
AcDbDictionary
281
     1
  3
2dWireframe
350
2F
  3
3D Hidden
350
31
  3
3dWireframe
350
30
  3
Basic
350
32
  3
Brighten
350
36
  3
ColorChange
350
3A
  3
Conceptual
350
34
  3
Dim
350
35
  3
Facepattern
350
39
  3
Flat
350
2B
  3
FlatWithEdges
350
2C
  3
Gouraud
350
2D
  3
GouraudWithEdges
350
2E
  3
Linepattern
350
38
  3
Realistic
350
33
  3
Thicken
350
37
  0
DICTIONARY
  5
126
102
{ACAD_REACTORS
330
C
102
}
330
C
100
AcDbDictionary
281
     1
  3
CANNOSCALE
350
129
  0
LAYOUT
  5
1E
102
{ACAD_REACTORS
330
1A
102
}
330
1A
100
AcDbPlotSettings
  1

  2
none_device
  4

  6

 40
0.0
 41
0.0
 42
0.0
 43
0.0
 44
0.0
 45
0.0
 46
0.0
 47
0.0
 48
0.0
 49
0.0
140
0.0
141
0.0
142
1.0
143
1.0
 70
   688
 72
     0
 73
     0
 74
     5
  7

 75
    16
147
1.0
148
0.0
149
0.0
100
AcDbLayout
  1
Layout1
 70
     1
 71
     1
 10
0.0
 20
0.0
 11
12.0
 21
9.0
 12
0.0
 22
0.0
 32
0.0
 14
1.00000000000000E+20
 24
1.00000000000000E+20
 34
1.00000000000000E+20
 15
-1.00000000000000E+20
 25
-1.00000000000000E+20
 35
-1.00000000000000E+20
146
0.0
 13
0.0
 23
0.0
 33
0.0
 16
1.0
 26
0.0
 36
0.0
 17
0.0
 27
1.0
 37
0.0
 76
     0
330
1B
  0
LAYOUT
  5
26
102
{ACAD_REACTORS
330
1A
102
}
330
1A
100
AcDbPlotSettings
  1

  2
none_device
  4

  6

 40
0.0
 41
0.0
 42
0.0
 43
0.0
 44
0.0
 45
0.0
 46
0.0
 47
0.0
 48
0.0
 49
0.0
140
0.0
141
0.0
142
1.0
143
1.0
 70
   688
 72
     0
 73
     0
 74
     5
  7

 75
    16
147
1.0
148
0.0
149
0.0
100
AcDbLayout
  1
Layout2
 70
     1
 71
     2
 10
0.0
 20
0.0
 11
0.0
 21
0.0
 12
0.0
 22
0.0
 32
0.0
 14
0.0
 24
0.0
 34
0.0
 15
0.0
 25
0.0
 35
0.0
146
0.0
 13
0.0
 23
0.0
 33
0.0
 16
1.0
 26
0.0
 36
0.0
 17
0.0
 27
1.0
 37
0.0
 76
     0
330
23
  0
LAYOUT
  5
22
102
{ACAD_REACTORS
330
1A
102
}
330
1A
100
AcDbPlotSettings
  1

  2
none_device
  4

  6

 40
0.0
 41
0.0
 42
0.0
 43
0.0
 44
0.0
 45
0.0
 46
0.0
 47
0.0
 48
0.0
 49
0.0
140
0.0
141
0.0
142
1.0
143
1.0
 70
  1712
 72
     0
 73
     0
 74
     0
  7

 75
     0
147
1.0
148
0.0
149
0.0
100
AcDbLayout
  1
Model
 70
     1
 71
     0
 10
0.0
 20
0.0
 11
12.0
 21
9.0
 12
0.0
 22
0.0
 32
0.0
 14
-93.9953910255581
 24
-13.02699999999999
 34
0.0
 15
91.5633423910158
 25
87.8142386332495
 35
0.0
146
0.0
 13
0.0
 23
0.0
 33
0.0
 16
1.0
 26
0.0
 36
0.0
 17
0.0
 27
1.0
 37
0.0
 76
     0
330
1F
331
29
  0
MLINESTYLE
  5
18
102
{ACAD_REACTORS
330
17
102
}
330
17
100
AcDbMlineStyle
  2
Standard
 70
     0
  3

 62
   256
 51
90.0
 52
90.0
 71
     2
 49
0.5
 62
   256
  6
BYLAYER
 49
-0.5
 62
   256
  6
BYLAYER
  0
ACDBPLACEHOLDER
  5
F
102
{ACAD_REACTORS
330
E
102
}
330
E
  0
SCALE
  5
4A
102
{ACAD_REACTORS
330
49
102
}
330
49
100
AcDbScale
 70
     0
300
1:1
140
1.0
141
1.0
290
     1
  0
SCALE
  5
4B
102
{ACAD_REACTORS
330
49
102
}
330
49
100
AcDbScale
 70
     0
300
1:2
140
1.0
141
2.0
290
     0
  0
SCALE
  5
4C
102
{ACAD_REACTORS
330
49
102
}
330
49
100
AcDbScale
 70
     0
300
1:4
140
1.0
141
4.0
290
     0
  0
SCALE
  5
4D
102
{ACAD_REACTORS
330
49
102
}
330
49
100
AcDbScale
 70
     0
300
1:5
140
1.0
141
5.0
290
     0
  0
SCALE
  5
4E
102
{ACAD_REACTORS
330
49
102
}
330
49
100
AcDbScale
 70
     0
300
1:8
140
1.0
141
8.0
290
     0
  0
SCALE
  5
4F
102
{ACAD_REACTORS
330
49
102
}
330
49
100
AcDbScale
 70
     0
300
1:10
140
1.0
141
10.0
290
     0
  0
SCALE
  5
50
102
{ACAD_REACTORS
330
49
102
}
330
49
100
AcDbScale
 70
     0
300
1:16
140
1.0
141
16.0
290
     0
  0
SCALE
  5
51
102
{ACAD_REACTORS
330
49
102
}
330
49
100
AcDbScale
 70
     0
300
1:20
140
1.0
141
20.0
290
     0
  0
SCALE
  5
52
102
{ACAD_REACTORS
330
49
102
}
330
49
100
AcDbScale
 70
     0
300
1:30
140
1.0
141
30.0
290
     0
  0
SCALE
  5
53
102
{ACAD_REACTORS
330
49
102
}
330
49
100
AcDbScale
 70
     0
300
1:40
140
1.0
141
40.0
290
     0
  0
SCALE
  5
54
102
{ACAD_REACTORS
330
49
102
}
330
49
100
AcDbScale
 70
     0
300
1:50
140
1.0
141
50.0
290
     0
  0
SCALE
  5
55
102
{ACAD_REACTORS
330
49
102
}
330
49
100
AcDbScale
 70
     0
300
1:100
140
1.0
141
100.0
290
     0
  0
SCALE
  5
56
102
{ACAD_REACTORS
330
49
102
}
330
49
100
AcDbScale
 70
     0
300
2:1
140
2.0
141
1.0
290
     0
  0
SCALE
  5
57
102
{ACAD_REACTORS
330
49
102
}
330
49
100
AcDbScale
 70
     0
300
4:1
140
4.0
141
1.0
290
     0
  0
SCALE
  5
58
102
{ACAD_REACTORS
330
49
102
}
330
49
100
AcDbScale
 70
     0
300
8:1
140
8.0
141
1.0
290
     0
  0
SCALE
  5
59
102
{ACAD_REACTORS
330
49
102
}
330
49
100
AcDbScale
 70
     0
300
10:1
140
10.0
141
1.0
290
     0
  0
SCALE
  5
5A
102
{ACAD_REACTORS
330
49
102
}
330
49
100
AcDbScale
 70
     0
300
100:1
140
100.0
141
1.0
290
     0
  0
SCALE
  5
5B
102
{ACAD_REACTORS
330
49
102
}
330
49
100
AcDbScale
 70
     0
300
1/128" = 1'-0"
140
0.0078125
141
12.0
290
     0
  0
SCALE
  5
5C
102
{ACAD_REACTORS
330
49
102
}
330
49
100
AcDbScale
 70
     0
300
1/64" = 1'-0"
140
0.015625
141
12.0
290
     0
  0
SCALE
  5
5D
102
{ACAD_REACTORS
330
49
102
}
330
49
100
AcDbScale
 70
     0
300
1/32" = 1'-0"
140
0.03125
141
12.0
290
     0
  0
SCALE
  5
5E
102
{ACAD_REACTORS
330
49
102
}
330
49
100
AcDbScale
 70
     0
300
1/16" = 1'-0"
140
0.0625
141
12.0
290
     0
  0
SCALE
  5
5F
102
{ACAD_REACTORS
330
49
102
}
330
49
100
AcDbScale
 70
     0
300
3/32" = 1'-0"
140
0.09375
141
12.0
290
     0
  0
SCALE
  5
60
102
{ACAD_REACTORS
330
49
102
}
330
49
100
AcDbScale
 70
     0
300
1/8" = 1'-0"
140
0.125
141
12.0
290
     0
  0
SCALE
  5
61
102
{ACAD_REACTORS
330
49
102
}
330
49
100
AcDbScale
 70
     0
300
3/16" = 1'-0"
140
0.1875
141
12.0
290
     0
  0
SCALE
  5
62
102
{ACAD_REACTORS
330
49
102
}
330
49
100
AcDbScale
 70
     0
300
1/4" = 1'-0"
140
0.25
141
12.0
290
     0
  0
SCALE
  5
63
102
{ACAD_REACTORS
330
49
102
}
330
49
100
AcDbScale
 70
     0
300
3/8" = 1'-0"
140
0.375
141
12.0
290
     0
  0
SCALE
  5
64
102
{ACAD_REACTORS
330
49
102
}
330
49
100
AcDbScale
 70
     0
300
1/2" = 1'-0"
140
0.5
141
12.0
290
     0
  0
SCALE
  5
65
102
{ACAD_REACTORS
330
49
102
}
330
49
100
AcDbScale
 70
     0
300
3/4" = 1'-0"
140
0.75
141
12.0
290
     0
  0
SCALE
  5
66
102
{ACAD_REACTORS
330
49
102
}
330
49
100
AcDbScale
 70
     0
300
1" = 1'-0"
140
1.0
141
12.0
290
     0
  0
SCALE
  5
67
102
{ACAD_REACTORS
330
49
102
}
330
49
100
AcDbScale
 70
     0
300
1-1/2" = 1'-0"
140
1.5
141
12.0
290
     0
  0
SCALE
  5
68
102
{ACAD_REACTORS
330
49
102
}
330
49
100
AcDbScale
 70
     0
300
3" = 1'-0"
140
3.0
141
12.0
290
     0
  0
SCALE
  5
69
102
{ACAD_REACTORS
330
49
102
}
330
49
100
AcDbScale
 70
     0
300
6" = 1'-0"
140
6.0
141
12.0
290
     0
  0
SCALE
  5
6A
102
{ACAD_REACTORS
330
49
102
}
330
49
100
AcDbScale
 70
     0
300
1'-0" = 1'-0"
140
12.0
141
12.0
290
     0
  0
VISUALSTYLE
  5
2F
102
{ACAD_REACTORS
330
2A
102
}
330
2A
100
AcDbVisualStyle
  2
2dWireframe
 70
     4
 71
     0
 72
     2
 73
     0
 90
        0
 40
-0.6
 41
-30.0
 62
     5
 63
     7
 74
     1
 91
        4
 64
     7
 65
   257
 75
     1
175
     1
 42
1.0
 92
        0
 66
   257
 43
1.0
 76
     1
 77
     6
 78
     2
 67
     7
 79
     5
170
     0
171
     0
290
     0
174
     0
 93
        1
 44
0.0
173
     0
291
     0
 45
0.0
1001
ACAD
1000
AcDbSavedByObjectVersion
1070
     0
  0
VISUALSTYLE
  5
31
102
{ACAD_REACTORS
330
2A
102
}
330
2A
100
AcDbVisualStyle
  2
3D Hidden
 70
     6
 71
     1
 72
     2
 73
     2
 90
        0
 40
-0.6
 41
-30.0
 62
     5
 63
     7
 74
     2
 91
        2
 64
     7
 65
   257
 75
     2
175
     1
 42
40.0
 92
        0
 66
   257
 43
1.0
 76
     1
 77
     6
 78
     2
 67
     7
 79
     3
170
     0
171
     0
290
     0
174
     0
 93
        1
 44
0.0
173
     0
291
     0
 45
0.0
1001
ACAD
1000
AcDbSavedByObjectVersion
1070
     0
  0
VISUALSTYLE
  5
30
102
{ACAD_REACTORS
330
2A
102
}
330
2A
100
AcDbVisualStyle
  2
3dWireframe
 70
     5
 71
     0
 72
     2
 73
     0
 90
        0
 40
-0.6
 41
-30.0
 62
     5
 63
     7
 74
     1
 91
        4
 64
     7
 65
   257
 75
     1
175
     1
 42
1.0
 92
        0
 66
   257
 43
1.0
 76
     1
 77
     6
 78
     2
 67
     7
 79
     5
170
     0
171
     0
290
     0
174
     0
 93
        1
 44
0.0
173
     0
291
     0
 45
0.0
1001
ACAD
1000
AcDbSavedByObjectVersion
1070
     0
  0
VISUALSTYLE
  5
32
102
{ACAD_REACTORS
330
2A
102
}
330
2A
100
AcDbVisualStyle
  2
Basic
 70
     7
 71
     1
 72
     0
 73
     1
 90
        0
 40
-0.6
 41
-30.0
 62
     5
 63
     7
 74
     0
 91
        4
 64
     7
 65
   257
 75
     1
175
     1
 42
1.0
 92
        8
 66
     7
 43
1.0
 76
     1
 77
     6
 78
     2
 67
     7
 79
     5
170
     0
171
     0
290
     0
174
     0
 93
        1
 44
0.0
173
     0
291
     1
 45
0.0
1001
ACAD
1000
AcDbSavedByObjectVersion
1070
     0
  0
VISUALSTYLE
  5
36
102
{ACAD_REACTORS
330
2A
102
}
330
2A
100
AcDbVisualStyle
  2
Brighten
 70
    12
 71
     2
 72
     2
 73
     0
 90
        0
 40
-0.6
 41
-30.0
 62
     5
 63
     7
 74
     1
 91
        4
 64
     7
 65
   257
 75
     1
175
     1
 42
1.0
 92
        8
 66
     7
 43
1.0
 76
     1
 77
     6
 78
     2
 67
     7
 79
     5
170
     0
171
     0
290
     0
174
     0
 93
        1
 44
50.0
173
     0
291
     1
 45
0.0
1001
ACAD
1000
AcDbSavedByObjectVersion
1070
     0
  0
VISUALSTYLE
  5
3A
102
{ACAD_REACTORS
330
2A
102
}
330
2A
100
AcDbVisualStyle
  2
ColorChange
 70
    16
 71
     2
 72
     2
 73
     3
 90
        0
 40
-0.6
 41
-30.0
 62
     5
 63
     8
 74
     1
 91
        4
 64
     7
 65
   257
 75
     1
175
     1
 42
1.0
 92
        8
 66
     8
 43
1.0
 76
     1
 77
     6
 78
     2
 67
     7
 79
     5
170
     0
171
     0
290
     0
174
     0
 93
        1
 44
0.0
173
     0
291
     1
 45
0.0
1001
ACAD
1000
AcDbSavedByObjectVersion
1070
     0
  0
VISUALSTYLE
  5
34
102
{ACAD_REACTORS
330
2A
102
}
330
2A
100
AcDbVisualStyle
  2
Conceptual
 70
     9
 71
     3
 72
     2
 73
     0
 90
        0
 40
-0.6
 41
-30.0
 62
     5
 63
     7
 74
     2
 91
        2
 64
     7
 65
   257
 75
     1
175
     1
 42
40.0
 92
        8
 66
     7
 43
1.0
 76
     1
 77
     6
 78
     2
 67
     7
 79
     3
170
     0
171
     0
290
     0
174
     0
 93
        1
 44
0.0
173
     0
291
     0
 45
0.0
1001
ACAD
1000
AcDbSavedByObjectVersion
1070
     0
  0
VISUALSTYLE
  5
35
102
{ACAD_REACTORS
330
2A
102
}
330
2A
100
AcDbVisualStyle
  2
Dim
 70
    11
 71
     2
 72
     2
 73
     0
 90
        0
 40
-0.6
 41
-30.0
 62
     5
 63
     7
 74
     1
 91
        4
 64
     7
 65
   257
 75
     1
175
     1
 42
1.0
 92
        8
 66
     7
 43
1.0
 76
     1
 77
     6
 78
     2
 67
     7
 79
     5
170
     0
171
     0
290
     0
174
     0
 93
        1
 44
-50.0
173
     0
291
     1
 45
0.0
1001
ACAD
1000
AcDbSavedByObjectVersion
1070
     0
  0
VISUALSTYLE
  5
39
102
{ACAD_REACTORS
330
2A
102
}
330
2A
100
AcDbVisualStyle
  2
Facepattern
 70
    15
 71
     2
 72
     2
 73
     0
 90
        0
 40
-0.6
 41
-30.0
 62
     5
 63
     7
 74
     1
 91
        4
 64
     7
 65
   257
 75
     1
175
     1
 42
1.0
 92
        8
 66
     7
 43
1.0
 76
     1
 77
     6
 78
     2
 67
     7
 79
     5
170
     0
171
     0
290
     0
174
     0
 93
        1
 44
0.0
173
     0
291
     1
 45
0.0
1001
ACAD
1000
AcDbSavedByObjectVersion
1070
     0
  0
VISUALSTYLE
  5
2B
102
{ACAD_REACTORS
330
2A
102
}
330
2A
100
AcDbVisualStyle
  2
Flat
 70
     0
 71
     2
 72
     1
 73
     1
 90
        2
 40
-0.6
 41
30.0
 62
     5
 63
     7
 74
     0
 91
        4
 64
     7
 65
   257
 75
     1
175
     1
 42
1.0
 92
        8
 66
     7
 43
1.0
 76
     1
 77
     6
 78
     2
 67
     7
 79
     5
170
     0
171
     0
290
     0
174
     0
 93
       13
 44
0.0
173
     0
291
     1
 45
0.0
1001
ACAD
1000
AcDbSavedByObjectVersion
1070
     0
  0
VISUALSTYLE
  5
2C
102
{ACAD_REACTORS
330
2A
102
}
330
2A
100
AcDbVisualStyle
  2
FlatWithEdges
 70
     1
 71
     2
 72
     1
 73
     1
 90
        2
 40
-0.6
 41
30.0
 62
     5
 63
     7
 74
     1
 91
        4
 64
     7
 65
   257
 75
     1
175
     1
 42
1.0
 92
        0
 66
   257
 43
1.0
 76
     1
 77
     6
 78
     2
 67
     7
 79
     5
170
     0
171
     0
290
     0
174
     0
 93
       13
 44
0.0
173
     0
291
     1
 45
0.0
1001
ACAD
1000
AcDbSavedByObjectVersion
1070
     0
  0
VISUALSTYLE
  5
2D
102
{ACAD_REACTORS
330
2A
102
}
330
2A
100
AcDbVisualStyle
  2
Gouraud
 70
     2
 71
     2
 72
     2
 73
     1
 90
        2
 40
-0.6
 41
30.0
 62
     5
 63
     7
 74
     0
 91
        4
 64
     7
 65
   257
 75
     1
175
     1
 42
1.0
 92
        0
 66
     7
 43
1.0
 76
     1
 77
     6
 78
     2
 67
     7
 79
     5
170
     0
171
     0
290
     0
174
     0
 93
       13
 44
0.0
173
     0
291
     1
 45
0.0
1001
ACAD
1000
AcDbSavedByObjectVersion
1070
     0
  0
VISUALSTYLE
  5
2E
102
{ACAD_REACTORS
330
2A
102
}
330
2A
100
AcDbVisualStyle
  2
GouraudWithEdges
 70
     3
 71
     2
 72
     2
 73
     1
 90
        2
 40
-0.6
 41
30.0
 62
     5
 63
     7
 74
     1
 91
        4
 64
     7
 65
   257
 75
     1
175
     1
 42
1.0
 92
        0
 66
   257
 43
1.0
 76
     1
 77
     6
 78
     2
 67
     7
 79
     5
170
     0
171
     0
290
     0
174
     0
 93
       13
 44
0.0
173
     0
291
     1
 45
0.0
1001
ACAD
1000
AcDbSavedByObjectVersion
1070
     0
  0
VISUALSTYLE
  5
38
102
{ACAD_REACTORS
330
2A
102
}
330
2A
100
AcDbVisualStyle
  2
Linepattern
 70
    14
 71
     2
 72
     2
 73
     0
 90
        0
 40
-0.6
 41
-30.0
 62
     5
 63
     7
 74
     1
 91
        4
 64
     7
 65
   257
 75
     7
175
     7
 42
1.0
 92
        8
 66
     7
 43
1.0
 76
     1
 77
     6
 78
     2
 67
     7
 79
     5
170
     0
171
     0
290
     0
174
     0
 93
        1
 44
0.0
173
     0
291
     1
 45
0.0
1001
ACAD
1000
AcDbSavedByObjectVersion
1070
     0
  0
VISUALSTYLE
  5
33
102
{ACAD_REACTORS
330
2A
102
}
330
2A
100
AcDbVisualStyle
  2
Realistic
 70
     8
 71
     2
 72
     2
 73
     0
 90
        0
 40
-0.6
 41
-30.0
 62
     5
 63
     7
 74
     1
 91
        0
 64
     7
 65
   257
 75
     1
175
     1
 42
1.0
 92
        8
 66
     8
 43
1.0
 76
     1
 77
     6
 78
     2
 67
     7
 79
     5
170
     0
171
     0
290
     0
174
     0
 93
       13
 44
0.0
173
     0
291
     0
 45
0.0
1001
ACAD
1000
AcDbSavedByObjectVersion
1070
     0
  0
VISUALSTYLE
  5
37
102
{ACAD_REACTORS
330
2A
102
}
330
2A
100
AcDbVisualStyle
  2
Thicken
 70
    13
 71
     2
 72
     2
 73
     0
 90
        0
 40
-0.6
 41
-30.0
 62
     5
 63
     7
 74
     1
 91
        4
 64
     7
 65
   257
 75
     1
175
     1
 42
1.0
 92
       12
 66
     7
 43
1.0
 76
     1
 77
     6
 78
     2
 67
     7
 79
     5
170
     0
171
     0
290
     0
174
     0
 93
        1
 44
0.0
173
     0
291
     1
 45
0.0
1001
ACAD
1000
AcDbSavedByObjectVersion
1070
     0
  0
DICTIONARYVAR
  5
129
102
{ACAD_REACTORS
330
126
102
}
330
126
100
DictionaryVariables
280
     0
  1
1:1
  0
ENDSEC
  0
EOF
