  0
SECTION
  2
HEADER
  9
$ACADVER
  1
AC1015
  9
$ACADMAINTVER
 70
     6
  9
$DWGCODEPAGE
  3
ANSI_1252
  9
$INSBASE
 10
0.0
 20
0.0
 30
0.0
  9
$EXTMIN
 10
37.53923982869987
 20
274.1962310085997
 30
0.0
  9
$EXTMAX
 10
292.035525859742
 20
380.289231161433
 30
0.0
  9
$LIMMIN
 10
0.0
 20
0.0
  9
$LIMMAX
 10
12.0
 20
9.0
  9
$ORTHOMODE
 70
     0
  9
$REGENMODE
 70
     1
  9
$FILLMODE
 70
     1
  9
$QTEXTMODE
 70
     0
  9
$MIRRTEXT
 70
     1
  9
$LTSCALE
 40
1.0
  9
$ATTMODE
 70
     1
  9
$TEXTSIZE
 40
0.2
  9
$TRACEWID
 40
0.05
  9
$TEXTSTYLE
  7
Standard
  9
$CLAYER
  8
0
  9
$CELTYPE
  6
ByLayer
  9
$CECOLOR
 62
   256
  9
$CELTSCALE
 40
1.0
  9
$DISPSILH
 70
     0
  9
$DIMSCALE
 40
1.0
  9
$DIMASZ
 40
0.18
  9
$DIMEXO
 40
0.0625
  9
$DIMDLI
 40
0.38
  9
$DIMRND
 40
0.0
  9
$DIMDLE
 40
0.0
  9
$DIMEXE
 40
0.18
  9
$DIMTP
 40
0.0
  9
$DIMTM
 40
0.0
  9
$DIMTXT
 40
0.18
  9
$DIMCEN
 40
0.09
  9
$DIMTSZ
 40
0.0
  9
$DIMTOL
 70
     0
  9
$DIMLIM
 70
     0
  9
$DIMTIH
 70
     1
  9
$DIMTOH
 70
     1
  9
$DIMSE1
 70
     0
  9
$DIMSE2
 70
     0
  9
$DIMTAD
 70
     0
  9
$DIMZIN
 70
     0
  9
$DIMBLK
  1

  9
$DIMASO
 70
     1
  9
$DIMSHO
 70
     1
  9
$DIMPOST
  1

  9
$DIMAPOST
  1

  9
$DIMALT
 70
     0
  9
$DIMALTD
 70
     2
  9
$DIMALTF
 40
25.4
  9
$DIMLFAC
 40
1.0
  9
$DIMTOFL
 70
     0
  9
$DIMTVP
 40
0.0
  9
$DIMTIX
 70
     0
  9
$DIMSOXD
 70
     0
  9
$DIMSAH
 70
     0
  9
$DIMBLK1
  1

  9
$DIMBLK2
  1

  9
$DIMSTYLE
  2
Standard
  9
$DIMCLRD
 70
     0
  9
$DIMCLRE
 70
     0
  9
$DIMCLRT
 70
     0
  9
$DIMTFAC
 40
1.0
  9
$DIMGAP
 40
0.09
  9
$DIMJUST
 70
     0
  9
$DIMSD1
 70
     0
  9
$DIMSD2
 70
     0
  9
$DIMTOLJ
 70
     1
  9
$DIMTZIN
 70
     0
  9
$DIMALTZ
 70
     0
  9
$DIMALTTZ
 70
     0
  9
$DIMUPT
 70
     0
  9
$DIMDEC
 70
     4
  9
$DIMTDEC
 70
     4
  9
$DIMALTU
 70
     2
  9
$DIMALTTD
 70
     2
  9
$DIMTXSTY
  7
Standard
  9
$DIMAUNIT
 70
     0
  9
$DIMADEC
 70
     0
  9
$DIMALTRND
 40
0.0
  9
$DIMAZIN
 70
     0
  9
$DIMDSEP
 70
    46
  9
$DIMATFIT
 70
     3
  9
$DIMFRAC
 70
     0
  9
$DIMLDRBLK
  1

  9
$DIMLUNIT
 70
     2
  9
$DIMLWD
 70
    -2
  9
$DIMLWE
 70
    -2
  9
$DIMTMOVE
 70
     0
  9
$LUNITS
 70
     2
  9
$LUPREC
 70
     4
  9
$SKETCHINC
 40
0.1
  9
$FILLETRAD
 40
0.5
  9
$AUNITS
 70
     0
  9
$AUPREC
 70
     0
  9
$MENU
  1
.
  9
$ELEVATION
 40
0.0
  9
$PELEVATION
 40
0.0
  9
$THICKNESS
 40
0.0
  9
$LIMCHECK
 70
     0
  9
$CHAMFERA
 40
0.5
  9
$CHAMFERB
 40
0.5
  9
$CHAMFERC
 40
1.0
  9
$CHAMFERD
 40
0.0
  9
$SKPOLY
 70
     0
  9
$TDCREATE
 40
2456820.710985625
  9
$TDUCREATE
 40
2456820.627652292
  9
$TDUPDATE
 40
2456820.710985637
  9
$TDUUPDATE
 40
2456820.627652303
  9
$TDINDWG
 40
0.0000000116
  9
$TDUSRTIMER
 40
0.0000000116
  9
$USRTIMER
 70
     1
  9
$ANGBASE
 50
0.0
  9
$ANGDIR
 70
     0
  9
$PDMODE
 70
     0
  9
$PDSIZE
 40
0.0
  9
$PLINEWID
 40
0.0
  9
$SPLFRAME
 70
     0
  9
$SPLINETYPE
 70
     6
  9
$SPLINESEGS
 70
     8
  9
$HANDSEED
  5
102
  9
$SURFTAB1
 70
     6
  9
$SURFTAB2
 70
     6
  9
$SURFTYPE
 70
     6
  9
$SURFU
 70
     6
  9
$SURFV
 70
     6
  9
$UCSBASE
  2

  9
$UCSNAME
  2

  9
$UCSORG
 10
0.0
 20
0.0
 30
0.0
  9
$UCSXDIR
 10
1.0
 20
0.0
 30
0.0
  9
$UCSYDIR
 10
0.0
 20
1.0
 30
0.0
  9
$UCSORTHOREF
  2

  9
$UCSORTHOVIEW
 70
     0
  9
$UCSORGTOP
 10
0.0
 20
0.0
 30
0.0
  9
$UCSORGBOTTOM
 10
0.0
 20
0.0
 30
0.0
  9
$UCSORGLEFT
 10
0.0
 20
0.0
 30
0.0
  9
$UCSORGRIGHT
 10
0.0
 20
0.0
 30
0.0
  9
$UCSORGFRONT
 10
0.0
 20
0.0
 30
0.0
  9
$UCSORGBACK
 10
0.0
 20
0.0
 30
0.0
  9
$PUCSBASE
  2

  9
$PUCSNAME
  2

  9
$PUCSORG
 10
0.0
 20
0.0
 30
0.0
  9
$PUCSXDIR
 10
1.0
 20
0.0
 30
0.0
  9
$PUCSYDIR
 10
0.0
 20
1.0
 30
0.0
  9
$PUCSORTHOREF
  2

  9
$PUCSORTHOVIEW
 70
     0
  9
$PUCSORGTOP
 10
0.0
 20
0.0
 30
0.0
  9
$PUCSORGBOTTOM
 10
0.0
 20
0.0
 30
0.0
  9
$PUCSORGLEFT
 10
0.0
 20
0.0
 30
0.0
  9
$PUCSORGRIGHT
 10
0.0
 20
0.0
 30
0.0
  9
$PUCSORGFRONT
 10
0.0
 20
0.0
 30
0.0
  9
$PUCSORGBACK
 10
0.0
 20
0.0
 30
0.0
  9
$USERI1
 70
     0
  9
$USERI2
 70
     0
  9
$USERI3
 70
     0
  9
$USERI4
 70
     0
  9
$USERI5
 70
     0
  9
$USERR1
 40
16.5
  9
$USERR2
 40
0.0
  9
$USERR3
 40
0.0
  9
$USERR4
 40
0.0
  9
$USERR5
 40
0.0
  9
$WORLDVIEW
 70
     1
  9
$SHADEDGE
 70
     3
  9
$SHADEDIF
 70
    70
  9
$TILEMODE
 70
     1
  9
$MAXACTVP
 70
    64
  9
$PINSBASE
 10
0.0
 20
0.0
 30
0.0
  9
$PLIMCHECK
 70
     0
  9
$PEXTMIN
 10
1.00000000000000E+20
 20
1.00000000000000E+20
 30
1.00000000000000E+20
  9
$PEXTMAX
 10
-1.00000000000000E+20
 20
-1.00000000000000E+20
 30
-1.00000000000000E+20
  9
$PLIMMIN
 10
0.0
 20
0.0
  9
$PLIMMAX
 10
12.0
 20
9.0
  9
$UNITMODE
 70
     0
  9
$VISRETAIN
 70
     1
  9
$PLINEGEN
 70
     0
  9
$PSLTSCALE
 70
     1
  9
$TREEDEPTH
 70
  3020
  9
$CMLSTYLE
  2
Standard
  9
$CMLJUST
 70
     0
  9
$CMLSCALE
 40
1.0
  9
$PROXYGRAPHICS
 70
     1
  9
$MEASUREMENT
 70
     1
  9
$CELWEIGHT
370
    -1
  9
$ENDCAPS
280
     0
  9
$JOINSTYLE
280
     0
  9
$LWDISPLAY
290
     0
  9
$INSUNITS
 70
     1
  9
$HYPERLINKBASE
  1

  9
$STYLESHEET
  1

  9
$XEDIT
290
     1
  9
$CEPSNTYPE
380
     0
  9
$PSTYLEMODE
290
     1
  9
$FINGERPRINTGUID
  2
{4341F45A-F508-49E0-A16D-6A3B737DBFAD}
  9
$VERSIONGUID
  2
{FAEB1C32-E019-11D5-929B-00C0DF256EC4}
  9
$EXTNAMES
290
     1
  9
$PSVPSCALE
 40
0.0
  9
$OLESTARTUP
290
     0
  0
ENDSEC
  0
SECTION
  2
CLASSES
  0
CLASS
  1
ACDBDICTIONARYWDFLT
  2
AcDbDictionaryWithDefault
  3
ObjectDBX Classes
 90
        0
280
     0
281
     0
  0
CLASS
  1
VISUALSTYLE
  2
AcDbVisualStyle
  3
ObjectDBX Classes
 90
     4095
280
     0
281
     0
  0
CLASS
  1
SCALE
  2
AcDbScale
  3
ObjectDBX Classes
 90
     1153
280
     0
281
     0
  0
CLASS
  1

  2
exOdDbPolyline
  3

 90
        0
280
     0
281
     1
  0
CLASS
  1

  2
exOdDbSpline
  3

 90
        0
280
     0
281
     1
  0
CLASS
  1
DICTIONARYVAR
  2
AcDbDictionaryVar
  3
ObjectDBX Classes
 90
        0
280
     0
281
     0
  0
CLASS
  1
ACDBPLACEHOLDER
  2
AcDbPlaceHolder
  3
ObjectDBX Classes
 90
        0
280
     0
281
     0
  0
CLASS
  1
LAYOUT
  2
AcDbLayout
  3
ObjectDBX Classes
 90
        0
280
     0
281
     0
  0
ENDSEC
  0
SECTION
  2
TABLES
  0
TABLE
  2
VPORT
  5
8
330
0
100
AcDbSymbolTable
 70
     1
  0
VPORT
  5
29
330
8
100
AcDbSymbolTableRecord
100
AcDbViewportTableRecord
  2
*Active
 70
     0
 10
0.0
 20
0.0
 11
1.0
 21
1.0
 12
164.7873828442209
 22
327.2427310850163
 13
0.0
 23
0.0
 14
0.5
 24
0.5
 15
0.5
 25
0.5
 16
0.0
 26
0.0
 36
1.0
 17
0.0
 27
0.0
 37
0.0
 40
174.6737740335622
 41
1.60267857142857
 42
50.0
 43
0.0
 44
0.0
 50
0.0
 51
0.0
 71
     0
 72
   100
 73
     1
 74
     3
 75
     0
 76
     0
 77
     0
 78
     0
281
     0
 65
     1
110
0.0
120
0.0
130
0.0
111
1.0
121
0.0
131
0.0
112
0.0
122
1.0
132
0.0
 79
     0
146
0.0
  0
ENDTAB
  0
TABLE
  2
LTYPE
  5
5
330
0
100
AcDbSymbolTable
 70
     8
  0
LTYPE
  5
14
330
5
100
AcDbSymbolTableRecord
100
AcDbLinetypeTableRecord
  2
ByBlock
 70
     0
  3

 72
    65
 73
     0
 40
0.0
  0
LTYPE
  5
15
330
5
100
AcDbSymbolTableRecord
100
AcDbLinetypeTableRecord
  2
ByLayer
 70
     0
  3

 72
    65
 73
     0
 40
0.0
  0
LTYPE
  5
16
330
5
100
AcDbSymbolTableRecord
100
AcDbLinetypeTableRecord
  2
Continuous
 70
     0
  3
Solid line
 72
    65
 73
     0
 40
0.0
  0
LTYPE
  5
3B
330
5
100
AcDbSymbolTableRecord
100
AcDbLinetypeTableRecord
  2
DASHED
 70
     0
  3
Dashed
 72
    65
 73
     2
 40
15.0
 49
7.0
 74
     0
 49
-8.0
 74
     0
  0
LTYPE
  5
3C
330
5
100
AcDbSymbolTableRecord
100
AcDbLinetypeTableRecord
  2
DOTTED
 70
     0
  3
Dotted
 72
    65
 73
     2
 40
1.0
 49
0.0
 74
     0
 49
-1.0
 74
     0
  0
LTYPE
  5
3D
330
5
100
AcDbSymbolTableRecord
100
AcDbLinetypeTableRecord
  2
DOT_CENTER
 70
     0
  3
Dot_Center
 72
    65
 73
     4
 40
14.0
 49
12.0
 74
     0
 49
-1.0
 74
     0
 49
0.0
 74
     0
 49
-1.0
 74
     0
  0
LTYPE
  5
3E
330
5
100
AcDbSymbolTableRecord
100
AcDbLinetypeTableRecord
  2
LONG_DASHED
 70
     0
  3
Long_Dashed
 72
    65
 73
     2
 40
15.0
 49
10.0
 74
     0
 49
-5.0
 74
     0
  0
LTYPE
  5
3F
330
5
100
AcDbSymbolTableRecord
100
AcDbLinetypeTableRecord
  2
DASH_CENTER
 70
     0
  3
Dash_Center
 72
    65
 73
     4
 40
14.0
 49
11.0
 74
     0
 49
-1.0
 74
     0
 49
1.0
 74
     0
 49
-1.0
 74
     0
  0
LTYPE
  5
40
330
5
100
AcDbSymbolTableRecord
100
AcDbLinetypeTableRecord
  2
PHANTOM
 70
     0
  3
Phantom
 72
    65
 73
     6
 40
13.0
 49
10.0
 74
     0
 49
-1.0
 74
     0
 49
0.0
 74
     0
 49
-1.0
 74
     0
 49
0.0
 74
     0
 49
-1.0
 74
     0
  0
LTYPE
  5
41
330
5
100
AcDbSymbolTableRecord
100
AcDbLinetypeTableRecord
  2
CENTER_DASH_DASH
 70
     0
  3
Center_Dash_Dash
 72
    65
 73
     6
 40
14.0
 49
9.0
 74
     0
 49
-1.0
 74
     0
 49
1.0
 74
     0
 49
-1.0
 74
     0
 49
1.0
 74
     0
 49
-1.0
 74
     0
  0
ENDTAB
  0
TABLE
  2
LAYER
  5
2
330
0
100
AcDbSymbolTable
 70
     6
  0
LAYER
  5
10
330
2
100
AcDbSymbolTableRecord
100
AcDbLayerTableRecord
  2
0
 70
     0
 62
     7
  6
Continuous
370
    -3
390
F
  0
LAYER
  5
42
330
2
100
AcDbSymbolTableRecord
100
AcDbLayerTableRecord
  2
1
 70
     0
 62
     7
  6
Continuous
370
    -3
390
F
  0
LAYER
  5
43
330
2
100
AcDbSymbolTableRecord
100
AcDbLayerTableRecord
  2
BEZUGSACHSEN
 70
     0
 62
     7
  6
Continuous
370
    -3
390
F
  0
LAYER
  5
44
330
2
100
AcDbSymbolTableRecord
100
AcDbLayerTableRecord
  2
DEFAULT_2
 70
     0
 62
     7
  6
Continuous
370
    -3
390
F
  0
LAYER
  5
45
330
2
100
AcDbSymbolTableRecord
100
AcDbLayerTableRecord
  2
RUNDUNGEN
 70
     0
 62
     7
  6
Continuous
370
    -3
390
F
  0
LAYER
  5
46
330
2
100
AcDbSymbolTableRecord
100
AcDbLayerTableRecord
  2
TEIL_STARTBEZUEGE
 70
     0
 62
     7
  6
Continuous
370
    -3
390
F
  0
ENDTAB
  0
TABLE
  2
STYLE
  5
3
330
0
100
AcDbSymbolTable
 70
     2
  0
STYLE
  5
11
330
3
100
AcDbSymbolTableRecord
100
AcDbTextStyleTableRecord
  2
Standard
 70
     0
 40
0.0
 41
1.0
 50
0.0
 71
     0
 42
0.2
  3
txt
  4

  0
STYLE
  5
6D
330
3
100
AcDbSymbolTableRecord
100
AcDbTextStyleTableRecord
  2
CONVERTER_11
 70
     0
 40
0.0
 41
0.72
 50
0.0
 71
     0
 42
0.2
  3
txt.shx
  4

  0
ENDTAB
  0
TABLE
  2
VIEW
  5
6
330
0
100
AcDbSymbolTable
 70
     0
  0
ENDTAB
  0
TABLE
  2
UCS
  5
7
330
0
100
AcDbSymbolTable
 70
     0
  0
ENDTAB
  0
TABLE
  2
APPID
  5
9
330
0
100
AcDbSymbolTable
 70
     1
  0
APPID
  5
12
330
9
100
AcDbSymbolTableRecord
100
AcDbRegAppTableRecord
  2
ACAD
 70
     0
  0
ENDTAB
  0
TABLE
  2
DIMSTYLE
  5
A
330
0
100
AcDbSymbolTable
 70
     6
100
AcDbDimStyleTable
  0
DIMSTYLE
105
27
330
A
100
AcDbSymbolTableRecord
100
AcDbDimStyleTableRecord
  2
Standard
 70
     0
340
11
  0
DIMSTYLE
105
C9
102
{ACAD_REACTORS
330
CA
102
}
330
A
100
AcDbSymbolTableRecord
100
AcDbDimStyleTableRecord
  2
ME10_DIM_10
 70
     0
  3
\U+2300<>
 41
3.5
 42
2.0
 44
2.0
 71
     1
 73
     0
 74
     0
 77
     1
 78
     8
140
3.5
146
0.7
147
2.0
172
     1
173
     1
176
     2
177
     2
178
     3
271
     2
272
     0
340
6D
  0
DIMSTYLE
105
D4
102
{ACAD_REACTORS
330
D5
102
}
330
A
100
AcDbSymbolTableRecord
100
AcDbDimStyleTableRecord
  2
ME10_DIM_11
 70
     0
  3
\U+2300<>
 41
3.5
 42
2.0
 44
2.0
 71
     1
 73
     0
 74
     0
 77
     1
 78
     8
140
3.5
146
0.7
147
2.0
172
     1
173
     1
176
     2
177
     2
178
     3
271
     2
272
     0
340
6D
  0
DIMSTYLE
105
DF
102
{ACAD_REACTORS
330
E0
102
}
330
A
100
AcDbSymbolTableRecord
100
AcDbDimStyleTableRecord
  2
ME10_DIM_12
 70
     0
  3
<>
 41
3.5
 42
2.0
 44
2.0
 71
     1
 73
     0
 74
     0
 77
     1
 78
     8
140
3.5
146
0.7
147
2.0
172
     1
173
     1
176
     2
177
     2
178
     3
271
     2
272
     0
340
6D
  0
DIMSTYLE
105
EA
102
{ACAD_REACTORS
330
EB
102
}
330
A
100
AcDbSymbolTableRecord
100
AcDbDimStyleTableRecord
  2
ME10_DIM_13
 70
     0
  3
<>
 41
3.5
 42
2.0
 44
2.0
 71
     1
 73
     0
 74
     0
 77
     1
 78
     8
140
3.5
146
0.7
147
2.0
172
     1
173
     1
176
     2
177
     2
178
     3
271
     2
272
     0
340
6D
  0
DIMSTYLE
105
F5
102
{ACAD_REACTORS
330
F6
102
}
330
A
100
AcDbSymbolTableRecord
100
AcDbDimStyleTableRecord
  2
ME10_DIM_14
 70
     0
  3
<>
 41
3.5
 42
2.0
 44
2.0
 71
     1
 73
     0
 74
     0
 77
     1
 78
     8
140
3.5
146
0.7
147
2.0
172
     1
173
     1
176
     2
177
     2
178
     3
271
     2
272
     0
340
6D
  0
ENDTAB
  0
TABLE
  2
BLOCK_RECORD
  5
1
330
0
100
AcDbSymbolTable
 70
     8
  0
BLOCK_RECORD
  5
1F
330
1
100
AcDbSymbolTableRecord
100
AcDbBlockTableRecord
  2
*Model_Space
340
22
  0
BLOCK_RECORD
  5
1B
330
1
100
AcDbSymbolTableRecord
100
AcDbBlockTableRecord
  2
*Paper_Space
340
1E
  0
BLOCK_RECORD
  5
23
330
1
100
AcDbSymbolTableRecord
100
AcDbBlockTableRecord
  2
*Paper_Space0
340
26
  0
BLOCK_RECORD
  5
47
330
1
100
AcDbSymbolTableRecord
100
AcDbBlockTableRecord
  2
Urheberrecht_DE-EN_horizontal
340
0
102
{BLKREFS
331
6C
102
}
  0
BLOCK_RECORD
  5
C0
330
1
100
AcDbSymbolTableRecord
100
AcDbBlockTableRecord
  2
*D2
340
0
  0
BLOCK_RECORD
  5
CB
330
1
100
AcDbSymbolTableRecord
100
AcDbBlockTableRecord
  2
*D3
340
0
  0
BLOCK_RECORD
  5
D6
330
1
100
AcDbSymbolTableRecord
100
AcDbBlockTableRecord
  2
*D4
340
0
  0
BLOCK_RECORD
  5
E1
330
1
100
AcDbSymbolTableRecord
100
AcDbBlockTableRecord
  2
*D5
340
0
  0
BLOCK_RECORD
  5
EC
330
1
100
AcDbSymbolTableRecord
100
AcDbBlockTableRecord
  2
*D6
340
0
  0
BLOCK_RECORD
  5
F7
330
1
100
AcDbSymbolTableRecord
100
AcDbBlockTableRecord
  2
*D7
340
0
102
{BLKREFS
331
FD
102
}
  0
ENDTAB
  0
ENDSEC
  0
SECTION
  2
BLOCKS
  0
BLOCK
  5
20
330
1F
100
AcDbEntity
  8
0
100
AcDbBlockBegin
  2
*Model_Space
 70
     0
 10
0.0
 20
0.0
 30
0.0
  3
*Model_Space
  1

  0
ENDBLK
  5
21
330
1F
100
AcDbEntity
  8
0
100
AcDbBlockEnd
  0
BLOCK
  5
1C
330
1B
100
AcDbEntity
 67
     1
  8
0
100
AcDbBlockBegin
  2
*Paper_Space
 70
     0
 10
0.0
 20
0.0
 30
0.0
  3
*Paper_Space
  1

  0
ENDBLK
  5
1D
330
1B
100
AcDbEntity
 67
     1
  8
0
100
AcDbBlockEnd
  0
BLOCK
  5
24
330
23
100
AcDbEntity
  8
0
100
AcDbBlockBegin
  2
*Paper_Space0
 70
     0
 10
0.0
 20
0.0
 30
0.0
  3
*Paper_Space0
  1

  0
ENDBLK
  5
25
330
23
100
AcDbEntity
  8
0
100
AcDbBlockEnd
  0
BLOCK
  5
48
330
47
100
AcDbEntity
  8
0
100
AcDbBlockBegin
  2
Urheberrecht_DE-EN_horizontal
 70
     0
 10
169.3920163121
 20
281.594239018504
 30
0.0
  3
Urheberrecht_DE-EN_horizontal
  1

  0
MTEXT
  5
6E
330
47
100
AcDbEntity
  8
1
 62
     1
100
AcDbMText
 10
115.9382339227408
 20
274.7962310085997
 30
0.0
 40
2.0
 41
0.0
 71
     7
 72
     1
  1
F\U+00fcr diese Unterlage behalten wir das Ur-\Pheberrecht. Sie darf nur f\U+00fcr den von uns \Pbestimmten Zweck benutzt und ohne unsere \PZustimmung weder vervielf\U+00e4ltigt noch\PDritten zug\U+00e4nglich gemacht werden.
  7
CONVERTER_11
 73
     1
 44
0.90036014405762
  0
MTEXT
  5
6F
330
47
100
AcDbEntity
  8
1
 62
     1
100
AcDbMText
 10
172.2276208400469
 20
274.7962310085997
 30
0.0
 40
2.0
 41
0.0
 71
     7
 72
     1
  1
We own the copyright of this document. It \Pdetermined and may neither be copied or \Pmade accessible to outsiders without our\Ppermission.
  7
CONVERTER_11
 73
     1
 44
0.90036014405762
  0
ENDBLK
  5
49
330
47
100
AcDbEntity
  8
0
100
AcDbBlockEnd
  0
BLOCK
  5
C7
330
C0
100
AcDbEntity
  8
0
100
AcDbBlockBegin
  2
*D2
 70
     1
 10
0.0
 20
0.0
 30
0.0
  3
*D2
  1

  0
LINE
  5
C1
330
C0
100
AcDbEntity
  8
1
  6
Continuous
 62
     2
100
AcDbLine
 10
280.234422755529
 20
327.0675543026
 30
0.0
 11
280.234422755529
 21
317.0675543026
 31
0.0
  0
LINE
  5
C2
330
C0
100
AcDbEntity
  8
1
  6
Continuous
 62
     2
100
AcDbLine
 10
271.0642398287
 20
327.0675543026
 30
0.0
 11
282.234422755529
 21
327.0675543026
 31
0.0
  0
LINE
  5
C3
330
C0
100
AcDbEntity
  8
1
  6
Continuous
 62
     2
100
AcDbLine
 10
271.0642398287
 20
317.0675543026
 30
0.0
 11
282.234422755529
 21
317.0675543026
 31
0.0
  0
SOLID
  5
C4
330
C0
100
AcDbEntity
  8
1
 62
     2
100
AcDbTrace
 10
280.6952064970849
 20
323.5675543026
 30
0.0
 11
279.7736390139731
 21
323.5675543026
 31
0.0
 12
280.234422755529
 22
327.0675543026
 32
0.0
 13
280.234422755529
 23
327.0675543026
 33
0.0
  0
SOLID
  5
C5
330
C0
100
AcDbEntity
  8
1
 62
     2
100
AcDbTrace
 10
279.7736390139731
 20
320.5675543026
 30
0.0
 11
280.6952064970849
 21
320.5675543026
 31
0.0
 12
280.234422755529
 22
317.0675543026
 32
0.0
 13
280.234422755529
 23
317.0675543026
 33
0.0
  0
MTEXT
  5
C6
330
C0
100
AcDbEntity
  8
1
 62
     3
100
AcDbMText
 10
278.234422755529
 20
313.495409181719
 30
0.0
 40
3.5
 41
0.0
 71
     7
 72
     1
  1
\C3;%%c\C3;\C3;10\C2;\H2.45;\S^ ;\C3;
  7
CONVERTER_11
 11
0.0
 21
1.0
 31
0.0
 73
     1
 44
0.60024009603842
  0
ENDBLK
  5
C8
330
C0
100
AcDbEntity
  8
0
100
AcDbBlockEnd
  0
BLOCK
  5
D2
330
CB
100
AcDbEntity
  8
0
100
AcDbBlockBegin
  2
*D3
 70
     1
 10
0.0
 20
0.0
 30
0.0
  3
*D3
  1

  0
LINE
  5
CC
330
CB
100
AcDbEntity
  8
1
  6
Continuous
 62
     2
100
AcDbLine
 10
290.035525859742
 20
339.5675773228
 30
0.0
 11
290.035525859742
 21
304.5675543026
 31
0.0
  0
LINE
  5
CD
330
CB
100
AcDbEntity
  8
1
  6
Continuous
 62
     2
100
AcDbLine
 10
256.0642398287
 20
339.5675773228
 30
0.0
 11
292.035525859742
 21
339.5675773228
 31
0.0
  0
LINE
  5
CE
330
CB
100
AcDbEntity
  8
1
  6
Continuous
 62
     2
100
AcDbLine
 10
257.7962906363
 20
304.5675543026
 30
0.0
 11
292.035525859742
 21
304.5675543026
 31
0.0
  0
SOLID
  5
CF
330
CB
100
AcDbEntity
  8
1
 62
     2
100
AcDbTrace
 10
290.4963096012979
 20
336.0675773228
 30
0.0
 11
289.5747421181861
 21
336.0675773228
 31
0.0
 12
290.035525859742
 22
339.5675773228
 32
0.0
 13
290.035525859742
 23
339.5675773228
 33
0.0
  0
SOLID
  5
D0
330
CB
100
AcDbEntity
  8
1
 62
     2
100
AcDbTrace
 10
289.5747421181861
 20
308.0675543026
 30
0.0
 11
290.4963096012979
 21
308.0675543026
 31
0.0
 12
290.035525859742
 22
304.5675543026
 32
0.0
 13
290.035525859742
 23
304.5675543026
 33
0.0
  0
MTEXT
  5
D1
330
CB
100
AcDbEntity
  8
1
 62
     3
100
AcDbMText
 10
288.035525859742
 20
312.942961842473
 30
0.0
 40
3.5
 41
0.0
 71
     7
 72
     1
  1
\C3;%%c\C3;\C3;35\C2;\H2.45;\S^ ;\C3;
  7
CONVERTER_11
 11
0.0
 21
1.0
 31
0.0
 73
     1
 44
0.60024009603842
  0
ENDBLK
  5
D3
330
CB
100
AcDbEntity
  8
0
100
AcDbBlockEnd
  0
BLOCK
  5
DD
330
D6
100
AcDbEntity
  8
0
100
AcDbBlockBegin
  2
*D4
 70
     1
 10
0.0
 20
0.0
 30
0.0
  3
*D4
  1

  0
LINE
  5
D7
330
D6
100
AcDbEntity
  8
1
  6
Continuous
 62
     2
100
AcDbLine
 10
269.0642398287
 20
359.784579341566
 30
0.0
 11
128.1642398287
 21
359.784579341566
 31
0.0
  0
LINE
  5
D8
330
D6
100
AcDbEntity
  8
1
  6
Continuous
 62
     2
100
AcDbLine
 10
269.0642398287
 20
333.4846505339
 30
0.0
 11
269.0642398287
 21
361.784579341566
 31
0.0
  0
LINE
  5
D9
330
D6
100
AcDbEntity
  8
1
  6
Continuous
 62
     2
100
AcDbLine
 10
128.1642398287
 20
353.7445050599
 30
0.0
 11
128.1642398287
 21
361.784579341566
 31
0.0
  0
SOLID
  5
DA
330
D6
100
AcDbEntity
  8
1
 62
     2
100
AcDbTrace
 10
265.5642398287
 20
359.3237956000101
 30
0.0
 11
265.5642398287
 21
360.2453630831218
 31
0.0
 12
269.0642398287
 22
359.784579341566
 32
0.0
 13
269.0642398287
 23
359.784579341566
 33
0.0
  0
SOLID
  5
DB
330
D6
100
AcDbEntity
  8
1
 62
     2
100
AcDbTrace
 10
131.6642398287
 20
360.2453630831218
 30
0.0
 11
131.6642398287
 21
359.3237956000101
 31
0.0
 12
128.1642398287
 22
359.784579341566
 32
0.0
 13
128.1642398287
 23
359.784579341566
 33
0.0
  0
MTEXT
  5
DC
330
D6
100
AcDbEntity
  8
1
 62
     3
100
AcDbMText
 10
192.9272182034643
 20
361.784579341566
 30
0.0
 40
3.5
 41
0.0
 71
     7
 72
     1
  1
\C3;\C3;\C3;140.9\C2;\H2.45;\S^ ;\C3;
  7
CONVERTER_11
 11
0.9999999999970619
 21
2.424068405545306E-6
 31
0.0
 73
     1
 44
0.60024009603842
  0
ENDBLK
  5
DE
330
D6
100
AcDbEntity
  8
0
100
AcDbBlockEnd
  0
BLOCK
  5
E8
330
E1
100
AcDbEntity
  8
0
100
AcDbBlockBegin
  2
*D5
 70
     1
 10
0.0
 20
0.0
 30
0.0
  3
*D5
  1

  0
LINE
  5
E2
330
E1
100
AcDbEntity
  8
1
  6
Continuous
 62
     2
100
AcDbLine
 10
269.0642398287
 20
367.286905251499
 30
0.0
 11
109.0642398287
 21
367.286905251499
 31
0.0
  0
LINE
  5
E3
330
E1
100
AcDbEntity
  8
1
  6
Continuous
 62
     2
100
AcDbLine
 10
269.0642398287
 20
333.4846505339
 30
0.0
 11
269.0642398287
 21
369.286905251499
 31
0.0
  0
LINE
  5
E4
330
E1
100
AcDbEntity
  8
1
  6
Continuous
 62
     2
100
AcDbLine
 10
109.0642398287
 20
358.8300543026
 30
0.0
 11
109.0642398287
 21
369.286905251499
 31
0.0
  0
SOLID
  5
E5
330
E1
100
AcDbEntity
  8
1
 62
     2
100
AcDbTrace
 10
265.5642398287
 20
366.8261215099431
 30
0.0
 11
265.5642398287
 21
367.7476889930549
 31
0.0
 12
269.0642398287
 22
367.286905251499
 32
0.0
 13
269.0642398287
 23
367.286905251499
 33
0.0
  0
SOLID
  5
E6
330
E1
100
AcDbEntity
  8
1
 62
     2
100
AcDbTrace
 10
112.5642398287
 20
367.7476889930549
 30
0.0
 11
112.5642398287
 21
366.8261215099431
 31
0.0
 12
109.0642398287
 22
367.286905251499
 32
0.0
 13
109.0642398287
 23
367.286905251499
 33
0.0
  0
MTEXT
  5
E7
330
E1
100
AcDbEntity
  8
1
 62
     3
100
AcDbMText
 10
183.192855706672
 20
369.286905251499
 30
0.0
 40
3.5
 41
0.0
 71
     7
 72
     1
  1
\C3;\C3;\C3;160\C2;\H2.45;\S^ ;\C3;
  7
CONVERTER_11
 11
0.9999999999970619
 21
2.424068405545306E-6
 31
0.0
 73
     1
 44
0.60024009603842
  0
ENDBLK
  5
E9
330
E1
100
AcDbEntity
  8
0
100
AcDbBlockEnd
  0
BLOCK
  5
F3
330
EC
100
AcDbEntity
  8
0
100
AcDbBlockBegin
  2
*D6
 70
     1
 10
0.0
 20
0.0
 30
0.0
  3
*D6
  1

  0
LINE
  5
ED
330
EC
100
AcDbEntity
  8
1
  6
Continuous
 62
     2
100
AcDbLine
 10
269.0642398287001
 20
374.789231161433
 30
0.0
 11
40.66423982869999
 21
374.789231161433
 31
0.0
  0
LINE
  5
EE
330
EC
100
AcDbEntity
  8
1
  6
Continuous
 62
     2
100
AcDbLine
 10
269.0642398287001
 20
333.4846505339
 30
0.0
 11
269.0642398287001
 21
376.789231161433
 31
0.0
  0
LINE
  5
EF
330
EC
100
AcDbEntity
  8
1
  6
Continuous
 62
     2
100
AcDbLine
 10
40.66423982869999
 20
335.5171025034
 30
0.0
 11
40.66423982869999
 21
376.789231161433
 31
0.0
  0
SOLID
  5
F0
330
EC
100
AcDbEntity
  8
1
 62
     2
100
AcDbTrace
 10
265.5642398287001
 20
374.3284474198771
 30
0.0
 11
265.5642398287001
 21
375.2500149029889
 31
0.0
 12
269.0642398287001
 22
374.789231161433
 32
0.0
 13
269.0642398287001
 23
374.789231161433
 33
0.0
  0
SOLID
  5
F1
330
EC
100
AcDbEntity
  8
1
 62
     2
100
AcDbTrace
 10
44.16423982869999
 20
375.2500149029889
 30
0.0
 11
44.16423982869999
 21
374.3284474198771
 31
0.0
 12
40.66423982869999
 22
374.789231161433
 32
0.0
 13
40.66423982869999
 23
374.789231161433
 33
0.0
  0
MTEXT
  5
F2
330
EC
100
AcDbEntity
  8
1
 62
     3
100
AcDbMText
 10
162.2352147332202
 20
376.789231161433
 30
0.0
 40
3.5
 41
0.0
 71
     7
 72
     1
  1
\C3;\C3;\C3;228.4\C2;\H2.45;\S^ ;\C3;
  7
CONVERTER_11
 11
0.9999999999970619
 21
2.424068405545306E-6
 31
0.0
 73
     1
 44
0.60024009603842
  0
ENDBLK
  5
F4
330
EC
100
AcDbEntity
  8
0
100
AcDbBlockEnd
  0
BLOCK
  5
FB
330
F7
100
AcDbEntity
  8
0
100
AcDbBlockBegin
  2
*D7
 70
     1
 10
0.0
 20
0.0
 30
0.0
  3
*D7
  1

  0
LINE
  5
F8
330
F7
100
AcDbEntity
  8
1
  6
Continuous
 62
     2
100
AcDbLine
 10
138.1532924835627
 20
351.234239138652
 30
0.0
 11
128.5271971602475
 21
344.4782002066289
 31
0.0
  0
SOLID
  5
F9
330
F7
100
AcDbEntity
  8
1
 62
     2
100
AcDbTrace
 10
131.1273125688306
 20
346.866027989056
 30
0.0
 11
131.6567310912471
 21
346.1117053432
 31
0.0
 12
128.5271971602475
 22
344.4782002066289
 32
0.0
 13
128.5271971602475
 23
344.4782002066289
 33
0.0
  0
MTEXT
  5
FA
330
F7
100
AcDbEntity
  8
1
 62
     3
100
AcDbMText
 10
130.930911921034
 20
348.6086689129662
 30
0.0
 40
3.5
 41
0.0
 71
     7
 72
     1
  1
\C3; R\C3;\C3;2\C2;\H2.45;\S^ ;\C3;
  7
CONVERTER_11
 11
0.8185213342261143
 21
0.5744761312854538
 31
0.0
 73
     1
 44
0.60024009603842
  0
ENDBLK
  5
FC
330
F7
100
AcDbEntity
  8
0
100
AcDbBlockEnd
  0
ENDSEC
  0
SECTION
  2
ENTITIES
  0
INSERT
  5
6C
330
1F
100
AcDbEntity
  8
0
100
AcDbBlockReference
  2
Urheberrecht_DE-EN_horizontal
 10
169.3920163121
 20
281.594239018504
 30
0.0
  0
LINE
  5
70
330
1F
100
AcDbEntity
  8
0
  6
Continuous
 62
     7
100
AcDbLine
 10
40.66423982869997
 20
333.5171025034
 30
0.0
 11
40.66423982869997
 21
310.6180061018
 31
0.0
  0
LINE
  5
71
330
1F
100
AcDbEntity
  8
0
  6
Continuous
 62
     9
100
AcDbLine
 10
41.47713709299997
 20
334.4571572039
 30
0.0
 11
41.47713709299997
 21
309.6779514013
 31
0.0
  0
LINE
  5
72
330
1F
100
AcDbEntity
  8
0
  6
Continuous
 62
     7
100
AcDbLine
 10
108.5745574955
 20
344.2211363442
 30
0.0
 11
108.5745574955
 21
299.913972261
 31
0.0
  0
LWPOLYLINE
  5
73
330
1F
100
AcDbEntity
  8
TEIL_STARTBEZUEGE
  6
DOT_CENTER
 62
     7
100
AcDbPolyline
 90
        2
 70
     0
 43
0.25
 10
109.0642398287
 20
288.3552374533
 10
109.0642398287
 20
356.8300543026
  0
LINE
  5
74
330
1F
100
AcDbEntity
  8
0
  6
Continuous
 62
     7
100
AcDbLine
 10
109.6142398287
 20
343.9425543026
 30
0.0
 11
109.6142398287
 21
300.1925543026
 31
0.0
  0
LINE
  5
75
330
1F
100
AcDbEntity
  8
0
  6
Continuous
 62
     9
100
AcDbLine
 10
111.2642398287
 20
343.9425543026
 30
0.0
 11
111.2642398287
 21
300.1925543026
 31
0.0
  0
LINE
  5
76
330
1F
100
AcDbEntity
  8
0
  6
Continuous
 62
     7
100
AcDbLine
 10
112.2642398287
 20
351.7445050599
 30
0.0
 11
112.2642398287
 21
292.3906035453
 31
0.0
  0
LINE
  5
77
330
1F
100
AcDbEntity
  8
0
  6
Continuous
 62
     9
100
AcDbLine
 10
113.2642398287
 20
352.7798711519
 30
0.0
 11
113.2642398287
 21
291.3552374533
 31
0.0
  0
LINE
  5
78
330
1F
100
AcDbEntity
  8
0
  6
Continuous
 62
     7
100
AcDbLine
 10
116.7101863083
 20
352.7798711519
 30
0.0
 11
116.7101863083
 21
291.3552374533
 31
0.0
  0
LINE
  5
79
330
1F
100
AcDbEntity
  8
0
  6
Continuous
 62
     7
100
AcDbLine
 10
118.3267398287
 20
349.874372505
 30
0.0
 11
118.3267398287
 21
294.2607361001
 31
0.0
  0
LINE
  5
7A
330
1F
100
AcDbEntity
  8
0
  6
Continuous
 62
     9
100
AcDbLine
 10
119.0767398287
 20
348.8703526639
 30
0.0
 11
119.0767398287
 21
295.2647559412
 31
0.0
  0
LINE
  5
7B
330
1F
100
AcDbEntity
  8
0
  6
Continuous
 62
     9
100
AcDbLine
 10
121.4017398287
 20
348.8703526639
 30
0.0
 11
121.4017398287
 21
295.2647559412
 31
0.0
  0
LINE
  5
7C
330
1F
100
AcDbEntity
  8
0
  6
Continuous
 62
     7
100
AcDbLine
 10
122.1517398287
 20
349.874372505
 30
0.0
 11
122.1517398287
 21
294.2607361001
 31
0.0
  0
LINE
  5
7D
330
1F
100
AcDbEntity
  8
0
  6
Continuous
 62
     7
100
AcDbLine
 10
123.7682933491
 20
352.7798711519
 30
0.0
 11
123.7682933491
 21
291.3552374533
 31
0.0
  0
LINE
  5
7E
330
1F
100
AcDbEntity
  8
0
  6
Continuous
 62
     7
100
AcDbLine
 10
113.2642398287
 20
291.3552374533
 30
0.0
 11
116.7101863083
 21
291.3552374533
 31
0.0
  0
LINE
  5
7F
330
1F
100
AcDbEntity
  8
0
  6
Continuous
 62
     7
100
AcDbLine
 10
123.7682933491
 20
291.3552374533
 30
0.0
 11
127.1642398287
 21
291.3552374533
 31
0.0
  0
LINE
  5
80
330
1F
100
AcDbEntity
  8
0
  6
Continuous
 62
     9
100
AcDbLine
 10
127.1642398287
 20
352.7798711519
 30
0.0
 11
127.1642398287
 21
291.3552374533
 31
0.0
  0
LINE
  5
81
330
1F
100
AcDbEntity
  8
0
  6
Continuous
 62
     7
100
AcDbLine
 10
128.1642398287
 20
351.7445050599
 30
0.0
 11
128.1642398287
 21
292.3906035453
 31
0.0
  0
LINE
  5
82
330
1F
100
AcDbEntity
  8
RUNDUNGEN
  6
Continuous
 62
     9
100
AcDbLine
 10
129.8596421275
 20
343.6504834948
 30
0.0
 11
129.8596421275
 21
300.4846250926
 31
0.0
  0
LINE
  5
83
330
1F
100
AcDbEntity
  8
0
  6
Continuous
 62
     7
100
AcDbLine
 10
119.0767398287
 20
295.2647559412
 30
0.0
 11
121.4017398287
 21
295.2647559412
 31
0.0
  0
LINE
  5
84
330
1F
100
AcDbEntity
  8
0
  6
Continuous
 62
     7
100
AcDbLine
 10
41.47713709299997
 20
309.6779514013
 30
0.0
 11
108.5745574955
 21
299.913972261
 31
0.0
  0
LINE
  5
85
330
1F
100
AcDbEntity
  8
0
  6
Continuous
 62
     7
100
AcDbLine
 10
111.2642398287
 20
300.1925543026
 30
0.0
 11
109.6142398287
 21
300.1925543026
 31
0.0
  0
LINE
  5
86
330
1F
100
AcDbEntity
  8
0
  6
Continuous
 62
     7
100
AcDbLine
 10
183.1642398287
 20
304.5675543026
 30
0.0
 11
255.7962906363
 21
304.5675543026
 31
0.0
  0
LINE
  5
87
330
1F
100
AcDbEntity
  8
0
  6
Continuous
 62
     7
100
AcDbLine
 10
109.6142398287
 20
300.1925543026
 30
0.0
 11
108.5745574955
 21
299.913972261
 31
0.0
  0
LWPOLYLINE
  5
88
330
1F
100
AcDbEntity
  8
DEFAULT_2
  6
DASHED
 62
     8
100
AcDbPolyline
 90
        2
 70
     0
 43
0.35
 10
269.0642398287
 20
317.0675543026
 10
231.0642398287
 20
317.0675543026
  0
LWPOLYLINE
  5
89
330
1F
100
AcDbEntity
  8
TEIL_STARTBEZUEGE
  6
DOT_CENTER
 62
     7
100
AcDbPolyline
 90
        2
 70
     0
 43
0.25
 10
272.0642398287
 20
322.0675543026
 10
37.66423982869987
 20
322.0675543026
  0
LWPOLYLINE
  5
8A
330
1F
100
AcDbEntity
  8
DEFAULT_2
  6
DASHED
 62
     8
100
AcDbPolyline
 90
        2
 70
     0
 43
0.35
 10
231.0642398287
 20
327.0675543026
 10
244.8142398287
 20
327.0675543026
  0
LWPOLYLINE
  5
8B
330
1F
100
AcDbEntity
  8
DEFAULT_2
  6
DASHED
 62
     8
100
AcDbPolyline
 90
        2
 70
     0
 43
0.35
 10
244.8142398287
 20
327.0675543026
 10
269.0642398287
 20
327.0675543026
  0
LINE
  5
8C
330
1F
100
AcDbEntity
  8
0
  6
Continuous
 62
     7
100
AcDbLine
 10
109.6142398287
 20
343.9425543026
 30
0.0
 11
108.5745574955
 21
344.2211363442
 31
0.0
  0
LINE
  5
8D
330
1F
100
AcDbEntity
  8
BEZUGSACHSEN
  6
Continuous
 62
     7
100
AcDbLine
 10
255.7962906363
 20
339.5675543026
 30
0.0
 11
253.3142398287
 21
339.5675543026
 31
0.0
  0
LINE
  5
8E
330
1F
100
AcDbEntity
  8
0
  6
Continuous
 62
     7
100
AcDbLine
 10
244.8142398287
 20
339.5675543026
 30
0.0
 11
183.1642398287
 21
339.5675543026
 31
0.0
  0
LINE
  5
8F
330
1F
100
AcDbEntity
  8
0
  6
Continuous
 62
     7
100
AcDbLine
 10
253.3142398287
 20
339.5675543026
 30
0.0
 11
255.7962906363
 21
339.5675543026
 31
0.0
  0
LINE
  5
90
330
1F
100
AcDbEntity
  8
0
  6
Continuous
 62
     7
100
AcDbLine
 10
111.2642398287
 20
343.9425543026
 30
0.0
 11
109.6142398287
 21
343.9425543026
 31
0.0
  0
LINE
  5
91
330
1F
100
AcDbEntity
  8
0
  6
Continuous
 62
     7
100
AcDbLine
 10
112.2642398287
 20
344.6175543026
 30
0.0
 11
112.2099538447
 21
344.6175543026
 31
0.0
  0
LINE
  5
92
330
1F
100
AcDbEntity
  8
0
  6
Continuous
 62
     9
100
AcDbLine
 10
183.1642398287
 20
339.5675543026
 30
0.0
 11
183.1642398287
 21
304.5675543026
 31
0.0
  0
LINE
  5
93
330
1F
100
AcDbEntity
  8
0
  6
Continuous
 62
     7
100
AcDbLine
 10
108.5745574955
 20
344.2211363442
 30
0.0
 11
41.47713709299997
 21
334.4571572039
 31
0.0
  0
LINE
  5
94
330
1F
100
AcDbEntity
  8
0
  6
Continuous
 62
     7
100
AcDbLine
 10
119.0767398287
 20
348.8703526639
 30
0.0
 11
121.4017398287
 21
348.8703526639
 31
0.0
  0
LINE
  5
95
330
1F
100
AcDbEntity
  8
0
  6
Continuous
 62
     7
100
AcDbLine
 10
113.2642398287
 20
352.7798711519
 30
0.0
 11
116.7101863083
 21
352.7798711519
 31
0.0
  0
LINE
  5
96
330
1F
100
AcDbEntity
  8
0
  6
Continuous
 62
     7
100
AcDbLine
 10
123.7682933491
 20
352.7798711519
 30
0.0
 11
127.1642398287
 21
352.7798711519
 31
0.0
  0
LINE
  5
97
330
1F
100
AcDbEntity
  8
0
  6
Continuous
 62
     7
100
AcDbLine
 10
256.2962906363
 20
304.7015288988
 30
0.0
 11
268.5642398287
 21
311.7844326675
 31
0.0
  0
LINE
  5
98
330
1F
100
AcDbEntity
  8
RUNDUNGEN
  6
Continuous
 62
     7
100
AcDbLine
 10
268.5642398287
 20
332.3506759377
 30
0.0
 11
256.2962906363
 21
339.4335797064
 31
0.0
  0
LINE
  5
99
330
1F
100
AcDbEntity
  8
0
  6
Continuous
 62
     7
100
AcDbLine
 10
256.2962906363
 20
339.4335797064
 30
0.0
 11
268.5642398287
 21
332.3506759377
 31
0.0
  0
LWPOLYLINE
  5
9A
330
1F
100
AcDbEntity
  8
DEFAULT_2
  6
DASHED
 62
     8
100
AcDbPolyline
 90
        2
 70
     0
 43
0.35
 10
231.0642398287
 20
327.0675543026
 10
231.0642398287
 20
317.0675543026
  0
LWPOLYLINE
  5
9B
330
1F
100
AcDbEntity
  8
BEZUGSACHSEN
  6
DASHED
 62
     8
100
AcDbPolyline
 90
        2
 70
     0
 43
0.35
 10
244.8142398287
 20
327.0675543026
 10
244.8142398287
 20
339.5675543026
  0
LWPOLYLINE
  5
9C
330
1F
100
AcDbEntity
  8
BEZUGSACHSEN
  6
DOT_CENTER
 62
     7
100
AcDbPolyline
 90
        2
 70
     0
 43
0.25
 10
249.0642398287
 20
342.5675543026
 10
249.0642398287
 20
321.6995395471
  0
LWPOLYLINE
  5
9D
330
1F
100
AcDbEntity
  8
BEZUGSACHSEN
  6
DASHED
 62
     8
100
AcDbPolyline
 90
        2
 70
     0
 43
0.35
 10
253.3142398287
 20
327.0675543026
 10
253.3142398287
 20
339.5675543026
  0
LINE
  5
9E
330
1F
100
AcDbEntity
  8
RUNDUNGEN
  6
Continuous
 62
     9
100
AcDbLine
 10
255.7962906363
 20
304.5675543026
 30
0.0
 11
255.7962906363
 21
339.5675543026
 31
0.0
  0
LINE
  5
9F
330
1F
100
AcDbEntity
  8
RUNDUNGEN
  6
Continuous
 62
     9
100
AcDbLine
 10
256.2962906363
 20
304.7015288988
 30
0.0
 11
256.2962906363
 21
339.4335797064
 31
0.0
  0
LINE
  5
A0
330
1F
100
AcDbEntity
  8
RUNDUNGEN
  6
Continuous
 62
     9
100
AcDbLine
 10
268.5642398287
 20
311.7844326675
 30
0.0
 11
268.5642398287
 21
332.3506759377
 31
0.0
  0
LINE
  5
A1
330
1F
100
AcDbEntity
  8
RUNDUNGEN
  6
Continuous
 62
     7
100
AcDbLine
 10
269.0642398287
 20
312.6504580712
 30
0.0
 11
269.0642398287
 21
331.4846505339
 31
0.0
  0
LWPOLYLINE
  5
A2
330
1F
100
AcDbEntity
  8
BEZUGSACHSEN
  6
DASHED
 62
     8
100
AcDbPolyline
 90
        2
 70
     0
 43
0.35
 10
254.0642398287
 20
327.0675543026
 10
254.0642398287
 20
339.5675543026
  0
LWPOLYLINE
  5
A3
330
1F
100
AcDbEntity
  8
BEZUGSACHSEN
  6
DASHED
 62
     8
100
AcDbPolyline
 90
        2
 70
     0
 43
0.35
 10
244.0642398287
 20
327.0675543026
 10
244.0642398287
 20
339.5675543026
  0
ARC
  5
A4
330
1F
100
AcDbEntity
  8
0
  6
Continuous
 62
     7
100
AcDbCircle
 10
-845.8109749676
 20
-184.6475192497
 30
0.0
 40
1102.395204025151
100
AcDbArc
 50
29.00416524305273
 51
29.17697495598742
  0
ARC
  5
A5
330
1F
100
AcDbEntity
  8
0
  6
Continuous
 62
     7
100
AcDbCircle
 10
111.2642398287
 20
299.1925543026
 30
0.0
 40
1.0
100
AcDbArc
 50
0.0
 51
90.0
  0
ARC
  5
A6
330
1F
100
AcDbEntity
  8
0
  6
Continuous
 62
     7
100
AcDbCircle
 10
41.61423982869997
 20
310.6180061018
 30
0.0
 40
0.9500000000000028
100
AcDbArc
 50
180.0
 51
261.7021731728416
  0
ARC
  5
A7
330
1F
100
AcDbEntity
  8
0
  6
Continuous
 62
     7
100
AcDbCircle
 10
-845.8109749676
 20
828.7826278549
 30
0.0
 40
1102.395204025208
100
AcDbArc
 50
330.8230250440126
 51
330.9958347569428
  0
ARC
  5
A8
330
1F
100
AcDbEntity
  8
0
  6
Continuous
 62
     7
100
AcDbCircle
 10
111.2642398287
 20
344.9425543026
 30
0.0
 40
1.0
100
AcDbArc
 50
270.0
 51
341.0344250117313
  0
ARC
  5
A9
330
1F
100
AcDbEntity
  8
0
  6
Continuous
 62
     7
100
AcDbCircle
 10
41.61423982869997
 20
333.5171025034
 30
0.0
 40
0.9500000000361029
100
AcDbArc
 50
98.29782682715842
 51
180.0
  0
ARC
  5
AA
330
1F
100
AcDbEntity
  8
0
  6
Continuous
 62
     7
100
AcDbCircle
 10
1086.2894546307
 20
-184.6475192529
 30
0.0
 40
1102.395204031745
100
AcDbArc
 50
150.8230250440118
 51
150.9958347569455
  0
ARC
  5
AB
330
1F
100
AcDbEntity
  8
0
  6
Continuous
 62
     7
100
AcDbCircle
 10
183.1642398287
 20
-45.4324456974
 30
0.0
 40
350.0
100
AcDbArc
 50
90.0
 51
98.76017189157336
  0
ARC
  5
AC
330
1F
100
AcDbEntity
  8
RUNDUNGEN
  6
Continuous
 62
     7
100
AcDbCircle
 10
183.1642398287
 20
-45.4324456974
 30
0.0
 40
350.0
100
AcDbArc
 50
90.0
 51
98.76017189157336
  0
ARC
  5
AD
330
1F
100
AcDbEntity
  8
RUNDUNGEN
  6
Continuous
 62
     7
100
AcDbCircle
 10
130.1642398287
 20
298.5079561166
 30
0.0
 40
2.000000000064346
100
AcDbArc
 50
98.7601718927479
 51
180.0
  0
ARC
  5
AE
330
1F
100
AcDbEntity
  8
RUNDUNGEN
  6
Continuous
 62
     7
100
AcDbCircle
 10
255.7962906363
 20
305.5675543026
 30
0.0
 40
1.0
100
AcDbArc
 50
270.0
 51
299.9999999995543
  0
ARC
  5
AF
330
1F
100
AcDbEntity
  8
RUNDUNGEN
  6
Continuous
 62
     7
100
AcDbCircle
 10
268.0642398287
 20
312.6504580712
 30
0.0
 40
0.999999999926831
100
AcDbArc
 50
300.0000000024204
 51
0.0
  0
ARC
  5
B0
330
1F
100
AcDbEntity
  8
0
  6
Continuous
 62
     7
100
AcDbCircle
 10
1086.2894546307
 20
828.782627858
 30
0.0
 40
1102.395204031688
100
AcDbArc
 50
209.0041652430545
 51
209.1769749559837
  0
ARC
  5
B1
330
1F
100
AcDbEntity
  8
0
  6
Continuous
 62
     7
100
AcDbCircle
 10
183.1642398287
 20
689.5675543026
 30
0.0
 40
350.0000000000001
100
AcDbArc
 50
261.2398281083999
 51
270.0
  0
ARC
  5
B2
330
1F
100
AcDbEntity
  8
RUNDUNGEN
  6
Continuous
 62
     7
100
AcDbCircle
 10
183.1642398287
 20
689.5675543026
 30
0.0
 40
350.0000000000001
100
AcDbArc
 50
261.2398281083999
 51
270.0
  0
ARC
  5
B3
330
1F
100
AcDbEntity
  8
RUNDUNGEN
  6
Continuous
 62
     7
100
AcDbCircle
 10
130.1642398287
 20
345.6271524692
 30
0.0
 40
2.0
100
AcDbArc
 50
180.0
 51
261.2398281025925
  0
ARC
  5
B4
330
1F
100
AcDbEntity
  8
RUNDUNGEN
  6
Continuous
 62
     7
100
AcDbCircle
 10
255.7962906363
 20
338.5675543026
 30
0.0
 40
1.000000000013472
100
AcDbArc
 50
60.00000000044565
 51
90.0
  0
ARC
  5
B5
330
1F
100
AcDbEntity
  8
RUNDUNGEN
  6
Continuous
 62
     7
100
AcDbCircle
 10
268.0642398287
 20
331.4846505339
 30
0.0
 40
1.0
100
AcDbArc
 50
0.0
 51
60.00000000044565
  0
SPLINE
  5
B6
330
1F
100
AcDbEntity
  8
0
  6
Continuous
 62
     2
100
AcDbSpline
210
0.0
220
0.0
230
1.0
 70
     8
 71
     3
 72
    45
 73
    41
 74
    39
 42
0.0000000001
 43
0.0000000001
 44
0.00000001
 40
0.0
 40
0.0
 40
0.0
 40
0.0
 40
0.0171039064201756
 40
0.0683664393317862
 40
0.1535731350589826
 40
0.2719466141689196
 40
0.4223464228658946
 40
0.6027341623807578
 40
0.8110347812231933
 40
1.045900378615225
 40
1.306299685646842
 40
1.591700900844755
 40
1.901479163778999
 40
2.234072389045397
 40
2.587498624222736
 40
2.958927251850613
 40
3.346323329214143
 40
3.751596955850699
 40
4.176148404962011
 40
4.615249259794275
 40
5.062352972995872
 40
5.509580638689157
 40
5.949048959009843
 40
6.374187923424812
 40
6.780241611376063
 40
7.16858415174455
 40
7.541095645731558
 40
7.895694048290789
 40
8.229496843901034
 40
8.540468341293218
 40
8.82700187877799
 40
9.088467742113899
 40
9.324331736366343
 40
9.533531156808692
 40
9.71468701675803
 40
9.865724147036188
 40
9.984608383134871
 40
10.07019029386797
 40
10.12168160802165
 40
10.13886262474622
 40
10.13886262474622
 40
10.13886262474622
 40
10.13886262474622
 10
244.0642398287
 20
339.567577218
 30
0.0
 10
244.0697205547781
 20
339.566006707578
 30
0.0
 10
244.09162769796
 20
339.5597291822659
 30
0.0
 10
244.1408819025509
 20
339.5457808444488
 30
0.0
 10
244.2226734031294
 20
339.5228402190613
 30
0.0
 10
244.3364542331704
 20
339.4915910000544
 30
0.0
 10
244.4810679293042
 20
339.4528170194186
 30
0.0
 10
244.6550081323761
 20
339.4076913541769
 30
0.0
 10
244.8566868428805
 20
339.3573982856722
 30
0.0
 10
245.0848638603219
 20
339.3031922143251
 30
0.0
 10
245.3387774580623
 20
339.2462061347261
 30
0.0
 10
245.6179198573263
 20
339.1877204172273
 30
0.0
 10
245.9215709687877
 20
339.1290277439007
 30
0.0
 10
246.2485333062963
 20
339.0716941498287
 30
0.0
 10
246.5968347275966
 20
339.0174171347618
 30
0.0
 10
246.9642577124242
 20
338.9676616263407
 30
0.0
 10
247.3498427407971
 20
338.9238558635917
 30
0.0
 10
247.7539889850277
 20
338.8874876900499
 30
0.0
 10
248.1761000426432
 20
338.8598094191846
 30
0.0
 10
248.6127120976171
 20
338.8421513253946
 30
0.0
 10
249.0572017218322
 20
338.836156507487
 30
0.0
 10
249.5018187711287
 20
338.8417791272294
 30
0.0
 10
249.9388046655373
 20
338.8590932857886
 30
0.0
 10
250.3615147861255
 20
338.8864756701456
 30
0.0
 10
250.7664562917381
 20
338.9226143362859
 30
0.0
 10
251.1530018240864
 20
338.9662631114574
 30
0.0
 10
251.5215128658197
 20
339.0159376796391
 30
0.0
 10
251.8709849159622
 20
339.0702042757352
 30
0.0
 10
252.1991476186645
 20
339.1275929781552
 30
0.0
 10
252.5039788154727
 20
339.1863904100729
 30
0.0
 10
252.7842468692201
 20
339.2450180171977
 30
0.0
 10
253.0392151191612
 20
339.302172139149
 30
0.0
 10
253.2683642292501
 20
339.3565608505323
 30
0.0
 10
253.470912701515
 20
339.4070381112115
 30
0.0
 10
253.6456013470641
 20
339.4523376107355
 30
0.0
 10
253.7908347517366
 20
339.4912667503292
 30
0.0
 10
253.9051066244623
 20
339.522645347103
 30
0.0
 10
253.9872564298177
 20
339.5456844519365
 30
0.0
 10
254.036729246234
 20
339.5596940673281
 30
0.0
 10
254.0587343965806
 20
339.5659997216011
 30
0.0
 10
254.0642398287
 20
339.5675773228
 30
0.0
 11
244.0642398287
 21
339.567577218
 31
0.0
 11
244.0806832238747
 21
339.5628699502194
 31
0.0
 11
244.1299996601604
 21
339.5488793679373
 31
0.0
 11
244.2120458191539
 21
339.52588787405
 31
0.0
 11
244.3261876032705
 21
339.4945201569627
 31
0.0
 11
244.4714602343173
 21
339.4555847601517
 31
0.0
 11
244.6460669920676
 21
339.4102833615508
 31
0.0
 11
244.8481810727341
 21
339.3598944123011
 31
0.0
 11
245.0766872792047
 21
339.3056103221577
 31
0.0
 11
245.3307708776329
 21
339.2486074791379
 31
0.0
 11
245.6101073815586
 21
339.1900842255455
 31
0.0
 11
245.9142609629687
 21
339.1313205369108
 31
0.0
 11
246.241860179291
 21
339.0739009674407
 31
0.0
 11
246.5910709915742
 21
339.0194775138926
 31
0.0
 11
246.9591445908026
 21
338.9696673645996
 31
0.0
 11
247.3440712954175
 21
338.9259964036415
 31
0.0
 11
247.7477127030369
 21
338.8896601063325
 31
0.0
 11
248.1713534735273
 21
338.8618674720411
 31
0.0
 11
248.6100992372811
 21
338.844212005396
 31
0.0
 11
249.0571612299187
 21
338.8381042154886
 31
0.0
 11
249.5043521368691
 21
338.8438381236123
 31
0.0
 11
249.9434794266685
 21
338.8611478872995
 31
0.0
 11
250.367728250479
 21
338.8886446972829
 31
0.0
 11
250.7721733452993
 21
338.924752352629
 31
0.0
 11
251.1580701094152
 21
338.9682680521494
 31
0.0
 11
251.5272471795716
 21
339.0179983650696
 31
0.0
 11
251.8776454843578
 21
339.0724139428073
 31
0.0
 11
252.2064626449375
 21
339.1298907317358
 31
0.0
 11
252.5118107616426
 21
339.1887617756789
 31
0.0
 11
252.7922743832338
 21
339.2474271408233
 31
0.0
 11
253.0474133721274
 21
339.3045978854075
 31
0.0
 11
253.2769018577555
 21
339.3590667641261
 31
0.0
 11
253.4798957249166
 21
339.409642325501
 31
0.0
 11
253.655250929664
 21
339.4551175688975
 31
0.0
 11
253.8011419566956
 21
339.4942075030793
 31
0.0
 11
253.9157776339524
 21
339.5257054886125
 31
0.0
 11
253.9981856348232
 21
339.5487962841207
 31
0.0
 11
254.0477223044983
 21
339.5628488209299
 31
0.0
 11
254.0642398287
 21
339.5675773228
 31
0.0
  0
SPLINE
  5
B7
330
1F
100
AcDbEntity
  8
0
  6
Continuous
 62
     7
100
AcDbSpline
210
0.0
220
0.0
230
1.0
 70
     8
 71
     3
 72
    15
 73
    11
 74
     9
 42
0.0000000001
 43
0.0000000001
 44
0.00000001
 40
0.0
 40
0.0
 40
0.0
 40
0.0
 40
0.1991720573595036
 40
0.3990536357191961
 40
0.5986807642878086
 40
0.7980988307699672
 40
0.9975253742130601
 40
1.197147976100096
 40
1.397095164866314
 40
1.596192542368286
 40
1.596192542368286
 40
1.596192542368286
 40
1.596192542368286
 10
128.1642398287
 20
351.7445050599
 30
0.0
 10
128.1606147305331
 20
351.810983851554
 30
0.0
 10
128.1533516203232
 20
351.9441782557262
 30
0.0
 10
128.0960594408009
 20
352.1371814081955
 30
0.0
 10
128.0057524923757
 20
352.3163241114788
 30
0.0
 10
127.8823941570772
 20
352.4747704920746
 30
0.0
 10
127.7305424242668
 20
352.6062611965826
 30
0.0
 10
127.5554660742689
 20
352.7044870326109
 30
0.0
 10
127.3639264912422
 20
352.7676345387117
 30
0.0
 10
127.23070748115
 20
352.7757980759008
 30
0.0
 10
127.1642398287
 20
352.7798711519
 30
0.0
 11
128.1642398287
 21
351.7445050599
 31
0.0
 11
128.1456606833472
 21
351.9428086750733
 31
0.0
 11
128.0905264552678
 21
352.1349358784091
 31
0.0
 11
128.0001942978047
 21
352.312955798049
 31
0.0
 11
127.8776486405039
 21
352.4702775292758
 31
0.0
 11
127.7267502707414
 21
352.60066398652
 31
0.0
 11
127.5528023561271
 21
352.6985992007459
 31
0.0
 11
127.3622618485507
 21
352.7592060755048
 31
0.0
 11
127.1642398287
 21
352.7798711519
 31
0.0
  0
SPLINE
  5
B8
330
1F
100
AcDbEntity
  8
0
  6
Continuous
 62
     7
100
AcDbSpline
210
0.0
220
0.0
230
1.0
 70
     8
 71
     3
 72
    15
 73
    11
 74
     9
 42
0.0000000001
 43
0.0000000001
 44
0.00000001
 40
0.0
 40
0.0
 40
0.0
 40
0.0
 40
0.1991000959347683
 40
0.3990500501498777
 40
0.5986741602529568
 40
0.7981021742056195
 40
0.9975186421927561
 40
1.197144165123655
 40
1.397023090680716
 40
1.596192517469147
 40
1.596192517469147
 40
1.596192517469147
 40
1.596192517469147
 10
127.1642398287
 20
291.3552374533
 30
0.0
 10
127.2307083909333
 20
291.3593106567004
 30
0.0
 10
127.3639292362979
 20
291.3674744499601
 30
0.0
 10
127.5554708136705
 20
291.4306236101498
 30
0.0
 10
127.730548253305
 20
291.5288514456294
 30
0.0
 10
127.8823993925862
 20
291.6603435847547
 30
0.0
 10
128.0057561664825
 20
291.8187904139211
 30
0.0
 10
128.096061154542
 20
291.9979318927035
 30
0.0
 10
128.1533519152725
 20
292.1909329970666
 30
0.0
 10
128.160614828655
 20
292.3241256337011
 30
0.0
 10
128.1642398287
 20
292.3906035453
 30
0.0
 11
127.1642398287
 21
291.3552374533
 31
0.0
 11
127.3622645177704
 21
291.3759031427343
 31
0.0
 11
127.5528073928186
 21
291.4365116978978
 31
0.0
 11
127.726756021942
 21
291.5344487172549
 31
0.0
 11
127.8776545397929
 21
291.6648372522551
 31
0.0
 11
128.0001980391887
 21
291.8221586381513
 31
0.0
 11
128.090528410041
 21
292.0001776638398
 31
0.0
 11
128.145661180254
 21
292.1923025256628
 31
0.0
 11
128.1642398287
 21
292.3906035453
 31
0.0
  0
SPLINE
  5
B9
330
1F
100
AcDbEntity
  8
0
  6
Continuous
 62
     7
100
AcDbSpline
210
0.0
220
0.0
230
1.0
 70
     8
 71
     3
 72
    15
 73
    11
 74
     9
 42
0.0000000001
 43
0.0000000001
 44
0.00000001
 40
0.0
 40
0.0
 40
0.0
 40
0.0
 40
0.1991002754532189
 40
0.3990504136794191
 40
0.5986744171721345
 40
0.7981023203290714
 40
0.9975187550144463
 40
1.197144245709512
 40
1.397023128058664
 40
1.596192512745394
 40
1.596192512745394
 40
1.596192512745394
 40
1.596192512745394
 10
113.2642398287
 20
352.7798711519
 30
0.0
 10
113.1977712064049
 20
352.7757979378697
 30
0.0
 10
113.0645502394164
 20
352.7676341232284
 30
0.0
 10
112.8730086005347
 20
352.7044848616519
 30
0.0
 10
112.6979311993015
 20
352.6062569881076
 30
0.0
 10
112.5460801408755
 20
352.4747648856401
 30
0.0
 10
112.4227234177237
 20
352.3163180920034
 30
0.0
 10
112.332418461486
 20
352.1371766375798
 30
0.0
 10
112.2751277331546
 20
351.9441755655093
 30
0.0
 10
112.2678648257634
 20
351.810982957414
 30
0.0
 10
112.2642398287
 20
351.7445050599
 30
0.0
 11
113.2642398287
 21
352.7798711519
 31
0.0
 11
113.0662149641748
 21
352.7592054141842
 31
0.0
 11
112.8756719342997
 21
352.6985967387105
 31
0.0
 11
112.7017234255384
 21
352.6006597228779
 31
0.0
 11
112.550825009298
 21
352.470271239745
 31
0.0
 11
112.428281544465
 21
352.312949869139
 31
0.0
 11
112.3379512045441
 21
352.1349308639035
 31
0.0
 11
112.2828184641848
 21
351.9428060384654
 31
0.0
 11
112.2642398287
 21
351.7445050599
 31
0.0
  0
SPLINE
  5
BA
330
1F
100
AcDbEntity
  8
0
  6
Continuous
 62
     7
100
AcDbSpline
210
0.0
220
0.0
230
1.0
 70
     8
 71
     3
 72
    15
 73
    11
 74
     9
 42
0.0000000001
 43
0.0000000001
 44
0.00000001
 40
0.0
 40
0.0
 40
0.0
 40
0.0
 40
0.1991719801533008
 40
0.3990534797234528
 40
0.5986806086066379
 40
0.7980986751401518
 40
0.9975251471165054
 40
1.197147680798651
 40
1.397095016929937
 40
1.596192537871199
 40
1.596192537871199
 40
1.596192537871199
 40
1.596192537871199
 10
112.2642398287
 20
292.3906035453
 30
0.0
 10
112.2678649224392
 20
292.3241247794701
 30
0.0
 10
112.2751280237541
 20
292.1909304274749
 30
0.0
 10
112.3324201566313
 20
291.997927317125
 30
0.0
 10
112.4227270701438
 20
291.818784624642
 30
0.0
 10
112.5460853740311
 20
291.6603382495445
 30
0.0
 10
112.6979370554147
 20
291.5288475581745
 30
0.0
 10
112.8730133840404
 20
291.4306216846882
 30
0.0
 10
113.0645530208696
 20
291.3674740932004
 30
0.0
 10
113.1977721282576
 20
291.359310538168
 30
0.0
 10
113.2642398287
 20
291.3552374533
 30
0.0
 11
112.2642398287
 21
292.3906035453
 31
0.0
 11
112.2828189540457
 21
292.1923000057966
 31
0.0
 11
112.3379531327681
 21
292.0001728702665
 31
0.0
 11
112.4282852658125
 21
291.8221529378831
 31
0.0
 11
112.5508309063244
 21
291.6648311935135
 31
0.0
 11
112.7017292054433
 21
291.5344447638209
 31
0.0
 11
112.8756770377874
 21
291.4365095424935
 31
0.0
 11
113.0662176687983
 21
291.3759025696276
 31
0.0
 11
113.2642398287
 21
291.3552374533
 31
0.0
  0
SPLINE
  5
BB
330
1F
100
AcDbEntity
  8
BEZUGSACHSEN
  6
Continuous
 62
     7
100
AcDbSpline
210
0.0
220
0.0
230
1.0
 70
     8
 71
     3
 72
    19
 73
    15
 74
    13
 42
0.0000000001
 43
0.0000000001
 44
0.00000001
 40
0.0
 40
0.0
 40
0.0
 40
0.0
 40
0.6358320009165614
 40
1.271740553754657
 40
1.965560655552333
 40
2.659380917730371
 40
3.475703899270716
 40
4.292064755874369
 40
5.108430098265752
 40
5.924757555988323
 40
6.618600738754901
 40
7.312443789027333
 40
7.948383502006641
 40
8.584246605312863
 40
8.584246605312863
 40
8.584246605312863
 40
8.584246605312863
 10
253.3142398287
 20
339.5675543026
 30
0.0
 10
253.1078265830714
 20
339.5193686850375
 30
0.0
 10
252.6949752403902
 20
339.4229916485348
 30
0.0
 10
252.0511271461715
 20
339.3006616909444
 30
0.0
 10
251.3844984906946
 20
339.1969217695193
 30
0.0
 10
250.6545165710065
 20
339.1124813939743
 30
0.0
 10
249.8807227648725
 20
339.0568063622852
 30
0.0
 10
249.0642968614334
 20
339.037081595489
 30
0.0
 10
248.2478693034187
 20
339.0568000136886
 30
0.0
 10
247.4740644934802
 20
339.1124704816286
 30
0.0
 10
246.7440654681043
 20
339.1969092623323
 30
0.0
 10
246.0774111069524
 20
339.3006510807558
 30
0.0
 10
245.4335348642345
 20
339.4229851544462
 30
0.0
 10
245.0206632171523
 20
339.5193665217924
 30
0.0
 10
244.8142398287
 20
339.5675543026
 30
0.0
 11
253.3142398287
 21
339.5675543026
 31
0.0
 11
252.6940687424737
 21
339.4273039649946
 31
0.0
 11
252.0695279958069
 21
339.3076020714194
 31
0.0
 11
251.3838817820554
 21
339.2014154280653
 31
0.0
 11
250.6946492533405
 21
339.1217594328734
 31
0.0
 11
249.8804230995023
 21
339.0632873831668
 31
0.0
 11
249.0642983297726
 21
339.0436555613408
 31
0.0
 11
248.2481689242406
 21
339.063281199771
 31
0.0
 11
247.4339379098951
 21
339.1217480579878
 31
0.0
 11
246.7446822176395
 21
339.2014032710306
 31
0.0
 11
246.0590129857596
 21
339.3075912311041
 31
0.0
 11
245.4344414041979
 21
339.4272977808403
 31
0.0
 11
244.8142398287
 21
339.5675543026
 31
0.0
  0
SPLINE
  5
BC
330
1F
100
AcDbEntity
  8
0
  6
Continuous
 62
     7
100
AcDbSpline
210
0.0
220
0.0
230
1.0
 70
     8
 71
     3
 72
    15
 73
    11
 74
     9
 42
0.0000000001
 43
0.0000000001
 44
0.00000001
 40
0.0
 40
0.0
 40
0.0
 40
0.0
 40
0.1499520084746427
 40
0.3004340248028708
 40
0.4507251465003755
 40
0.600859889386915
 40
0.7510035493180107
 40
0.9012893510402589
 40
1.051831757300557
 40
1.201718119622781
 40
1.201718119622781
 40
1.201718119622781
 40
1.201718119622781
 10
122.1517398287
 20
349.6529218006
 30
0.0
 10
122.1490322147074
 20
349.6028724524029
 30
0.0
 10
122.1436074166156
 20
349.5025968557597
 30
0.0
 10
122.1008256358312
 20
349.3572136461311
 30
0.0
 10
122.0334167438355
 20
349.2220680943066
 30
0.0
 10
121.9412104927837
 20
349.1022782258328
 30
0.0
 10
121.8275135766441
 20
349.0025650904267
 30
0.0
 10
121.6961212692693
 20
348.9278557195512
 30
0.0
 10
121.55207915988
 20
348.8797132466925
 30
0.0
 10
121.4517799315481
 20
348.8734683124929
 30
0.0
 10
121.4017398287
 20
348.8703526639
 30
0.0
 11
122.1517398287
 21
349.6529218006
 31
0.0
 11
122.1378644123635
 21
349.5036131348533
 31
0.0
 11
122.0966983871033
 21
349.3588713108959
 31
0.0
 11
122.0292470923763
 21
349.2245666419498
 31
0.0
 11
121.9376317367674
 21
349.1056251956904
 31
0.0
 11
121.8246222608002
 21
349.0067718853811
 31
0.0
 11
121.6940763750079
 21
348.9323165705809
 31
0.0
 11
121.5507932193377
 21
348.8861326623028
 31
0.0
 11
121.4017398287
 21
348.8703526639
 31
0.0
  0
SPLINE
  5
BD
330
1F
100
AcDbEntity
  8
0
  6
Continuous
 62
     7
100
AcDbSpline
210
0.0
220
0.0
230
1.0
 70
     8
 71
     3
 72
    15
 73
    11
 74
     9
 42
0.0000000001
 43
0.0000000001
 44
0.00000001
 40
0.0
 40
0.0
 40
0.0
 40
0.0
 40
0.1498887297857915
 40
0.3004335479492743
 40
0.4507207373429215
 40
0.6008657480725144
 40
0.750999095276047
 40
0.9012888186911387
 40
1.051768450183718
 40
1.201718090909619
 40
1.201718090909619
 40
1.201718090909619
 40
1.201718090909619
 10
119.0767398287
 20
348.8703526639
 30
0.0
 10
119.0266989334938
 20
348.8734684264857
 30
0.0
 10
118.9263981056006
 20
348.879713589878
 30
0.0
 10
118.7823542446572
 20
348.9278575334965
 30
0.0
 10
118.65096095672
 20
349.0025686778083
 30
0.0
 10
118.5372645378265
 20
349.102283102237
 30
0.0
 10
118.4450596637887
 20
349.2220733946617
 30
0.0
 10
118.3776525165349
 20
349.3572178635823
 30
0.0
 10
118.3348719845318
 20
349.5025992377215
 30
0.0
 10
118.329447357428
 20
349.602873244487
 30
0.0
 10
118.3267398287
 20
349.6529218006
 30
0.0
 11
119.0767398287
 21
348.8703526639
 31
0.0
 11
118.927684115095
 21
348.8861332075697
 31
0.0
 11
118.7843989032094
 21
348.93231859845
 31
0.0
 11
118.6538523422287
 21
349.0067755303769
 31
0.0
 11
118.5408427066982
 21
349.1056307099288
 31
0.0
 11
118.449229257264
 21
349.2245718627116
 31
0.0
 11
118.3817795418061
 21
349.3588757600818
 31
0.0
 11
118.3406148093775
 21
349.5036154723181
 31
0.0
 11
118.3267398287
 21
349.6529218006
 31
0.0
  0
SPLINE
  5
BE
330
1F
100
AcDbEntity
  8
0
  6
Continuous
 62
     7
100
AcDbSpline
210
0.0
220
0.0
230
1.0
 70
     8
 71
     3
 72
    15
 73
    11
 74
     9
 42
0.0000000001
 43
0.0000000001
 44
0.00000001
 40
0.0
 40
0.0
 40
0.0
 40
0.0
 40
0.1499521789460321
 40
0.3004343667432613
 40
0.4507255054274401
 40
0.6008602661888021
 40
0.7510040236361022
 40
0.9012899196362093
 40
1.051832040743764
 40
1.20171812178072
 40
1.20171812178072
 40
1.20171812178072
 40
1.20171812178072
 10
118.3267398287
 20
294.4821868046
 30
0.0
 10
118.3294474491266
 20
294.5322362098162
 30
0.0
 10
118.3348722601161
 20
294.6325119208308
 30
0.0
 10
118.3776541241587
 20
294.7778952351405
 30
0.0
 10
118.4450631077967
 20
294.9130408183936
 30
0.0
 10
118.5372694435288
 20
295.0328306779975
 30
0.0
 10
118.6509664657888
 20
295.1325438003204
 30
0.0
 10
118.7823587975432
 20
295.2072530708098
 30
0.0
 10
118.9264007811624
 20
295.2553953984847
 30
0.0
 10
119.0266998199687
 20
295.2616403059284
 30
0.0
 10
119.0767398287
 20
295.2647559412
 30
0.0
 11
118.3267398287
 21
294.4821868046
 31
0.0
 11
118.3406152773636
 21
294.6314956385485
 31
0.0
 11
118.381781396295
 21
294.7762376141339
 31
0.0
 11
118.4492327590727
 21
294.9105422679118
 31
0.0
 11
118.5408481819931
 21
295.0294836848867
 31
0.0
 11
118.6538577840871
 21
295.1283369991202
 31
0.0
 11
118.7844038019263
 21
295.2027922726935
 31
0.0
 11
118.9276867141469
 21
295.2489760067689
 31
0.0
 11
119.0767398287
 21
295.2647559412
 31
0.0
  0
SPLINE
  5
BF
330
1F
100
AcDbEntity
  8
0
  6
Continuous
 62
     7
100
AcDbSpline
210
0.0
220
0.0
230
1.0
 70
     8
 71
     3
 72
    15
 73
    11
 74
     9
 42
0.0000000001
 43
0.0000000001
 44
0.00000001
 40
0.0
 40
0.0
 40
0.0
 40
0.0
 40
0.1498890554552147
 40
0.3004342038300311
 40
0.4507212547557248
 40
0.6008661228244301
 40
0.7509994133160142
 40
0.9012890816820057
 40
1.051768580359225
 40
1.201718088802196
 40
1.201718088802196
 40
1.201718088802196
 40
1.201718088802196
 10
121.4017398287
 20
295.2647559412
 30
0.0
 10
121.4517808328704
 20
295.2616401631827
 30
0.0
 10
121.5520818802093
 20
295.2553949687945
 30
0.0
 10
121.6961258774746
 20
295.207250860379
 30
0.0
 10
121.8275191215898
 20
295.132539613292
 30
0.0
 10
121.9412153995728
 20
295.0328252020249
 30
0.0
 10
122.0334201660659
 20
294.9130349352435
 30
0.0
 10
122.100827224247
 20
294.7778905140134
 30
0.0
 10
122.1436076877015
 20
294.6325092345513
 30
0.0
 10
122.1490323049102
 20
294.5322353164633
 30
0.0
 10
122.1517398287
 20
294.4821868046
 30
0.0
 11
121.4017398287
 21
295.2647559412
 31
0.0
 11
121.550795861954
 21
295.2489753234731
 31
0.0
 11
121.6940813558575
 21
295.2027897311741
 31
0.0
 11
121.8246277403464
 21
295.1283327692912
 31
0.0
 11
121.9376372134687
 21
295.0294776207556
 31
0.0
 11
122.0292505743572
 21
294.9105364713558
 31
0.0
 11
122.0967002134532
 21
294.7762325972368
 31
0.0
 11
122.1378648729747
 21
294.6314930023478
 31
0.0
 11
122.1517398287
 21
294.4821868046
 31
0.0
  0
DIMENSION
  5
CA
330
1F
100
AcDbEntity
  8
1
100
AcDbDimension
  2
*D2
 10
280.234422755529
 20
327.0675543026
 30
0.0
 11
276.484422755529
 21
321.930409181719
 31
0.0
 70
    32
  1
<>
 71
     5
 42
-1.0
 53
90.0
  3
ME10_DIM_10
100
AcDbAlignedDimension
 13
269.0642398287
 23
317.0675543026
 33
0.0
 14
269.0642398287
 24
327.0675543026
 34
0.0
 50
90.0
100
AcDbRotatedDimension
  0
DIMENSION
  5
D5
330
1F
100
AcDbEntity
  8
1
100
AcDbDimension
  2
*D3
 10
290.035525859742
 20
339.5675773228
 30
0.0
 11
286.285525859742
 21
321.797961842473
 31
0.0
 70
    32
  1
<>
 71
     5
 42
-1.0
 53
90.0
  3
ME10_DIM_11
100
AcDbAlignedDimension
 13
255.7962906363
 23
304.5675543026
 33
0.0
 14
254.0642398287
 24
339.5675773228
 34
0.0
 50
90.0
100
AcDbRotatedDimension
  0
DIMENSION
  5
E0
330
1F
100
AcDbEntity
  8
1
100
AcDbDimension
  2
*D4
 10
269.0642398287
 20
359.784579341566
 30
0.0
 11
197.5822182034643
 21
363.534579341566
 31
0.0
 70
    32
  1
<>
 71
     5
 42
-1.0
 53
0.00013888888889
  3
ME10_DIM_12
100
AcDbAlignedDimension
 13
128.1642398287
 23
351.7445050599
 33
0.0
 14
269.0642398287
 24
331.4846505339
 34
0.0
100
AcDbRotatedDimension
  0
DIMENSION
  5
EB
330
1F
100
AcDbEntity
  8
1
100
AcDbDimension
  2
*D5
 10
269.0642398287
 20
367.286905251499
 30
0.0
 11
186.132855706672
 21
371.036905251499
 31
0.0
 70
    32
  1
<>
 71
     5
 42
-1.0
 53
0.00013888888889
  3
ME10_DIM_13
100
AcDbAlignedDimension
 13
109.0642398287
 23
356.8300543026
 33
0.0
 14
269.0642398287
 24
331.4846505339
 34
0.0
100
AcDbRotatedDimension
  0
DIMENSION
  5
F6
330
1F
100
AcDbEntity
  8
1
100
AcDbDimension
  2
*D6
 10
269.0642398287001
 20
374.789231161433
 30
0.0
 11
167.3102147332202
 21
378.539231161433
 31
0.0
 70
    32
  1
<>
 71
     5
 42
-1.0
 53
0.00013888888889
  3
ME10_DIM_14
100
AcDbAlignedDimension
 13
40.66423982869997
 23
333.5171025034
 33
0.0
 14
269.0642398287
 24
331.4846505339
 34
0.0
100
AcDbRotatedDimension
  0
INSERT
  5
FD
330
1F
100
AcDbEntity
  8
1
100
AcDbBlockReference
  2
*D7
 10
0.0
 20
0.0
 30
0.0
  0
ENDSEC
  0
SECTION
  2
OBJECTS
  0
DICTIONARY
  5
C
330
0
100
AcDbDictionary
281
     1
  3
ACAD_GROUP
350
D
  3
ACAD_LAYOUT
350
1A
  3
ACAD_MLEADERSTYLE
350
100
  3
ACAD_MLINESTYLE
350
17
  3
ACAD_PLOTSETTINGS
350
19
  3
ACAD_PLOTSTYLENAME
350
E
  3
ACAD_SCALELIST
350
4A
  3
ACAD_VISUALSTYLE
350
2A
  3
AcDbVariableDictionary
350
FE
  0
DICTIONARY
  5
D
102
{ACAD_REACTORS
330
C
102
}
330
C
100
AcDbDictionary
281
     1
  0
DICTIONARY
  5
1A
102
{ACAD_REACTORS
330
C
102
}
330
C
100
AcDbDictionary
281
     1
  3
Layout1
350
1E
  3
Layout2
350
26
  3
Model
350
22
  0
DICTIONARY
  5
100
102
{ACAD_REACTORS
330
C
102
}
330
C
100
AcDbDictionary
281
     1
  0
DICTIONARY
  5
17
102
{ACAD_REACTORS
330
C
102
}
330
C
100
AcDbDictionary
281
     1
  3
Standard
350
18
  0
DICTIONARY
  5
19
102
{ACAD_REACTORS
330
C
102
}
330
C
100
AcDbDictionary
281
     1
  0
ACDBDICTIONARYWDFLT
  5
E
102
{ACAD_REACTORS
330
C
102
}
330
C
100
AcDbDictionary
281
     1
  3
Normal
350
F
100
AcDbDictionaryWithDefault
340
F
  0
DICTIONARY
  5
4A
102
{ACAD_REACTORS
330
C
102
}
330
C
100
AcDbDictionary
281
     1
  3
A0
350
4B
  3
A1
350
4C
  3
A2
350
4D
  3
A3
350
4E
  3
A4
350
4F
  3
A5
350
50
  3
A6
350
51
  3
A7
350
52
  3
A8
350
53
  3
A9
350
54
  3
B0
350
55
  3
B1
350
56
  3
B2
350
57
  3
B3
350
58
  3
B4
350
59
  3
B5
350
5A
  3
B6
350
5B
  3
B7
350
5C
  3
B8
350
5D
  3
B9
350
5E
  3
C0
350
5F
  3
C1
350
60
  3
C2
350
61
  3
C3
350
62
  3
C4
350
63
  3
C5
350
64
  3
C6
350
65
  3
C7
350
66
  3
C8
350
67
  3
C9
350
68
  3
D0
350
69
  3
D1
350
6A
  3
D2
350
6B
  0
DICTIONARY
  5
2A
102
{ACAD_REACTORS
330
C
102
}
330
C
100
AcDbDictionary
281
     1
  3
2dWireframe
350
2F
  3
3D Hidden
350
31
  3
3dWireframe
350
30
  3
Basic
350
32
  3
Brighten
350
36
  3
ColorChange
350
3A
  3
Conceptual
350
34
  3
Dim
350
35
  3
Facepattern
350
39
  3
Flat
350
2B
  3
FlatWithEdges
350
2C
  3
Gouraud
350
2D
  3
GouraudWithEdges
350
2E
  3
Linepattern
350
38
  3
Realistic
350
33
  3
Thicken
350
37
  0
DICTIONARY
  5
FE
102
{ACAD_REACTORS
330
C
102
}
330
C
100
AcDbDictionary
281
     1
  3
CANNOSCALE
350
101
  0
LAYOUT
  5
1E
102
{ACAD_REACTORS
330
1A
102
}
330
1A
100
AcDbPlotSettings
  1

  2
none_device
  4

  6

 40
0.0
 41
0.0
 42
0.0
 43
0.0
 44
0.0
 45
0.0
 46
0.0
 47
0.0
 48
0.0
 49
0.0
140
0.0
141
0.0
142
1.0
143
1.0
 70
   688
 72
     0
 73
     0
 74
     5
  7

 75
    16
147
1.0
148
0.0
149
0.0
100
AcDbLayout
  1
Layout1
 70
     1
 71
     1
 10
0.0
 20
0.0
 11
12.0
 21
9.0
 12
0.0
 22
0.0
 32
0.0
 14
1.00000000000000E+20
 24
1.00000000000000E+20
 34
1.00000000000000E+20
 15
-1.00000000000000E+20
 25
-1.00000000000000E+20
 35
-1.00000000000000E+20
146
0.0
 13
0.0
 23
0.0
 33
0.0
 16
1.0
 26
0.0
 36
0.0
 17
0.0
 27
1.0
 37
0.0
 76
     0
330
1B
  0
LAYOUT
  5
26
102
{ACAD_REACTORS
330
1A
102
}
330
1A
100
AcDbPlotSettings
  1

  2
none_device
  4

  6

 40
0.0
 41
0.0
 42
0.0
 43
0.0
 44
0.0
 45
0.0
 46
0.0
 47
0.0
 48
0.0
 49
0.0
140
0.0
141
0.0
142
1.0
143
1.0
 70
   688
 72
     0
 73
     0
 74
     5
  7

 75
    16
147
1.0
148
0.0
149
0.0
100
AcDbLayout
  1
Layout2
 70
     1
 71
     2
 10
0.0
 20
0.0
 11
0.0
 21
0.0
 12
0.0
 22
0.0
 32
0.0
 14
0.0
 24
0.0
 34
0.0
 15
0.0
 25
0.0
 35
0.0
146
0.0
 13
0.0
 23
0.0
 33
0.0
 16
1.0
 26
0.0
 36
0.0
 17
0.0
 27
1.0
 37
0.0
 76
     0
330
23
  0
LAYOUT
  5
22
102
{ACAD_REACTORS
330
1A
102
}
330
1A
100
AcDbPlotSettings
  1

  2
none_device
  4

  6

 40
0.0
 41
0.0
 42
0.0
 43
0.0
 44
0.0
 45
0.0
 46
0.0
 47
0.0
 48
0.0
 49
0.0
140
0.0
141
0.0
142
1.0
143
1.0
 70
  1712
 72
     0
 73
     0
 74
     0
  7

 75
     0
147
1.0
148
0.0
149
0.0
100
AcDbLayout
  1
Model
 70
     1
 71
     0
 10
0.0
 20
0.0
 11
12.0
 21
9.0
 12
0.0
 22
0.0
 32
0.0
 14
37.53923982869987
 24
274.1962310085997
 34
0.0
 15
292.035525859742
 25
380.289231161433
 35
0.0
146
0.0
 13
0.0
 23
0.0
 33
0.0
 16
1.0
 26
0.0
 36
0.0
 17
0.0
 27
1.0
 37
0.0
 76
     0
330
1F
331
29
  0
MLINESTYLE
  5
18
102
{ACAD_REACTORS
330
17
102
}
330
17
100
AcDbMlineStyle
  2
Standard
 70
     0
  3

 62
   256
 51
90.0
 52
90.0
 71
     2
 49
0.5
 62
   256
  6
BYLAYER
 49
-0.5
 62
   256
  6
BYLAYER
  0
ACDBPLACEHOLDER
  5
F
102
{ACAD_REACTORS
330
E
102
}
330
E
  0
SCALE
  5
4B
102
{ACAD_REACTORS
330
4A
102
}
330
4A
100
AcDbScale
 70
     0
300
1:1
140
1.0
141
1.0
290
     1
  0
SCALE
  5
4C
102
{ACAD_REACTORS
330
4A
102
}
330
4A
100
AcDbScale
 70
     0
300
1:2
140
1.0
141
2.0
290
     0
  0
SCALE
  5
4D
102
{ACAD_REACTORS
330
4A
102
}
330
4A
100
AcDbScale
 70
     0
300
1:4
140
1.0
141
4.0
290
     0
  0
SCALE
  5
4E
102
{ACAD_REACTORS
330
4A
102
}
330
4A
100
AcDbScale
 70
     0
300
1:5
140
1.0
141
5.0
290
     0
  0
SCALE
  5
4F
102
{ACAD_REACTORS
330
4A
102
}
330
4A
100
AcDbScale
 70
     0
300
1:8
140
1.0
141
8.0
290
     0
  0
SCALE
  5
50
102
{ACAD_REACTORS
330
4A
102
}
330
4A
100
AcDbScale
 70
     0
300
1:10
140
1.0
141
10.0
290
     0
  0
SCALE
  5
51
102
{ACAD_REACTORS
330
4A
102
}
330
4A
100
AcDbScale
 70
     0
300
1:16
140
1.0
141
16.0
290
     0
  0
SCALE
  5
52
102
{ACAD_REACTORS
330
4A
102
}
330
4A
100
AcDbScale
 70
     0
300
1:20
140
1.0
141
20.0
290
     0
  0
SCALE
  5
53
102
{ACAD_REACTORS
330
4A
102
}
330
4A
100
AcDbScale
 70
     0
300
1:30
140
1.0
141
30.0
290
     0
  0
SCALE
  5
54
102
{ACAD_REACTORS
330
4A
102
}
330
4A
100
AcDbScale
 70
     0
300
1:40
140
1.0
141
40.0
290
     0
  0
SCALE
  5
55
102
{ACAD_REACTORS
330
4A
102
}
330
4A
100
AcDbScale
 70
     0
300
1:50
140
1.0
141
50.0
290
     0
  0
SCALE
  5
56
102
{ACAD_REACTORS
330
4A
102
}
330
4A
100
AcDbScale
 70
     0
300
1:100
140
1.0
141
100.0
290
     0
  0
SCALE
  5
57
102
{ACAD_REACTORS
330
4A
102
}
330
4A
100
AcDbScale
 70
     0
300
2:1
140
2.0
141
1.0
290
     0
  0
SCALE
  5
58
102
{ACAD_REACTORS
330
4A
102
}
330
4A
100
AcDbScale
 70
     0
300
4:1
140
4.0
141
1.0
290
     0
  0
SCALE
  5
59
102
{ACAD_REACTORS
330
4A
102
}
330
4A
100
AcDbScale
 70
     0
300
8:1
140
8.0
141
1.0
290
     0
  0
SCALE
  5
5A
102
{ACAD_REACTORS
330
4A
102
}
330
4A
100
AcDbScale
 70
     0
300
10:1
140
10.0
141
1.0
290
     0
  0
SCALE
  5
5B
102
{ACAD_REACTORS
330
4A
102
}
330
4A
100
AcDbScale
 70
     0
300
100:1
140
100.0
141
1.0
290
     0
  0
SCALE
  5
5C
102
{ACAD_REACTORS
330
4A
102
}
330
4A
100
AcDbScale
 70
     0
300
1/128" = 1'-0"
140
0.0078125
141
12.0
290
     0
  0
SCALE
  5
5D
102
{ACAD_REACTORS
330
4A
102
}
330
4A
100
AcDbScale
 70
     0
300
1/64" = 1'-0"
140
0.015625
141
12.0
290
     0
  0
SCALE
  5
5E
102
{ACAD_REACTORS
330
4A
102
}
330
4A
100
AcDbScale
 70
     0
300
1/32" = 1'-0"
140
0.03125
141
12.0
290
     0
  0
SCALE
  5
5F
102
{ACAD_REACTORS
330
4A
102
}
330
4A
100
AcDbScale
 70
     0
300
1/16" = 1'-0"
140
0.0625
141
12.0
290
     0
  0
SCALE
  5
60
102
{ACAD_REACTORS
330
4A
102
}
330
4A
100
AcDbScale
 70
     0
300
3/32" = 1'-0"
140
0.09375
141
12.0
290
     0
  0
SCALE
  5
61
102
{ACAD_REACTORS
330
4A
102
}
330
4A
100
AcDbScale
 70
     0
300
1/8" = 1'-0"
140
0.125
141
12.0
290
     0
  0
SCALE
  5
62
102
{ACAD_REACTORS
330
4A
102
}
330
4A
100
AcDbScale
 70
     0
300
3/16" = 1'-0"
140
0.1875
141
12.0
290
     0
  0
SCALE
  5
63
102
{ACAD_REACTORS
330
4A
102
}
330
4A
100
AcDbScale
 70
     0
300
1/4" = 1'-0"
140
0.25
141
12.0
290
     0
  0
SCALE
  5
64
102
{ACAD_REACTORS
330
4A
102
}
330
4A
100
AcDbScale
 70
     0
300
3/8" = 1'-0"
140
0.375
141
12.0
290
     0
  0
SCALE
  5
65
102
{ACAD_REACTORS
330
4A
102
}
330
4A
100
AcDbScale
 70
     0
300
1/2" = 1'-0"
140
0.5
141
12.0
290
     0
  0
SCALE
  5
66
102
{ACAD_REACTORS
330
4A
102
}
330
4A
100
AcDbScale
 70
     0
300
3/4" = 1'-0"
140
0.75
141
12.0
290
     0
  0
SCALE
  5
67
102
{ACAD_REACTORS
330
4A
102
}
330
4A
100
AcDbScale
 70
     0
300
1" = 1'-0"
140
1.0
141
12.0
290
     0
  0
SCALE
  5
68
102
{ACAD_REACTORS
330
4A
102
}
330
4A
100
AcDbScale
 70
     0
300
1-1/2" = 1'-0"
140
1.5
141
12.0
290
     0
  0
SCALE
  5
69
102
{ACAD_REACTORS
330
4A
102
}
330
4A
100
AcDbScale
 70
     0
300
3" = 1'-0"
140
3.0
141
12.0
290
     0
  0
SCALE
  5
6A
102
{ACAD_REACTORS
330
4A
102
}
330
4A
100
AcDbScale
 70
     0
300
6" = 1'-0"
140
6.0
141
12.0
290
     0
  0
SCALE
  5
6B
102
{ACAD_REACTORS
330
4A
102
}
330
4A
100
AcDbScale
 70
     0
300
1'-0" = 1'-0"
140
12.0
141
12.0
290
     0
  0
VISUALSTYLE
  5
2F
102
{ACAD_REACTORS
330
2A
102
}
330
2A
100
AcDbVisualStyle
  2
2dWireframe
 70
     4
 71
     0
 72
     2
 73
     0
 90
        0
 40
-0.6
 41
-30.0
 62
     5
 63
     7
 74
     1
 91
        4
 64
     7
 65
   257
 75
     1
175
     1
 42
1.0
 92
        0
 66
   257
 43
1.0
 76
     1
 77
     6
 78
     2
 67
     7
 79
     5
170
     0
171
     0
290
     0
174
     0
 93
        1
 44
0.0
173
     0
291
     0
 45
0.0
1001
ACAD
1000
AcDbSavedByObjectVersion
1070
     0
  0
VISUALSTYLE
  5
31
102
{ACAD_REACTORS
330
2A
102
}
330
2A
100
AcDbVisualStyle
  2
3D Hidden
 70
     6
 71
     1
 72
     2
 73
     2
 90
        0
 40
-0.6
 41
-30.0
 62
     5
 63
     7
 74
     2
 91
        2
 64
     7
 65
   257
 75
     2
175
     1
 42
40.0
 92
        0
 66
   257
 43
1.0
 76
     1
 77
     6
 78
     2
 67
     7
 79
     3
170
     0
171
     0
290
     0
174
     0
 93
        1
 44
0.0
173
     0
291
     0
 45
0.0
1001
ACAD
1000
AcDbSavedByObjectVersion
1070
     0
  0
VISUALSTYLE
  5
30
102
{ACAD_REACTORS
330
2A
102
}
330
2A
100
AcDbVisualStyle
  2
3dWireframe
 70
     5
 71
     0
 72
     2
 73
     0
 90
        0
 40
-0.6
 41
-30.0
 62
     5
 63
     7
 74
     1
 91
        4
 64
     7
 65
   257
 75
     1
175
     1
 42
1.0
 92
        0
 66
   257
 43
1.0
 76
     1
 77
     6
 78
     2
 67
     7
 79
     5
170
     0
171
     0
290
     0
174
     0
 93
        1
 44
0.0
173
     0
291
     0
 45
0.0
1001
ACAD
1000
AcDbSavedByObjectVersion
1070
     0
  0
VISUALSTYLE
  5
32
102
{ACAD_REACTORS
330
2A
102
}
330
2A
100
AcDbVisualStyle
  2
Basic
 70
     7
 71
     1
 72
     0
 73
     1
 90
        0
 40
-0.6
 41
-30.0
 62
     5
 63
     7
 74
     0
 91
        4
 64
     7
 65
   257
 75
     1
175
     1
 42
1.0
 92
        8
 66
     7
 43
1.0
 76
     1
 77
     6
 78
     2
 67
     7
 79
     5
170
     0
171
     0
290
     0
174
     0
 93
        1
 44
0.0
173
     0
291
     1
 45
0.0
1001
ACAD
1000
AcDbSavedByObjectVersion
1070
     0
  0
VISUALSTYLE
  5
36
102
{ACAD_REACTORS
330
2A
102
}
330
2A
100
AcDbVisualStyle
  2
Brighten
 70
    12
 71
     2
 72
     2
 73
     0
 90
        0
 40
-0.6
 41
-30.0
 62
     5
 63
     7
 74
     1
 91
        4
 64
     7
 65
   257
 75
     1
175
     1
 42
1.0
 92
        8
 66
     7
 43
1.0
 76
     1
 77
     6
 78
     2
 67
     7
 79
     5
170
     0
171
     0
290
     0
174
     0
 93
        1
 44
50.0
173
     0
291
     1
 45
0.0
1001
ACAD
1000
AcDbSavedByObjectVersion
1070
     0
  0
VISUALSTYLE
  5
3A
102
{ACAD_REACTORS
330
2A
102
}
330
2A
100
AcDbVisualStyle
  2
ColorChange
 70
    16
 71
     2
 72
     2
 73
     3
 90
        0
 40
-0.6
 41
-30.0
 62
     5
 63
     8
 74
     1
 91
        4
 64
     7
 65
   257
 75
     1
175
     1
 42
1.0
 92
        8
 66
     8
 43
1.0
 76
     1
 77
     6
 78
     2
 67
     7
 79
     5
170
     0
171
     0
290
     0
174
     0
 93
        1
 44
0.0
173
     0
291
     1
 45
0.0
1001
ACAD
1000
AcDbSavedByObjectVersion
1070
     0
  0
VISUALSTYLE
  5
34
102
{ACAD_REACTORS
330
2A
102
}
330
2A
100
AcDbVisualStyle
  2
Conceptual
 70
     9
 71
     3
 72
     2
 73
     0
 90
        0
 40
-0.6
 41
-30.0
 62
     5
 63
     7
 74
     2
 91
        2
 64
     7
 65
   257
 75
     1
175
     1
 42
40.0
 92
        8
 66
     7
 43
1.0
 76
     1
 77
     6
 78
     2
 67
     7
 79
     3
170
     0
171
     0
290
     0
174
     0
 93
        1
 44
0.0
173
     0
291
     0
 45
0.0
1001
ACAD
1000
AcDbSavedByObjectVersion
1070
     0
  0
VISUALSTYLE
  5
35
102
{ACAD_REACTORS
330
2A
102
}
330
2A
100
AcDbVisualStyle
  2
Dim
 70
    11
 71
     2
 72
     2
 73
     0
 90
        0
 40
-0.6
 41
-30.0
 62
     5
 63
     7
 74
     1
 91
        4
 64
     7
 65
   257
 75
     1
175
     1
 42
1.0
 92
        8
 66
     7
 43
1.0
 76
     1
 77
     6
 78
     2
 67
     7
 79
     5
170
     0
171
     0
290
     0
174
     0
 93
        1
 44
-50.0
173
     0
291
     1
 45
0.0
1001
ACAD
1000
AcDbSavedByObjectVersion
1070
     0
  0
VISUALSTYLE
  5
39
102
{ACAD_REACTORS
330
2A
102
}
330
2A
100
AcDbVisualStyle
  2
Facepattern
 70
    15
 71
     2
 72
     2
 73
     0
 90
        0
 40
-0.6
 41
-30.0
 62
     5
 63
     7
 74
     1
 91
        4
 64
     7
 65
   257
 75
     1
175
     1
 42
1.0
 92
        8
 66
     7
 43
1.0
 76
     1
 77
     6
 78
     2
 67
     7
 79
     5
170
     0
171
     0
290
     0
174
     0
 93
        1
 44
0.0
173
     0
291
     1
 45
0.0
1001
ACAD
1000
AcDbSavedByObjectVersion
1070
     0
  0
VISUALSTYLE
  5
2B
102
{ACAD_REACTORS
330
2A
102
}
330
2A
100
AcDbVisualStyle
  2
Flat
 70
     0
 71
     2
 72
     1
 73
     1
 90
        2
 40
-0.6
 41
30.0
 62
     5
 63
     7
 74
     0
 91
        4
 64
     7
 65
   257
 75
     1
175
     1
 42
1.0
 92
        8
 66
     7
 43
1.0
 76
     1
 77
     6
 78
     2
 67
     7
 79
     5
170
     0
171
     0
290
     0
174
     0
 93
       13
 44
0.0
173
     0
291
     1
 45
0.0
1001
ACAD
1000
AcDbSavedByObjectVersion
1070
     0
  0
VISUALSTYLE
  5
2C
102
{ACAD_REACTORS
330
2A
102
}
330
2A
100
AcDbVisualStyle
  2
FlatWithEdges
 70
     1
 71
     2
 72
     1
 73
     1
 90
        2
 40
-0.6
 41
30.0
 62
     5
 63
     7
 74
     1
 91
        4
 64
     7
 65
   257
 75
     1
175
     1
 42
1.0
 92
        0
 66
   257
 43
1.0
 76
     1
 77
     6
 78
     2
 67
     7
 79
     5
170
     0
171
     0
290
     0
174
     0
 93
       13
 44
0.0
173
     0
291
     1
 45
0.0
1001
ACAD
1000
AcDbSavedByObjectVersion
1070
     0
  0
VISUALSTYLE
  5
2D
102
{ACAD_REACTORS
330
2A
102
}
330
2A
100
AcDbVisualStyle
  2
Gouraud
 70
     2
 71
     2
 72
     2
 73
     1
 90
        2
 40
-0.6
 41
30.0
 62
     5
 63
     7
 74
     0
 91
        4
 64
     7
 65
   257
 75
     1
175
     1
 42
1.0
 92
        0
 66
     7
 43
1.0
 76
     1
 77
     6
 78
     2
 67
     7
 79
     5
170
     0
171
     0
290
     0
174
     0
 93
       13
 44
0.0
173
     0
291
     1
 45
0.0
1001
ACAD
1000
AcDbSavedByObjectVersion
1070
     0
  0
VISUALSTYLE
  5
2E
102
{ACAD_REACTORS
330
2A
102
}
330
2A
100
AcDbVisualStyle
  2
GouraudWithEdges
 70
     3
 71
     2
 72
     2
 73
     1
 90
        2
 40
-0.6
 41
30.0
 62
     5
 63
     7
 74
     1
 91
        4
 64
     7
 65
   257
 75
     1
175
     1
 42
1.0
 92
        0
 66
   257
 43
1.0
 76
     1
 77
     6
 78
     2
 67
     7
 79
     5
170
     0
171
     0
290
     0
174
     0
 93
       13
 44
0.0
173
     0
291
     1
 45
0.0
1001
ACAD
1000
AcDbSavedByObjectVersion
1070
     0
  0
VISUALSTYLE
  5
38
102
{ACAD_REACTORS
330
2A
102
}
330
2A
100
AcDbVisualStyle
  2
Linepattern
 70
    14
 71
     2
 72
     2
 73
     0
 90
        0
 40
-0.6
 41
-30.0
 62
     5
 63
     7
 74
     1
 91
        4
 64
     7
 65
   257
 75
     7
175
     7
 42
1.0
 92
        8
 66
     7
 43
1.0
 76
     1
 77
     6
 78
     2
 67
     7
 79
     5
170
     0
171
     0
290
     0
174
     0
 93
        1
 44
0.0
173
     0
291
     1
 45
0.0
1001
ACAD
1000
AcDbSavedByObjectVersion
1070
     0
  0
VISUALSTYLE
  5
33
102
{ACAD_REACTORS
330
2A
102
}
330
2A
100
AcDbVisualStyle
  2
Realistic
 70
     8
 71
     2
 72
     2
 73
     0
 90
        0
 40
-0.6
 41
-30.0
 62
     5
 63
     7
 74
     1
 91
        0
 64
     7
 65
   257
 75
     1
175
     1
 42
1.0
 92
        8
 66
     8
 43
1.0
 76
     1
 77
     6
 78
     2
 67
     7
 79
     5
170
     0
171
     0
290
     0
174
     0
 93
       13
 44
0.0
173
     0
291
     0
 45
0.0
1001
ACAD
1000
AcDbSavedByObjectVersion
1070
     0
  0
VISUALSTYLE
  5
37
102
{ACAD_REACTORS
330
2A
102
}
330
2A
100
AcDbVisualStyle
  2
Thicken
 70
    13
 71
     2
 72
     2
 73
     0
 90
        0
 40
-0.6
 41
-30.0
 62
     5
 63
     7
 74
     1
 91
        4
 64
     7
 65
   257
 75
     1
175
     1
 42
1.0
 92
       12
 66
     7
 43
1.0
 76
     1
 77
     6
 78
     2
 67
     7
 79
     5
170
     0
171
     0
290
     0
174
     0
 93
        1
 44
0.0
173
     0
291
     1
 45
0.0
1001
ACAD
1000
AcDbSavedByObjectVersion
1070
     0
  0
DICTIONARYVAR
  5
101
102
{ACAD_REACTORS
330
FE
102
}
330
FE
100
DictionaryVariables
280
     0
  1
1:1
  0
ENDSEC
  0
EOF
