  0
SECTION
  2
HEADER
  9
$ACADVER
  1
AC1015
  9
$ACADMAINTVER
 70
     6
  9
$DWGCODEPAGE
  3
ANSI_1252
  9
$INSBASE
 10
0.0
 20
0.0
 30
0.0
  9
$EXTMIN
 10
40.534617456067
 20
230.7933819698
 30
0.0
  9
$EXTMAX
 10
318.6197462582441
 20
356.655704070912
 30
0.0
  9
$LIMMIN
 10
0.0
 20
0.0
  9
$LIMMAX
 10
12.0
 20
9.0
  9
$ORTHOMODE
 70
     0
  9
$REGENMODE
 70
     1
  9
$FILLMODE
 70
     1
  9
$QTEXTMODE
 70
     0
  9
$MIRRTEXT
 70
     1
  9
$LTSCALE
 40
1.0
  9
$ATTMODE
 70
     1
  9
$TEXTSIZE
 40
0.2
  9
$TRACEWID
 40
0.05
  9
$TEXTSTYLE
  7
Standard
  9
$CLAYER
  8
0
  9
$CELTYPE
  6
ByLayer
  9
$CECOLOR
 62
   256
  9
$CELTSCALE
 40
1.0
  9
$DISPSILH
 70
     0
  9
$DIMSCALE
 40
1.0
  9
$DIMASZ
 40
0.18
  9
$DIMEXO
 40
0.0625
  9
$DIMDLI
 40
0.38
  9
$DIMRND
 40
0.0
  9
$DIMDLE
 40
0.0
  9
$DIMEXE
 40
0.18
  9
$DIMTP
 40
0.0
  9
$DIMTM
 40
0.0
  9
$DIMTXT
 40
0.18
  9
$DIMCEN
 40
0.09
  9
$DIMTSZ
 40
0.0
  9
$DIMTOL
 70
     0
  9
$DIMLIM
 70
     0
  9
$DIMTIH
 70
     1
  9
$DIMTOH
 70
     1
  9
$DIMSE1
 70
     0
  9
$DIMSE2
 70
     0
  9
$DIMTAD
 70
     0
  9
$DIMZIN
 70
     0
  9
$DIMBLK
  1

  9
$DIMASO
 70
     1
  9
$DIMSHO
 70
     1
  9
$DIMPOST
  1

  9
$DIMAPOST
  1

  9
$DIMALT
 70
     0
  9
$DIMALTD
 70
     2
  9
$DIMALTF
 40
25.4
  9
$DIMLFAC
 40
1.0
  9
$DIMTOFL
 70
     0
  9
$DIMTVP
 40
0.0
  9
$DIMTIX
 70
     0
  9
$DIMSOXD
 70
     0
  9
$DIMSAH
 70
     0
  9
$DIMBLK1
  1

  9
$DIMBLK2
  1

  9
$DIMSTYLE
  2
Standard
  9
$DIMCLRD
 70
     0
  9
$DIMCLRE
 70
     0
  9
$DIMCLRT
 70
     0
  9
$DIMTFAC
 40
1.0
  9
$DIMGAP
 40
0.09
  9
$DIMJUST
 70
     0
  9
$DIMSD1
 70
     0
  9
$DIMSD2
 70
     0
  9
$DIMTOLJ
 70
     1
  9
$DIMTZIN
 70
     0
  9
$DIMALTZ
 70
     0
  9
$DIMALTTZ
 70
     0
  9
$DIMUPT
 70
     0
  9
$DIMDEC
 70
     4
  9
$DIMTDEC
 70
     4
  9
$DIMALTU
 70
     2
  9
$DIMALTTD
 70
     2
  9
$DIMTXSTY
  7
Standard
  9
$DIMAUNIT
 70
     0
  9
$DIMADEC
 70
     0
  9
$DIMALTRND
 40
0.0
  9
$DIMAZIN
 70
     0
  9
$DIMDSEP
 70
    46
  9
$DIMATFIT
 70
     3
  9
$DIMFRAC
 70
     0
  9
$DIMLDRBLK
  1

  9
$DIMLUNIT
 70
     2
  9
$DIMLWD
 70
    -2
  9
$DIMLWE
 70
    -2
  9
$DIMTMOVE
 70
     0
  9
$LUNITS
 70
     2
  9
$LUPREC
 70
     4
  9
$SKETCHINC
 40
0.1
  9
$FILLETRAD
 40
0.5
  9
$AUNITS
 70
     0
  9
$AUPREC
 70
     0
  9
$MENU
  1
.
  9
$ELEVATION
 40
0.0
  9
$PELEVATION
 40
0.0
  9
$THICKNESS
 40
0.0
  9
$LIMCHECK
 70
     0
  9
$CHAMFERA
 40
0.5
  9
$CHAMFERB
 40
0.5
  9
$CHAMFERC
 40
1.0
  9
$CHAMFERD
 40
0.0
  9
$SKPOLY
 70
     0
  9
$TDCREATE
 40
2456821.370268438
  9
$TDUCREATE
 40
2456821.286935104
  9
$TDUPDATE
 40
2456821.370268449
  9
$TDUUPDATE
 40
2456821.286935116
  9
$TDINDWG
 40
0.0000000116
  9
$TDUSRTIMER
 40
0.0000000116
  9
$USRTIMER
 70
     1
  9
$ANGBASE
 50
0.0
  9
$ANGDIR
 70
     0
  9
$PDMODE
 70
     0
  9
$PDSIZE
 40
0.0
  9
$PLINEWID
 40
0.0
  9
$SPLFRAME
 70
     0
  9
$SPLINETYPE
 70
     6
  9
$SPLINESEGS
 70
     8
  9
$HANDSEED
  5
108
  9
$SURFTAB1
 70
     6
  9
$SURFTAB2
 70
     6
  9
$SURFTYPE
 70
     6
  9
$SURFU
 70
     6
  9
$SURFV
 70
     6
  9
$UCSBASE
  2

  9
$UCSNAME
  2

  9
$UCSORG
 10
0.0
 20
0.0
 30
0.0
  9
$UCSXDIR
 10
1.0
 20
0.0
 30
0.0
  9
$UCSYDIR
 10
0.0
 20
1.0
 30
0.0
  9
$UCSORTHOREF
  2

  9
$UCSORTHOVIEW
 70
     0
  9
$UCSORGTOP
 10
0.0
 20
0.0
 30
0.0
  9
$UCSORGBOTTOM
 10
0.0
 20
0.0
 30
0.0
  9
$UCSORGLEFT
 10
0.0
 20
0.0
 30
0.0
  9
$UCSORGRIGHT
 10
0.0
 20
0.0
 30
0.0
  9
$UCSORGFRONT
 10
0.0
 20
0.0
 30
0.0
  9
$UCSORGBACK
 10
0.0
 20
0.0
 30
0.0
  9
$PUCSBASE
  2

  9
$PUCSNAME
  2

  9
$PUCSORG
 10
0.0
 20
0.0
 30
0.0
  9
$PUCSXDIR
 10
1.0
 20
0.0
 30
0.0
  9
$PUCSYDIR
 10
0.0
 20
1.0
 30
0.0
  9
$PUCSORTHOREF
  2

  9
$PUCSORTHOVIEW
 70
     0
  9
$PUCSORGTOP
 10
0.0
 20
0.0
 30
0.0
  9
$PUCSORGBOTTOM
 10
0.0
 20
0.0
 30
0.0
  9
$PUCSORGLEFT
 10
0.0
 20
0.0
 30
0.0
  9
$PUCSORGRIGHT
 10
0.0
 20
0.0
 30
0.0
  9
$PUCSORGFRONT
 10
0.0
 20
0.0
 30
0.0
  9
$PUCSORGBACK
 10
0.0
 20
0.0
 30
0.0
  9
$USERI1
 70
     0
  9
$USERI2
 70
     0
  9
$USERI3
 70
     0
  9
$USERI4
 70
     0
  9
$USERI5
 70
     0
  9
$USERR1
 40
16.5
  9
$USERR2
 40
0.0
  9
$USERR3
 40
0.0
  9
$USERR4
 40
0.0
  9
$USERR5
 40
0.0
  9
$WORLDVIEW
 70
     1
  9
$SHADEDGE
 70
     3
  9
$SHADEDIF
 70
    70
  9
$TILEMODE
 70
     1
  9
$MAXACTVP
 70
    64
  9
$PINSBASE
 10
0.0
 20
0.0
 30
0.0
  9
$PLIMCHECK
 70
     0
  9
$PEXTMIN
 10
1.00000000000000E+20
 20
1.00000000000000E+20
 30
1.00000000000000E+20
  9
$PEXTMAX
 10
-1.00000000000000E+20
 20
-1.00000000000000E+20
 30
-1.00000000000000E+20
  9
$PLIMMIN
 10
0.0
 20
0.0
  9
$PLIMMAX
 10
12.0
 20
9.0
  9
$UNITMODE
 70
     0
  9
$VISRETAIN
 70
     1
  9
$PLINEGEN
 70
     0
  9
$PSLTSCALE
 70
     1
  9
$TREEDEPTH
 70
  3020
  9
$CMLSTYLE
  2
Standard
  9
$CMLJUST
 70
     0
  9
$CMLSCALE
 40
1.0
  9
$PROXYGRAPHICS
 70
     1
  9
$MEASUREMENT
 70
     1
  9
$CELWEIGHT
370
    -1
  9
$ENDCAPS
280
     0
  9
$JOINSTYLE
280
     0
  9
$LWDISPLAY
290
     0
  9
$INSUNITS
 70
     1
  9
$HYPERLINKBASE
  1

  9
$STYLESHEET
  1

  9
$XEDIT
290
     1
  9
$CEPSNTYPE
380
     0
  9
$PSTYLEMODE
290
     1
  9
$FINGERPRINTGUID
  2
{48C99180-6ED4-4324-8F45-065A10BD1D4D}
  9
$VERSIONGUID
  2
{FAEB1C32-E019-11D5-929B-00C0DF256EC4}
  9
$EXTNAMES
290
     1
  9
$PSVPSCALE
 40
0.0
  9
$OLESTARTUP
290
     0
  0
ENDSEC
  0
SECTION
  2
CLASSES
  0
CLASS
  1
ACDBDICTIONARYWDFLT
  2
AcDbDictionaryWithDefault
  3
ObjectDBX Classes
 90
        0
280
     0
281
     0
  0
CLASS
  1
VISUALSTYLE
  2
AcDbVisualStyle
  3
ObjectDBX Classes
 90
     4095
280
     0
281
     0
  0
CLASS
  1
SCALE
  2
AcDbScale
  3
ObjectDBX Classes
 90
     1153
280
     0
281
     0
  0
CLASS
  1

  2
exOdDbPolyline
  3

 90
        0
280
     0
281
     1
  0
CLASS
  1

  2
exOdDbSpline
  3

 90
        0
280
     0
281
     1
  0
CLASS
  1
DICTIONARYVAR
  2
AcDbDictionaryVar
  3
ObjectDBX Classes
 90
        0
280
     0
281
     0
  0
CLASS
  1
ACDBPLACEHOLDER
  2
AcDbPlaceHolder
  3
ObjectDBX Classes
 90
        0
280
     0
281
     0
  0
CLASS
  1
LAYOUT
  2
AcDbLayout
  3
ObjectDBX Classes
 90
        0
280
     0
281
     0
  0
ENDSEC
  0
SECTION
  2
TABLES
  0
TABLE
  2
VPORT
  5
8
330
0
100
AcDbSymbolTable
 70
     1
  0
VPORT
  5
29
330
8
100
AcDbSymbolTableRecord
100
AcDbViewportTableRecord
  2
*Active
 70
     0
 10
0.0
 20
0.0
 11
1.0
 21
1.0
 12
179.5771818571556
 22
293.724543020356
 13
0.0
 23
0.0
 14
0.5
 24
0.5
 15
0.5
 25
0.5
 16
0.0
 26
0.0
 36
1.0
 17
0.0
 27
0.0
 37
0.0
 40
190.8639992670097
 41
1.60267857142857
 42
50.0
 43
0.0
 44
0.0
 50
0.0
 51
0.0
 71
     0
 72
   100
 73
     1
 74
     3
 75
     0
 76
     0
 77
     0
 78
     0
281
     0
 65
     1
110
0.0
120
0.0
130
0.0
111
1.0
121
0.0
131
0.0
112
0.0
122
1.0
132
0.0
 79
     0
146
0.0
  0
ENDTAB
  0
TABLE
  2
LTYPE
  5
5
330
0
100
AcDbSymbolTable
 70
     8
  0
LTYPE
  5
14
330
5
100
AcDbSymbolTableRecord
100
AcDbLinetypeTableRecord
  2
ByBlock
 70
     0
  3

 72
    65
 73
     0
 40
0.0
  0
LTYPE
  5
15
330
5
100
AcDbSymbolTableRecord
100
AcDbLinetypeTableRecord
  2
ByLayer
 70
     0
  3

 72
    65
 73
     0
 40
0.0
  0
LTYPE
  5
16
330
5
100
AcDbSymbolTableRecord
100
AcDbLinetypeTableRecord
  2
Continuous
 70
     0
  3
Solid line
 72
    65
 73
     0
 40
0.0
  0
LTYPE
  5
3B
330
5
100
AcDbSymbolTableRecord
100
AcDbLinetypeTableRecord
  2
DASHED
 70
     0
  3
Dashed
 72
    65
 73
     2
 40
15.0
 49
7.0
 74
     0
 49
-8.0
 74
     0
  0
LTYPE
  5
3C
330
5
100
AcDbSymbolTableRecord
100
AcDbLinetypeTableRecord
  2
DOTTED
 70
     0
  3
Dotted
 72
    65
 73
     2
 40
1.0
 49
0.0
 74
     0
 49
-1.0
 74
     0
  0
LTYPE
  5
3D
330
5
100
AcDbSymbolTableRecord
100
AcDbLinetypeTableRecord
  2
DOT_CENTER
 70
     0
  3
Dot_Center
 72
    65
 73
     4
 40
14.0
 49
12.0
 74
     0
 49
-1.0
 74
     0
 49
0.0
 74
     0
 49
-1.0
 74
     0
  0
LTYPE
  5
3E
330
5
100
AcDbSymbolTableRecord
100
AcDbLinetypeTableRecord
  2
LONG_DASHED
 70
     0
  3
Long_Dashed
 72
    65
 73
     2
 40
15.0
 49
10.0
 74
     0
 49
-5.0
 74
     0
  0
LTYPE
  5
3F
330
5
100
AcDbSymbolTableRecord
100
AcDbLinetypeTableRecord
  2
DASH_CENTER
 70
     0
  3
Dash_Center
 72
    65
 73
     4
 40
14.0
 49
11.0
 74
     0
 49
-1.0
 74
     0
 49
1.0
 74
     0
 49
-1.0
 74
     0
  0
LTYPE
  5
40
330
5
100
AcDbSymbolTableRecord
100
AcDbLinetypeTableRecord
  2
PHANTOM
 70
     0
  3
Phantom
 72
    65
 73
     6
 40
13.0
 49
10.0
 74
     0
 49
-1.0
 74
     0
 49
0.0
 74
     0
 49
-1.0
 74
     0
 49
0.0
 74
     0
 49
-1.0
 74
     0
  0
LTYPE
  5
41
330
5
100
AcDbSymbolTableRecord
100
AcDbLinetypeTableRecord
  2
CENTER_DASH_DASH
 70
     0
  3
Center_Dash_Dash
 72
    65
 73
     6
 40
14.0
 49
9.0
 74
     0
 49
-1.0
 74
     0
 49
1.0
 74
     0
 49
-1.0
 74
     0
 49
1.0
 74
     0
 49
-1.0
 74
     0
  0
ENDTAB
  0
TABLE
  2
LAYER
  5
2
330
0
100
AcDbSymbolTable
 70
     6
  0
LAYER
  5
10
330
2
100
AcDbSymbolTableRecord
100
AcDbLayerTableRecord
  2
0
 70
     0
 62
     7
  6
Continuous
370
    -3
390
F
  0
LAYER
  5
42
330
2
100
AcDbSymbolTableRecord
100
AcDbLayerTableRecord
  2
1
 70
     0
 62
     7
  6
Continuous
370
    -3
390
F
  0
LAYER
  5
43
330
2
100
AcDbSymbolTableRecord
100
AcDbLayerTableRecord
  2
BEZUGSACHSEN
 70
     0
 62
     7
  6
Continuous
370
    -3
390
F
  0
LAYER
  5
44
330
2
100
AcDbSymbolTableRecord
100
AcDbLayerTableRecord
  2
DEFAULT_2
 70
     0
 62
     7
  6
Continuous
370
    -3
390
F
  0
LAYER
  5
45
330
2
100
AcDbSymbolTableRecord
100
AcDbLayerTableRecord
  2
RUNDUNGEN
 70
     0
 62
     7
  6
Continuous
370
    -3
390
F
  0
LAYER
  5
46
330
2
100
AcDbSymbolTableRecord
100
AcDbLayerTableRecord
  2
TEIL_STARTBEZUEGE
 70
     0
 62
     7
  6
Continuous
370
    -3
390
F
  0
ENDTAB
  0
TABLE
  2
STYLE
  5
3
330
0
100
AcDbSymbolTable
 70
     2
  0
STYLE
  5
11
330
3
100
AcDbSymbolTableRecord
100
AcDbTextStyleTableRecord
  2
Standard
 70
     0
 40
0.0
 41
1.0
 50
0.0
 71
     0
 42
0.2
  3
txt
  4

  0
STYLE
  5
6D
330
3
100
AcDbSymbolTableRecord
100
AcDbTextStyleTableRecord
  2
CONVERTER_11
 70
     0
 40
0.0
 41
0.72
 50
0.0
 71
     0
 42
0.2
  3
txt.shx
  4

  0
ENDTAB
  0
TABLE
  2
VIEW
  5
6
330
0
100
AcDbSymbolTable
 70
     0
  0
ENDTAB
  0
TABLE
  2
UCS
  5
7
330
0
100
AcDbSymbolTable
 70
     0
  0
ENDTAB
  0
TABLE
  2
APPID
  5
9
330
0
100
AcDbSymbolTable
 70
     1
  0
APPID
  5
12
330
9
100
AcDbSymbolTableRecord
100
AcDbRegAppTableRecord
  2
ACAD
 70
     0
  0
ENDTAB
  0
TABLE
  2
DIMSTYLE
  5
A
330
0
100
AcDbSymbolTable
 70
     6
100
AcDbDimStyleTable
  0
DIMSTYLE
105
27
330
A
100
AcDbSymbolTableRecord
100
AcDbDimStyleTableRecord
  2
Standard
 70
     0
340
11
  0
DIMSTYLE
105
CF
102
{ACAD_REACTORS
330
D0
102
}
330
A
100
AcDbSymbolTableRecord
100
AcDbDimStyleTableRecord
  2
ME10_DIM_10
 70
     0
  3
\U+2300<>
 41
3.5
 42
2.0
 44
2.0
 71
     1
 73
     0
 74
     0
 77
     1
 78
     8
140
3.5
146
0.7
147
2.0
172
     1
173
     1
176
     2
177
     2
178
     3
271
     2
272
     0
340
6D
  0
DIMSTYLE
105
DA
102
{ACAD_REACTORS
330
DB
102
}
330
A
100
AcDbSymbolTableRecord
100
AcDbDimStyleTableRecord
  2
ME10_DIM_11
 70
     0
  3
\U+2300<>
 41
3.5
 42
2.0
 44
2.0
 71
     1
 73
     0
 74
     0
 77
     1
 78
     8
140
3.5
146
0.7
147
2.0
172
     1
173
     1
176
     2
177
     2
178
     3
271
     2
272
     0
340
6D
  0
DIMSTYLE
105
E5
102
{ACAD_REACTORS
330
E6
102
}
330
A
100
AcDbSymbolTableRecord
100
AcDbDimStyleTableRecord
  2
ME10_DIM_12
 70
     0
  3
<>
 41
3.5
 42
2.0
 44
2.0
 71
     1
 73
     0
 74
     0
 77
     1
 78
     8
140
3.5
146
0.7
147
2.0
172
     1
173
     1
176
     2
177
     2
178
     3
271
     2
272
     0
340
6D
  0
DIMSTYLE
105
F0
102
{ACAD_REACTORS
330
F1
102
}
330
A
100
AcDbSymbolTableRecord
100
AcDbDimStyleTableRecord
  2
ME10_DIM_13
 70
     0
  3
<>
 41
3.5
 42
2.0
 44
2.0
 71
     1
 73
     0
 74
     0
 77
     1
 78
     8
140
3.5
146
0.7
147
2.0
172
     1
173
     1
176
     2
177
     2
178
     3
271
     2
272
     0
340
6D
  0
DIMSTYLE
105
FB
102
{ACAD_REACTORS
330
FC
102
}
330
A
100
AcDbSymbolTableRecord
100
AcDbDimStyleTableRecord
  2
ME10_DIM_14
 70
     0
  3
<>
 41
3.5
 42
2.0
 44
2.0
 71
     1
 73
     0
 74
     0
 77
     1
 78
     8
140
3.5
146
0.7
147
2.0
172
     1
173
     1
176
     2
177
     2
178
     3
271
     2
272
     0
340
6D
  0
ENDTAB
  0
TABLE
  2
BLOCK_RECORD
  5
1
330
0
100
AcDbSymbolTable
 70
     8
  0
BLOCK_RECORD
  5
1F
330
1
100
AcDbSymbolTableRecord
100
AcDbBlockTableRecord
  2
*Model_Space
340
22
  0
BLOCK_RECORD
  5
1B
330
1
100
AcDbSymbolTableRecord
100
AcDbBlockTableRecord
  2
*Paper_Space
340
1E
  0
BLOCK_RECORD
  5
23
330
1
100
AcDbSymbolTableRecord
100
AcDbBlockTableRecord
  2
*Paper_Space0
340
26
  0
BLOCK_RECORD
  5
47
330
1
100
AcDbSymbolTableRecord
100
AcDbBlockTableRecord
  2
Urheberrecht_DE-EN
340
0
102
{BLKREFS
331
6C
102
}
  0
BLOCK_RECORD
  5
C6
330
1
100
AcDbSymbolTableRecord
100
AcDbBlockTableRecord
  2
*D2
340
0
  0
BLOCK_RECORD
  5
D1
330
1
100
AcDbSymbolTableRecord
100
AcDbBlockTableRecord
  2
*D3
340
0
  0
BLOCK_RECORD
  5
DC
330
1
100
AcDbSymbolTableRecord
100
AcDbBlockTableRecord
  2
*D4
340
0
  0
BLOCK_RECORD
  5
E7
330
1
100
AcDbSymbolTableRecord
100
AcDbBlockTableRecord
  2
*D5
340
0
  0
BLOCK_RECORD
  5
F2
330
1
100
AcDbSymbolTableRecord
100
AcDbBlockTableRecord
  2
*D6
340
0
  0
BLOCK_RECORD
  5
FD
330
1
100
AcDbSymbolTableRecord
100
AcDbBlockTableRecord
  2
*D7
340
0
102
{BLKREFS
331
103
102
}
  0
ENDTAB
  0
ENDSEC
  0
SECTION
  2
BLOCKS
  0
BLOCK
  5
20
330
1F
100
AcDbEntity
  8
0
100
AcDbBlockBegin
  2
*Model_Space
 70
     0
 10
0.0
 20
0.0
 30
0.0
  3
*Model_Space
  1

  0
ENDBLK
  5
21
330
1F
100
AcDbEntity
  8
0
100
AcDbBlockEnd
  0
BLOCK
  5
1C
330
1B
100
AcDbEntity
 67
     1
  8
0
100
AcDbBlockBegin
  2
*Paper_Space
 70
     0
 10
0.0
 20
0.0
 30
0.0
  3
*Paper_Space
  1

  0
ENDBLK
  5
1D
330
1B
100
AcDbEntity
 67
     1
  8
0
100
AcDbBlockEnd
  0
BLOCK
  5
24
330
23
100
AcDbEntity
  8
0
100
AcDbBlockBegin
  2
*Paper_Space0
 70
     0
 10
0.0
 20
0.0
 30
0.0
  3
*Paper_Space0
  1

  0
ENDBLK
  5
25
330
23
100
AcDbEntity
  8
0
100
AcDbBlockEnd
  0
BLOCK
  5
48
330
47
100
AcDbEntity
  8
0
100
AcDbBlockBegin
  2
Urheberrecht_DE-EN
 70
     0
 10
54.534617456067
 20
296.133796688231
 30
0.0
  3
Urheberrecht_DE-EN
  1

  0
MTEXT
  5
6E
330
47
100
AcDbEntity
  8
1
 62
     1
100
AcDbMText
 10
54.534617456067
 20
296.133796688231
 30
0.0
 40
2.0
 41
0.0
 71
     7
 72
     1
  1
We own the copyright of this document. It \Pdetermined and may neither be copied or \Pmade accessible to outsiders without our\Ppermission.
  7
CONVERTER_11
 11
0.0
 21
1.0
 31
0.0
 73
     1
 44
0.90036014405762
  0
MTEXT
  5
6F
330
47
100
AcDbEntity
  8
1
 62
     1
100
AcDbMText
 10
54.534617456067
 20
239.8444097709248
 30
0.0
 40
2.0
 41
0.0
 71
     7
 72
     1
  1
F\U+00fcr diese Unterlage behalten wir das Ur-\Pheberrecht. Sie darf nur f\U+00fcr den von uns \Pbestimmten Zweck benutzt und ohne unsere \PZustimmung weder vervielf\U+00e4ltigt noch\PDritten zug\U+00e4nglich gemacht werden.
  7
CONVERTER_11
 11
0.0
 21
1.0
 31
0.0
 73
     1
 44
0.90036014405762
  0
ENDBLK
  5
49
330
47
100
AcDbEntity
  8
0
100
AcDbBlockEnd
  0
BLOCK
  5
CD
330
C6
100
AcDbEntity
  8
0
100
AcDbBlockBegin
  2
*D2
 70
     1
 10
0.0
 20
0.0
 30
0.0
  3
*D2
  1

  0
LINE
  5
C7
330
C6
100
AcDbEntity
  8
1
  6
Continuous
 62
     2
100
AcDbLine
 10
307.933688608576
 20
300.9176788396
 30
0.0
 11
307.933688608576
 21
260.9176788396
 31
0.0
  0
LINE
  5
C8
330
C6
100
AcDbEntity
  8
1
  6
Continuous
 62
     2
100
AcDbLine
 10
297.8149391629
 20
300.9176788396
 30
0.0
 11
309.933688608576
 21
300.9176788396
 31
0.0
  0
LINE
  5
C9
330
C6
100
AcDbEntity
  8
1
  6
Continuous
 62
     2
100
AcDbLine
 10
297.8149391629
 20
260.9176788396
 30
0.0
 11
309.933688608576
 21
260.9176788396
 31
0.0
  0
SOLID
  5
CA
330
C6
100
AcDbEntity
  8
1
 62
     2
100
AcDbTrace
 10
308.3944723501319
 20
297.4176788396
 30
0.0
 11
307.4729048670201
 21
297.4176788396
 31
0.0
 12
307.933688608576
 22
300.9176788396
 32
0.0
 13
307.933688608576
 23
300.9176788396
 33
0.0
  0
SOLID
  5
CB
330
C6
100
AcDbEntity
  8
1
 62
     2
100
AcDbTrace
 10
307.4729048670201
 20
264.4176788396
 30
0.0
 11
308.3944723501319
 21
264.4176788396
 31
0.0
 12
307.933688608576
 22
260.9176788396
 32
0.0
 13
307.933688608576
 23
260.9176788396
 33
0.0
  0
MTEXT
  5
CC
330
C6
100
AcDbEntity
  8
1
 62
     3
100
AcDbMText
 10
305.933688608576
 20
271.288472200709
 30
0.0
 40
3.5
 41
0.0
 71
     7
 72
     1
  1
\C3;%%c\C3;\C3;40\C2;\H2.45;\S^ ;\C3;
  7
CONVERTER_11
 11
0.0
 21
1.0
 31
0.0
 73
     1
 44
0.60024009603842
  0
ENDBLK
  5
CE
330
C6
100
AcDbEntity
  8
0
100
AcDbBlockEnd
  0
BLOCK
  5
D8
330
D1
100
AcDbEntity
  8
0
100
AcDbBlockBegin
  2
*D3
 70
     1
 10
0.0
 20
0.0
 30
0.0
  3
*D3
  1

  0
LINE
  5
D2
330
D1
100
AcDbEntity
  8
1
  6
Continuous
 62
     2
100
AcDbLine
 10
316.6197462582441
 20
319.9176788396
 30
0.0
 11
316.6197462582441
 21
241.9176788396
 31
0.0
  0
LINE
  5
D3
330
D1
100
AcDbEntity
  8
1
  6
Continuous
 62
     2
100
AcDbLine
 10
282.5469899705001
 20
319.9176788396
 30
0.0
 11
318.6197462582441
 21
319.9176788396
 31
0.0
  0
LINE
  5
D4
330
D1
100
AcDbEntity
  8
1
  6
Continuous
 62
     2
100
AcDbLine
 10
282.5469899705001
 20
241.9176788396
 30
0.0
 11
318.6197462582441
 21
241.9176788396
 31
0.0
  0
SOLID
  5
D5
330
D1
100
AcDbEntity
  8
1
 62
     2
100
AcDbTrace
 10
317.0805299998
 20
316.4176788396
 30
0.0
 11
316.1589625166882
 21
316.4176788396
 31
0.0
 12
316.6197462582441
 22
319.9176788396
 32
0.0
 13
316.6197462582441
 23
319.9176788396
 33
0.0
  0
SOLID
  5
D6
330
D1
100
AcDbEntity
  8
1
 62
     2
100
AcDbTrace
 10
316.1589625166882
 20
245.4176788396
 30
0.0
 11
317.0805299998
 21
245.4176788396
 31
0.0
 12
316.6197462582441
 22
241.9176788396
 32
0.0
 13
316.6197462582441
 23
241.9176788396
 33
0.0
  0
MTEXT
  5
D7
330
D1
100
AcDbEntity
  8
1
 62
     3
100
AcDbMText
 10
314.6197462582441
 20
271.523230515565
 30
0.0
 40
3.5
 41
0.0
 71
     7
 72
     1
  1
\C3;%%c\C3;\C3;78\C2;\H2.45;\S^ ;\C3;
  7
CONVERTER_11
 11
0.0
 21
1.0
 31
0.0
 73
     1
 44
0.60024009603842
  0
ENDBLK
  5
D9
330
D1
100
AcDbEntity
  8
0
100
AcDbBlockEnd
  0
BLOCK
  5
E3
330
DC
100
AcDbEntity
  8
0
100
AcDbBlockBegin
  2
*D4
 70
     1
 10
0.0
 20
0.0
 30
0.0
  3
*D4
  1

  0
LINE
  5
DD
330
DC
100
AcDbEntity
  8
1
  6
Continuous
 62
     2
100
AcDbLine
 10
295.8149391628999
 20
335.898571978979
 30
0.0
 11
184.9149391629
 21
335.898571978979
 31
0.0
  0
LINE
  5
DE
330
DC
100
AcDbEntity
  8
1
  6
Continuous
 62
     2
100
AcDbLine
 10
295.8149391628999
 20
312.6800745326
 30
0.0
 11
295.8149391628999
 21
337.898571978979
 31
0.0
  0
LINE
  5
DF
330
DC
100
AcDbEntity
  8
1
  6
Continuous
 62
     2
100
AcDbLine
 10
184.9149391629
 20
328.8791725735
 30
0.0
 11
184.9149391629
 21
337.898571978979
 31
0.0
  0
SOLID
  5
E0
330
DC
100
AcDbEntity
  8
1
 62
     2
100
AcDbTrace
 10
292.3149391628999
 20
335.4377882374231
 30
0.0
 11
292.3149391628999
 21
336.3593557205349
 31
0.0
 12
295.8149391628999
 22
335.898571978979
 32
0.0
 13
295.8149391628999
 23
335.898571978979
 33
0.0
  0
SOLID
  5
E1
330
DC
100
AcDbEntity
  8
1
 62
     2
100
AcDbTrace
 10
188.4149391629
 20
336.3593557205349
 30
0.0
 11
188.4149391629
 21
335.4377882374231
 31
0.0
 12
184.9149391629
 22
335.898571978979
 32
0.0
 13
184.9149391629
 23
335.898571978979
 33
0.0
  0
MTEXT
  5
E2
330
DC
100
AcDbEntity
  8
1
 62
     3
100
AcDbMText
 10
234.5326713879058
 20
337.898571978979
 30
0.0
 40
3.5
 41
0.0
 71
     7
 72
     1
  1
\C3;\C3;\C3;110.9\C2;\H2.45;\S^ ;\C3;
  7
CONVERTER_11
 11
0.9999999999970619
 21
2.424068405545306E-6
 31
0.0
 73
     1
 44
0.60024009603842
  0
ENDBLK
  5
E4
330
DC
100
AcDbEntity
  8
0
100
AcDbBlockEnd
  0
BLOCK
  5
EE
330
E7
100
AcDbEntity
  8
0
100
AcDbBlockBegin
  2
*D5
 70
     1
 10
0.0
 20
0.0
 30
0.0
  3
*D5
  1

  0
LINE
  5
E8
330
E7
100
AcDbEntity
  8
1
  6
Continuous
 62
     2
100
AcDbLine
 10
295.8149391629
 20
343.762975526651
 30
0.0
 11
165.8149391629001
 21
343.762975526651
 31
0.0
  0
LINE
  5
E9
330
E7
100
AcDbEntity
  8
1
  6
Continuous
 62
     2
100
AcDbLine
 10
295.8149391629
 20
312.6800745326
 30
0.0
 11
295.8149391629
 21
345.762975526651
 31
0.0
  0
LINE
  5
EA
330
E7
100
AcDbEntity
  8
1
  6
Continuous
 62
     2
100
AcDbLine
 10
165.8149391629001
 20
334.6551788396
 30
0.0
 11
165.8149391629001
 21
345.762975526651
 31
0.0
  0
SOLID
  5
EB
330
E7
100
AcDbEntity
  8
1
 62
     2
100
AcDbTrace
 10
292.3149391629
 20
343.3021917850951
 30
0.0
 11
292.3149391629
 21
344.2237592682069
 31
0.0
 12
295.8149391629
 22
343.762975526651
 32
0.0
 13
295.8149391629
 23
343.762975526651
 33
0.0
  0
SOLID
  5
EC
330
E7
100
AcDbEntity
  8
1
 62
     2
100
AcDbTrace
 10
169.3149391629001
 20
344.2237592682069
 30
0.0
 11
169.3149391629001
 21
343.3021917850951
 31
0.0
 12
165.8149391629001
 22
343.762975526651
 32
0.0
 13
165.8149391629001
 23
343.762975526651
 33
0.0
  0
MTEXT
  5
ED
330
E7
100
AcDbEntity
  8
1
 62
     3
100
AcDbMText
 10
226.8395165464927
 20
345.762975526651
 30
0.0
 40
3.5
 41
0.0
 71
     7
 72
     1
  1
\C3;\C3;\C3;130\C2;\H2.45;\S^ ;\C3;
  7
CONVERTER_11
 11
0.9999999999970619
 21
2.424068405545306E-6
 31
0.0
 73
     1
 44
0.60024009603842
  0
ENDBLK
  5
EF
330
E7
100
AcDbEntity
  8
0
100
AcDbBlockEnd
  0
BLOCK
  5
F9
330
F2
100
AcDbEntity
  8
0
100
AcDbBlockBegin
  2
*D6
 70
     1
 10
0.0
 20
0.0
 30
0.0
  3
*D6
  1

  0
LINE
  5
F3
330
F2
100
AcDbEntity
  8
1
  6
Continuous
 62
     2
100
AcDbLine
 10
295.8149391628999
 20
351.155704070912
 30
0.0
 11
64.06493916289992
 21
351.155704070912
 31
0.0
  0
LINE
  5
F4
330
F2
100
AcDbEntity
  8
1
  6
Continuous
 62
     2
100
AcDbLine
 10
295.8149391628999
 20
312.6800745326
 30
0.0
 11
295.8149391628999
 21
353.155704070912
 31
0.0
  0
LINE
  5
F5
330
F2
100
AcDbEntity
  8
1
  6
Continuous
 62
     2
100
AcDbLine
 10
64.06493916289992
 20
301.0791258408
 30
0.0
 11
64.06493916289992
 21
353.155704070912
 31
0.0
  0
SOLID
  5
F6
330
F2
100
AcDbEntity
  8
1
 62
     2
100
AcDbTrace
 10
292.3149391628999
 20
350.6949203293561
 30
0.0
 11
292.3149391628999
 21
351.6164878124679
 31
0.0
 12
295.8149391628999
 22
351.155704070912
 32
0.0
 13
295.8149391628999
 23
351.155704070912
 33
0.0
  0
SOLID
  5
F7
330
F2
100
AcDbEntity
  8
1
 62
     2
100
AcDbTrace
 10
67.56493916289992
 20
351.6164878124679
 30
0.0
 11
67.56493916289992
 21
350.6949203293561
 31
0.0
 12
64.06493916289992
 22
351.155704070912
 32
0.0
 13
64.06493916289992
 23
351.155704070912
 33
0.0
  0
MTEXT
  5
F8
330
F2
100
AcDbEntity
  8
1
 62
     3
100
AcDbMText
 10
192.3562038434482
 20
353.155704070912
 30
0.0
 40
3.5
 41
0.0
 71
     7
 72
     1
  1
\C3;\C3;\C3;231.75\C2;\H2.45;\S^ ;\C3;
  7
CONVERTER_11
 11
0.9999999999970619
 21
2.424068405545306E-6
 31
0.0
 73
     1
 44
0.60024009603842
  0
ENDBLK
  5
FA
330
F2
100
AcDbEntity
  8
0
100
AcDbBlockEnd
  0
BLOCK
  5
101
330
FD
100
AcDbEntity
  8
0
100
AcDbBlockBegin
  2
*D7
 70
     1
 10
0.0
 20
0.0
 30
0.0
  3
*D7
  1

  0
LINE
  5
FE
330
FD
100
AcDbEntity
  8
1
  6
Continuous
 62
     2
100
AcDbLine
 10
193.5609612087852
 20
326.9932916208837
 30
0.0
 11
185.132016437442
 21
320.2955598751235
 31
0.0
  0
SOLID
  5
FF
330
FD
100
AcDbEntity
  8
1
 62
     2
100
AcDbTrace
 10
187.5855836724008
 20
322.8337343135769
 30
0.0
 11
188.1589082806896
 21
322.1122181880056
 31
0.0
 12
185.132016437442
 22
320.2955598751235
 32
0.0
 13
185.132016437442
 23
320.2955598751235
 33
0.0
  0
MTEXT
  5
100
330
FD
100
AcDbEntity
  8
1
 62
     3
100
AcDbMText
 10
187.1650917463181
 20
324.4655942855446
 30
0.0
 40
3.5
 41
0.0
 71
     7
 72
     1
  1
\C3; R\C3;\C3;1\C2;\H2.45;\S^ ;\C3;
  7
CONVERTER_11
 11
0.7829227254580731
 21
0.6221189644764921
 31
0.0
 73
     1
 44
0.60024009603842
  0
ENDBLK
  5
102
330
FD
100
AcDbEntity
  8
0
100
AcDbBlockEnd
  0
ENDSEC
  0
SECTION
  2
ENTITIES
  0
INSERT
  5
6C
330
1F
100
AcDbEntity
  8
0
100
AcDbBlockReference
  2
Urheberrecht_DE-EN
 10
54.534617456067
 20
296.133796688231
 30
0.0
  0
LINE
  5
70
330
1F
100
AcDbEntity
  8
0
  6
Continuous
 62
     7
100
AcDbLine
 10
64.06493916289996
 20
299.0791258408
 30
0.0
 11
64.06493916289996
 21
262.7562318384
 31
0.0
  0
LINE
  5
71
330
1F
100
AcDbEntity
  8
0
  6
Continuous
 62
     9
100
AcDbLine
 10
65.99022215729998
 20
301.305571184
 30
0.0
 11
65.99022215729998
 21
260.5297864952001
 31
0.0
  0
LINE
  5
72
330
1F
100
AcDbEntity
  8
0
  6
Continuous
 62
     7
100
AcDbLine
 10
170.0149391629
 20
233.9183819698
 30
0.0
 11
173.7495607771
 21
233.9183819698
 31
0.0
  0
LINE
  5
73
330
1F
100
AcDbEntity
  8
0
  6
Continuous
 62
     7
100
AcDbLine
 10
180.2303175487
 20
233.9183819698
 30
0.0
 11
183.9149391629
 21
233.9183819698
 31
0.0
  0
LINE
  5
74
330
1F
100
AcDbEntity
  8
0
  6
Continuous
 62
     7
100
AcDbLine
 10
175.8274391629
 20
237.2846638166
 30
0.0
 11
178.1524391629
 21
237.2846638166
 31
0.0
  0
LINE
  5
75
330
1F
100
AcDbEntity
  8
0
  6
Continuous
 62
     7
100
AcDbLine
 10
185.9149391629
 20
241.9176788396
 30
0.0
 11
280.5469899705
 21
241.9176788396
 31
0.0
  0
LINE
  5
76
330
1F
100
AcDbEntity
  8
0
  6
Continuous
 62
     7
100
AcDbLine
 10
166.3649391629
 20
246.3426788396
 30
0.0
 11
165.3252568297
 21
246.064096798
 31
0.0
  0
LINE
  5
77
330
1F
100
AcDbEntity
  8
0
  6
Continuous
 62
     7
100
AcDbLine
 10
168.0149391629
 20
246.3426788396
 30
0.0
 11
166.3649391629
 21
246.3426788396
 31
0.0
  0
LINE
  5
78
330
1F
100
AcDbEntity
  8
0
  6
Continuous
 62
     7
100
AcDbLine
 10
165.3252568297
 20
246.064096798
 30
0.0
 11
65.99022215729998
 21
260.5297864952001
 31
0.0
  0
LWPOLYLINE
  5
79
330
1F
100
AcDbEntity
  8
DEFAULT_2
  6
DASHED
 62
     8
100
AcDbPolyline
 90
        2
 70
     0
 43
0.35
 10
295.8149391629
 20
260.9176788396
 10
220.7149391629
 20
260.9176788396
  0
LINE
  5
7A
330
1F
100
AcDbEntity
  8
0
  6
Continuous
 62
     7
100
AcDbLine
 10
165.3252568297
 20
315.7712608812
 30
0.0
 11
165.3252568297
 21
246.064096798
 31
0.0
  0
LWPOLYLINE
  5
7B
330
1F
100
AcDbEntity
  8
TEIL_STARTBEZUEGE
  6
DOT_CENTER
 62
     7
100
AcDbPolyline
 90
        2
 70
     0
 43
0.25
 10
165.8149391629
 20
230.9183819698
 10
165.8149391629
 20
332.6551788396
  0
LWPOLYLINE
  5
7C
330
1F
100
AcDbEntity
  8
TEIL_STARTBEZUEGE
  6
DOT_CENTER
 62
     7
100
AcDbPolyline
 90
        2
 70
     0
 43
0.25
 10
298.8149391629
 20
280.9176788396
 10
61.06493916290003
 20
280.9176788396
  0
LINE
  5
7D
330
1F
100
AcDbEntity
  8
0
  6
Continuous
 62
     7
100
AcDbLine
 10
166.3649391629
 20
315.4926788396
 30
0.0
 11
166.3649391629
 21
246.3426788396
 31
0.0
  0
LINE
  5
7E
330
1F
100
AcDbEntity
  8
0
  6
Continuous
 62
     9
100
AcDbLine
 10
168.0149391629
 20
315.4926788396
 30
0.0
 11
168.0149391629
 21
246.3426788396
 31
0.0
  0
LINE
  5
7F
330
1F
100
AcDbEntity
  8
0
  6
Continuous
 62
     7
100
AcDbLine
 10
169.0149391629
 20
326.8791725735
 30
0.0
 11
169.0149391629
 21
234.9561851057
 31
0.0
  0
LINE
  5
80
330
1F
100
AcDbEntity
  8
0
  6
Continuous
 62
     9
100
AcDbLine
 10
170.0149391629
 20
327.9169757093
 30
0.0
 11
170.0149391629
 21
233.9183819698
 31
0.0
  0
LINE
  5
81
330
1F
100
AcDbEntity
  8
0
  6
Continuous
 62
     7
100
AcDbLine
 10
173.7495607771
 20
327.9169757093
 30
0.0
 11
173.7495607771
 21
233.9183819698
 31
0.0
  0
LINE
  5
82
330
1F
100
AcDbEntity
  8
0
  6
Continuous
 62
     7
100
AcDbLine
 10
175.0774391629
 20
325.5274960004
 30
0.0
 11
175.0774391629
 21
236.3078616788
 31
0.0
  0
LINE
  5
83
330
1F
100
AcDbEntity
  8
0
  6
Continuous
 62
     9
100
AcDbLine
 10
175.8274391629
 20
324.5506938626
 30
0.0
 11
175.8274391629
 21
237.2846638166
 31
0.0
  0
LINE
  5
84
330
1F
100
AcDbEntity
  8
0
  6
Continuous
 62
     9
100
AcDbLine
 10
178.1524391629
 20
324.5506938626
 30
0.0
 11
178.1524391629
 21
237.2846638166
 31
0.0
  0
LINE
  5
85
330
1F
100
AcDbEntity
  8
0
  6
Continuous
 62
     7
100
AcDbLine
 10
178.9024391629
 20
325.5274960004
 30
0.0
 11
178.9024391629
 21
236.3078616788
 31
0.0
  0
LINE
  5
86
330
1F
100
AcDbEntity
  8
0
  6
Continuous
 62
     7
100
AcDbLine
 10
180.2303175487
 20
327.9169757093
 30
0.0
 11
180.2303175487
 21
233.9183819698
 31
0.0
  0
LINE
  5
87
330
1F
100
AcDbEntity
  8
0
  6
Continuous
 62
     9
100
AcDbLine
 10
183.9149391629
 20
327.9169757093
 30
0.0
 11
183.9149391629
 21
233.9183819698
 31
0.0
  0
LINE
  5
88
330
1F
100
AcDbEntity
  8
0
  6
Continuous
 62
     7
100
AcDbLine
 10
184.9149391629
 20
326.8791725735
 30
0.0
 11
184.9149391629
 21
234.9561851057
 31
0.0
  0
LINE
  5
89
330
1F
100
AcDbEntity
  8
RUNDUNGEN
  6
Continuous
 62
     9
100
AcDbLine
 10
185.9149391629
 20
319.9176788396
 30
0.0
 11
185.9149391629
 21
241.9176788396
 31
0.0
  0
LWPOLYLINE
  5
8A
330
1F
100
AcDbEntity
  8
DEFAULT_2
  6
DASHED
 62
     8
100
AcDbPolyline
 90
        2
 70
     0
 43
0.35
 10
220.7149391629
 20
300.9176788396
 10
225.0649391629
 20
300.9176788396
  0
LWPOLYLINE
  5
8B
330
1F
100
AcDbEntity
  8
DEFAULT_2
  6
DASHED
 62
     8
100
AcDbPolyline
 90
        2
 70
     0
 43
0.35
 10
225.0649391629
 20
300.9176788396
 10
257.0649391629
 20
300.9176788396
  0
LWPOLYLINE
  5
8C
330
1F
100
AcDbEntity
  8
DEFAULT_2
  6
DASHED
 62
     8
100
AcDbPolyline
 90
        2
 70
     0
 43
0.35
 10
257.0649391629
 20
300.9176788396
 10
295.8149391629
 20
300.9176788396
  0
LWPOLYLINE
  5
8D
330
1F
100
AcDbEntity
  8
DEFAULT_2
  6
DASHED
 62
     8
100
AcDbPolyline
 90
        2
 70
     0
 43
0.35
 10
220.7149391629
 20
300.9176788396
 10
220.7149391629
 20
260.9176788396
  0
LWPOLYLINE
  5
8E
330
1F
100
AcDbEntity
  8
BEZUGSACHSEN
  6
DASHED
 62
     8
100
AcDbPolyline
 90
        2
 70
     0
 43
0.35
 10
225.0649391629
 20
300.9176788396
 10
225.0649391629
 20
319.9176788396
  0
LINE
  5
8F
330
1F
100
AcDbEntity
  8
0
  6
Continuous
 62
     7
100
AcDbLine
 10
165.3252568297
 20
315.7712608812
 30
0.0
 11
65.99022215729998
 21
301.305571184
 31
0.0
  0
LINE
  5
90
330
1F
100
AcDbEntity
  8
0
  6
Continuous
 62
     7
100
AcDbLine
 10
168.0149391629
 20
315.4926788396
 30
0.0
 11
166.3649391629
 21
315.4926788396
 31
0.0
  0
LINE
  5
91
330
1F
100
AcDbEntity
  8
0
  6
Continuous
 62
     7
100
AcDbLine
 10
169.0149391629
 20
316.2176788396
 30
0.0
 11
168.9763833891
 21
316.2176788396
 31
0.0
  0
LINE
  5
92
330
1F
100
AcDbEntity
  8
BEZUGSACHSEN
  6
Continuous
 62
     7
100
AcDbLine
 10
280.5469899705
 20
319.9176788396
 30
0.0
 11
274.5649391629
 21
319.9176788396
 31
0.0
  0
LINE
  5
93
330
1F
100
AcDbEntity
  8
BEZUGSACHSEN
  6
Continuous
 62
     7
100
AcDbLine
 10
257.0649391629
 20
319.9176788396
 30
0.0
 11
242.5649391629
 21
319.9176788396
 31
0.0
  0
LINE
  5
94
330
1F
100
AcDbEntity
  8
BEZUGSACHSEN
  6
Continuous
 62
     7
100
AcDbLine
 10
225.0649391629
 20
319.9176788396
 30
0.0
 11
185.9149391629
 21
319.9176788396
 31
0.0
  0
LINE
  5
95
330
1F
100
AcDbEntity
  8
0
  6
Continuous
 62
     7
100
AcDbLine
 10
185.9149391629
 20
319.9176788396
 30
0.0
 11
225.0649391629
 21
319.9176788396
 31
0.0
  0
LINE
  5
96
330
1F
100
AcDbEntity
  8
0
  6
Continuous
 62
     7
100
AcDbLine
 10
242.5649391629
 20
319.9176788396
 30
0.0
 11
257.0649391629
 21
319.9176788396
 31
0.0
  0
LINE
  5
97
330
1F
100
AcDbEntity
  8
0
  6
Continuous
 62
     7
100
AcDbLine
 10
274.5649391629
 20
319.9176788396
 30
0.0
 11
280.5469899705
 21
319.9176788396
 31
0.0
  0
LINE
  5
98
330
1F
100
AcDbEntity
  8
0
  6
Continuous
 62
     7
100
AcDbLine
 10
166.3649391629
 20
315.4926788396
 30
0.0
 11
165.3252568297
 21
315.7712608812
 31
0.0
  0
LWPOLYLINE
  5
99
330
1F
100
AcDbEntity
  8
BEZUGSACHSEN
  6
DOT_CENTER
 62
     7
100
AcDbPolyline
 90
        2
 70
     0
 43
0.25
 10
233.8149391629
 20
322.9176788396
 10
233.8149391629
 20
295.8988149076
  0
LINE
  5
9A
330
1F
100
AcDbEntity
  8
0
  6
Continuous
 62
     7
100
AcDbLine
 10
175.8274391629
 20
324.5506938626
 30
0.0
 11
178.1524391629
 21
324.5506938626
 31
0.0
  0
LWPOLYLINE
  5
9B
330
1F
100
AcDbEntity
  8
BEZUGSACHSEN
  6
DASHED
 62
     8
100
AcDbPolyline
 90
        2
 70
     0
 43
0.35
 10
242.5649391629
 20
300.9176788396
 10
242.5649391629
 20
319.9176788396
  0
LINE
  5
9C
330
1F
100
AcDbEntity
  8
0
  6
Continuous
 62
     7
100
AcDbLine
 10
170.0149391629
 20
327.9169757093
 30
0.0
 11
173.7495607771
 21
327.9169757093
 31
0.0
  0
LINE
  5
9D
330
1F
100
AcDbEntity
  8
0
  6
Continuous
 62
     7
100
AcDbLine
 10
180.2303175487
 20
327.9169757093
 30
0.0
 11
183.9149391629
 21
327.9169757093
 31
0.0
  0
LWPOLYLINE
  5
9E
330
1F
100
AcDbEntity
  8
BEZUGSACHSEN
  6
DASHED
 62
     8
100
AcDbPolyline
 90
        2
 70
     0
 43
0.35
 10
257.0649391629
 20
300.9176788396
 10
257.0649391629
 20
319.9176788396
  0
LWPOLYLINE
  5
9F
330
1F
100
AcDbEntity
  8
BEZUGSACHSEN
  6
DOT_CENTER
 62
     7
100
AcDbPolyline
 90
        2
 70
     0
 43
0.25
 10
265.8149391629
 20
322.9176788396
 10
265.8149391629
 20
295.8988149076
  0
LWPOLYLINE
  5
A0
330
1F
100
AcDbEntity
  8
BEZUGSACHSEN
  6
DASHED
 62
     8
100
AcDbPolyline
 90
        2
 70
     0
 43
0.35
 10
274.5649391629
 20
300.9176788396
 10
274.5649391629
 20
319.9176788396
  0
LINE
  5
A1
330
1F
100
AcDbEntity
  8
0
  6
Continuous
 62
     7
100
AcDbLine
 10
281.0469899705
 20
242.0516534358
 30
0.0
 11
295.3149391629
 21
250.2892577428
 31
0.0
  0
LINE
  5
A2
330
1F
100
AcDbEntity
  8
RUNDUNGEN
  6
Continuous
 62
     7
100
AcDbLine
 10
295.3149391629
 20
311.5460999363
 30
0.0
 11
281.0469899705
 21
319.7837042434
 31
0.0
  0
LINE
  5
A3
330
1F
100
AcDbEntity
  8
0
  6
Continuous
 62
     7
100
AcDbLine
 10
281.0469899705
 20
319.7837042434
 30
0.0
 11
295.3149391629
 21
311.5460999363
 31
0.0
  0
LINE
  5
A4
330
1F
100
AcDbEntity
  8
RUNDUNGEN
  6
Continuous
 62
     9
100
AcDbLine
 10
280.5469899705
 20
241.9176788396
 30
0.0
 11
280.5469899705
 21
319.9176788396
 31
0.0
  0
LINE
  5
A5
330
1F
100
AcDbEntity
  8
RUNDUNGEN
  6
Continuous
 62
     9
100
AcDbLine
 10
281.0469899705
 20
242.0516534358
 30
0.0
 11
281.0469899705
 21
319.7837042434
 31
0.0
  0
LINE
  5
A6
330
1F
100
AcDbEntity
  8
RUNDUNGEN
  6
Continuous
 62
     9
100
AcDbLine
 10
295.3149391629
 20
250.2892577428
 30
0.0
 11
295.3149391629
 21
311.5460999363
 31
0.0
  0
LINE
  5
A7
330
1F
100
AcDbEntity
  8
RUNDUNGEN
  6
Continuous
 62
     7
100
AcDbLine
 10
295.8149391629
 20
251.1552831466
 30
0.0
 11
295.8149391629
 21
310.6800745326
 31
0.0
  0
LWPOLYLINE
  5
A8
330
1F
100
AcDbEntity
  8
BEZUGSACHSEN
  6
DASHED
 62
     8
100
AcDbPolyline
 90
        2
 70
     0
 43
0.35
 10
275.8149310903
 20
300.9176788396
 10
275.8149310903
 20
319.9176788396
  0
LWPOLYLINE
  5
A9
330
1F
100
AcDbEntity
  8
BEZUGSACHSEN
  6
DASHED
 62
     8
100
AcDbPolyline
 90
        2
 70
     0
 43
0.35
 10
243.8149310903
 20
300.9176788396
 10
243.8149310903
 20
319.9176788396
  0
LWPOLYLINE
  5
AA
330
1F
100
AcDbEntity
  8
BEZUGSACHSEN
  6
DASHED
 62
     8
100
AcDbPolyline
 90
        2
 70
     0
 43
0.35
 10
255.8149472355
 20
300.9176788396
 10
255.8149472355
 20
319.9176788396
  0
LWPOLYLINE
  5
AB
330
1F
100
AcDbEntity
  8
BEZUGSACHSEN
  6
DASHED
 62
     8
100
AcDbPolyline
 90
        2
 70
     0
 43
0.35
 10
223.8149472355
 20
300.9176788396
 10
223.8149472355
 20
319.9176788396
  0
ARC
  5
AC
330
1F
100
AcDbEntity
  8
0
  6
Continuous
 62
     7
100
AcDbCircle
 10
66.31493916289996
 20
262.7562318384
 30
0.0
 40
2.25
100
AcDbArc
 50
180.0
 51
261.7021731726458
  0
ARC
  5
AD
330
1F
100
AcDbEntity
  8
0
  6
Continuous
 62
     7
100
AcDbCircle
 10
66.31493916289996
 20
299.0791258408
 30
0.0
 40
2.249999999996172
100
AcDbArc
 50
98.29782682735394
 51
180.0
  0
ARC
  5
AE
330
1F
100
AcDbEntity
  8
RUNDUNGEN
  6
Continuous
 62
     7
100
AcDbCircle
 10
294.8149391629
 20
251.1552831466
 30
0.0
 40
1.000000000013472
100
AcDbArc
 50
299.9999999995543
 51
0.0
  0
ARC
  5
AF
330
1F
100
AcDbEntity
  8
RUNDUNGEN
  6
Continuous
 62
     7
100
AcDbCircle
 10
280.5469899705
 20
318.9176788396
 30
0.0
 40
1.000000000013472
100
AcDbArc
 50
60.00000000044565
 51
90.0
  0
ARC
  5
B0
330
1F
100
AcDbEntity
  8
RUNDUNGEN
  6
Continuous
 62
     7
100
AcDbCircle
 10
280.5469899705
 20
242.9176788396
 30
0.0
 40
1.0
100
AcDbArc
 50
270.0
 51
299.9999999995543
  0
ARC
  5
B1
330
1F
100
AcDbEntity
  8
RUNDUNGEN
  6
Continuous
 62
     7
100
AcDbCircle
 10
185.9149391629
 20
240.9176788396
 30
0.0
 40
1.0
100
AcDbArc
 50
90.0
 51
180.0
  0
ARC
  5
B2
330
1F
100
AcDbEntity
  8
0
  6
Continuous
 62
     7
100
AcDbCircle
 10
168.0149391629
 20
316.4926788396
 30
0.0
 40
1.0
100
AcDbArc
 50
270.0
 51
344.0379858379187
  0
ARC
  5
B3
330
1F
100
AcDbEntity
  8
0
  6
Continuous
 62
     7
100
AcDbCircle
 10
168.0149391629
 20
245.3426788396
 30
0.0
 40
1.0
100
AcDbArc
 50
0.0
 51
90.0
  0
ARC
  5
B4
330
1F
100
AcDbEntity
  8
RUNDUNGEN
  6
Continuous
 62
     7
100
AcDbCircle
 10
294.8149391629
 20
310.6800745326
 30
0.0
 40
1.0
100
AcDbArc
 50
0.0
 51
59.99999999758122
  0
ARC
  5
B5
330
1F
100
AcDbEntity
  8
RUNDUNGEN
  6
Continuous
 62
     7
100
AcDbCircle
 10
185.9149391629
 20
320.9176788396
 30
0.0
 40
1.0
100
AcDbArc
 50
180.0
 51
270.0
  0
SPLINE
  5
B6
330
1F
100
AcDbEntity
  8
0
  6
Continuous
 62
     2
100
AcDbSpline
210
0.0
220
0.0
230
1.0
 70
     8
 71
     3
 72
   180
 73
   176
 74
   174
 42
0.0000000001
 43
0.0000000001
 44
0.00000001
 40
0.0
 40
0.0
 40
0.0
 40
0.0
 40
0.001445117467992
 40
0.0053760818914304
 40
0.0117966077795808
 40
0.02071041143394
 40
0.0321212109441166
 40
0.0460327261823296
 40
0.0624486787985471
 40
0.0813727922150651
 40
0.1028087916210214
 40
0.1244546690994576
 40
0.148166751106539
 40
0.1739363170869311
 40
0.2017546512380123
 40
0.2316130427473935
 40
0.2635027859682275
 40
0.2974151805544544
 40
0.3333415315712887
 40
0.3712731495881998
 40
0.4112013507605555
 40
0.4578988528026487
 40
0.507048972981402
 40
0.5586501467905219
 40
0.6127008326839067
 40
0.6691995129980335
 40
0.7281446946898891
 40
0.7895349099334943
 40
0.8533687166076102
 40
0.919644698699633
 40
0.988355926918877
 40
1.059473345341222
 40
1.132962397169465
 40
1.208788566494483
 40
1.286917379682785
 40
1.367314406742588
 40
1.44994526268254
 40
1.534775608871003
 40
1.621771154403721
 40
1.710902478012635
 40
1.802159497282519
 40
1.895537017480529
 40
1.991029913405188
 40
2.0886331307527
 40
2.188341687373631
 40
2.290150674435269
 40
2.394055257501729
 40
2.500050677539996
 40
2.60812183522829
 40
2.718212041011069
 40
2.830254265818032
 40
2.944181560893454
 40
3.059927061366629
 40
3.177423990013818
 40
3.296605661224566
 40
3.41740548518677
 40
3.539756972305119
 40
3.679187465961773
 40
3.820481493399392
 40
3.963622937612005
 40
4.108595840119908
 40
4.255384403784651
 40
4.403972995622955
 40
4.554346149622033
 40
4.706488569559287
 40
4.882491221391654
 40
5.060634142562024
 40
5.240766694325326
 40
5.42273847227293
 40
5.606399326327551
 40
5.79159938180826
 40
5.97818906175692
 40
6.197466574251164
 40
6.418390262306746
 40
6.640918381775325
 40
6.865009553023853
 40
7.0906227719537
 40
7.317717421321108
 40
7.592093927105973
 40
7.868262205753316
 40
8.145939134919624
 40
8.424842121378656
 40
8.704689195569754
 40
8.985224072018399
 40
9.26629080380541
 40
9.547758485611903
 40
9.829496291653209
 40
10.11137352193485
 40
10.3932585291499
 40
10.67501523448639
 40
10.95650628913367
 40
11.23759421817713
 40
11.51814146905311
 40
11.79798747744307
 40
12.07687945141019
 40
12.35454094199865
 40
12.6306948759379
 40
12.90506364849453
 40
13.13215995056195
 40
13.35778084052832
 40
13.58188329890165
 40
13.80442391961902
 40
14.02535892184894
 40
14.2446441614691
 40
14.43123621364693
 40
14.61643526618888
 40
14.80009276440921
 40
14.98205985572071
 40
15.1621874118362
 40
15.34032604971859
 40
15.51632615146547
 40
15.66846839144646
 40
15.81884312221209
 40
15.96743469623566
 40
16.1142272963151
 40
16.25920493841897
 40
16.40235147452654
 40
16.54365059546406
 40
16.68308583373888
 40
16.80544100456039
 40
16.92624396613627
 40
17.04542823513432
 40
17.16292722792986
 40
17.27867426502612
 40
17.39260257524165
 40
17.50464529967792
 40
17.6147354954842
 40
17.72280613942906
 40
17.82880057868284
 40
17.93270387583394
 40
18.03451146475012
 40
18.13421870394198
 40
18.2318208775612
 40
18.32731319647226
 40
18.42069079940744
 40
18.51194875421724
 40
18.60108205923034
 40
18.68808075249996
 40
18.77291524282513
 40
18.85555099675236
 40
18.93595343308684
 40
19.01408792426645
 40
19.0899197977268
 40
19.16341433726343
 40
19.23453678440308
 40
19.3032523397939
 40
19.36953177188245
 40
19.43336824427924
 40
19.49476050077414
 40
19.55370725904274
 40
19.61020721104874
 40
19.66425902352996
 40
19.71586133859357
 40
19.76501277445281
 40
19.81171192634978
 40
19.8516419968214
 40
19.88957580025377
 40
19.92550456885806
 40
19.9594195292594
 40
19.99131190257894
 40
20.02117290452744
 40
20.04899374551535
 40
20.07476563078911
 40
20.09847976060576
 40
20.12012733047091
 40
20.13953406780458
 40
20.15690550644035
 40
20.17224441880234
 40
20.18555357615567
 40
20.19683574860296
 40
20.20609370508102
 40
20.21333021335824
 40
20.21854804003056
 40
20.22174995051916
 40
20.22293870906746
 40
20.22293870906746
 40
20.22293870906746
 40
20.22293870906746
 10
223.8149472335
 20
319.9177345411
 30
0.0
 10
223.8154135936911
 20
319.9176139232077
 30
0.0
 10
223.8171485326381
 20
319.917165204207
 30
0.0
 10
223.8209560527664
 20
319.9161828550481
 30
0.0
 10
223.8271748350028
 20
319.9145810403297
 30
0.0
 10
223.8358091989722
 20
319.9123616353625
 30
0.0
 10
223.8468632934394
 20
319.9095258551064
 30
0.0
 10
223.8603413468837
 20
319.9060752226035
 30
0.0
 10
223.876247556152
 20
319.9020111386334
 30
0.0
 10
223.8945861308601
 20
319.8973350533665
 30
0.0
 10
223.9146164312967
 20
319.8922379222834
 30
0.0
 10
223.9361959630038
 20
319.886757172328
 30
0.0
 10
223.9591786621118
 20
319.880933033844
 30
0.0
 10
223.9841595680406
 20
319.8746183502441
 30
0.0
 10
224.0111311752979
 20
319.8678190345191
 30
0.0
 10
224.0400859769595
 20
319.8605409942335
 30
0.0
 10
224.0710164673294
 20
319.8527901417755
 30
0.0
 10
224.1039151409815
 20
319.8445723906008
 30
0.0
 10
224.1387744925504
 20
319.8358936544682
 30
0.0
 10
224.175587018044
 20
319.8267598522852
 30
0.0
 10
224.2158924167539
 20
319.8167943386364
 30
0.0
 10
224.25983757942
 20
319.8059700643267
 30
0.0
 10
224.3075729065728
 20
319.7942644022311
 30
0.0
 10
224.3577024782865
 20
319.7820310323885
 30
0.0
 10
224.4102270044436
 20
319.7692796567307
 30
0.0
 10
224.4651471935651
 20
319.7560199719508
 30
0.0
 10
224.5224637551167
 20
319.7422616787234
 30
0.0
 10
224.582177398634
 20
319.7280144781779
 30
0.0
 10
224.6442888343473
 20
319.7132880741436
 30
0.0
 10
224.7087969737703
 20
319.6980925892694
 30
0.0
 10
224.7756917435638
 20
319.6824402594956
 30
0.0
 10
224.8449528586038
 20
319.6663482994555
 30
0.0
 10
224.9165510414343
 20
319.6498360312858
 30
0.0
 10
224.9904552184869
 20
319.6329232054892
 30
0.0
 10
225.0666343158859
 20
319.6156295715374
 30
0.0
 10
225.1450572601353
 20
319.5979748803082
 30
0.0
 10
225.2256929776908
 20
319.5799788824549
 30
0.0
 10
225.308510395823
 20
319.5616613317717
 30
0.0
 10
225.3934800089604
 20
319.5430416284139
 30
0.0
 10
225.4805801781166
 20
319.5241375216692
 30
0.0
 10
225.5697992479753
 20
319.5049672978373
 30
0.0
 10
225.6611333943602
 20
319.4855474697756
 30
0.0
 10
225.7545803660568
 20
319.4658942214432
 30
0.0
 10
225.8501379111226
 20
319.4460237341393
 30
0.0
 10
225.947803777858
 20
319.4259521902286
 30
0.0
 10
226.0475757147132
 20
319.4056957729608
 30
0.0
 10
226.1494514696029
 20
319.3852706629739
 30
0.0
 10
226.253425386653
 20
319.3646937267763
 30
0.0
 10
226.3594747538971
 20
319.3439850752812
 30
0.0
 10
226.4675563286308
 20
319.3231683787425
 30
0.0
 10
226.5776098554115
 20
319.3022707620792
 30
0.0
 10
226.6895716684658
 20
319.2813200026949
 30
0.0
 10
226.8033781027544
 20
319.2603438811496
 30
0.0
 10
226.9189654932955
 20
319.2393701769348
 30
0.0
 10
227.0362701745668
 20
319.218426668894
 30
0.0
 10
227.1552284837309
 20
319.1975411379638
 30
0.0
 10
227.2808989768731
 20
319.1758575498857
 30
0.0
 10
227.4133736770237
 20
319.1534348577522
 30
0.0
 10
227.5527614324131
 20
319.1303346987626
 30
0.0
 10
227.6940528352307
 20
319.1074267333539
 30
0.0
 10
227.8372338278766
 20
319.0847351214178
 30
0.0
 10
227.9822903554866
 20
319.0622840182637
 30
0.0
 10
228.1292083617057
 20
319.0400975833415
 30
0.0
 10
228.2779737936571
 20
319.0181999648598
 30
0.0
 10
228.4358667619632
 20
318.9955699136556
 30
0.0
 10
228.6030201625439
 20
318.9723155242225
 30
0.0
 10
228.7795215197981
 20
318.9485564988067
 30
0.0
 10
228.9581004138954
 20
318.9253299150657
 30
0.0
 10
229.1386075345965
 20
318.9026821099209
 30
0.0
 10
229.3208935784959
 20
318.8806594275055
 30
0.0
 10
229.5048092516649
 20
318.8593082139041
 30
0.0
 10
229.7006234208664
 20
318.8375153015822
 30
0.0
 10
229.9083909342094
 20
318.8154924276473
 30
0.0
 10
230.1282000709307
 20
318.7934561390716
 30
0.0
 10
230.3497295177703
 20
318.7725305663112
 30
0.0
 10
230.572933571664
 20
318.752750697059
 30
0.0
 10
230.7977665691326
 20
318.7341514776639
 30
0.0
 10
231.0394182205294
 20
318.7155982347218
 30
0.0
 10
231.2979978370645
 20
318.6974536853749
 30
0.0
 10
231.5735285465617
 20
318.6801062830914
 30
0.0
 10
231.850683832894
 20
318.6646637673467
 30
0.0
 10
232.1291690222644
 20
318.6511789743898
 30
0.0
 10
232.4086978191174
 20
318.6397043473919
 30
0.0
 10
232.6890253308194
 20
318.6302914680124
 30
0.0
 10
232.9699551801546
 20
318.6229526460094
 30
0.0
 10
233.2513327941016
 20
318.6176979326665
 30
0.0
 10
233.5330119114426
 20
318.6145371673405
 30
0.0
 10
233.8148459129449
 20
318.6134801730066
 30
0.0
 10
234.096686215493
 20
318.6145367438718
 30
0.0
 10
234.378382022394
 20
318.6176969488577
 30
0.0
 10
234.6597808100086
 20
318.622950893352
 30
0.0
 10
234.9407296742906
 20
318.6302886578723
 30
0.0
 10
235.221068074671
 20
318.6397001286458
 30
0.0
 10
235.5005970381384
 20
318.651173119223
 30
0.0
 10
235.7790731293503
 20
318.6646561772978
 30
0.0
 10
236.0562148880597
 20
318.680097055505
 30
0.0
 10
236.3317331504074
 20
318.6974431471795
 30
0.0
 10
236.5903059976448
 20
318.7155869000556
 30
0.0
 10
236.8319582084587
 20
318.7341397781468
 30
0.0
 10
237.0567980978576
 20
318.7527390156259
 30
0.0
 10
237.2800126626501
 20
318.7725190692458
 30
0.0
 10
237.5015538451113
 20
318.7934448226741
 30
0.0
 10
237.7213735477712
 20
318.815481119508
 30
0.0
 10
237.9291482668726
 20
318.8375037311812
 30
0.0
 10
238.1249655456662
 20
318.8592961174986
 30
0.0
 10
238.3088806425309
 20
318.8806465545711
 30
0.0
 10
238.4911637630852
 20
318.9026682971308
 30
0.0
 10
238.6716666298072
 20
318.9253150980817
 30
0.0
 10
238.8502409557331
 20
318.9485407120343
 30
0.0
 10
239.0267384470791
 20
318.9722989007977
 30
0.0
 10
239.1938895721212
 20
318.9955526806409
 30
0.0
 10
239.3517822058045
 20
319.0181823564638
 30
0.0
 10
239.5005491332793
 20
319.0400798378083
 30
0.0
 10
239.6474700314438
 20
319.0622663099004
 30
0.0
 10
239.7925304981032
 20
319.0847175873773
 30
0.0
 10
239.9357161275647
 20
319.1074094737482
 30
0.0
 10
240.0770125156311
 20
319.1303177766233
 30
0.0
 10
240.2164052553592
 20
319.1534182990724
 30
0.0
 10
240.3488844681427
 20
319.1758413386264
 30
0.0
 10
240.4745588191971
 20
319.1975252420694
 30
0.0
 10
240.5935202713333
 20
319.2184110280967
 30
0.0
 10
240.7108275576557
 20
319.239354737431
 30
0.0
 10
240.8264170229015
 20
319.2603285807554
 30
0.0
 10
240.9402250091293
 20
319.2813047708166
 30
0.0
 10
241.0521878589363
 20
319.3022555197238
 30
0.0
 10
241.1622419148619
 20
319.3231530385139
 30
0.0
 10
241.270323518712
 20
319.343969541384
 30
0.0
 10
241.3763724327469
 20
319.3646778969872
 30
0.0
 10
241.4803454830374
 20
319.3852544388244
 30
0.0
 10
241.5822200843545
 20
319.4056790881413
 30
0.0
 10
241.6819907586316
 20
319.4259350204157
 30
0.0
 10
241.7796554417117
 20
319.4460060989892
 30
0.0
 10
241.8752120699732
 20
319.4658761845913
 30
0.0
 10
241.9686585796447
 20
319.485529138834
 30
0.0
 10
242.059992906713
 20
319.504948824398
 30
0.0
 10
242.1492129878952
 20
319.52411910129
 30
0.0
 10
242.2363151632893
 20
319.543023495532
 30
0.0
 10
242.3212878237371
 20
319.5616437334322
 30
0.0
 10
242.4041092355721
 20
319.5799620427319
 30
0.0
 10
242.4847496802226
 20
319.5979589750379
 30
0.0
 10
242.5631778483287
 20
319.6156147230959
 30
0.0
 10
242.639362429714
 20
319.6329094828003
 30
0.0
 10
242.7132721142493
 20
319.6498234498219
 30
0.0
 10
242.7848755914279
 20
319.666336821229
 30
0.0
 10
242.8541415510455
 20
319.6824297930763
 30
0.0
 10
242.9210405007427
 20
319.6980829948037
 30
0.0
 10
242.9855520492442
 20
319.7132791893252
 30
0.0
 10
243.0476661483818
 20
319.7280061456715
 30
0.0
 10
243.1073818437933
 20
319.7422537712947
 30
0.0
 10
243.164700001531
 20
319.7560123976214
 30
0.0
 10
243.2196214869544
 20
319.7692723587695
 30
0.0
 10
243.2721471653531
 20
319.7820239893106
 30
0.0
 10
243.3222779010717
 20
319.7942576278015
 30
0.0
 10
243.3700145598201
 20
319.8059636075482
 30
0.0
 10
243.4139612886163
 20
319.8167882620658
 30
0.0
 10
243.4542685346713
 20
319.8267542264261
 30
0.0
 10
243.4910831557564
 20
319.8358885415066
 30
0.0
 10
243.5259448281623
 20
319.8445678468489
 30
0.0
 10
243.5588459664035
 20
319.8527862034152
 30
0.0
 10
243.5897789836171
 20
319.8605376773273
 30
0.0
 10
243.6187362928858
 20
319.867816334989
 30
0.0
 10
243.6457103070057
 20
319.8746162439351
 30
0.0
 10
243.6706934376027
 20
319.8809314763067
 30
0.0
 10
243.6936780975387
 20
319.8867560995393
 30
0.0
 10
243.7146032343291
 20
319.8920706352484
 30
0.0
 10
243.7334770845545
 20
319.8968730418572
 30
0.0
 10
243.75031111724
 20
319.9011642364911
 30
0.0
 10
243.7651739498625
 20
319.9049598647091
 30
0.0
 10
243.7780687033767
 20
319.9082588936266
 30
0.0
 10
243.7889985007279
 20
319.9110602826818
 30
0.0
 10
243.7979664565511
 20
319.913363023426
 30
0.0
 10
243.804975708354
 20
319.915166019016
 30
0.0
 10
243.8100293354595
 20
319.9164683974683
 30
0.0
 10
243.8131305422427
 20
319.9172688035227
 30
0.0
 10
243.8145474636893
 20
319.9176353152184
 30
0.0
 10
243.8149310903
 20
319.917734547
 30
0.0
 11
223.8149472335
 21
319.9177345411
 31
0.0
 11
223.8163463333413
 21
319.9173727619819
 31
0.0
 11
223.8201525615172
 21
319.9163903626887
 31
0.0
 11
223.8263701238051
 21
319.9147887785114
 31
0.0
 11
223.8350032259824
 21
319.9125694447411
 31
0.0
 11
223.846056073827
 21
319.9097337966693
 31
0.0
 11
223.859532873116
 21
319.9062832695869
 31
0.0
 11
223.8754378296272
 21
319.9022192987854
 31
0.0
 11
223.8937751491381
 21
319.8975433195558
 31
0.0
 11
223.9145490374262
 21
319.8922567671893
 31
0.0
 11
223.9355288712831
 21
319.886928485745
 31
0.0
 11
223.9585144021158
 21
319.8811036934355
 31
0.0
 11
223.9834981257809
 21
319.8747883088355
 31
0.0
 11
224.0104725381349
 21
319.8679882505199
 31
0.0
 11
224.0394301350344
 21
319.8607094370634
 31
0.0
 11
224.070363412336
 21
319.8529577870407
 31
0.0
 11
224.1032648658961
 21
319.8447392190266
 31
0.0
 11
224.1381269915714
 21
319.836059651596
 31
0.0
 11
224.1749422852185
 21
319.8269250033235
 31
0.0
 11
224.2137032426938
 21
319.8173411927839
 31
0.0
 11
224.2590456318045
 21
319.8061731828133
 31
0.0
 11
224.306781522119
 21
319.7944676674692
 31
0.0
 11
224.3569116250958
 21
319.7822343558158
 31
0.0
 11
224.409436652194
 21
319.7694829569169
 31
0.0
 11
224.4643573148723
 21
319.7562231798366
 31
0.0
 11
224.5216743245893
 21
319.7424647336386
 31
0.0
 11
224.5813883928041
 21
319.7282173273872
 31
0.0
 11
224.6435002309753
 21
319.713490670146
 31
0.0
 11
224.7080105505618
 21
319.6982944709794
 31
0.0
 11
224.7749147654905
 21
319.6826401134971
 31
0.0
 11
224.8441871004483
 21
319.6665456792868
 31
0.0
 11
224.9157964826009
 21
319.6500309244801
 31
0.0
 11
224.9897118391139
 21
319.6331156052084
 31
0.0
 11
225.0659020971531
 21
319.6158194776032
 31
0.0
 11
225.1443361838841
 21
319.5981622977964
 31
0.0
 11
225.2249830264725
 21
319.5801638219193
 31
0.0
 11
225.3078115520839
 21
319.5618438061035
 31
0.0
 11
225.3927906878841
 21
319.5432220064808
 31
0.0
 11
225.4798941646547
 21
319.5243175841742
 31
0.0
 11
225.569114927642
 21
319.5051473202745
 31
0.0
 11
225.6604507257083
 21
319.4857274008635
 31
0.0
 11
225.7538993077156
 21
319.4660740120236
 31
0.0
 11
225.8494584225265
 21
319.4462033398369
 31
0.0
 11
225.9471258190032
 21
319.4261315703857
 31
0.0
 11
226.0468992460077
 21
319.4058748897522
 31
0.0
 11
226.1487764524026
 21
319.3854494840184
 31
0.0
 11
226.25275518705
 21
319.3648715392667
 31
0.0
 11
226.358822962851
 21
319.3441591743432
 31
0.0
 11
226.4669263488618
 21
319.3233382391506
 31
0.0
 11
226.5770016781772
 21
319.3024365163555
 31
0.0
 11
226.6889852838922
 21
319.2814817886247
 31
0.0
 11
226.8028134991017
 21
319.2605018386246
 31
0.0
 11
226.9184226569006
 21
319.2395244490222
 31
0.0
 11
227.0357490903839
 21
319.218577402484
 31
0.0
 11
227.1547291326465
 21
319.1976884816766
 31
0.0
 11
227.2752991167833
 21
319.1768854692666
 31
0.0
 11
227.4127743192881
 21
319.1536167938082
 31
0.0
 11
227.5521671570935
 21
319.1305161670177
 31
0.0
 11
227.6934635737422
 21
319.10760774731
 31
0.0
 11
227.8366495127771
 21
319.0849156930999
 31
0.0
 11
227.9817109177408
 21
319.0624641628025
 31
0.0
 11
228.1286337321763
 21
319.0402773148323
 31
0.0
 11
228.2774038996262
 21
319.0183793076043
 31
0.0
 11
228.4280073636333
 21
318.9967942995333
 31
0.0
 11
228.6023310404256
 21
318.9725416880936
 31
0.0
 11
228.7788815506733
 21
318.9487757945823
 31
0.0
 11
228.9575095774972
 21
318.9255429678546
 31
0.0
 11
229.138065804018
 21
318.9028895567657
 31
0.0
 11
229.3204009133567
 21
318.8808619101704
 31
0.0
 11
229.5043655886338
 21
318.8595063769241
 31
0.0
 11
229.6898105129702
 21
318.8388693058816
 31
0.0
 11
229.9078664935911
 21
318.8157561753898
 31
0.0
 11
230.1276883287699
 21
318.7937190085415
 31
0.0
 11
230.3492303264862
 21
318.7727927761495
 31
0.0
 11
230.5724467947193
 21
318.753012449027
 31
0.0
 11
230.7972920414489
 21
318.7344129979871
 31
0.0
 11
231.0237203746545
 21
318.7170293938431
 31
0.0
 11
231.2974237570358
 21
318.6978219629957
 31
0.0
 11
231.5730462845123
 21
318.680468563373
 31
0.0
 11
231.8502932541539
 21
318.6650220486912
 31
0.0
 11
232.12886996303
 21
318.6515352726665
 31
0.0
 11
232.4084817082104
 21
318.6400610890149
 31
0.0
 11
232.6888585217302
 21
318.6306451798968
 31
0.0
 11
232.9698293791869
 21
318.62330454113
 31
0.0
 11
233.2512479911465
 21
318.6180489969854
 31
0.0
 11
233.5329680681751
 21
318.614888371734
 31
0.0
 11
233.8148433208388
 21
318.6138324896468
 31
0.0
 11
234.0967263523063
 21
318.6148878868989
 31
0.0
 11
234.3784653361556
 21
318.6180479472816
 31
0.0
 11
234.6599073385673
 21
318.6233027664902
 31
0.0
 11
234.9408994257219
 21
318.6306424402201
 31
0.0
 11
235.2212886638
 21
318.6400570641666
 31
0.0
 11
235.500899409323
 21
318.6515296140074
 31
0.0
 11
235.7794651801765
 21
318.665014585349
 31
0.0
 11
236.0566967845868
 21
318.6804593537803
 31
0.0
 11
236.3323050307803
 21
318.6978112948899
 31
0.0
 11
236.6060007269833
 21
318.7170177842666
 31
0.0
 11
236.8324307388227
 21
318.7344011139562
 31
0.0
 11
237.057283676621
 21
318.7530006395605
 31
0.0
 11
237.2805114536729
 21
318.7727812209833
 31
0.0
 11
237.5020659832734
 21
318.7937077181284
 31
0.0
 11
237.7218991787175
 21
318.8157449908994
 31
0.0
 11
237.9399629533
 21
318.8388578992
 31
0.0
 11
238.1254103252339
 21
318.8594944245555
 31
0.0
 11
238.3093740851341
 21
318.8808491454814
 31
0.0
 11
238.4917059326485
 21
318.9028758119229
 31
0.0
 11
238.6722575674253
 21
318.925528173826
 31
0.0
 11
238.8508806891124
 21
318.9487599811362
 31
0.0
 11
239.0274269973576
 21
318.9725249837994
 31
0.0
 11
239.201748191809
 21
318.9967769317611
 31
0.0
 11
239.3523515218288
 21
319.0183616062636
 31
0.0
 11
239.5011233008324
 21
319.040259492576
 31
0.0
 11
239.6480491230089
 21
319.0624463952117
 31
0.0
 11
239.7931145825476
 21
319.0848981186843
 31
0.0
 11
239.9363052736379
 21
319.1075904675074
 31
0.0
 11
240.0776067904686
 21
319.1304992461942
 31
0.0
 11
240.2170047272292
 21
319.1536002592585
 31
0.0
 11
240.3544846781089
 21
319.1768693112137
 31
0.0
 11
240.4750583487073
 21
319.197672623094
 31
0.0
 11
240.5940415319706
 21
319.2185617979467
 31
0.0
 11
240.7113705685738
 21
319.2395090446956
 31
0.0
 11
240.826981799192
 21
319.2604865722648
 31
0.0
 11
240.9408115645001
 21
319.2814665895782
 31
0.0
 11
241.0527962051733
 21
319.3024213055597
 31
0.0
 11
241.1628720618862
 21
319.3233229291332
 31
0.0
 11
241.2709754753142
 21
319.3441436692228
 31
0.0
 11
241.3770427861322
 21
319.3648557347522
 31
0.0
 11
241.4810206008089
 21
319.3854332760969
 31
0.0
 11
241.5828965903541
 21
319.4058582097089
 31
0.0
 11
241.6826686915623
 21
319.4261143934912
 31
0.0
 11
241.780334841228
 21
319.4461856853466
 31
0.0
 11
241.8758929761455
 21
319.4660559431779
 31
0.0
 11
241.9693410331092
 21
319.4857090248884
 31
0.0
 11
242.0606769489136
 21
319.5051287883805
 31
0.0
 11
242.149898660353
 21
319.5242990915576
 31
0.0
 11
242.2370041042217
 21
319.5432037923219
 31
0.0
 11
242.321986342937
 21
319.5618261373288
 31
0.0
 11
242.4048189414062
 21
319.580146928239
 31
0.0
 11
242.4854705901595
 21
319.5981463554658
 31
0.0
 11
242.5639099797271
 21
319.615804609422
 31
0.0
 11
242.640105800639
 21
319.6331018805207
 31
0.0
 11
242.7140267434255
 21
319.6500183591749
 31
0.0
 11
242.7856414986167
 21
319.6665342357975
 31
0.0
 11
242.8549187567425
 21
319.6826297008016
 31
0.0
 11
242.9218272083333
 21
319.6982849445999
 31
0.0
 11
242.9863409067116
 21
319.7134818469005
 31
0.0
 11
243.0484553563695
 21
319.7282090445894
 31
0.0
 11
243.1081714245917
 21
319.7424568638478
 31
0.0
 11
243.1654899786625
 21
319.7562156308567
 31
0.0
 11
243.2204118858667
 21
319.769475671797
 31
0.0
 11
243.2729380134887
 21
319.7822273128498
 31
0.0
 11
243.3230692288132
 21
319.7944608801961
 31
0.0
 11
243.3708063991247
 21
319.8061667000168
 31
0.0
 11
243.4161503917077
 21
319.8173350984931
 31
0.0
 11
243.454913165237
 21
319.826919352047
 31
0.0
 11
243.4917305816671
 21
319.8360545198211
 31
0.0
 11
243.5265950553583
 21
319.8447346631179
 31
0.0
 11
243.5594990006711
 21
319.8529538432401
 31
0.0
 11
243.5904348319656
 21
319.8607061214902
 31
0.0
 11
243.6193949636024
 21
319.8679855591709
 31
0.0
 11
243.6463718099417
 21
319.8747862175846
 31
0.0
 11
243.671357785344
 21
319.8811021580342
 31
0.0
 11
243.6943453041694
 21
319.8869274418221
 31
0.0
 11
243.7153267807785
 21
319.8922561302509
 31
0.0
 11
243.7341342000944
 21
319.8970417788601
 31
0.0
 11
243.7509672994063
 21
319.901332891517
 31
0.0
 11
243.7658291996851
 21
319.9051284352923
 31
0.0
 11
243.7787230219023
 21
319.9084273772572
 31
0.0
 11
243.7896518870291
 21
319.9112286844826
 31
0.0
 11
243.7986189160366
 21
319.9135313240394
 31
0.0
 11
243.8056272298962
 21
319.9153342629986
 31
0.0
 11
243.8106799495791
 21
319.9166364684311
 31
0.0
 11
243.8137801960567
 21
319.9174369074079
 31
0.0
 11
243.8149310903
 21
319.917734547
 31
0.0
  0
SPLINE
  5
B7
330
1F
100
AcDbEntity
  8
0
  6
Continuous
 62
     2
100
AcDbSpline
210
0.0
220
0.0
230
1.0
 70
     8
 71
     3
 72
   180
 73
   176
 74
   174
 42
0.0000000001
 43
0.0000000001
 44
0.00000001
 40
0.0
 40
0.0
 40
0.0
 40
0.0
 40
0.0014451174680195
 40
0.0053760818914304
 40
0.0117966077796083
 40
0.0207104114339675
 40
0.0321212109440891
 40
0.0460327261823571
 40
0.0624486787985747
 40
0.0813727922150651
 40
0.1028087916210214
 40
0.1244546690994576
 40
0.1481667511064839
 40
0.1739363170869587
 40
0.2017546512380399
 40
0.2316130427474211
 40
0.2635027859681999
 40
0.2974151805544544
 40
0.3333415315712888
 40
0.3712731495881998
 40
0.4112013507605555
 40
0.4578988528026487
 40
0.507048972981402
 40
0.5586501467904944
 40
0.6127008326839067
 40
0.6691995129980058
 40
0.7281446946898891
 40
0.7895349099334943
 40
0.8533687166076102
 40
0.919644698699633
 40
0.9883559269189323
 40
1.059473345341222
 40
1.132962397169437
 40
1.208788566494455
 40
1.286917379682785
 40
1.367314406742561
 40
1.449945262682512
 40
1.534775608870975
 40
1.621771154403721
 40
1.710902478012663
 40
1.802159497282574
 40
1.895537017480529
 40
1.991029913405244
 40
2.088633130752672
 40
2.188341687373658
 40
2.290150674435269
 40
2.394055257501729
 40
2.500050677539995
 40
2.608121835228289
 40
2.71821204101104
 40
2.830254265818088
 40
2.944181560893481
 40
3.059927061366629
 40
3.177423990013817
 40
3.296605661224565
 40
3.417405485186798
 40
3.539756972305118
 40
3.679187465961772
 40
3.820481493399447
 40
3.963622937612032
 40
4.108595840119907
 40
4.255384403784707
 40
4.403972995622955
 40
4.554346149622005
 40
4.706488569559344
 40
4.882491221391683
 40
5.060634142561996
 40
5.240766694325298
 40
5.422738472272931
 40
5.606399326327552
 40
5.791599381808261
 40
5.978189061756892
 40
6.197466574251137
 40
6.418390262306747
 40
6.640918381775299
 40
6.865009553023854
 40
7.090622771953645
 40
7.317717421321109
 40
7.592093927105888
 40
7.868262205753289
 40
8.14593913491957
 40
8.424842121378658
 40
8.704689195569756
 40
8.985224072018429
 40
9.266290803805411
 40
9.547758485611876
 40
9.829496291653182
 40
10.11137352193483
 40
10.39325852914988
 40
10.67501523448636
 40
10.9565062891337
 40
11.23759421817716
 40
11.51814146905309
 40
11.79798747744311
 40
12.07687945141025
 40
12.35454094199866
 40
12.6306948759379
 40
12.90506364849456
 40
13.13215995056201
 40
13.35778084052835
 40
13.58188329890162
 40
13.80442391961908
 40
14.02535892184891
 40
14.2446441614691
 40
14.43123621364693
 40
14.61643526618891
 40
14.80009276440924
 40
14.98205985572068
 40
15.1621874118362
 40
15.34032604971862
 40
15.51632615146553
 40
15.66846839144647
 40
15.81884312221206
 40
15.96743469623567
 40
16.11422729631513
 40
16.25920493841903
 40
16.4023514745266
 40
16.54365059546404
 40
16.68308583373895
 40
16.80544100456045
 40
16.92624396613631
 40
17.04542823513436
 40
17.1629272279299
 40
17.27867426502616
 40
17.39260257524166
 40
17.50464529967793
 40
17.61473549548426
 40
17.72280613942907
 40
17.82880057868282
 40
17.93270387583397
 40
18.03451146475013
 40
18.13421870394202
 40
18.23182087756112
 40
18.32731319647224
 40
18.42069079940742
 40
18.51194875421725
 40
18.60108205923035
 40
18.68808075249991
 40
18.77291524282509
 40
18.85555099675235
 40
18.93595343308685
 40
19.01408792426652
 40
19.08991979772682
 40
19.16341433726339
 40
19.2345367844031
 40
19.30325233979389
 40
19.36953177188247
 40
19.43336824427929
 40
19.4947605007741
 40
19.55370725904278
 40
19.61020721104881
 40
19.66425902353
 40
19.71586133859364
 40
19.76501277445282
 40
19.81171192634976
 40
19.85164199682145
 40
19.88957580025378
 40
19.92550456885802
 40
19.95941952925942
 40
19.99131190257897
 40
20.0211729045274
 40
20.04899374551539
 40
20.07476563078912
 40
20.09847976060583
 40
20.12012733047093
 40
20.1395340678046
 40
20.15690550644036
 40
20.17224441880236
 40
20.18555357615568
 40
20.196835748603
 40
20.20609370508103
 40
20.21333021335825
 40
20.21854804003057
 40
20.22174995051911
 40
20.22293870906744
 40
20.22293870906744
 40
20.22293870906744
 40
20.22293870906744
 10
255.8149472335
 20
319.9177345411
 30
0.0
 10
255.8154135936911
 20
319.9176139232077
 30
0.0
 10
255.8171485326381
 20
319.9171652042069
 30
0.0
 10
255.8209560527663
 20
319.9161828550481
 30
0.0
 10
255.8271748350029
 20
319.9145810403297
 30
0.0
 10
255.8358091989722
 20
319.9123616353625
 30
0.0
 10
255.8468632934394
 20
319.9095258551064
 30
0.0
 10
255.8603413468837
 20
319.9060752226034
 30
0.0
 10
255.876247556152
 20
319.9020111386335
 30
0.0
 10
255.8945861308601
 20
319.8973350533664
 30
0.0
 10
255.9146164312966
 20
319.8922379222834
 30
0.0
 10
255.9361959630039
 20
319.886757172328
 30
0.0
 10
255.9591786621118
 20
319.880933033844
 30
0.0
 10
255.9841595680406
 20
319.8746183502441
 30
0.0
 10
256.011131175298
 20
319.8678190345191
 30
0.0
 10
256.0400859769593
 20
319.8605409942334
 30
0.0
 10
256.0710164673295
 20
319.8527901417754
 30
0.0
 10
256.1039151409815
 20
319.8445723906008
 30
0.0
 10
256.1387744925505
 20
319.8358936544682
 30
0.0
 10
256.1755870180439
 20
319.8267598522852
 30
0.0
 10
256.2158924167539
 20
319.8167943386364
 30
0.0
 10
256.2598375794199
 20
319.8059700643266
 30
0.0
 10
256.3075729065729
 20
319.7942644022311
 30
0.0
 10
256.3577024782865
 20
319.7820310323884
 30
0.0
 10
256.4102270044435
 20
319.7692796567308
 30
0.0
 10
256.4651471935651
 20
319.7560199719508
 30
0.0
 10
256.5224637551167
 20
319.7422616787234
 30
0.0
 10
256.582177398634
 20
319.728014478178
 30
0.0
 10
256.6442888343473
 20
319.7132880741436
 30
0.0
 10
256.7087969737704
 20
319.6980925892694
 30
0.0
 10
256.7756917435639
 20
319.6824402594956
 30
0.0
 10
256.8449528586037
 20
319.6663482994555
 30
0.0
 10
256.9165510414343
 20
319.6498360312858
 30
0.0
 10
256.9904552184869
 20
319.6329232054892
 30
0.0
 10
257.0666343158859
 20
319.6156295715375
 30
0.0
 10
257.1450572601353
 20
319.5979748803082
 30
0.0
 10
257.2256929776908
 20
319.5799788824548
 30
0.0
 10
257.308510395823
 20
319.5616613317717
 30
0.0
 10
257.3934800089603
 20
319.5430416284138
 30
0.0
 10
257.4805801781167
 20
319.5241375216692
 30
0.0
 10
257.5697992479754
 20
319.5049672978373
 30
0.0
 10
257.6611333943603
 20
319.4855474697758
 30
0.0
 10
257.7545803660568
 20
319.4658942214432
 30
0.0
 10
257.8501379111227
 20
319.4460237341395
 30
0.0
 10
257.947803777858
 20
319.4259521902284
 30
0.0
 10
258.0475757147132
 20
319.4056957729611
 30
0.0
 10
258.1494514696029
 20
319.3852706629739
 30
0.0
 10
258.253425386653
 20
319.3646937267763
 30
0.0
 10
258.359474753897
 20
319.3439850752812
 30
0.0
 10
258.467556328631
 20
319.3231683787427
 30
0.0
 10
258.5776098554114
 20
319.3022707620792
 30
0.0
 10
258.6895716684659
 20
319.2813200026949
 30
0.0
 10
258.8033781027543
 20
319.2603438811495
 30
0.0
 10
258.9189654932955
 20
319.2393701769349
 30
0.0
 10
259.0362701745668
 20
319.2184266688939
 30
0.0
 10
259.1552284837309
 20
319.1975411379638
 30
0.0
 10
259.2808989768731
 20
319.1758575498858
 30
0.0
 10
259.4133736770237
 20
319.1534348577522
 30
0.0
 10
259.5527614324132
 20
319.1303346987627
 30
0.0
 10
259.6940528352305
 20
319.1074267333538
 30
0.0
 10
259.8372338278767
 20
319.0847351214179
 30
0.0
 10
259.9822903554866
 20
319.0622840182636
 30
0.0
 10
260.1292083617058
 20
319.0400975833417
 30
0.0
 10
260.2779737936571
 20
319.0181999648598
 30
0.0
 10
260.4358667619632
 20
318.9955699136556
 30
0.0
 10
260.6030201625439
 20
318.9723155242224
 30
0.0
 10
260.7795215197981
 20
318.9485564988067
 30
0.0
 10
260.9581004138953
 20
318.9253299150657
 30
0.0
 10
261.1386075345965
 20
318.902682109921
 30
0.0
 10
261.3208935784959
 20
318.8806594275054
 30
0.0
 10
261.5048092516649
 20
318.8593082139041
 30
0.0
 10
261.7006234208664
 20
318.8375153015824
 30
0.0
 10
261.9083909342093
 20
318.8154924276473
 30
0.0
 10
262.1282000709308
 20
318.7934561390717
 30
0.0
 10
262.3497295177703
 20
318.7725305663112
 30
0.0
 10
262.572933571664
 20
318.7527506970591
 30
0.0
 10
262.7977665691326
 20
318.7341514776639
 30
0.0
 10
263.0394182205293
 20
318.7155982347218
 30
0.0
 10
263.2979978370645
 20
318.6974536853749
 30
0.0
 10
263.5735285465616
 20
318.6801062830914
 30
0.0
 10
263.8506838328939
 20
318.6646637673466
 30
0.0
 10
264.1291690222644
 20
318.6511789743898
 30
0.0
 10
264.4086978191174
 20
318.6397043473918
 30
0.0
 10
264.6890253308194
 20
318.6302914680126
 30
0.0
 10
264.9699551801547
 20
318.6229526460093
 30
0.0
 10
265.2513327941016
 20
318.6176979326666
 30
0.0
 10
265.5330119114425
 20
318.6145371673404
 30
0.0
 10
265.8148459129449
 20
318.6134801730066
 30
0.0
 10
266.0966862154929
 20
318.6145367438718
 30
0.0
 10
266.378382022394
 20
318.6176969488575
 30
0.0
 10
266.6597808100086
 20
318.622950893352
 30
0.0
 10
266.9407296742907
 20
318.6302886578723
 30
0.0
 10
267.2210680746709
 20
318.6397001286458
 30
0.0
 10
267.5005970381385
 20
318.651173119223
 30
0.0
 10
267.7790731293503
 20
318.6646561772977
 30
0.0
 10
268.0562148880597
 20
318.6800970555051
 30
0.0
 10
268.3317331504073
 20
318.6974431471794
 30
0.0
 10
268.5903059976448
 20
318.7155869000556
 30
0.0
 10
268.8319582084588
 20
318.7341397781468
 30
0.0
 10
269.0567980978577
 20
318.7527390156259
 30
0.0
 10
269.2800126626501
 20
318.772519069246
 30
0.0
 10
269.5015538451113
 20
318.7934448226739
 30
0.0
 10
269.7213735477711
 20
318.815481119508
 30
0.0
 10
269.9291482668726
 20
318.8375037311813
 30
0.0
 10
270.1249655456663
 20
318.8592961174986
 30
0.0
 10
270.3088806425308
 20
318.880646554571
 30
0.0
 10
270.4911637630853
 20
318.9026682971308
 30
0.0
 10
270.671666629807
 20
318.9253150980815
 30
0.0
 10
270.8502409557331
 20
318.9485407120344
 30
0.0
 10
271.0267384470791
 20
318.9722989007976
 30
0.0
 10
271.1938895721213
 20
318.995552680641
 30
0.0
 10
271.3517822058045
 20
319.0181823564637
 30
0.0
 10
271.5005491332792
 20
319.0400798378083
 30
0.0
 10
271.6474700314437
 20
319.0622663099003
 30
0.0
 10
271.7925304981032
 20
319.0847175873773
 30
0.0
 10
271.9357161275647
 20
319.1074094737482
 30
0.0
 10
272.0770125156311
 20
319.1303177766231
 30
0.0
 10
272.2164052553592
 20
319.1534182990725
 30
0.0
 10
272.3488844681427
 20
319.1758413386263
 30
0.0
 10
272.4745588191972
 20
319.1975252420694
 30
0.0
 10
272.5935202713333
 20
319.2184110280967
 30
0.0
 10
272.7108275576556
 20
319.239354737431
 30
0.0
 10
272.8264170229015
 20
319.2603285807554
 30
0.0
 10
272.9402250091294
 20
319.2813047708166
 30
0.0
 10
273.0521878589362
 20
319.3022555197238
 30
0.0
 10
273.162241914862
 20
319.3231530385137
 30
0.0
 10
273.270323518712
 20
319.3439695413841
 30
0.0
 10
273.3763724327468
 20
319.364677896987
 30
0.0
 10
273.4803454830374
 20
319.3852544388244
 30
0.0
 10
273.5822200843546
 20
319.4056790881413
 30
0.0
 10
273.6819907586316
 20
319.4259350204157
 30
0.0
 10
273.7796554417117
 20
319.4460060989893
 30
0.0
 10
273.8752120699731
 20
319.4658761845912
 30
0.0
 10
273.9686585796447
 20
319.4855291388341
 30
0.0
 10
274.0599929067129
 20
319.504948824398
 30
0.0
 10
274.1492129878952
 20
319.5241191012901
 30
0.0
 10
274.2363151632893
 20
319.5430234955319
 30
0.0
 10
274.321287823737
 20
319.5616437334321
 30
0.0
 10
274.4041092355722
 20
319.5799620427319
 30
0.0
 10
274.4847496802225
 20
319.5979589750378
 30
0.0
 10
274.5631778483288
 20
319.615614723096
 30
0.0
 10
274.639362429714
 20
319.6329094828004
 30
0.0
 10
274.7132721142492
 20
319.6498234498218
 30
0.0
 10
274.784875591428
 20
319.6663368212292
 30
0.0
 10
274.8541415510454
 20
319.682429793076
 30
0.0
 10
274.9210405007427
 20
319.6980829948038
 30
0.0
 10
274.9855520492442
 20
319.7132791893251
 30
0.0
 10
275.0476661483817
 20
319.7280061456715
 30
0.0
 10
275.1073818437933
 20
319.7422537712946
 30
0.0
 10
275.1647000015311
 20
319.7560123976214
 30
0.0
 10
275.2196214869545
 20
319.7692723587695
 30
0.0
 10
275.2721471653531
 20
319.7820239893106
 30
0.0
 10
275.3222779010717
 20
319.7942576278015
 30
0.0
 10
275.3700145598201
 20
319.805963607548
 30
0.0
 10
275.4139612886164
 20
319.816788262066
 30
0.0
 10
275.4542685346713
 20
319.8267542264261
 30
0.0
 10
275.4910831557564
 20
319.8358885415065
 30
0.0
 10
275.5259448281623
 20
319.8445678468489
 30
0.0
 10
275.5588459664033
 20
319.8527862034151
 30
0.0
 10
275.5897789836172
 20
319.8605376773274
 30
0.0
 10
275.6187362928859
 20
319.867816334989
 30
0.0
 10
275.6457103070057
 20
319.8746162439351
 30
0.0
 10
275.6706934376027
 20
319.8809314763067
 30
0.0
 10
275.6936780975387
 20
319.8867560995392
 30
0.0
 10
275.714603234329
 20
319.8920706352485
 30
0.0
 10
275.7334770845546
 20
319.8968730418573
 30
0.0
 10
275.75031111724
 20
319.901164236491
 30
0.0
 10
275.7651739498626
 20
319.9049598647093
 30
0.0
 10
275.7780687033767
 20
319.9082588936264
 30
0.0
 10
275.788998500728
 20
319.9110602826818
 30
0.0
 10
275.797966456551
 20
319.913363023426
 30
0.0
 10
275.804975708354
 20
319.9151660190158
 30
0.0
 10
275.8100293354594
 20
319.9164683974685
 30
0.0
 10
275.8131305422428
 20
319.9172688035227
 30
0.0
 10
275.8145474636892
 20
319.9176353152184
 30
0.0
 10
275.8149310903
 20
319.917734547
 30
0.0
 11
255.8149472335
 21
319.9177345411
 31
0.0
 11
255.8163463333414
 21
319.9173727619819
 31
0.0
 11
255.8201525615172
 21
319.9163903626887
 31
0.0
 11
255.8263701238051
 21
319.9147887785114
 31
0.0
 11
255.8350032259825
 21
319.9125694447411
 31
0.0
 11
255.8460560738269
 21
319.9097337966693
 31
0.0
 11
255.859532873116
 21
319.9062832695869
 31
0.0
 11
255.8754378296272
 21
319.9022192987854
 31
0.0
 11
255.8937751491381
 21
319.8975433195558
 31
0.0
 11
255.9145490374262
 21
319.8922567671893
 31
0.0
 11
255.9355288712831
 21
319.886928485745
 31
0.0
 11
255.9585144021158
 21
319.8811036934355
 31
0.0
 11
255.9834981257809
 21
319.8747883088355
 31
0.0
 11
256.0104725381349
 21
319.8679882505199
 31
0.0
 11
256.0394301350344
 21
319.8607094370634
 31
0.0
 11
256.070363412336
 21
319.8529577870407
 31
0.0
 11
256.1032648658961
 21
319.8447392190266
 31
0.0
 11
256.1381269915714
 21
319.836059651596
 31
0.0
 11
256.1749422852185
 21
319.8269250033235
 31
0.0
 11
256.2137032426938
 21
319.8173411927839
 31
0.0
 11
256.2590456318045
 21
319.8061731828133
 31
0.0
 11
256.306781522119
 21
319.7944676674692
 31
0.0
 11
256.3569116250958
 21
319.7822343558158
 31
0.0
 11
256.409436652194
 21
319.7694829569169
 31
0.0
 11
256.4643573148722
 21
319.7562231798366
 31
0.0
 11
256.5216743245893
 21
319.7424647336386
 31
0.0
 11
256.5813883928041
 21
319.7282173273872
 31
0.0
 11
256.6435002309753
 21
319.713490670146
 31
0.0
 11
256.7080105505618
 21
319.6982944709794
 31
0.0
 11
256.7749147654905
 21
319.6826401134971
 31
0.0
 11
256.8441871004483
 21
319.6665456792868
 31
0.0
 11
256.9157964826009
 21
319.6500309244801
 31
0.0
 11
256.9897118391139
 21
319.6331156052084
 31
0.0
 11
257.0659020971531
 21
319.6158194776032
 31
0.0
 11
257.1443361838841
 21
319.5981622977964
 31
0.0
 11
257.2249830264724
 21
319.5801638219193
 31
0.0
 11
257.3078115520839
 21
319.5618438061035
 31
0.0
 11
257.3927906878841
 21
319.5432220064808
 31
0.0
 11
257.4798941646548
 21
319.5243175841742
 31
0.0
 11
257.5691149276421
 21
319.5051473202745
 31
0.0
 11
257.6604507257083
 21
319.4857274008635
 31
0.0
 11
257.7538993077157
 21
319.4660740120236
 31
0.0
 11
257.8494584225265
 21
319.4462033398369
 31
0.0
 11
257.9471258190032
 21
319.4261315703857
 31
0.0
 11
258.0468992460077
 21
319.4058748897522
 31
0.0
 11
258.1487764524026
 21
319.3854494840184
 31
0.0
 11
258.25275518705
 21
319.3648715392667
 31
0.0
 11
258.358822962851
 21
319.3441591743432
 31
0.0
 11
258.4669263488618
 21
319.3233382391506
 31
0.0
 11
258.5770016781772
 21
319.3024365163555
 31
0.0
 11
258.6889852838922
 21
319.2814817886247
 31
0.0
 11
258.8028134991017
 21
319.2605018386246
 31
0.0
 11
258.9184226569006
 21
319.2395244490222
 31
0.0
 11
259.0357490903839
 21
319.218577402484
 31
0.0
 11
259.1547291326465
 21
319.1976884816766
 31
0.0
 11
259.2752991167833
 21
319.1768854692666
 31
0.0
 11
259.4127743192881
 21
319.1536167938082
 31
0.0
 11
259.5521671570935
 21
319.1305161670177
 31
0.0
 11
259.6934635737422
 21
319.10760774731
 31
0.0
 11
259.8366495127771
 21
319.0849156930999
 31
0.0
 11
259.9817109177409
 21
319.0624641628025
 31
0.0
 11
260.1286337321763
 21
319.0402773148323
 31
0.0
 11
260.2774038996262
 21
319.0183793076043
 31
0.0
 11
260.4280073636334
 21
318.9967942995333
 31
0.0
 11
260.6023310404256
 21
318.9725416880936
 31
0.0
 11
260.7788815506732
 21
318.9487757945823
 31
0.0
 11
260.9575095774971
 21
318.9255429678546
 31
0.0
 11
261.138065804018
 21
318.9028895567657
 31
0.0
 11
261.3204009133567
 21
318.8808619101704
 31
0.0
 11
261.5043655886338
 21
318.8595063769241
 31
0.0
 11
261.6898105129702
 21
318.8388693058816
 31
0.0
 11
261.9078664935911
 21
318.8157561753898
 31
0.0
 11
262.1276883287699
 21
318.7937190085415
 31
0.0
 11
262.3492303264861
 21
318.7727927761495
 31
0.0
 11
262.5724467947193
 21
318.753012449027
 31
0.0
 11
262.7972920414488
 21
318.7344129979871
 31
0.0
 11
263.0237203746545
 21
318.7170293938431
 31
0.0
 11
263.2974237570357
 21
318.6978219629957
 31
0.0
 11
263.5730462845123
 21
318.680468563373
 31
0.0
 11
263.8502932541538
 21
318.6650220486912
 31
0.0
 11
264.12886996303
 21
318.6515352726665
 31
0.0
 11
264.4084817082104
 21
318.6400610890149
 31
0.0
 11
264.6888585217303
 21
318.6306451798968
 31
0.0
 11
264.9698293791869
 21
318.62330454113
 31
0.0
 11
265.2512479911464
 21
318.6180489969854
 31
0.0
 11
265.532968068175
 21
318.614888371734
 31
0.0
 11
265.8148433208388
 21
318.6138324896468
 31
0.0
 11
266.0967263523062
 21
318.6148878868989
 31
0.0
 11
266.3784653361556
 21
318.6180479472816
 31
0.0
 11
266.6599073385673
 21
318.6233027664902
 31
0.0
 11
266.9408994257219
 21
318.6306424402201
 31
0.0
 11
267.2212886638
 21
318.6400570641666
 31
0.0
 11
267.500899409323
 21
318.6515296140074
 31
0.0
 11
267.7794651801765
 21
318.665014585349
 31
0.0
 11
268.0566967845868
 21
318.6804593537803
 31
0.0
 11
268.3323050307803
 21
318.6978112948899
 31
0.0
 11
268.6060007269833
 21
318.7170177842666
 31
0.0
 11
268.8324307388228
 21
318.7344011139562
 31
0.0
 11
269.057283676621
 21
318.7530006395605
 31
0.0
 11
269.2805114536729
 21
318.7727812209833
 31
0.0
 11
269.5020659832735
 21
318.7937077181284
 31
0.0
 11
269.7218991787175
 21
318.8157449908994
 31
0.0
 11
269.9399629533
 21
318.8388578992
 31
0.0
 11
270.1254103252339
 21
318.8594944245555
 31
0.0
 11
270.3093740851341
 21
318.8808491454814
 31
0.0
 11
270.4917059326485
 21
318.9028758119229
 31
0.0
 11
270.6722575674253
 21
318.925528173826
 31
0.0
 11
270.8508806891124
 21
318.9487599811362
 31
0.0
 11
271.0274269973576
 21
318.9725249837994
 31
0.0
 11
271.2017481918091
 21
318.9967769317611
 31
0.0
 11
271.3523515218288
 21
319.0183616062636
 31
0.0
 11
271.5011233008324
 21
319.040259492576
 31
0.0
 11
271.6480491230089
 21
319.0624463952117
 31
0.0
 11
271.7931145825477
 21
319.0848981186843
 31
0.0
 11
271.9363052736379
 21
319.1075904675074
 31
0.0
 11
272.0776067904687
 21
319.1304992461942
 31
0.0
 11
272.2170047272292
 21
319.1536002592585
 31
0.0
 11
272.3544846781089
 21
319.1768693112137
 31
0.0
 11
272.4750583487073
 21
319.197672623094
 31
0.0
 11
272.5940415319706
 21
319.2185617979467
 31
0.0
 11
272.7113705685738
 21
319.2395090446956
 31
0.0
 11
272.826981799192
 21
319.2604865722648
 31
0.0
 11
272.9408115645001
 21
319.2814665895782
 31
0.0
 11
273.0527962051733
 21
319.3024213055597
 31
0.0
 11
273.1628720618862
 21
319.3233229291332
 31
0.0
 11
273.2709754753143
 21
319.3441436692228
 31
0.0
 11
273.3770427861322
 21
319.3648557347522
 31
0.0
 11
273.4810206008088
 21
319.3854332760969
 31
0.0
 11
273.5828965903541
 21
319.4058582097089
 31
0.0
 11
273.6826686915623
 21
319.4261143934912
 31
0.0
 11
273.780334841228
 21
319.4461856853466
 31
0.0
 11
273.8758929761454
 21
319.4660559431779
 31
0.0
 11
273.9693410331092
 21
319.4857090248884
 31
0.0
 11
274.0606769489136
 21
319.5051287883805
 31
0.0
 11
274.149898660353
 21
319.5242990915576
 31
0.0
 11
274.2370041042217
 21
319.5432037923219
 31
0.0
 11
274.321986342937
 21
319.5618261373288
 31
0.0
 11
274.4048189414061
 21
319.580146928239
 31
0.0
 11
274.4854705901595
 21
319.5981463554658
 31
0.0
 11
274.5639099797271
 21
319.615804609422
 31
0.0
 11
274.640105800639
 21
319.6331018805207
 31
0.0
 11
274.7140267434255
 21
319.6500183591749
 31
0.0
 11
274.7856414986166
 21
319.6665342357975
 31
0.0
 11
274.8549187567425
 21
319.6826297008016
 31
0.0
 11
274.9218272083333
 21
319.6982849445999
 31
0.0
 11
274.9863409067116
 21
319.7134818469005
 31
0.0
 11
275.0484553563695
 21
319.7282090445894
 31
0.0
 11
275.1081714245916
 21
319.7424568638478
 31
0.0
 11
275.1654899786625
 21
319.7562156308567
 31
0.0
 11
275.2204118858667
 21
319.769475671797
 31
0.0
 11
275.2729380134887
 21
319.7822273128498
 31
0.0
 11
275.3230692288132
 21
319.7944608801961
 31
0.0
 11
275.3708063991247
 21
319.8061667000168
 31
0.0
 11
275.4161503917077
 21
319.8173350984931
 31
0.0
 11
275.454913165237
 21
319.826919352047
 31
0.0
 11
275.4917305816671
 21
319.8360545198211
 31
0.0
 11
275.5265950553583
 21
319.8447346631179
 31
0.0
 11
275.5594990006711
 21
319.8529538432401
 31
0.0
 11
275.5904348319656
 21
319.8607061214902
 31
0.0
 11
275.6193949636024
 21
319.8679855591709
 31
0.0
 11
275.6463718099417
 21
319.8747862175846
 31
0.0
 11
275.671357785344
 21
319.8811021580342
 31
0.0
 11
275.6943453041695
 21
319.8869274418221
 31
0.0
 11
275.7153267807785
 21
319.8922561302509
 31
0.0
 11
275.7341342000944
 21
319.8970417788601
 31
0.0
 11
275.7509672994063
 21
319.901332891517
 31
0.0
 11
275.7658291996851
 21
319.9051284352923
 31
0.0
 11
275.7787230219023
 21
319.9084273772572
 31
0.0
 11
275.7896518870291
 21
319.9112286844826
 31
0.0
 11
275.7986189160366
 21
319.9135313240394
 31
0.0
 11
275.8056272298962
 21
319.9153342629986
 31
0.0
 11
275.8106799495791
 21
319.9166364684311
 31
0.0
 11
275.8137801960566
 21
319.9174369074079
 31
0.0
 11
275.8149310903
 21
319.917734547
 31
0.0
  0
SPLINE
  5
B8
330
1F
100
AcDbEntity
  8
0
  6
Continuous
 62
     7
100
AcDbSpline
210
0.0
220
0.0
230
1.0
 70
     8
 71
     3
 72
    15
 73
    11
 74
     9
 42
0.0000000001
 43
0.0000000001
 44
0.00000001
 40
0.0
 40
0.0
 40
0.0
 40
0.0
 40
0.1994115816775768
 40
0.3995307346105035
 40
0.5993951286010146
 40
0.7990503740572236
 40
0.9987117983897387
 40
1.19856783659527
 40
1.398751217283183
 40
1.598077981740678
 40
1.598077981740678
 40
1.598077981740678
 40
1.598077981740678
 10
184.9149391629
 20
326.8791725735
 30
0.0
 10
184.9113209383011
 20
326.9457308889105
 30
0.0
 10
184.9040716505727
 20
327.079083688315
 30
0.0
 10
184.8468750650101
 20
327.2723547012019
 30
0.0
 10
184.7567081065449
 20
327.4518297943761
 30
0.0
 10
184.633475729003
 20
327.6106707770822
 30
0.0
 10
184.4816876027021
 20
327.7425973330672
 30
0.0
 10
184.3065634474484
 20
327.8412268204413
 30
0.0
 10
184.1148593333554
 20
327.9046710473858
 30
0.0
 10
183.9814838933394
 20
327.9128800224648
 30
0.0
 10
183.9149391629
 20
327.9169757093
 30
0.0
 11
184.9149391629
 21
326.8791725735
 31
0.0
 11
184.8963929378011
 21
327.0777198385069
 31
0.0
 11
184.8413494851657
 21
327.2701201859405
 31
0.0
 11
184.7511475913506
 21
327.4484720694107
 31
0.0
 11
184.6287191396394
 21
327.6061853892343
 31
0.0
 11
184.4778763668024
 21
327.7369949540579
 31
0.0
 11
184.3038807621936
 21
327.8353207674745
 31
0.0
 11
184.1131807887215
 21
327.8962051334591
 31
0.0
 11
183.9149391629
 21
327.9169757093
 31
0.0
  0
SPLINE
  5
B9
330
1F
100
AcDbEntity
  8
0
  6
Continuous
 62
     7
100
AcDbSpline
210
0.0
220
0.0
230
1.0
 70
     8
 71
     3
 72
    15
 73
    11
 74
     9
 42
0.0000000001
 43
0.0000000001
 44
0.00000001
 40
0.0
 40
0.0
 40
0.0
 40
0.0
 40
0.1993272358091145
 40
0.3995110958174909
 40
0.5993673928285488
 40
0.799029069802961
 40
0.9986840389035547
 40
1.198548154999843
 40
1.398666849517639
 40
1.59807797675861
 40
1.59807797675861
 40
1.59807797675861
 40
1.59807797675861
 10
183.9149391629
 20
233.9183819698
 30
0.0
 10
183.9814840510895
 20
233.9224776787289
 30
0.0
 10
184.1148598092678
 20
233.9306866982124
 30
0.0
 10
184.3065642680148
 20
233.9941312122029
 30
0.0
 10
184.4816886093976
 20
234.0927610470716
 30
0.0
 10
184.6334766306985
 20
234.2246878510755
 30
0.0
 10
184.756708738759
 20
234.38352890946
 30
0.0
 10
184.8468753602884
 20
234.5630037896535
 30
0.0
 10
184.9040717014477
 20
234.7562744483003
 30
0.0
 10
184.9113209552251
 20
234.8896269423182
 30
0.0
 10
184.9149391629
 20
234.9561851057
 30
0.0
 11
183.9149391629
 21
233.9183819698
 31
0.0
 11
184.1131812515041
 21
233.9391526520513
 31
0.0
 11
184.3038816348763
 21
234.0000373101315
 31
0.0
 11
184.4778773599442
 21
234.098363436431
 31
0.0
 11
184.6287201558732
 21
234.2291733602463
 31
0.0
 11
184.7511482353914
 21
234.3868866191438
 31
0.0
 11
184.8413498217906
 21
234.5652383466768
 31
0.0
 11
184.8963930234398
 21
234.7576382891085
 31
0.0
 11
184.9149391629
 21
234.9561851057
 31
0.0
  0
SPLINE
  5
BA
330
1F
100
AcDbEntity
  8
0
  6
Continuous
 62
     7
100
AcDbSpline
210
0.0
220
0.0
230
1.0
 70
     8
 71
     3
 72
    15
 73
    11
 74
     9
 42
0.0000000001
 43
0.0000000001
 44
0.00000001
 40
0.0
 40
0.0
 40
0.0
 40
0.0
 40
0.1993272936062588
 40
0.3995112141018364
 40
0.5993674459994738
 40
0.7990290559300115
 40
0.9986840827110983
 40
1.198548256340649
 40
1.398666897353162
 40
1.598077972459081
 40
1.598077972459081
 40
1.598077972459081
 40
1.598077972459081
 10
170.0149391629
 20
327.9169757093
 30
0.0
 10
169.9483942553753
 20
327.9128799954685
 30
0.0
 10
169.8150184576284
 20
327.9046709661085
 30
0.0
 10
169.6233139918695
 20
327.8412264129907
 30
0.0
 10
169.4481896788103
 20
327.7425965815653
 30
0.0
 10
169.2964016720553
 20
327.6106698001761
 30
0.0
 10
169.1731695486741
 20
327.4518287320611
 30
0.0
 10
169.0830029255515
 20
327.2723538277407
 30
0.0
 10
169.0258066136387
 20
327.0790831781438
 30
0.0
 10
169.0185573670151
 20
326.945730719449
 30
0.0
 10
169.0149391629
 20
326.8791725735
 30
0.0
 11
170.0149391629
 21
327.9169757093
 31
0.0
 11
169.8166970183638
 21
327.8962050062281
 31
0.0
 11
169.6259965861222
 21
327.8353203023375
 31
0.0
 11
169.4520009245076
 21
327.736994196101
 31
0.0
 11
169.3011581752109
 21
327.6061843208444
 31
0.0
 11
169.1787300557905
 21
327.448471019902
 31
0.0
 11
169.0885284532812
 21
327.2701192360439
 31
0.0
 11
169.0334852869032
 21
327.0777193391734
 31
0.0
 11
169.0149391629
 21
326.8791725735
 31
0.0
  0
SPLINE
  5
BB
330
1F
100
AcDbEntity
  8
0
  6
Continuous
 62
     7
100
AcDbSpline
210
0.0
220
0.0
230
1.0
 70
     8
 71
     3
 72
    15
 73
    11
 74
     9
 42
0.0000000001
 43
0.0000000001
 44
0.00000001
 40
0.0
 40
0.0
 40
0.0
 40
0.0
 40
0.1497935590536804
 40
0.3002398466903928
 40
0.4504306629984917
 40
0.6004783582296132
 40
0.7505149757721262
 40
0.9007081563818268
 40
1.051091279569396
 40
1.200944180805433
 40
1.200944180805433
 40
1.200944180805433
 40
1.200944180805433
 10
175.8274391629
 20
324.5506938626
 30
0.0
 10
175.7774302652541
 20
324.5537988740386
 30
0.0
 10
175.6771945551391
 20
324.5600224270686
 30
0.0
 10
175.5332148307709
 20
324.6080296758447
 30
0.0
 10
175.401833427548
 20
324.6825609991524
 30
0.0
 10
175.2881020500492
 20
324.7820879774939
 30
0.0
 10
175.1958444763379
 20
324.9017173435613
 30
0.0
 10
175.1283849871744
 20
325.0367297340791
 30
0.0
 10
175.0855759439515
 20
325.1820053715595
 30
0.0
 10
175.0801482281042
 20
325.2822152044791
 30
0.0
 10
175.0774391629
 20
325.3322316348
 30
0.0
 11
175.8274391629
 21
324.5506938626
 31
0.0
 11
175.6784739232302
 21
324.5664249688579
 31
0.0
 11
175.5352512941485
 21
324.6124832361135
 31
0.0
 11
175.4047167953507
 21
324.6867666523441
 31
0.0
 11
175.2916773825851
 21
324.78543986049
 31
0.0
 11
175.2000142372852
 21
324.9042205592475
 31
0.0
 11
175.1325160219998
 21
325.0383920257929
 31
0.0
 11
175.0913226938542
 21
325.1830232584363
 31
0.0
 11
175.0774391629
 21
325.3322316348
 31
0.0
  0
SPLINE
  5
BC
330
1F
100
AcDbEntity
  8
0
  6
Continuous
 62
     7
100
AcDbSpline
210
0.0
220
0.0
230
1.0
 70
     8
 71
     3
 72
    15
 73
    11
 74
     9
 42
0.0000000001
 43
0.0000000001
 44
0.00000001
 40
0.0
 40
0.0
 40
0.0
 40
0.0
 40
0.1498537524255914
 40
0.3002377329130124
 40
0.4504313876398275
 40
0.6004684786734207
 40
0.750515752334854
 40
0.9007061336807405
 40
1.051151518353638
 40
1.200944190550368
 40
1.200944190550368
 40
1.200944190550368
 40
1.200944190550368
 10
175.0774391629
 20
236.5031260444
 30
0.0
 10
175.08014825897
 20
236.5531427594691
 30
0.0
 10
175.0855760367141
 20
236.653353163927
 30
0.0
 10
175.1283855276993
 20
236.7986294515477
 30
0.0
 10
175.1958456333024
 20
236.9336422147635
 30
0.0
 10
175.2881036967605
 20
237.0532714344623
 30
0.0
 10
175.4018352751139
 20
237.1527979754644
 30
0.0
 10
175.5332163562784
 20
237.2273286712862
 30
0.0
 10
175.6771954509458
 20
237.275335380024
 30
0.0
 10
175.7774305620628
 20
237.281558847646
 30
0.0
 10
175.8274391629
 20
237.2846638166
 30
0.0
 11
175.0774391629
 21
236.5031260444
 31
0.0
 11
175.0913228512703
 21
236.6523352609829
 31
0.0
 11
175.1325166453871
 21
236.7969672523039
 31
0.0
 11
175.20001541356
 21
236.9311389714378
 31
0.0
 11
175.2916792205845
 21
237.0499197576265
 31
0.0
 11
175.4047186203229
 21
237.1485923396339
 31
0.0
 11
175.5352529349373
 21
237.2228752000862
 31
0.0
 11
175.6784747935376
 21
237.2689329137556
 31
0.0
 11
175.8274391629
 21
237.2846638166
 31
0.0
  0
SPLINE
  5
BD
330
1F
100
AcDbEntity
  8
0
  6
Continuous
 62
     7
100
AcDbSpline
210
0.0
220
0.0
230
1.0
 70
     8
 71
     3
 72
    15
 73
    11
 74
     9
 42
0.0000000001
 43
0.0000000001
 44
0.00000001
 40
0.0
 40
0.0
 40
0.0
 40
0.0
 40
0.1497938277513801
 40
0.3002403875241194
 40
0.4504310444943713
 40
0.6004785771244971
 40
0.7505151709428991
 40
0.9007083294260005
 40
1.051091365197173
 40
1.200944179349891
 40
1.200944179349891
 40
1.200944179349891
 40
1.200944179349891
 10
178.1524391629
 20
237.2846638166
 30
0.0
 10
178.2024481504435
 20
237.2815587925064
 30
0.0
 10
178.302684041502
 20
237.2753352140644
 30
0.0
 10
178.4466638641273
 20
237.2273278347191
 30
0.0
 10
178.5780452067682
 20
237.1527964458058
 30
0.0
 10
178.6917764591041
 20
237.0532695031483
 30
0.0
 10
178.784033956867
 20
236.9336401669794
 30
0.0
 10
178.851493392857
 20
236.7986277999887
 30
0.0
 10
178.8943023918542
 20
236.6533522201437
 30
0.0
 10
178.899730101027
 20
236.5531424455924
 30
0.0
 10
178.9024391629
 20
236.5031260444
 30
0.0
 11
178.1524391629
 21
237.2846638166
 31
0.0
 11
178.3014046663401
 21
237.2689326495342
 31
0.0
 11
178.4446275280527
 21
237.2228742167524
 31
0.0
 11
178.5751618443349
 21
237.1485908019555
 31
0.0
 11
178.6882010977919
 21
237.0499176585665
 31
0.0
 11
178.7798641962873
 21
236.9311369536568
 31
0.0
 11
178.8473623688115
 21
236.7969654903681
 31
0.0
 11
178.8885556486477
 21
236.6523343348583
 31
0.0
 11
178.9024391629
 21
236.5031260444
 31
0.0
  0
SPLINE
  5
BE
330
1F
100
AcDbEntity
  8
0
  6
Continuous
 62
     7
100
AcDbSpline
210
0.0
220
0.0
230
1.0
 70
     8
 71
     3
 72
    15
 73
    11
 74
     9
 42
0.0000000001
 43
0.0000000001
 44
0.00000001
 40
0.0
 40
0.0
 40
0.0
 40
0.0
 40
0.1498536492840369
 40
0.300237526157688
 40
0.4504311697228422
 40
0.6004682482536009
 40
0.7505153760193304
 40
0.9007056144769244
 40
1.051151259686332
 40
1.20094418910018
 40
1.20094418910018
 40
1.20094418910018
 40
1.20094418910018
 10
178.9024391629
 20
325.3322316348
 30
0.0
 10
178.8997300707752
 20
325.2822149542294
 30
0.0
 10
178.8943023009372
 20
325.1820046189264
 30
0.0
 10
178.851492860799
 20
325.0367283947713
 30
0.0
 10
178.7840328116676
 20
324.9017156509941
 30
0.0
 10
178.6917748184351
 20
324.7820864490058
 30
0.0
 10
178.578043354326
 20
324.6825599332635
 30
0.0
 10
178.4466623259576
 20
324.6080291703199
 30
0.0
 10
178.3026831341348
 20
324.5600223355904
 30
0.0
 10
178.2024478497945
 20
324.5537988436594
 30
0.0
 10
178.1524391629
 20
324.5506938626
 30
0.0
 11
178.9024391629
 21
325.3322316348
 31
0.0
 11
178.8885554942908
 21
325.1830225199655
 31
0.0
 11
178.8473617572216
 21
325.0383906201307
 31
0.0
 11
178.7798630311937
 21
324.9042188922891
 31
0.0
 11
178.6881992664303
 21
324.7854380892802
 31
0.0
 11
178.5751600137957
 21
324.6867655606081
 31
0.0
 11
178.4446258660782
 21
324.6124826957764
 31
0.0
 11
178.3014037847656
 21
324.5664248236264
 31
0.0
 11
178.1524391629
 21
324.5506938626
 31
0.0
  0
SPLINE
  5
BF
330
1F
100
AcDbEntity
  8
0
  6
Continuous
 62
     7
100
AcDbSpline
210
0.0
220
0.0
230
1.0
 70
     8
 71
     3
 72
     9
 73
     5
 74
     3
 42
0.0000000001
 43
0.0000000001
 44
0.00000001
 40
0.0
 40
0.0
 40
0.0
 40
0.0
 40
1.36682804783702
 40
2.733656073307268
 40
2.733656073307268
 40
2.733656073307268
 40
2.733656073307268
 10
180.2303175487
 20
327.9169757093
 30
0.0
 10
180.0087611041166
 20
327.5188643378424
 30
0.0
 10
179.5656482185752
 20
326.7226416014421
 30
0.0
 10
179.1235088469192
 20
325.925877865241
 30
0.0
 10
178.9024391629
 20
325.5274960004
 30
0.0
 11
180.2303175487
 21
327.9169757093
 31
0.0
 11
179.565891593425
 21
326.722506344975
 31
0.0
 11
178.9024391629
 21
325.5274960004
 31
0.0
  0
SPLINE
  5
C0
330
1F
100
AcDbEntity
  8
0
  6
Continuous
 62
     7
100
AcDbSpline
210
0.0
220
0.0
230
1.0
 70
     8
 71
     3
 72
     9
 73
     5
 74
     3
 42
0.0000000001
 43
0.0000000001
 44
0.00000001
 40
0.0
 40
0.0
 40
0.0
 40
0.0
 40
1.366828025513932
 40
2.733656073394666
 40
2.733656073394666
 40
2.733656073394666
 40
2.733656073394666
 10
178.9024391629
 20
236.3078616788
 30
0.0
 10
179.1235088469192
 20
235.9094798139424
 30
0.0
 10
179.5656482185752
 20
235.1127160777079
 30
0.0
 10
180.0087611041166
 20
234.3164933412742
 30
0.0
 10
180.2303175487
 20
233.9183819698
 30
0.0
 11
178.9024391629
 21
236.3078616788
 31
0.0
 11
179.565891593425
 21
235.112851334175
 31
0.0
 11
180.2303175487
 21
233.9183819698
 31
0.0
  0
SPLINE
  5
C1
330
1F
100
AcDbEntity
  8
0
  6
Continuous
 62
     7
100
AcDbSpline
210
0.0
220
0.0
230
1.0
 70
     8
 71
     3
 72
     9
 73
     5
 74
     3
 42
0.0000000001
 43
0.0000000001
 44
0.00000001
 40
0.0
 40
0.0
 40
0.0
 40
0.0
 40
1.366828047837034
 40
2.733656073307281
 40
2.733656073307281
 40
2.733656073307281
 40
2.733656073307281
 10
173.7495607771
 20
327.9169757093
 30
0.0
 10
173.9711172216834
 20
327.5188643378425
 30
0.0
 10
174.4142301072248
 20
326.7226416014421
 30
0.0
 10
174.8563694788808
 20
325.925877865241
 30
0.0
 10
175.0774391629
 20
325.5274960004
 30
0.0
 11
173.7495607771
 21
327.9169757093
 31
0.0
 11
174.413986732375
 21
326.722506344975
 31
0.0
 11
175.0774391629
 21
325.5274960004
 31
0.0
  0
SPLINE
  5
C2
330
1F
100
AcDbEntity
  8
0
  6
Continuous
 62
     7
100
AcDbSpline
210
0.0
220
0.0
230
1.0
 70
     8
 71
     3
 72
     9
 73
     5
 74
     3
 42
0.0000000001
 43
0.0000000001
 44
0.00000001
 40
0.0
 40
0.0
 40
0.0
 40
0.0
 40
1.366828025513932
 40
2.73365607339468
 40
2.73365607339468
 40
2.73365607339468
 40
2.73365607339468
 10
175.0774391629
 20
236.3078616788
 30
0.0
 10
174.8563694788808
 20
235.9094798139423
 30
0.0
 10
174.4142301072248
 20
235.1127160777079
 30
0.0
 10
173.9711172216834
 20
234.3164933412742
 30
0.0
 10
173.7495607771
 20
233.9183819698
 30
0.0
 11
175.0774391629
 21
236.3078616788
 31
0.0
 11
174.413986732375
 21
235.112851334175
 31
0.0
 11
173.7495607771
 21
233.9183819698
 31
0.0
  0
SPLINE
  5
C3
330
1F
100
AcDbEntity
  8
0
  6
Continuous
 62
     7
100
AcDbSpline
210
0.0
220
0.0
230
1.0
 70
     8
 71
     3
 72
    15
 73
    11
 74
     9
 42
0.0000000001
 43
0.0000000001
 44
0.00000001
 40
0.0
 40
0.0
 40
0.0
 40
0.0
 40
0.1994115198643479
 40
0.3995306095204614
 40
0.5993950644765201
 40
0.7990503711683908
 40
0.9987117371855139
 40
1.198567718902898
 40
1.398751157650341
 40
1.598077977504398
 40
1.598077977504398
 40
1.598077977504398
 40
1.598077977504398
 10
169.0149391629
 20
234.9561851057
 30
0.0
 10
169.0185573835584
 20
234.8896268109592
 30
0.0
 10
169.0258066633694
 20
234.7562740533826
 30
0.0
 10
169.0830032153151
 20
234.5630030540572
 30
0.0
 10
169.1731701721643
 20
234.3835279361037
 30
0.0
 10
169.2964025661798
 20
234.2246869378729
 30
0.0
 10
169.4481906821215
 20
234.092760398471
 30
0.0
 10
169.6233148134403
 20
233.9941309118618
 30
0.0
 10
169.8150189359578
 20
233.9306866461558
 30
0.0
 10
169.9483944139281
 20
233.9224776614256
 30
0.0
 10
170.0149391629
 20
233.9183819698
 30
0.0
 11
169.0149391629
 21
234.9561851057
 31
0.0
 11
169.0334853706582
 21
234.7576379011556
 31
0.0
 11
169.088528782689
 21
234.5652376079209
 31
0.0
 11
169.1787306912996
 21
234.3868856636145
 31
0.0
 11
169.3011591829944
 21
234.2291722973085
 31
0.0
 11
169.4520019146514
 21
234.0983627740081
 31
0.0
 11
169.6259974632618
 21
234.000036976315
 31
0.0
 11
169.8166974835042
 21
233.9391525659271
 31
0.0
 11
170.0149391629
 21
233.9183819698
 31
0.0
  0
SPLINE
  5
C4
330
1F
100
AcDbEntity
  8
BEZUGSACHSEN
  6
Continuous
 62
     7
100
AcDbSpline
210
0.0
220
0.0
230
1.0
 70
     8
 71
     3
 72
    23
 73
    19
 74
    17
 42
0.0000000001
 43
0.0000000001
 44
0.00000001
 40
0.0
 40
0.0
 40
0.0
 40
0.0
 40
0.3421381403194768
 40
0.68428542536477
 40
1.647419551058618
 40
2.610601887338207
 40
4.037777713183015
 40
5.465028450455982
 40
7.144486309454102
 40
8.823979576321774
 40
10.50346736127487
 40
12.18291973324624
 40
13.61015329375165
 40
15.03731193253006
 40
16.00046028512924
 40
16.96356044321772
 40
17.30568546612071
 40
17.64780134293476
 40
17.64780134293476
 40
17.64780134293476
 40
17.64780134293476
 10
274.5649391629
 20
319.9176788396
 30
0.0
 10
274.453603455861
 20
319.892960136143
 30
0.0
 10
274.2309290659836
 20
319.8435220685432
 30
0.0
 10
273.6936906942415
 20
319.7297849681605
 30
0.0
 10
272.9516660092866
 20
319.5839262409209
 30
0.0
 10
271.8500504962491
 20
319.3936897505808
 30
0.0
 10
270.5900289385718
 20
319.213664595752
 30
0.0
 10
269.0869161065832
 20
319.0535837988108
 30
0.0
 10
267.4944720191912
 20
318.9483014003043
 30
0.0
 10
265.8148620202758
 20
318.9110165966933
 30
0.0
 10
264.1352539847111
 20
318.9483073171156
 30
0.0
 10
262.5428196381576
 20
319.0535948947486
 30
0.0
 10
261.0397206266042
 20
319.213679980506
 30
0.0
 10
259.7797222851572
 20
319.3937065070465
 30
0.0
 10
258.6781353545001
 20
319.5839416734054
 30
0.0
 10
257.93614042304
 20
319.7297957800967
 30
0.0
 10
257.3989276436073
 20
319.8435274270075
 30
0.0
 10
257.1762676643878
 20
319.8929619223291
 30
0.0
 10
257.0649391629
 20
319.9176788396
 30
0.0
 11
274.5649391629
 21
319.9176788396
 31
0.0
 11
274.230812730447
 21
319.8440715424243
 31
0.0
 11
273.8961108232348
 21
319.7730828252052
 31
0.0
 11
272.951010728642
 21
319.5875749944363
 31
0.0
 11
272.0018670779764
 21
319.4237258463695
 31
0.0
 11
270.589002194798
 21
319.2221231188155
 31
0.0
 11
269.1697517608
 21
319.0712162845014
 31
0.0
 11
267.4939433613884
 21
318.9605595693321
 31
0.0
 11
265.814860215196
 21
318.9234459380562
 31
0.0
 11
264.1357826827075
 21
318.9605654706384
 31
0.0
 11
262.4599801657453
 21
319.0712279930357
 31
0.0
 11
261.0407473814695
 21
319.2221383646793
 31
0.0
 11
259.6279002453675
 21
319.4237437967693
 31
0.0
 11
258.6787905803478
 21
319.5875900444553
 31
0.0
 11
257.7337240916966
 21
319.7730927305236
 31
0.0
 11
257.3990439518342
 21
319.8440767799856
 31
0.0
 11
257.0649391629
 21
319.9176788396
 31
0.0
  0
SPLINE
  5
C5
330
1F
100
AcDbEntity
  8
BEZUGSACHSEN
  6
Continuous
 62
     7
100
AcDbSpline
210
0.0
220
0.0
230
1.0
 70
     8
 71
     3
 72
    23
 73
    19
 74
    17
 42
0.0000000001
 43
0.0000000001
 44
0.00000001
 40
0.0
 40
0.0
 40
0.0
 40
0.0
 40
0.3421381403195323
 40
0.6842854253647699
 40
1.64741955105859
 40
2.610601887338235
 40
4.037777713183014
 40
5.465028450455981
 40
7.144486309454102
 40
8.823979576321802
 40
10.50346736127493
 40
12.18291973324627
 40
13.61015329375167
 40
15.03731193253015
 40
16.00046028512927
 40
16.96356044321775
 40
17.30568546612074
 40
17.64780134293476
 40
17.64780134293476
 40
17.64780134293476
 40
17.64780134293476
 10
242.5649391629
 20
319.9176788396
 30
0.0
 10
242.453603455861
 20
319.892960136143
 30
0.0
 10
242.2309290659836
 20
319.8435220685432
 30
0.0
 10
241.6936906942415
 20
319.7297849681604
 30
0.0
 10
240.9516660092867
 20
319.5839262409209
 30
0.0
 10
239.850050496249
 20
319.3936897505808
 30
0.0
 10
238.5900289385719
 20
319.2136645957521
 30
0.0
 10
237.0869161065832
 20
319.0535837988108
 30
0.0
 10
235.4944720191914
 20
318.9483014003044
 30
0.0
 10
233.8148620202758
 20
318.9110165966934
 30
0.0
 10
232.135253984711
 20
318.9483073171156
 30
0.0
 10
230.5428196381577
 20
319.0535948947487
 30
0.0
 10
229.0397206266041
 20
319.2136799805059
 30
0.0
 10
227.7797222851571
 20
319.3937065070464
 30
0.0
 10
226.6781353545001
 20
319.5839416734054
 30
0.0
 10
225.93614042304
 20
319.7297957800967
 30
0.0
 10
225.3989276436073
 20
319.8435274270074
 30
0.0
 10
225.1762676643878
 20
319.8929619223291
 30
0.0
 10
225.0649391629
 20
319.9176788396
 30
0.0
 11
242.5649391629
 21
319.9176788396
 31
0.0
 11
242.230812730447
 21
319.8440715424243
 31
0.0
 11
241.8961108232349
 21
319.7730828252052
 31
0.0
 11
240.951010728642
 21
319.5875749944363
 31
0.0
 11
240.0018670779764
 21
319.4237258463695
 31
0.0
 11
238.589002194798
 21
319.2221231188155
 31
0.0
 11
237.1697517608
 21
319.0712162845014
 31
0.0
 11
235.4939433613884
 21
318.9605595693321
 31
0.0
 11
233.814860215196
 21
318.9234459380562
 31
0.0
 11
232.1357826827075
 21
318.9605654706384
 31
0.0
 11
230.4599801657453
 21
319.0712279930357
 31
0.0
 11
229.0407473814695
 21
319.2221383646793
 31
0.0
 11
227.6279002453674
 21
319.4237437967693
 31
0.0
 11
226.6787905803478
 21
319.5875900444553
 31
0.0
 11
225.7337240916966
 21
319.7730927305236
 31
0.0
 11
225.3990439518342
 21
319.8440767799856
 31
0.0
 11
225.0649391629
 21
319.9176788396
 31
0.0
  0
DIMENSION
  5
D0
330
1F
100
AcDbEntity
  8
1
100
AcDbDimension
  2
*D2
 10
307.933688608576
 20
300.9176788396
 30
0.0
 11
304.183688608576
 21
280.143472200709
 31
0.0
 70
    32
  1
<>
 71
     5
 42
-1.0
 53
90.0
  3
ME10_DIM_10
100
AcDbAlignedDimension
 13
295.8149391629
 23
260.9176788396
 33
0.0
 14
295.8149391629
 24
300.9176788396
 34
0.0
 50
90.0
100
AcDbRotatedDimension
  0
DIMENSION
  5
DB
330
1F
100
AcDbEntity
  8
1
100
AcDbDimension
  2
*D3
 10
316.6197462582441
 20
319.9176788396
 30
0.0
 11
312.8697462582441
 21
280.378230515565
 31
0.0
 70
    32
  1
<>
 71
     5
 42
-1.0
 53
90.0
  3
ME10_DIM_11
100
AcDbAlignedDimension
 13
280.5469899705
 23
241.9176788396
 33
0.0
 14
280.5469899705
 24
319.9176788396
 34
0.0
 50
90.0
100
AcDbRotatedDimension
  0
DIMENSION
  5
E6
330
1F
100
AcDbEntity
  8
1
100
AcDbDimension
  2
*D4
 10
295.8149391628999
 20
335.898571978979
 30
0.0
 11
238.7676713879058
 21
339.648571978979
 31
0.0
 70
    32
  1
<>
 71
     5
 42
-1.0
 53
0.00013888888889
  3
ME10_DIM_12
100
AcDbAlignedDimension
 13
184.9149391629
 23
326.8791725735
 33
0.0
 14
295.8149391629
 24
310.6800745326
 34
0.0
100
AcDbRotatedDimension
  0
DIMENSION
  5
F1
330
1F
100
AcDbEntity
  8
1
100
AcDbDimension
  2
*D5
 10
295.8149391629
 20
343.762975526651
 30
0.0
 11
229.7795165464927
 21
347.512975526651
 31
0.0
 70
    32
  1
<>
 71
     5
 42
-1.0
 53
0.00013888888889
  3
ME10_DIM_13
100
AcDbAlignedDimension
 13
165.8149391629
 23
332.6551788396
 33
0.0
 14
295.8149391629
 24
310.6800745326
 34
0.0
100
AcDbRotatedDimension
  0
DIMENSION
  5
FC
330
1F
100
AcDbEntity
  8
1
100
AcDbDimension
  2
*D6
 10
295.8149391628999
 20
351.155704070912
 30
0.0
 11
198.2712038434482
 21
354.905704070912
 31
0.0
 70
    32
  1
<>
 71
     5
 42
-1.0
 53
0.00013888888889
  3
ME10_DIM_14
100
AcDbAlignedDimension
 13
64.06493916289996
 23
299.0791258408
 33
0.0
 14
295.8149391629
 24
310.6800745326
 34
0.0
100
AcDbRotatedDimension
  0
INSERT
  5
103
330
1F
100
AcDbEntity
  8
1
100
AcDbBlockReference
  2
*D7
 10
0.0
 20
0.0
 30
0.0
  0
ENDSEC
  0
SECTION
  2
OBJECTS
  0
DICTIONARY
  5
C
330
0
100
AcDbDictionary
281
     1
  3
ACAD_GROUP
350
D
  3
ACAD_LAYOUT
350
1A
  3
ACAD_MLEADERSTYLE
350
106
  3
ACAD_MLINESTYLE
350
17
  3
ACAD_PLOTSETTINGS
350
19
  3
ACAD_PLOTSTYLENAME
350
E
  3
ACAD_SCALELIST
350
4A
  3
ACAD_VISUALSTYLE
350
2A
  3
AcDbVariableDictionary
350
104
  0
DICTIONARY
  5
D
102
{ACAD_REACTORS
330
C
102
}
330
C
100
AcDbDictionary
281
     1
  0
DICTIONARY
  5
1A
102
{ACAD_REACTORS
330
C
102
}
330
C
100
AcDbDictionary
281
     1
  3
Layout1
350
1E
  3
Layout2
350
26
  3
Model
350
22
  0
DICTIONARY
  5
106
102
{ACAD_REACTORS
330
C
102
}
330
C
100
AcDbDictionary
281
     1
  0
DICTIONARY
  5
17
102
{ACAD_REACTORS
330
C
102
}
330
C
100
AcDbDictionary
281
     1
  3
Standard
350
18
  0
DICTIONARY
  5
19
102
{ACAD_REACTORS
330
C
102
}
330
C
100
AcDbDictionary
281
     1
  0
ACDBDICTIONARYWDFLT
  5
E
102
{ACAD_REACTORS
330
C
102
}
330
C
100
AcDbDictionary
281
     1
  3
Normal
350
F
100
AcDbDictionaryWithDefault
340
F
  0
DICTIONARY
  5
4A
102
{ACAD_REACTORS
330
C
102
}
330
C
100
AcDbDictionary
281
     1
  3
A0
350
4B
  3
A1
350
4C
  3
A2
350
4D
  3
A3
350
4E
  3
A4
350
4F
  3
A5
350
50
  3
A6
350
51
  3
A7
350
52
  3
A8
350
53
  3
A9
350
54
  3
B0
350
55
  3
B1
350
56
  3
B2
350
57
  3
B3
350
58
  3
B4
350
59
  3
B5
350
5A
  3
B6
350
5B
  3
B7
350
5C
  3
B8
350
5D
  3
B9
350
5E
  3
C0
350
5F
  3
C1
350
60
  3
C2
350
61
  3
C3
350
62
  3
C4
350
63
  3
C5
350
64
  3
C6
350
65
  3
C7
350
66
  3
C8
350
67
  3
C9
350
68
  3
D0
350
69
  3
D1
350
6A
  3
D2
350
6B
  0
DICTIONARY
  5
2A
102
{ACAD_REACTORS
330
C
102
}
330
C
100
AcDbDictionary
281
     1
  3
2dWireframe
350
2F
  3
3D Hidden
350
31
  3
3dWireframe
350
30
  3
Basic
350
32
  3
Brighten
350
36
  3
ColorChange
350
3A
  3
Conceptual
350
34
  3
Dim
350
35
  3
Facepattern
350
39
  3
Flat
350
2B
  3
FlatWithEdges
350
2C
  3
Gouraud
350
2D
  3
GouraudWithEdges
350
2E
  3
Linepattern
350
38
  3
Realistic
350
33
  3
Thicken
350
37
  0
DICTIONARY
  5
104
102
{ACAD_REACTORS
330
C
102
}
330
C
100
AcDbDictionary
281
     1
  3
CANNOSCALE
350
107
  0
LAYOUT
  5
1E
102
{ACAD_REACTORS
330
1A
102
}
330
1A
100
AcDbPlotSettings
  1

  2
none_device
  4

  6

 40
0.0
 41
0.0
 42
0.0
 43
0.0
 44
0.0
 45
0.0
 46
0.0
 47
0.0
 48
0.0
 49
0.0
140
0.0
141
0.0
142
1.0
143
1.0
 70
   688
 72
     0
 73
     0
 74
     5
  7

 75
    16
147
1.0
148
0.0
149
0.0
100
AcDbLayout
  1
Layout1
 70
     1
 71
     1
 10
0.0
 20
0.0
 11
12.0
 21
9.0
 12
0.0
 22
0.0
 32
0.0
 14
1.00000000000000E+20
 24
1.00000000000000E+20
 34
1.00000000000000E+20
 15
-1.00000000000000E+20
 25
-1.00000000000000E+20
 35
-1.00000000000000E+20
146
0.0
 13
0.0
 23
0.0
 33
0.0
 16
1.0
 26
0.0
 36
0.0
 17
0.0
 27
1.0
 37
0.0
 76
     0
330
1B
  0
LAYOUT
  5
26
102
{ACAD_REACTORS
330
1A
102
}
330
1A
100
AcDbPlotSettings
  1

  2
none_device
  4

  6

 40
0.0
 41
0.0
 42
0.0
 43
0.0
 44
0.0
 45
0.0
 46
0.0
 47
0.0
 48
0.0
 49
0.0
140
0.0
141
0.0
142
1.0
143
1.0
 70
   688
 72
     0
 73
     0
 74
     5
  7

 75
    16
147
1.0
148
0.0
149
0.0
100
AcDbLayout
  1
Layout2
 70
     1
 71
     2
 10
0.0
 20
0.0
 11
0.0
 21
0.0
 12
0.0
 22
0.0
 32
0.0
 14
0.0
 24
0.0
 34
0.0
 15
0.0
 25
0.0
 35
0.0
146
0.0
 13
0.0
 23
0.0
 33
0.0
 16
1.0
 26
0.0
 36
0.0
 17
0.0
 27
1.0
 37
0.0
 76
     0
330
23
  0
LAYOUT
  5
22
102
{ACAD_REACTORS
330
1A
102
}
330
1A
100
AcDbPlotSettings
  1

  2
none_device
  4

  6

 40
0.0
 41
0.0
 42
0.0
 43
0.0
 44
0.0
 45
0.0
 46
0.0
 47
0.0
 48
0.0
 49
0.0
140
0.0
141
0.0
142
1.0
143
1.0
 70
  1712
 72
     0
 73
     0
 74
     0
  7

 75
     0
147
1.0
148
0.0
149
0.0
100
AcDbLayout
  1
Model
 70
     1
 71
     0
 10
0.0
 20
0.0
 11
12.0
 21
9.0
 12
0.0
 22
0.0
 32
0.0
 14
40.534617456067
 24
230.7933819698
 34
0.0
 15
318.6197462582441
 25
356.655704070912
 35
0.0
146
0.0
 13
0.0
 23
0.0
 33
0.0
 16
1.0
 26
0.0
 36
0.0
 17
0.0
 27
1.0
 37
0.0
 76
     0
330
1F
331
29
  0
MLINESTYLE
  5
18
102
{ACAD_REACTORS
330
17
102
}
330
17
100
AcDbMlineStyle
  2
Standard
 70
     0
  3

 62
   256
 51
90.0
 52
90.0
 71
     2
 49
0.5
 62
   256
  6
BYLAYER
 49
-0.5
 62
   256
  6
BYLAYER
  0
ACDBPLACEHOLDER
  5
F
102
{ACAD_REACTORS
330
E
102
}
330
E
  0
SCALE
  5
4B
102
{ACAD_REACTORS
330
4A
102
}
330
4A
100
AcDbScale
 70
     0
300
1:1
140
1.0
141
1.0
290
     1
  0
SCALE
  5
4C
102
{ACAD_REACTORS
330
4A
102
}
330
4A
100
AcDbScale
 70
     0
300
1:2
140
1.0
141
2.0
290
     0
  0
SCALE
  5
4D
102
{ACAD_REACTORS
330
4A
102
}
330
4A
100
AcDbScale
 70
     0
300
1:4
140
1.0
141
4.0
290
     0
  0
SCALE
  5
4E
102
{ACAD_REACTORS
330
4A
102
}
330
4A
100
AcDbScale
 70
     0
300
1:5
140
1.0
141
5.0
290
     0
  0
SCALE
  5
4F
102
{ACAD_REACTORS
330
4A
102
}
330
4A
100
AcDbScale
 70
     0
300
1:8
140
1.0
141
8.0
290
     0
  0
SCALE
  5
50
102
{ACAD_REACTORS
330
4A
102
}
330
4A
100
AcDbScale
 70
     0
300
1:10
140
1.0
141
10.0
290
     0
  0
SCALE
  5
51
102
{ACAD_REACTORS
330
4A
102
}
330
4A
100
AcDbScale
 70
     0
300
1:16
140
1.0
141
16.0
290
     0
  0
SCALE
  5
52
102
{ACAD_REACTORS
330
4A
102
}
330
4A
100
AcDbScale
 70
     0
300
1:20
140
1.0
141
20.0
290
     0
  0
SCALE
  5
53
102
{ACAD_REACTORS
330
4A
102
}
330
4A
100
AcDbScale
 70
     0
300
1:30
140
1.0
141
30.0
290
     0
  0
SCALE
  5
54
102
{ACAD_REACTORS
330
4A
102
}
330
4A
100
AcDbScale
 70
     0
300
1:40
140
1.0
141
40.0
290
     0
  0
SCALE
  5
55
102
{ACAD_REACTORS
330
4A
102
}
330
4A
100
AcDbScale
 70
     0
300
1:50
140
1.0
141
50.0
290
     0
  0
SCALE
  5
56
102
{ACAD_REACTORS
330
4A
102
}
330
4A
100
AcDbScale
 70
     0
300
1:100
140
1.0
141
100.0
290
     0
  0
SCALE
  5
57
102
{ACAD_REACTORS
330
4A
102
}
330
4A
100
AcDbScale
 70
     0
300
2:1
140
2.0
141
1.0
290
     0
  0
SCALE
  5
58
102
{ACAD_REACTORS
330
4A
102
}
330
4A
100
AcDbScale
 70
     0
300
4:1
140
4.0
141
1.0
290
     0
  0
SCALE
  5
59
102
{ACAD_REACTORS
330
4A
102
}
330
4A
100
AcDbScale
 70
     0
300
8:1
140
8.0
141
1.0
290
     0
  0
SCALE
  5
5A
102
{ACAD_REACTORS
330
4A
102
}
330
4A
100
AcDbScale
 70
     0
300
10:1
140
10.0
141
1.0
290
     0
  0
SCALE
  5
5B
102
{ACAD_REACTORS
330
4A
102
}
330
4A
100
AcDbScale
 70
     0
300
100:1
140
100.0
141
1.0
290
     0
  0
SCALE
  5
5C
102
{ACAD_REACTORS
330
4A
102
}
330
4A
100
AcDbScale
 70
     0
300
1/128" = 1'-0"
140
0.0078125
141
12.0
290
     0
  0
SCALE
  5
5D
102
{ACAD_REACTORS
330
4A
102
}
330
4A
100
AcDbScale
 70
     0
300
1/64" = 1'-0"
140
0.015625
141
12.0
290
     0
  0
SCALE
  5
5E
102
{ACAD_REACTORS
330
4A
102
}
330
4A
100
AcDbScale
 70
     0
300
1/32" = 1'-0"
140
0.03125
141
12.0
290
     0
  0
SCALE
  5
5F
102
{ACAD_REACTORS
330
4A
102
}
330
4A
100
AcDbScale
 70
     0
300
1/16" = 1'-0"
140
0.0625
141
12.0
290
     0
  0
SCALE
  5
60
102
{ACAD_REACTORS
330
4A
102
}
330
4A
100
AcDbScale
 70
     0
300
3/32" = 1'-0"
140
0.09375
141
12.0
290
     0
  0
SCALE
  5
61
102
{ACAD_REACTORS
330
4A
102
}
330
4A
100
AcDbScale
 70
     0
300
1/8" = 1'-0"
140
0.125
141
12.0
290
     0
  0
SCALE
  5
62
102
{ACAD_REACTORS
330
4A
102
}
330
4A
100
AcDbScale
 70
     0
300
3/16" = 1'-0"
140
0.1875
141
12.0
290
     0
  0
SCALE
  5
63
102
{ACAD_REACTORS
330
4A
102
}
330
4A
100
AcDbScale
 70
     0
300
1/4" = 1'-0"
140
0.25
141
12.0
290
     0
  0
SCALE
  5
64
102
{ACAD_REACTORS
330
4A
102
}
330
4A
100
AcDbScale
 70
     0
300
3/8" = 1'-0"
140
0.375
141
12.0
290
     0
  0
SCALE
  5
65
102
{ACAD_REACTORS
330
4A
102
}
330
4A
100
AcDbScale
 70
     0
300
1/2" = 1'-0"
140
0.5
141
12.0
290
     0
  0
SCALE
  5
66
102
{ACAD_REACTORS
330
4A
102
}
330
4A
100
AcDbScale
 70
     0
300
3/4" = 1'-0"
140
0.75
141
12.0
290
     0
  0
SCALE
  5
67
102
{ACAD_REACTORS
330
4A
102
}
330
4A
100
AcDbScale
 70
     0
300
1" = 1'-0"
140
1.0
141
12.0
290
     0
  0
SCALE
  5
68
102
{ACAD_REACTORS
330
4A
102
}
330
4A
100
AcDbScale
 70
     0
300
1-1/2" = 1'-0"
140
1.5
141
12.0
290
     0
  0
SCALE
  5
69
102
{ACAD_REACTORS
330
4A
102
}
330
4A
100
AcDbScale
 70
     0
300
3" = 1'-0"
140
3.0
141
12.0
290
     0
  0
SCALE
  5
6A
102
{ACAD_REACTORS
330
4A
102
}
330
4A
100
AcDbScale
 70
     0
300
6" = 1'-0"
140
6.0
141
12.0
290
     0
  0
SCALE
  5
6B
102
{ACAD_REACTORS
330
4A
102
}
330
4A
100
AcDbScale
 70
     0
300
1'-0" = 1'-0"
140
12.0
141
12.0
290
     0
  0
VISUALSTYLE
  5
2F
102
{ACAD_REACTORS
330
2A
102
}
330
2A
100
AcDbVisualStyle
  2
2dWireframe
 70
     4
 71
     0
 72
     2
 73
     0
 90
        0
 40
-0.6
 41
-30.0
 62
     5
 63
     7
 74
     1
 91
        4
 64
     7
 65
   257
 75
     1
175
     1
 42
1.0
 92
        0
 66
   257
 43
1.0
 76
     1
 77
     6
 78
     2
 67
     7
 79
     5
170
     0
171
     0
290
     0
174
     0
 93
        1
 44
0.0
173
     0
291
     0
 45
0.0
1001
ACAD
1000
AcDbSavedByObjectVersion
1070
     0
  0
VISUALSTYLE
  5
31
102
{ACAD_REACTORS
330
2A
102
}
330
2A
100
AcDbVisualStyle
  2
3D Hidden
 70
     6
 71
     1
 72
     2
 73
     2
 90
        0
 40
-0.6
 41
-30.0
 62
     5
 63
     7
 74
     2
 91
        2
 64
     7
 65
   257
 75
     2
175
     1
 42
40.0
 92
        0
 66
   257
 43
1.0
 76
     1
 77
     6
 78
     2
 67
     7
 79
     3
170
     0
171
     0
290
     0
174
     0
 93
        1
 44
0.0
173
     0
291
     0
 45
0.0
1001
ACAD
1000
AcDbSavedByObjectVersion
1070
     0
  0
VISUALSTYLE
  5
30
102
{ACAD_REACTORS
330
2A
102
}
330
2A
100
AcDbVisualStyle
  2
3dWireframe
 70
     5
 71
     0
 72
     2
 73
     0
 90
        0
 40
-0.6
 41
-30.0
 62
     5
 63
     7
 74
     1
 91
        4
 64
     7
 65
   257
 75
     1
175
     1
 42
1.0
 92
        0
 66
   257
 43
1.0
 76
     1
 77
     6
 78
     2
 67
     7
 79
     5
170
     0
171
     0
290
     0
174
     0
 93
        1
 44
0.0
173
     0
291
     0
 45
0.0
1001
ACAD
1000
AcDbSavedByObjectVersion
1070
     0
  0
VISUALSTYLE
  5
32
102
{ACAD_REACTORS
330
2A
102
}
330
2A
100
AcDbVisualStyle
  2
Basic
 70
     7
 71
     1
 72
     0
 73
     1
 90
        0
 40
-0.6
 41
-30.0
 62
     5
 63
     7
 74
     0
 91
        4
 64
     7
 65
   257
 75
     1
175
     1
 42
1.0
 92
        8
 66
     7
 43
1.0
 76
     1
 77
     6
 78
     2
 67
     7
 79
     5
170
     0
171
     0
290
     0
174
     0
 93
        1
 44
0.0
173
     0
291
     1
 45
0.0
1001
ACAD
1000
AcDbSavedByObjectVersion
1070
     0
  0
VISUALSTYLE
  5
36
102
{ACAD_REACTORS
330
2A
102
}
330
2A
100
AcDbVisualStyle
  2
Brighten
 70
    12
 71
     2
 72
     2
 73
     0
 90
        0
 40
-0.6
 41
-30.0
 62
     5
 63
     7
 74
     1
 91
        4
 64
     7
 65
   257
 75
     1
175
     1
 42
1.0
 92
        8
 66
     7
 43
1.0
 76
     1
 77
     6
 78
     2
 67
     7
 79
     5
170
     0
171
     0
290
     0
174
     0
 93
        1
 44
50.0
173
     0
291
     1
 45
0.0
1001
ACAD
1000
AcDbSavedByObjectVersion
1070
     0
  0
VISUALSTYLE
  5
3A
102
{ACAD_REACTORS
330
2A
102
}
330
2A
100
AcDbVisualStyle
  2
ColorChange
 70
    16
 71
     2
 72
     2
 73
     3
 90
        0
 40
-0.6
 41
-30.0
 62
     5
 63
     8
 74
     1
 91
        4
 64
     7
 65
   257
 75
     1
175
     1
 42
1.0
 92
        8
 66
     8
 43
1.0
 76
     1
 77
     6
 78
     2
 67
     7
 79
     5
170
     0
171
     0
290
     0
174
     0
 93
        1
 44
0.0
173
     0
291
     1
 45
0.0
1001
ACAD
1000
AcDbSavedByObjectVersion
1070
     0
  0
VISUALSTYLE
  5
34
102
{ACAD_REACTORS
330
2A
102
}
330
2A
100
AcDbVisualStyle
  2
Conceptual
 70
     9
 71
     3
 72
     2
 73
     0
 90
        0
 40
-0.6
 41
-30.0
 62
     5
 63
     7
 74
     2
 91
        2
 64
     7
 65
   257
 75
     1
175
     1
 42
40.0
 92
        8
 66
     7
 43
1.0
 76
     1
 77
     6
 78
     2
 67
     7
 79
     3
170
     0
171
     0
290
     0
174
     0
 93
        1
 44
0.0
173
     0
291
     0
 45
0.0
1001
ACAD
1000
AcDbSavedByObjectVersion
1070
     0
  0
VISUALSTYLE
  5
35
102
{ACAD_REACTORS
330
2A
102
}
330
2A
100
AcDbVisualStyle
  2
Dim
 70
    11
 71
     2
 72
     2
 73
     0
 90
        0
 40
-0.6
 41
-30.0
 62
     5
 63
     7
 74
     1
 91
        4
 64
     7
 65
   257
 75
     1
175
     1
 42
1.0
 92
        8
 66
     7
 43
1.0
 76
     1
 77
     6
 78
     2
 67
     7
 79
     5
170
     0
171
     0
290
     0
174
     0
 93
        1
 44
-50.0
173
     0
291
     1
 45
0.0
1001
ACAD
1000
AcDbSavedByObjectVersion
1070
     0
  0
VISUALSTYLE
  5
39
102
{ACAD_REACTORS
330
2A
102
}
330
2A
100
AcDbVisualStyle
  2
Facepattern
 70
    15
 71
     2
 72
     2
 73
     0
 90
        0
 40
-0.6
 41
-30.0
 62
     5
 63
     7
 74
     1
 91
        4
 64
     7
 65
   257
 75
     1
175
     1
 42
1.0
 92
        8
 66
     7
 43
1.0
 76
     1
 77
     6
 78
     2
 67
     7
 79
     5
170
     0
171
     0
290
     0
174
     0
 93
        1
 44
0.0
173
     0
291
     1
 45
0.0
1001
ACAD
1000
AcDbSavedByObjectVersion
1070
     0
  0
VISUALSTYLE
  5
2B
102
{ACAD_REACTORS
330
2A
102
}
330
2A
100
AcDbVisualStyle
  2
Flat
 70
     0
 71
     2
 72
     1
 73
     1
 90
        2
 40
-0.6
 41
30.0
 62
     5
 63
     7
 74
     0
 91
        4
 64
     7
 65
   257
 75
     1
175
     1
 42
1.0
 92
        8
 66
     7
 43
1.0
 76
     1
 77
     6
 78
     2
 67
     7
 79
     5
170
     0
171
     0
290
     0
174
     0
 93
       13
 44
0.0
173
     0
291
     1
 45
0.0
1001
ACAD
1000
AcDbSavedByObjectVersion
1070
     0
  0
VISUALSTYLE
  5
2C
102
{ACAD_REACTORS
330
2A
102
}
330
2A
100
AcDbVisualStyle
  2
FlatWithEdges
 70
     1
 71
     2
 72
     1
 73
     1
 90
        2
 40
-0.6
 41
30.0
 62
     5
 63
     7
 74
     1
 91
        4
 64
     7
 65
   257
 75
     1
175
     1
 42
1.0
 92
        0
 66
   257
 43
1.0
 76
     1
 77
     6
 78
     2
 67
     7
 79
     5
170
     0
171
     0
290
     0
174
     0
 93
       13
 44
0.0
173
     0
291
     1
 45
0.0
1001
ACAD
1000
AcDbSavedByObjectVersion
1070
     0
  0
VISUALSTYLE
  5
2D
102
{ACAD_REACTORS
330
2A
102
}
330
2A
100
AcDbVisualStyle
  2
Gouraud
 70
     2
 71
     2
 72
     2
 73
     1
 90
        2
 40
-0.6
 41
30.0
 62
     5
 63
     7
 74
     0
 91
        4
 64
     7
 65
   257
 75
     1
175
     1
 42
1.0
 92
        0
 66
     7
 43
1.0
 76
     1
 77
     6
 78
     2
 67
     7
 79
     5
170
     0
171
     0
290
     0
174
     0
 93
       13
 44
0.0
173
     0
291
     1
 45
0.0
1001
ACAD
1000
AcDbSavedByObjectVersion
1070
     0
  0
VISUALSTYLE
  5
2E
102
{ACAD_REACTORS
330
2A
102
}
330
2A
100
AcDbVisualStyle
  2
GouraudWithEdges
 70
     3
 71
     2
 72
     2
 73
     1
 90
        2
 40
-0.6
 41
30.0
 62
     5
 63
     7
 74
     1
 91
        4
 64
     7
 65
   257
 75
     1
175
     1
 42
1.0
 92
        0
 66
   257
 43
1.0
 76
     1
 77
     6
 78
     2
 67
     7
 79
     5
170
     0
171
     0
290
     0
174
     0
 93
       13
 44
0.0
173
     0
291
     1
 45
0.0
1001
ACAD
1000
AcDbSavedByObjectVersion
1070
     0
  0
VISUALSTYLE
  5
38
102
{ACAD_REACTORS
330
2A
102
}
330
2A
100
AcDbVisualStyle
  2
Linepattern
 70
    14
 71
     2
 72
     2
 73
     0
 90
        0
 40
-0.6
 41
-30.0
 62
     5
 63
     7
 74
     1
 91
        4
 64
     7
 65
   257
 75
     7
175
     7
 42
1.0
 92
        8
 66
     7
 43
1.0
 76
     1
 77
     6
 78
     2
 67
     7
 79
     5
170
     0
171
     0
290
     0
174
     0
 93
        1
 44
0.0
173
     0
291
     1
 45
0.0
1001
ACAD
1000
AcDbSavedByObjectVersion
1070
     0
  0
VISUALSTYLE
  5
33
102
{ACAD_REACTORS
330
2A
102
}
330
2A
100
AcDbVisualStyle
  2
Realistic
 70
     8
 71
     2
 72
     2
 73
     0
 90
        0
 40
-0.6
 41
-30.0
 62
     5
 63
     7
 74
     1
 91
        0
 64
     7
 65
   257
 75
     1
175
     1
 42
1.0
 92
        8
 66
     8
 43
1.0
 76
     1
 77
     6
 78
     2
 67
     7
 79
     5
170
     0
171
     0
290
     0
174
     0
 93
       13
 44
0.0
173
     0
291
     0
 45
0.0
1001
ACAD
1000
AcDbSavedByObjectVersion
1070
     0
  0
VISUALSTYLE
  5
37
102
{ACAD_REACTORS
330
2A
102
}
330
2A
100
AcDbVisualStyle
  2
Thicken
 70
    13
 71
     2
 72
     2
 73
     0
 90
        0
 40
-0.6
 41
-30.0
 62
     5
 63
     7
 74
     1
 91
        4
 64
     7
 65
   257
 75
     1
175
     1
 42
1.0
 92
       12
 66
     7
 43
1.0
 76
     1
 77
     6
 78
     2
 67
     7
 79
     5
170
     0
171
     0
290
     0
174
     0
 93
        1
 44
0.0
173
     0
291
     1
 45
0.0
1001
ACAD
1000
AcDbSavedByObjectVersion
1070
     0
  0
DICTIONARYVAR
  5
107
102
{ACAD_REACTORS
330
104
102
}
330
104
100
DictionaryVariables
280
     0
  1
1:1
  0
ENDSEC
  0
EOF
