  0
SECTION
  2
HEADER
  9
$ACADVER
  1
AC1015
  9
$ACADMAINTVER
 70
     6
  9
$DWGCODEPAGE
  3
ANSI_1252
  9
$INSBASE
 10
0.0
 20
0.0
 30
0.0
  9
$EXTMIN
 10
29.2535450165585
 20
251.9662960717674
 30
0.0
  9
$EXTMAX
 10
309.170208684023
 20
375.487973459505
 30
0.0
  9
$LIMMIN
 10
0.0
 20
0.0
  9
$LIMMAX
 10
12.0
 20
9.0
  9
$ORTHOMODE
 70
     0
  9
$REGENMODE
 70
     1
  9
$FILLMODE
 70
     1
  9
$QTEXTMODE
 70
     0
  9
$MIRRTEXT
 70
     1
  9
$LTSCALE
 40
1.0
  9
$ATTMODE
 70
     1
  9
$TEXTSIZE
 40
0.2
  9
$TRACEWID
 40
0.05
  9
$TEXTSTYLE
  7
Standard
  9
$CLAYER
  8
0
  9
$CELTYPE
  6
ByLayer
  9
$CECOLOR
 62
   256
  9
$CELTSCALE
 40
1.0
  9
$DISPSILH
 70
     0
  9
$DIMSCALE
 40
1.0
  9
$DIMASZ
 40
0.18
  9
$DIMEXO
 40
0.0625
  9
$DIMDLI
 40
0.38
  9
$DIMRND
 40
0.0
  9
$DIMDLE
 40
0.0
  9
$DIMEXE
 40
0.18
  9
$DIMTP
 40
0.0
  9
$DIMTM
 40
0.0
  9
$DIMTXT
 40
0.18
  9
$DIMCEN
 40
0.09
  9
$DIMTSZ
 40
0.0
  9
$DIMTOL
 70
     0
  9
$DIMLIM
 70
     0
  9
$DIMTIH
 70
     1
  9
$DIMTOH
 70
     1
  9
$DIMSE1
 70
     0
  9
$DIMSE2
 70
     0
  9
$DIMTAD
 70
     0
  9
$DIMZIN
 70
     0
  9
$DIMBLK
  1

  9
$DIMASO
 70
     1
  9
$DIMSHO
 70
     1
  9
$DIMPOST
  1

  9
$DIMAPOST
  1

  9
$DIMALT
 70
     0
  9
$DIMALTD
 70
     2
  9
$DIMALTF
 40
25.4
  9
$DIMLFAC
 40
1.0
  9
$DIMTOFL
 70
     0
  9
$DIMTVP
 40
0.0
  9
$DIMTIX
 70
     0
  9
$DIMSOXD
 70
     0
  9
$DIMSAH
 70
     0
  9
$DIMBLK1
  1

  9
$DIMBLK2
  1

  9
$DIMSTYLE
  2
Standard
  9
$DIMCLRD
 70
     0
  9
$DIMCLRE
 70
     0
  9
$DIMCLRT
 70
     0
  9
$DIMTFAC
 40
1.0
  9
$DIMGAP
 40
0.09
  9
$DIMJUST
 70
     0
  9
$DIMSD1
 70
     0
  9
$DIMSD2
 70
     0
  9
$DIMTOLJ
 70
     1
  9
$DIMTZIN
 70
     0
  9
$DIMALTZ
 70
     0
  9
$DIMALTTZ
 70
     0
  9
$DIMUPT
 70
     0
  9
$DIMDEC
 70
     4
  9
$DIMTDEC
 70
     4
  9
$DIMALTU
 70
     2
  9
$DIMALTTD
 70
     2
  9
$DIMTXSTY
  7
Standard
  9
$DIMAUNIT
 70
     0
  9
$DIMADEC
 70
     0
  9
$DIMALTRND
 40
0.0
  9
$DIMAZIN
 70
     0
  9
$DIMDSEP
 70
    46
  9
$DIMATFIT
 70
     3
  9
$DIMFRAC
 70
     0
  9
$DIMLDRBLK
  1

  9
$DIMLUNIT
 70
     2
  9
$DIMLWD
 70
    -2
  9
$DIMLWE
 70
    -2
  9
$DIMTMOVE
 70
     0
  9
$LUNITS
 70
     2
  9
$LUPREC
 70
     4
  9
$SKETCHINC
 40
0.1
  9
$FILLETRAD
 40
0.5
  9
$AUNITS
 70
     0
  9
$AUPREC
 70
     0
  9
$MENU
  1
.
  9
$ELEVATION
 40
0.0
  9
$PELEVATION
 40
0.0
  9
$THICKNESS
 40
0.0
  9
$LIMCHECK
 70
     0
  9
$CHAMFERA
 40
0.5
  9
$CHAMFERB
 40
0.5
  9
$CHAMFERC
 40
1.0
  9
$CHAMFERD
 40
0.0
  9
$SKPOLY
 70
     0
  9
$TDCREATE
 40
2456821.370346887
  9
$TDUCREATE
 40
2456821.287013553
  9
$TDUPDATE
 40
2456821.370346898
  9
$TDUUPDATE
 40
2456821.287013565
  9
$TDINDWG
 40
0.0000000116
  9
$TDUSRTIMER
 40
0.0000000116
  9
$USRTIMER
 70
     1
  9
$ANGBASE
 50
0.0
  9
$ANGDIR
 70
     0
  9
$PDMODE
 70
     0
  9
$PDSIZE
 40
0.0
  9
$PLINEWID
 40
0.0
  9
$SPLFRAME
 70
     0
  9
$SPLINETYPE
 70
     6
  9
$SPLINESEGS
 70
     8
  9
$HANDSEED
  5
109
  9
$SURFTAB1
 70
     6
  9
$SURFTAB2
 70
     6
  9
$SURFTYPE
 70
     6
  9
$SURFU
 70
     6
  9
$SURFV
 70
     6
  9
$UCSBASE
  2

  9
$UCSNAME
  2

  9
$UCSORG
 10
0.0
 20
0.0
 30
0.0
  9
$UCSXDIR
 10
1.0
 20
0.0
 30
0.0
  9
$UCSYDIR
 10
0.0
 20
1.0
 30
0.0
  9
$UCSORTHOREF
  2

  9
$UCSORTHOVIEW
 70
     0
  9
$UCSORGTOP
 10
0.0
 20
0.0
 30
0.0
  9
$UCSORGBOTTOM
 10
0.0
 20
0.0
 30
0.0
  9
$UCSORGLEFT
 10
0.0
 20
0.0
 30
0.0
  9
$UCSORGRIGHT
 10
0.0
 20
0.0
 30
0.0
  9
$UCSORGFRONT
 10
0.0
 20
0.0
 30
0.0
  9
$UCSORGBACK
 10
0.0
 20
0.0
 30
0.0
  9
$PUCSBASE
  2

  9
$PUCSNAME
  2

  9
$PUCSORG
 10
0.0
 20
0.0
 30
0.0
  9
$PUCSXDIR
 10
1.0
 20
0.0
 30
0.0
  9
$PUCSYDIR
 10
0.0
 20
1.0
 30
0.0
  9
$PUCSORTHOREF
  2

  9
$PUCSORTHOVIEW
 70
     0
  9
$PUCSORGTOP
 10
0.0
 20
0.0
 30
0.0
  9
$PUCSORGBOTTOM
 10
0.0
 20
0.0
 30
0.0
  9
$PUCSORGLEFT
 10
0.0
 20
0.0
 30
0.0
  9
$PUCSORGRIGHT
 10
0.0
 20
0.0
 30
0.0
  9
$PUCSORGFRONT
 10
0.0
 20
0.0
 30
0.0
  9
$PUCSORGBACK
 10
0.0
 20
0.0
 30
0.0
  9
$USERI1
 70
     0
  9
$USERI2
 70
     0
  9
$USERI3
 70
     0
  9
$USERI4
 70
     0
  9
$USERI5
 70
     0
  9
$USERR1
 40
16.5
  9
$USERR2
 40
0.0
  9
$USERR3
 40
0.0
  9
$USERR4
 40
0.0
  9
$USERR5
 40
0.0
  9
$WORLDVIEW
 70
     1
  9
$SHADEDGE
 70
     3
  9
$SHADEDIF
 70
    70
  9
$TILEMODE
 70
     1
  9
$MAXACTVP
 70
    64
  9
$PINSBASE
 10
0.0
 20
0.0
 30
0.0
  9
$PLIMCHECK
 70
     0
  9
$PEXTMIN
 10
1.00000000000000E+20
 20
1.00000000000000E+20
 30
1.00000000000000E+20
  9
$PEXTMAX
 10
-1.00000000000000E+20
 20
-1.00000000000000E+20
 30
-1.00000000000000E+20
  9
$PLIMMIN
 10
0.0
 20
0.0
  9
$PLIMMAX
 10
12.0
 20
9.0
  9
$UNITMODE
 70
     0
  9
$VISRETAIN
 70
     1
  9
$PLINEGEN
 70
     0
  9
$PSLTSCALE
 70
     1
  9
$TREEDEPTH
 70
  3020
  9
$CMLSTYLE
  2
Standard
  9
$CMLJUST
 70
     0
  9
$CMLSCALE
 40
1.0
  9
$PROXYGRAPHICS
 70
     1
  9
$MEASUREMENT
 70
     1
  9
$CELWEIGHT
370
    -1
  9
$ENDCAPS
280
     0
  9
$JOINSTYLE
280
     0
  9
$LWDISPLAY
290
     0
  9
$INSUNITS
 70
     1
  9
$HYPERLINKBASE
  1

  9
$STYLESHEET
  1

  9
$XEDIT
290
     1
  9
$CEPSNTYPE
380
     0
  9
$PSTYLEMODE
290
     1
  9
$FINGERPRINTGUID
  2
{768D3147-919C-4C0C-873A-CA6CAB6C647B}
  9
$VERSIONGUID
  2
{FAEB1C32-E019-11D5-929B-00C0DF256EC4}
  9
$EXTNAMES
290
     1
  9
$PSVPSCALE
 40
0.0
  9
$OLESTARTUP
290
     0
  0
ENDSEC
  0
SECTION
  2
CLASSES
  0
CLASS
  1
ACDBDICTIONARYWDFLT
  2
AcDbDictionaryWithDefault
  3
ObjectDBX Classes
 90
        0
280
     0
281
     0
  0
CLASS
  1
VISUALSTYLE
  2
AcDbVisualStyle
  3
ObjectDBX Classes
 90
     4095
280
     0
281
     0
  0
CLASS
  1
SCALE
  2
AcDbScale
  3
ObjectDBX Classes
 90
     1153
280
     0
281
     0
  0
CLASS
  1

  2
exOdDbPolyline
  3

 90
        0
280
     0
281
     1
  0
CLASS
  1

  2
exOdDbSpline
  3

 90
        0
280
     0
281
     1
  0
CLASS
  1
DICTIONARYVAR
  2
AcDbDictionaryVar
  3
ObjectDBX Classes
 90
        0
280
     0
281
     0
  0
CLASS
  1
ACDBPLACEHOLDER
  2
AcDbPlaceHolder
  3
ObjectDBX Classes
 90
        0
280
     0
281
     0
  0
CLASS
  1
LAYOUT
  2
AcDbLayout
  3
ObjectDBX Classes
 90
        0
280
     0
281
     0
  0
ENDSEC
  0
SECTION
  2
TABLES
  0
TABLE
  2
VPORT
  5
8
330
0
100
AcDbSymbolTable
 70
     1
  0
VPORT
  5
29
330
8
100
AcDbSymbolTableRecord
100
AcDbViewportTableRecord
  2
*Active
 70
     0
 10
0.0
 20
0.0
 11
1.0
 21
1.0
 12
169.2118768502908
 22
313.7271347656362
 13
0.0
 23
0.0
 14
0.5
 24
0.5
 15
0.5
 25
0.5
 16
0.0
 26
0.0
 36
1.0
 17
0.0
 27
0.0
 37
0.0
 40
192.1210750074186
 41
1.60267857142857
 42
50.0
 43
0.0
 44
0.0
 50
0.0
 51
0.0
 71
     0
 72
   100
 73
     1
 74
     3
 75
     0
 76
     0
 77
     0
 78
     0
281
     0
 65
     1
110
0.0
120
0.0
130
0.0
111
1.0
121
0.0
131
0.0
112
0.0
122
1.0
132
0.0
 79
     0
146
0.0
  0
ENDTAB
  0
TABLE
  2
LTYPE
  5
5
330
0
100
AcDbSymbolTable
 70
     8
  0
LTYPE
  5
14
330
5
100
AcDbSymbolTableRecord
100
AcDbLinetypeTableRecord
  2
ByBlock
 70
     0
  3

 72
    65
 73
     0
 40
0.0
  0
LTYPE
  5
15
330
5
100
AcDbSymbolTableRecord
100
AcDbLinetypeTableRecord
  2
ByLayer
 70
     0
  3

 72
    65
 73
     0
 40
0.0
  0
LTYPE
  5
16
330
5
100
AcDbSymbolTableRecord
100
AcDbLinetypeTableRecord
  2
Continuous
 70
     0
  3
Solid line
 72
    65
 73
     0
 40
0.0
  0
LTYPE
  5
3B
330
5
100
AcDbSymbolTableRecord
100
AcDbLinetypeTableRecord
  2
DASHED
 70
     0
  3
Dashed
 72
    65
 73
     2
 40
15.0
 49
7.0
 74
     0
 49
-8.0
 74
     0
  0
LTYPE
  5
3C
330
5
100
AcDbSymbolTableRecord
100
AcDbLinetypeTableRecord
  2
DOTTED
 70
     0
  3
Dotted
 72
    65
 73
     2
 40
1.0
 49
0.0
 74
     0
 49
-1.0
 74
     0
  0
LTYPE
  5
3D
330
5
100
AcDbSymbolTableRecord
100
AcDbLinetypeTableRecord
  2
DOT_CENTER
 70
     0
  3
Dot_Center
 72
    65
 73
     4
 40
14.0
 49
12.0
 74
     0
 49
-1.0
 74
     0
 49
0.0
 74
     0
 49
-1.0
 74
     0
  0
LTYPE
  5
3E
330
5
100
AcDbSymbolTableRecord
100
AcDbLinetypeTableRecord
  2
LONG_DASHED
 70
     0
  3
Long_Dashed
 72
    65
 73
     2
 40
15.0
 49
10.0
 74
     0
 49
-5.0
 74
     0
  0
LTYPE
  5
3F
330
5
100
AcDbSymbolTableRecord
100
AcDbLinetypeTableRecord
  2
DASH_CENTER
 70
     0
  3
Dash_Center
 72
    65
 73
     4
 40
14.0
 49
11.0
 74
     0
 49
-1.0
 74
     0
 49
1.0
 74
     0
 49
-1.0
 74
     0
  0
LTYPE
  5
40
330
5
100
AcDbSymbolTableRecord
100
AcDbLinetypeTableRecord
  2
PHANTOM
 70
     0
  3
Phantom
 72
    65
 73
     6
 40
13.0
 49
10.0
 74
     0
 49
-1.0
 74
     0
 49
0.0
 74
     0
 49
-1.0
 74
     0
 49
0.0
 74
     0
 49
-1.0
 74
     0
  0
LTYPE
  5
41
330
5
100
AcDbSymbolTableRecord
100
AcDbLinetypeTableRecord
  2
CENTER_DASH_DASH
 70
     0
  3
Center_Dash_Dash
 72
    65
 73
     6
 40
14.0
 49
9.0
 74
     0
 49
-1.0
 74
     0
 49
1.0
 74
     0
 49
-1.0
 74
     0
 49
1.0
 74
     0
 49
-1.0
 74
     0
  0
ENDTAB
  0
TABLE
  2
LAYER
  5
2
330
0
100
AcDbSymbolTable
 70
     6
  0
LAYER
  5
10
330
2
100
AcDbSymbolTableRecord
100
AcDbLayerTableRecord
  2
0
 70
     0
 62
     7
  6
Continuous
370
    -3
390
F
  0
LAYER
  5
42
330
2
100
AcDbSymbolTableRecord
100
AcDbLayerTableRecord
  2
1
 70
     0
 62
     7
  6
Continuous
370
    -3
390
F
  0
LAYER
  5
43
330
2
100
AcDbSymbolTableRecord
100
AcDbLayerTableRecord
  2
BEZUGSACHSEN
 70
     0
 62
     7
  6
Continuous
370
    -3
390
F
  0
LAYER
  5
44
330
2
100
AcDbSymbolTableRecord
100
AcDbLayerTableRecord
  2
DEFAULT_2
 70
     0
 62
     7
  6
Continuous
370
    -3
390
F
  0
LAYER
  5
45
330
2
100
AcDbSymbolTableRecord
100
AcDbLayerTableRecord
  2
RUNDUNGEN
 70
     0
 62
     7
  6
Continuous
370
    -3
390
F
  0
LAYER
  5
46
330
2
100
AcDbSymbolTableRecord
100
AcDbLayerTableRecord
  2
TEIL_STARTBEZUEGE
 70
     0
 62
     7
  6
Continuous
370
    -3
390
F
  0
ENDTAB
  0
TABLE
  2
STYLE
  5
3
330
0
100
AcDbSymbolTable
 70
     2
  0
STYLE
  5
11
330
3
100
AcDbSymbolTableRecord
100
AcDbTextStyleTableRecord
  2
Standard
 70
     0
 40
0.0
 41
1.0
 50
0.0
 71
     0
 42
0.2
  3
txt
  4

  0
STYLE
  5
6D
330
3
100
AcDbSymbolTableRecord
100
AcDbTextStyleTableRecord
  2
CONVERTER_11
 70
     0
 40
0.0
 41
0.72
 50
0.0
 71
     0
 42
0.2
  3
txt.shx
  4

  0
ENDTAB
  0
TABLE
  2
VIEW
  5
6
330
0
100
AcDbSymbolTable
 70
     0
  0
ENDTAB
  0
TABLE
  2
UCS
  5
7
330
0
100
AcDbSymbolTable
 70
     0
  0
ENDTAB
  0
TABLE
  2
APPID
  5
9
330
0
100
AcDbSymbolTable
 70
     1
  0
APPID
  5
12
330
9
100
AcDbSymbolTableRecord
100
AcDbRegAppTableRecord
  2
ACAD
 70
     0
  0
ENDTAB
  0
TABLE
  2
DIMSTYLE
  5
A
330
0
100
AcDbSymbolTable
 70
     6
100
AcDbDimStyleTable
  0
DIMSTYLE
105
27
330
A
100
AcDbSymbolTableRecord
100
AcDbDimStyleTableRecord
  2
Standard
 70
     0
340
11
  0
DIMSTYLE
105
D0
102
{ACAD_REACTORS
330
D1
102
}
330
A
100
AcDbSymbolTableRecord
100
AcDbDimStyleTableRecord
  2
ME10_DIM_10
 70
     0
  3
\U+2300<>
 41
3.5
 42
2.0
 44
2.0
 71
     1
 73
     0
 74
     0
 77
     1
 78
     8
140
3.5
146
0.7
147
2.0
172
     1
173
     1
176
     2
177
     2
178
     3
271
     2
272
     0
340
6D
  0
DIMSTYLE
105
DB
102
{ACAD_REACTORS
330
DC
102
}
330
A
100
AcDbSymbolTableRecord
100
AcDbDimStyleTableRecord
  2
ME10_DIM_11
 70
     0
  3
\U+2300<>
 41
3.5
 42
2.0
 44
2.0
 71
     1
 73
     0
 74
     0
 77
     1
 78
     8
140
3.5
146
0.7
147
2.0
172
     1
173
     1
176
     2
177
     2
178
     3
271
     2
272
     0
340
6D
  0
DIMSTYLE
105
E6
102
{ACAD_REACTORS
330
E7
102
}
330
A
100
AcDbSymbolTableRecord
100
AcDbDimStyleTableRecord
  2
ME10_DIM_12
 70
     0
  3
<>
 41
3.5
 42
2.0
 44
2.0
 71
     1
 73
     0
 74
     0
 77
     1
 78
     8
140
3.5
146
0.7
147
2.0
172
     1
173
     1
176
     2
177
     2
178
     3
271
     2
272
     0
340
6D
  0
DIMSTYLE
105
F1
102
{ACAD_REACTORS
330
F2
102
}
330
A
100
AcDbSymbolTableRecord
100
AcDbDimStyleTableRecord
  2
ME10_DIM_13
 70
     0
  3
<>
 41
3.5
 42
2.0
 44
2.0
 71
     1
 73
     0
 74
     0
 77
     1
 78
     8
140
3.5
146
0.7
147
2.0
172
     1
173
     1
176
     2
177
     2
178
     3
271
     2
272
     0
340
6D
  0
DIMSTYLE
105
FC
102
{ACAD_REACTORS
330
FD
102
}
330
A
100
AcDbSymbolTableRecord
100
AcDbDimStyleTableRecord
  2
ME10_DIM_14
 70
     0
  3
<>
 41
3.5
 42
2.0
 44
2.0
 71
     1
 73
     0
 74
     0
 77
     1
 78
     8
140
3.5
146
0.7
147
2.0
172
     1
173
     1
176
     2
177
     2
178
     3
271
     2
272
     0
340
6D
  0
ENDTAB
  0
TABLE
  2
BLOCK_RECORD
  5
1
330
0
100
AcDbSymbolTable
 70
     8
  0
BLOCK_RECORD
  5
1F
330
1
100
AcDbSymbolTableRecord
100
AcDbBlockTableRecord
  2
*Model_Space
340
22
  0
BLOCK_RECORD
  5
1B
330
1
100
AcDbSymbolTableRecord
100
AcDbBlockTableRecord
  2
*Paper_Space
340
1E
  0
BLOCK_RECORD
  5
23
330
1
100
AcDbSymbolTableRecord
100
AcDbBlockTableRecord
  2
*Paper_Space0
340
26
  0
BLOCK_RECORD
  5
47
330
1
100
AcDbSymbolTableRecord
100
AcDbBlockTableRecord
  2
Urheberrecht_DE-EN
340
0
102
{BLKREFS
331
6C
102
}
  0
BLOCK_RECORD
  5
C7
330
1
100
AcDbSymbolTableRecord
100
AcDbBlockTableRecord
  2
*D2
340
0
  0
BLOCK_RECORD
  5
D2
330
1
100
AcDbSymbolTableRecord
100
AcDbBlockTableRecord
  2
*D3
340
0
  0
BLOCK_RECORD
  5
DD
330
1
100
AcDbSymbolTableRecord
100
AcDbBlockTableRecord
  2
*D4
340
0
  0
BLOCK_RECORD
  5
E8
330
1
100
AcDbSymbolTableRecord
100
AcDbBlockTableRecord
  2
*D5
340
0
  0
BLOCK_RECORD
  5
F3
330
1
100
AcDbSymbolTableRecord
100
AcDbBlockTableRecord
  2
*D6
340
0
  0
BLOCK_RECORD
  5
FE
330
1
100
AcDbSymbolTableRecord
100
AcDbBlockTableRecord
  2
*D7
340
0
102
{BLKREFS
331
104
102
}
  0
ENDTAB
  0
ENDSEC
  0
SECTION
  2
BLOCKS
  0
BLOCK
  5
20
330
1F
100
AcDbEntity
  8
0
100
AcDbBlockBegin
  2
*Model_Space
 70
     0
 10
0.0
 20
0.0
 30
0.0
  3
*Model_Space
  1

  0
ENDBLK
  5
21
330
1F
100
AcDbEntity
  8
0
100
AcDbBlockEnd
  0
BLOCK
  5
1C
330
1B
100
AcDbEntity
 67
     1
  8
0
100
AcDbBlockBegin
  2
*Paper_Space
 70
     0
 10
0.0
 20
0.0
 30
0.0
  3
*Paper_Space
  1

  0
ENDBLK
  5
1D
330
1B
100
AcDbEntity
 67
     1
  8
0
100
AcDbBlockEnd
  0
BLOCK
  5
24
330
23
100
AcDbEntity
  8
0
100
AcDbBlockBegin
  2
*Paper_Space0
 70
     0
 10
0.0
 20
0.0
 30
0.0
  3
*Paper_Space0
  1

  0
ENDBLK
  5
25
330
23
100
AcDbEntity
  8
0
100
AcDbBlockEnd
  0
BLOCK
  5
48
330
47
100
AcDbEntity
  8
0
100
AcDbBlockBegin
  2
Urheberrecht_DE-EN
 70
     0
 10
43.2535450165585
 20
315.920815945146
 30
0.0
  3
Urheberrecht_DE-EN
  1

  0
MTEXT
  5
6E
330
47
100
AcDbEntity
  8
1
 62
     1
100
AcDbMText
 10
43.2535450165585
 20
315.920815945146
 30
0.0
 40
2.0
 41
0.0
 71
     7
 72
     1
  1
We own the copyright of this document. It \Pdetermined and may neither be copied or \Pmade accessible to outsiders without our\Ppermission.
  7
CONVERTER_11
 11
0.0
 21
1.0
 31
0.0
 73
     1
 44
0.90036014405762
  0
MTEXT
  5
6F
330
47
100
AcDbEntity
  8
1
 62
     1
100
AcDbMText
 10
43.2535450165585
 20
259.6314290278398
 30
0.0
 40
2.0
 41
0.0
 71
     7
 72
     1
  1
F\U+00fcr diese Unterlage behalten wir das Ur-\Pheberrecht. Sie darf nur f\U+00fcr den von uns \Pbestimmten Zweck benutzt und ohne unsere \PZustimmung weder vervielf\U+00e4ltigt noch\PDritten zug\U+00e4nglich gemacht werden.
  7
CONVERTER_11
 11
0.0
 21
1.0
 31
0.0
 73
     1
 44
0.90036014405762
  0
ENDBLK
  5
49
330
47
100
AcDbEntity
  8
0
100
AcDbBlockEnd
  0
BLOCK
  5
CE
330
C7
100
AcDbEntity
  8
0
100
AcDbBlockBegin
  2
*D2
 70
     1
 10
0.0
 20
0.0
 30
0.0
  3
*D2
  1

  0
LINE
  5
C8
330
C7
100
AcDbEntity
  8
1
  6
Continuous
 62
     2
100
AcDbLine
 10
298.667065217373
 20
314.9792612207
 30
0.0
 11
298.667065217373
 21
282.9792612207
 31
0.0
  0
LINE
  5
C9
330
C7
100
AcDbEntity
  8
1
  6
Continuous
 62
     2
100
AcDbLine
 10
287.0308341996
 20
314.9792612207
 30
0.0
 11
300.667065217373
 21
314.9792612207
 31
0.0
  0
LINE
  5
CA
330
C7
100
AcDbEntity
  8
1
  6
Continuous
 62
     2
100
AcDbLine
 10
287.0308341996
 20
282.9792612207
 30
0.0
 11
300.667065217373
 21
282.9792612207
 31
0.0
  0
SOLID
  5
CB
330
C7
100
AcDbEntity
  8
1
 62
     2
100
AcDbTrace
 10
299.1278489589289
 20
311.4792612207
 30
0.0
 11
298.2062814758171
 21
311.4792612207
 31
0.0
 12
298.667065217373
 22
314.9792612207
 32
0.0
 13
298.667065217373
 23
314.9792612207
 33
0.0
  0
SOLID
  5
CC
330
C7
100
AcDbEntity
  8
1
 62
     2
100
AcDbTrace
 10
298.2062814758171
 20
286.4792612207
 30
0.0
 11
299.1278489589289
 21
286.4792612207
 31
0.0
 12
298.667065217373
 22
282.9792612207
 32
0.0
 13
298.667065217373
 23
282.9792612207
 33
0.0
  0
MTEXT
  5
CD
330
C7
100
AcDbEntity
  8
1
 62
     3
100
AcDbMText
 10
296.667065217373
 20
289.417782335118
 30
0.0
 40
3.5
 41
0.0
 71
     7
 72
     1
  1
\C3;%%c\C3;\C3;32\C2;\H2.45;\S^ ;\C3;
  7
CONVERTER_11
 11
0.0
 21
1.0
 31
0.0
 73
     1
 44
0.60024009603842
  0
ENDBLK
  5
CF
330
C7
100
AcDbEntity
  8
0
100
AcDbBlockEnd
  0
BLOCK
  5
D9
330
D2
100
AcDbEntity
  8
0
100
AcDbBlockBegin
  2
*D3
 70
     1
 10
0.0
 20
0.0
 30
0.0
  3
*D3
  1

  0
LINE
  5
D3
330
D2
100
AcDbEntity
  8
1
  6
Continuous
 62
     2
100
AcDbLine
 10
307.170208684023
 20
334.9792612207
 30
0.0
 11
307.170208684023
 21
262.9792612207
 31
0.0
  0
LINE
  5
D4
330
D2
100
AcDbEntity
  8
1
  6
Continuous
 62
     2
100
AcDbLine
 10
274.7628850072
 20
334.9792612207
 30
0.0
 11
309.170208684023
 21
334.9792612207
 31
0.0
  0
LINE
  5
D5
330
D2
100
AcDbEntity
  8
1
  6
Continuous
 62
     2
100
AcDbLine
 10
274.7628850072
 20
262.9792612207
 30
0.0
 11
309.170208684023
 21
262.9792612207
 31
0.0
  0
SOLID
  5
D6
330
D2
100
AcDbEntity
  8
1
 62
     2
100
AcDbTrace
 10
307.6309924255789
 20
331.4792612207
 30
0.0
 11
306.7094249424671
 21
331.4792612207
 31
0.0
 12
307.170208684023
 22
334.9792612207
 32
0.0
 13
307.170208684023
 23
334.9792612207
 33
0.0
  0
SOLID
  5
D7
330
D2
100
AcDbEntity
  8
1
 62
     2
100
AcDbTrace
 10
306.7094249424671
 20
266.4792612207
 30
0.0
 11
307.6309924255789
 21
266.4792612207
 31
0.0
 12
307.170208684023
 22
262.9792612207
 32
0.0
 13
307.170208684023
 23
262.9792612207
 33
0.0
  0
MTEXT
  5
D8
330
D2
100
AcDbEntity
  8
1
 62
     3
100
AcDbMText
 10
305.170208684023
 20
290.059529011846
 30
0.0
 40
3.5
 41
0.0
 71
     7
 72
     1
  1
\C3;%%c\C3;\C3;72\C2;\H2.45;\S^ ;\C3;
  7
CONVERTER_11
 11
0.0
 21
1.0
 31
0.0
 73
     1
 44
0.60024009603842
  0
ENDBLK
  5
DA
330
D2
100
AcDbEntity
  8
0
100
AcDbBlockEnd
  0
BLOCK
  5
E4
330
DD
100
AcDbEntity
  8
0
100
AcDbBlockBegin
  2
*D4
 70
     1
 10
0.0
 20
0.0
 30
0.0
  3
*D4
  1

  0
LINE
  5
DE
330
DD
100
AcDbEntity
  8
1
  6
Continuous
 62
     2
100
AcDbLine
 10
285.0308341996
 20
353.783869872116
 30
0.0
 11
174.1308341996
 21
353.783869872116
 31
0.0
  0
LINE
  5
DF
330
DD
100
AcDbEntity
  8
1
  6
Continuous
 62
     2
100
AcDbLine
 10
285.0308341996
 20
329.4737077213
 30
0.0
 11
285.0308341996
 21
355.783869872116
 31
0.0
  0
LINE
  5
E0
330
DD
100
AcDbEntity
  8
1
  6
Continuous
 62
     2
100
AcDbLine
 10
174.1308341996
 20
346.9407549546
 30
0.0
 11
174.1308341996
 21
355.783869872116
 31
0.0
  0
SOLID
  5
E1
330
DD
100
AcDbEntity
  8
1
 62
     2
100
AcDbTrace
 10
281.5308341996
 20
353.3230861305601
 30
0.0
 11
281.5308341996
 21
354.2446536136719
 31
0.0
 12
285.0308341996
 22
353.783869872116
 32
0.0
 13
285.0308341996
 23
353.783869872116
 33
0.0
  0
SOLID
  5
E2
330
DD
100
AcDbEntity
  8
1
 62
     2
100
AcDbTrace
 10
177.6308341996
 20
354.2446536136719
 30
0.0
 11
177.6308341996
 21
353.3230861305601
 31
0.0
 12
174.1308341996
 22
353.783869872116
 32
0.0
 13
174.1308341996
 23
353.783869872116
 33
0.0
  0
MTEXT
  5
E3
330
DD
100
AcDbEntity
  8
1
 62
     3
100
AcDbMText
 10
226.2853951381776
 20
355.783869872116
 30
0.0
 40
3.5
 41
0.0
 71
     7
 72
     1
  1
\C3;\C3;\C3;110.9\C2;\H2.45;\S^ ;\C3;
  7
CONVERTER_11
 11
0.9999999999970619
 21
2.424068405545306E-6
 31
0.0
 73
     1
 44
0.60024009603842
  0
ENDBLK
  5
E5
330
DD
100
AcDbEntity
  8
0
100
AcDbBlockEnd
  0
BLOCK
  5
EF
330
E8
100
AcDbEntity
  8
0
100
AcDbBlockBegin
  2
*D5
 70
     1
 10
0.0
 20
0.0
 30
0.0
  3
*D5
  1

  0
LINE
  5
E9
330
E8
100
AcDbEntity
  8
1
  6
Continuous
 62
     2
100
AcDbLine
 10
285.0308341996
 20
361.805703331219
 30
0.0
 11
155.0308341996
 21
361.805703331219
 31
0.0
  0
LINE
  5
EA
330
E8
100
AcDbEntity
  8
1
  6
Continuous
 62
     2
100
AcDbLine
 10
285.0308341996
 20
329.4737077213
 30
0.0
 11
285.0308341996
 21
363.805703331219
 31
0.0
  0
LINE
  5
EB
330
E8
100
AcDbEntity
  8
1
  6
Continuous
 62
     2
100
AcDbLine
 10
155.0308341996
 20
342.0167612207
 30
0.0
 11
155.0308341996
 21
363.805703331219
 31
0.0
  0
SOLID
  5
EC
330
E8
100
AcDbEntity
  8
1
 62
     2
100
AcDbTrace
 10
281.5308341996
 20
361.3449195896631
 30
0.0
 11
281.5308341996
 21
362.2664870727749
 31
0.0
 12
285.0308341996
 22
361.805703331219
 32
0.0
 13
285.0308341996
 23
361.805703331219
 33
0.0
  0
SOLID
  5
ED
330
E8
100
AcDbEntity
  8
1
 62
     2
100
AcDbTrace
 10
158.5308341996
 20
362.2664870727749
 30
0.0
 11
158.5308341996
 21
361.3449195896631
 31
0.0
 12
155.0308341996
 22
361.805703331219
 32
0.0
 13
155.0308341996
 23
361.805703331219
 33
0.0
  0
MTEXT
  5
EE
330
E8
100
AcDbEntity
  8
1
 62
     3
100
AcDbMText
 10
216.8080018879004
 20
363.805703331219
 30
0.0
 40
3.5
 41
0.0
 71
     7
 72
     1
  1
\C3;\C3;\C3;130\C2;\H2.45;\S^ ;\C3;
  7
CONVERTER_11
 11
0.9999999999970619
 21
2.424068405545306E-6
 31
0.0
 73
     1
 44
0.60024009603842
  0
ENDBLK
  5
F0
330
E8
100
AcDbEntity
  8
0
100
AcDbBlockEnd
  0
BLOCK
  5
FA
330
F3
100
AcDbEntity
  8
0
100
AcDbBlockBegin
  2
*D6
 70
     1
 10
0.0
 20
0.0
 30
0.0
  3
*D6
  1

  0
LINE
  5
F4
330
F3
100
AcDbEntity
  8
1
  6
Continuous
 62
     2
100
AcDbLine
 10
285.0308341996001
 20
369.987973459505
 30
0.0
 11
53.28083419959998
 21
369.987973459505
 31
0.0
  0
LINE
  5
F5
330
F3
100
AcDbEntity
  8
1
  6
Continuous
 62
     2
100
AcDbLine
 10
285.0308341996001
 20
329.4737077213
 30
0.0
 11
285.0308341996001
 21
371.987973459505
 31
0.0
  0
LINE
  5
F6
330
F3
100
AcDbEntity
  8
1
  6
Continuous
 62
     2
100
AcDbLine
 10
53.28083419959998
 20
319.1407082219
 30
0.0
 11
53.28083419959998
 21
371.987973459505
 31
0.0
  0
SOLID
  5
F7
330
F3
100
AcDbEntity
  8
1
 62
     2
100
AcDbTrace
 10
281.5308341996001
 20
369.5271897179491
 30
0.0
 11
281.5308341996001
 21
370.4487572010609
 31
0.0
 12
285.0308341996001
 22
369.987973459505
 32
0.0
 13
285.0308341996001
 23
369.987973459505
 33
0.0
  0
SOLID
  5
F8
330
F3
100
AcDbEntity
  8
1
 62
     2
100
AcDbTrace
 10
56.78083419959998
 20
370.4487572010609
 30
0.0
 11
56.78083419959998
 21
369.5271897179491
 31
0.0
 12
53.28083419959998
 22
369.987973459505
 32
0.0
 13
53.28083419959998
 23
369.987973459505
 33
0.0
  0
MTEXT
  5
F9
330
F3
100
AcDbEntity
  8
1
 62
     3
100
AcDbMText
 10
188.7438482902501
 20
371.987973459505
 30
0.0
 40
3.5
 41
0.0
 71
     7
 72
     1
  1
\C3;\C3;\C3;231.75\C2;\H2.45;\S^ ;\C3;
  7
CONVERTER_11
 11
0.9999999999970619
 21
2.424068405545306E-6
 31
0.0
 73
     1
 44
0.60024009603842
  0
ENDBLK
  5
FB
330
F3
100
AcDbEntity
  8
0
100
AcDbBlockEnd
  0
BLOCK
  5
102
330
FE
100
AcDbEntity
  8
0
100
AcDbBlockBegin
  2
*D7
 70
     1
 10
0.0
 20
0.0
 30
0.0
  3
*D7
  1

  0
LINE
  5
FF
330
FE
100
AcDbEntity
  8
1
  6
Continuous
 62
     2
100
AcDbLine
 10
184.0441620344299
 20
341.2276114110473
 30
0.0
 11
174.2691204468845
 21
335.4718664942974
 31
0.0
  0
SOLID
  5
100
330
FE
100
AcDbEntity
  8
1
 62
     2
100
AcDbTrace
 10
177.0513193409112
 20
337.6448117238325
 30
0.0
 11
177.5189178218661
 21
336.8506843495798
 31
0.0
 12
174.2691204468845
 22
335.4718664942974
 32
0.0
 13
174.2691204468845
 23
335.4718664942974
 33
0.0
  0
MTEXT
  5
101
330
FE
100
AcDbEntity
  8
1
 62
     3
100
AcDbMText
 10
177.3592960887573
 20
339.6123816167499
 30
0.0
 40
3.5
 41
0.0
 71
     7
 72
     1
  1
\C3; R\C3;\C3;1\C2;\H2.45;\S^ ;\C3;
  7
CONVERTER_11
 11
0.8617137527154554
 21
0.5073947264024796
 31
0.0
 73
     1
 44
0.60024009603842
  0
ENDBLK
  5
103
330
FE
100
AcDbEntity
  8
0
100
AcDbBlockEnd
  0
ENDSEC
  0
SECTION
  2
ENTITIES
  0
INSERT
  5
6C
330
1F
100
AcDbEntity
  8
0
100
AcDbBlockReference
  2
Urheberrecht_DE-EN
 10
43.2535450165585
 20
315.920815945146
 30
0.0
  0
LINE
  5
70
330
1F
100
AcDbEntity
  8
0
  6
Continuous
 62
     7
100
AcDbLine
 10
53.28083419959997
 20
317.1407082219
 30
0.0
 11
53.28083419959997
 21
280.8178142196
 31
0.0
  0
LINE
  5
71
330
1F
100
AcDbEntity
  8
0
  6
Continuous
 62
     9
100
AcDbLine
 10
55.20611719399999
 20
319.3671535651001
 30
0.0
 11
55.20611719399998
 21
278.5913688763999
 31
0.0
  0
LINE
  5
72
330
1F
100
AcDbEntity
  8
0
  6
Continuous
 62
     7
100
AcDbLine
 10
159.2308341996
 20
251.979964351
 30
0.0
 11
162.9654558138
 21
251.979964351
 31
0.0
  0
LINE
  5
73
330
1F
100
AcDbEntity
  8
0
  6
Continuous
 62
     7
100
AcDbLine
 10
169.4462125854
 20
251.979964351
 30
0.0
 11
173.1308341996
 21
251.979964351
 31
0.0
  0
LINE
  5
74
330
1F
100
AcDbEntity
  8
0
  6
Continuous
 62
     7
100
AcDbLine
 10
165.0433341996
 20
255.3462461977
 30
0.0
 11
167.3683341996
 21
255.3462461977
 31
0.0
  0
LINE
  5
75
330
1F
100
AcDbEntity
  8
0
  6
Continuous
 62
     7
100
AcDbLine
 10
175.1308341996
 20
262.9792612207
 30
0.0
 11
272.7628850072
 21
262.9792612207
 31
0.0
  0
LINE
  5
76
330
1F
100
AcDbEntity
  8
0
  6
Continuous
 62
     7
100
AcDbLine
 10
155.5808341996
 20
264.4042612207
 30
0.0
 11
154.5411518664
 21
264.1256791792
 31
0.0
  0
LINE
  5
77
330
1F
100
AcDbEntity
  8
0
  6
Continuous
 62
     7
100
AcDbLine
 10
157.2308341996
 20
264.4042612207
 30
0.0
 11
155.5808341996
 21
264.4042612207
 31
0.0
  0
LINE
  5
78
330
1F
100
AcDbEntity
  8
0
  6
Continuous
 62
     7
100
AcDbLine
 10
154.5411518664
 20
264.1256791792
 30
0.0
 11
55.20611719399998
 21
278.5913688763999
 31
0.0
  0
LWPOLYLINE
  5
79
330
1F
100
AcDbEntity
  8
DEFAULT_2
  6
DASHED
 62
     8
100
AcDbPolyline
 90
        2
 70
     0
 43
0.35
 10
285.0308341996
 20
282.9792612207
 10
219.9308341996
 20
282.9792612207
  0
LINE
  5
7A
330
1F
100
AcDbEntity
  8
0
  6
Continuous
 62
     7
100
AcDbLine
 10
154.5411518664
 20
333.8328432623
 30
0.0
 11
154.5411518664
 21
264.1256791792
 31
0.0
  0
LWPOLYLINE
  5
7B
330
1F
100
AcDbEntity
  8
TEIL_STARTBEZUEGE
  6
DOT_CENTER
 62
     7
100
AcDbPolyline
 90
        2
 70
     0
 43
0.25
 10
155.0308341996
 20
256.879964351
 10
155.0308341996
 20
340.0167612207
  0
LWPOLYLINE
  5
7C
330
1F
100
AcDbEntity
  8
TEIL_STARTBEZUEGE
  6
DOT_CENTER
 62
     7
100
AcDbPolyline
 90
        2
 70
     0
 43
0.25
 10
288.0308341996
 20
298.9792612207
 10
50.28083419959992
 20
298.9792612207
  0
LINE
  5
7D
330
1F
100
AcDbEntity
  8
0
  6
Continuous
 62
     7
100
AcDbLine
 10
155.5808341996
 20
333.5542612207
 30
0.0
 11
155.5808341996
 21
264.4042612207
 31
0.0
  0
LINE
  5
7E
330
1F
100
AcDbEntity
  8
0
  6
Continuous
 62
     9
100
AcDbLine
 10
157.2308341996
 20
333.5542612207
 30
0.0
 11
157.2308341996
 21
264.4042612207
 31
0.0
  0
LINE
  5
7F
330
1F
100
AcDbEntity
  8
0
  6
Continuous
 62
     7
100
AcDbLine
 10
158.2308341996
 20
344.9407549546
 30
0.0
 11
158.2308341996
 21
253.0177674868
 31
0.0
  0
LINE
  5
80
330
1F
100
AcDbEntity
  8
0
  6
Continuous
 62
     9
100
AcDbLine
 10
159.2308341996
 20
345.9785580905
 30
0.0
 11
159.2308341996
 21
251.979964351
 31
0.0
  0
LINE
  5
81
330
1F
100
AcDbEntity
  8
0
  6
Continuous
 62
     7
100
AcDbLine
 10
162.9654558138
 20
345.9785580905
 30
0.0
 11
162.9654558138
 21
251.979964351
 31
0.0
  0
LINE
  5
82
330
1F
100
AcDbEntity
  8
0
  6
Continuous
 62
     7
100
AcDbLine
 10
164.2933341996
 20
343.5890783815
 30
0.0
 11
164.2933341996
 21
254.36944406
 31
0.0
  0
LINE
  5
83
330
1F
100
AcDbEntity
  8
0
  6
Continuous
 62
     9
100
AcDbLine
 10
165.0433341996
 20
342.6122762438
 30
0.0
 11
165.0433341996
 21
255.3462461977
 31
0.0
  0
LINE
  5
84
330
1F
100
AcDbEntity
  8
0
  6
Continuous
 62
     9
100
AcDbLine
 10
167.3683341996
 20
342.6122762438
 30
0.0
 11
167.3683341996
 21
255.3462461977
 31
0.0
  0
LINE
  5
85
330
1F
100
AcDbEntity
  8
0
  6
Continuous
 62
     7
100
AcDbLine
 10
168.1183341996
 20
343.5890783815
 30
0.0
 11
168.1183341996
 21
254.36944406
 31
0.0
  0
LINE
  5
86
330
1F
100
AcDbEntity
  8
0
  6
Continuous
 62
     7
100
AcDbLine
 10
169.4462125854
 20
345.9785580905
 30
0.0
 11
169.4462125854
 21
251.979964351
 31
0.0
  0
LWPOLYLINE
  5
87
330
1F
100
AcDbEntity
  8
DEFAULT_2
  6
DASHED
 62
     8
100
AcDbPolyline
 90
        2
 70
     0
 43
0.35
 10
219.9308341996
 20
314.9792612207
 10
224.2808341996
 20
314.9792612207
  0
LWPOLYLINE
  5
88
330
1F
100
AcDbEntity
  8
DEFAULT_2
  6
DASHED
 62
     8
100
AcDbPolyline
 90
        2
 70
     0
 43
0.35
 10
224.2808341996
 20
314.9792612207
 10
269.7808341996
 20
314.9792612207
  0
LWPOLYLINE
  5
89
330
1F
100
AcDbEntity
  8
DEFAULT_2
  6
DASHED
 62
     8
100
AcDbPolyline
 90
        2
 70
     0
 43
0.35
 10
269.7808341996
 20
314.9792612207
 10
285.0308341996
 20
314.9792612207
  0
LINE
  5
8A
330
1F
100
AcDbEntity
  8
0
  6
Continuous
 62
     9
100
AcDbLine
 10
173.1308341996
 20
345.9785580905
 30
0.0
 11
173.1308341996
 21
251.979964351
 31
0.0
  0
LINE
  5
8B
330
1F
100
AcDbEntity
  8
0
  6
Continuous
 62
     7
100
AcDbLine
 10
174.1308341996
 20
344.9407549546
 30
0.0
 11
174.1308341996
 21
253.0177674868
 31
0.0
  0
LINE
  5
8C
330
1F
100
AcDbEntity
  8
RUNDUNGEN
  6
Continuous
 62
     9
100
AcDbLine
 10
175.1308341996
 20
334.9792612207
 30
0.0
 11
175.1308341996
 21
262.9792612207
 31
0.0
  0
LWPOLYLINE
  5
8D
330
1F
100
AcDbEntity
  8
DEFAULT_2
  6
DASHED
 62
     8
100
AcDbPolyline
 90
        2
 70
     0
 43
0.35
 10
219.9308341996
 20
314.9792612207
 10
219.9308341996
 20
282.9792612207
  0
LINE
  5
8E
330
1F
100
AcDbEntity
  8
0
  6
Continuous
 62
     7
100
AcDbLine
 10
154.5411518664
 20
333.8328432623
 30
0.0
 11
55.20611719399999
 21
319.3671535651001
 31
0.0
  0
LINE
  5
8F
330
1F
100
AcDbEntity
  8
0
  6
Continuous
 62
     7
100
AcDbLine
 10
157.2308341996
 20
333.5542612207
 30
0.0
 11
155.5808341996
 21
333.5542612207
 31
0.0
  0
LINE
  5
90
330
1F
100
AcDbEntity
  8
0
  6
Continuous
 62
     7
100
AcDbLine
 10
158.2308341996
 20
334.2792612207
 30
0.0
 11
158.1922784257
 21
334.2792612207
 31
0.0
  0
LINE
  5
91
330
1F
100
AcDbEntity
  8
BEZUGSACHSEN
  6
Continuous
 62
     7
100
AcDbLine
 10
272.7628850072
 20
334.9792612207
 30
0.0
 11
269.7808341996
 21
334.9792612207
 31
0.0
  0
LINE
  5
92
330
1F
100
AcDbEntity
  8
BEZUGSACHSEN
  6
Continuous
 62
     7
100
AcDbLine
 10
252.2808341996
 20
334.9792612207
 30
0.0
 11
241.7808341996
 21
334.9792612207
 31
0.0
  0
LINE
  5
93
330
1F
100
AcDbEntity
  8
BEZUGSACHSEN
  6
Continuous
 62
     7
100
AcDbLine
 10
224.2808341996
 20
334.9792612207
 30
0.0
 11
175.1308341996
 21
334.9792612207
 31
0.0
  0
LINE
  5
94
330
1F
100
AcDbEntity
  8
0
  6
Continuous
 62
     7
100
AcDbLine
 10
175.1308341996
 20
334.9792612207
 30
0.0
 11
224.2808341996
 21
334.9792612207
 31
0.0
  0
LINE
  5
95
330
1F
100
AcDbEntity
  8
0
  6
Continuous
 62
     7
100
AcDbLine
 10
241.7808341996
 20
334.9792612207
 30
0.0
 11
252.2808341996
 21
334.9792612207
 31
0.0
  0
LINE
  5
96
330
1F
100
AcDbEntity
  8
0
  6
Continuous
 62
     7
100
AcDbLine
 10
269.7808341996
 20
334.9792612207
 30
0.0
 11
272.7628850072
 21
334.9792612207
 31
0.0
  0
LINE
  5
97
330
1F
100
AcDbEntity
  8
0
  6
Continuous
 62
     7
100
AcDbLine
 10
155.5808341996
 20
333.5542612207
 30
0.0
 11
154.5411518664
 21
333.8328432623
 31
0.0
  0
LWPOLYLINE
  5
98
330
1F
100
AcDbEntity
  8
BEZUGSACHSEN
  6
DASHED
 62
     8
100
AcDbPolyline
 90
        2
 70
     0
 43
0.35
 10
224.2808341996
 20
314.9792612207
 10
224.2808341996
 20
334.9792612207
  0
LINE
  5
99
330
1F
100
AcDbEntity
  8
0
  6
Continuous
 62
     7
100
AcDbLine
 10
165.0433341996
 20
342.6122762438
 30
0.0
 11
167.3683341996
 21
342.6122762438
 31
0.0
  0
LWPOLYLINE
  5
9A
330
1F
100
AcDbEntity
  8
BEZUGSACHSEN
  6
DOT_CENTER
 62
     7
100
AcDbPolyline
 90
        2
 70
     0
 43
0.25
 10
233.0308341996
 20
337.9792612207
 10
233.0308341996
 20
309.3746895586
  0
LINE
  5
9B
330
1F
100
AcDbEntity
  8
0
  6
Continuous
 62
     7
100
AcDbLine
 10
159.2308341996
 20
345.9785580905
 30
0.0
 11
162.9654558138
 21
345.9785580905
 31
0.0
  0
LINE
  5
9C
330
1F
100
AcDbEntity
  8
0
  6
Continuous
 62
     7
100
AcDbLine
 10
169.4462125854
 20
345.9785580905
 30
0.0
 11
173.1308341996
 21
345.9785580905
 31
0.0
  0
LWPOLYLINE
  5
9D
330
1F
100
AcDbEntity
  8
BEZUGSACHSEN
  6
DASHED
 62
     8
100
AcDbPolyline
 90
        2
 70
     0
 43
0.35
 10
241.7808341996
 20
314.9792612207
 10
241.7808341996
 20
334.9792612207
  0
LWPOLYLINE
  5
9E
330
1F
100
AcDbEntity
  8
BEZUGSACHSEN
  6
DASHED
 62
     8
100
AcDbPolyline
 90
        2
 70
     0
 43
0.35
 10
252.2808341996
 20
314.9792612207
 10
252.2808341996
 20
334.9792612207
  0
LINE
  5
9F
330
1F
100
AcDbEntity
  8
RUNDUNGEN
  6
Continuous
 62
     7
100
AcDbLine
 10
284.5308341996
 20
328.3397331251
 30
0.0
 11
273.2628850072
 21
334.8452866245
 31
0.0
  0
LINE
  5
A0
330
1F
100
AcDbEntity
  8
0
  6
Continuous
 62
     7
100
AcDbLine
 10
273.2628850072
 20
334.8452866245
 30
0.0
 11
284.5308341996
 21
328.3397331251
 31
0.0
  0
LWPOLYLINE
  5
A1
330
1F
100
AcDbEntity
  8
BEZUGSACHSEN
  6
DOT_CENTER
 62
     7
100
AcDbPolyline
 90
        2
 70
     0
 43
0.25
 10
261.0308341996
 20
337.9792612207
 10
261.0308341996
 20
309.3746895586
  0
LINE
  5
A2
330
1F
100
AcDbEntity
  8
RUNDUNGEN
  6
Continuous
 62
     7
100
AcDbLine
 10
284.5308341996
 20
269.6187893164
 30
0.0
 11
273.2628850072
 21
263.1132358169
 31
0.0
  0
LINE
  5
A3
330
1F
100
AcDbEntity
  8
0
  6
Continuous
 62
     7
100
AcDbLine
 10
273.2628850072
 20
263.1132358169
 30
0.0
 11
284.5308341996
 21
269.6187893164
 31
0.0
  0
LWPOLYLINE
  5
A4
330
1F
100
AcDbEntity
  8
BEZUGSACHSEN
  6
DASHED
 62
     8
100
AcDbPolyline
 90
        2
 70
     0
 43
0.35
 10
269.7808341996
 20
314.9792612207
 10
269.7808341996
 20
334.9792612207
  0
LINE
  5
A5
330
1F
100
AcDbEntity
  8
RUNDUNGEN
  6
Continuous
 62
     9
100
AcDbLine
 10
272.7628850072
 20
262.9792612207
 30
0.0
 11
272.7628850072
 21
334.9792612207
 31
0.0
  0
LINE
  5
A6
330
1F
100
AcDbEntity
  8
RUNDUNGEN
  6
Continuous
 62
     9
100
AcDbLine
 10
273.2628850072
 20
263.1132358169
 30
0.0
 11
273.2628850072
 21
334.8452866245
 31
0.0
  0
LINE
  5
A7
330
1F
100
AcDbEntity
  8
RUNDUNGEN
  6
Continuous
 62
     9
100
AcDbLine
 10
284.5308341996
 20
269.6187893164
 30
0.0
 11
284.5308341996
 21
328.3397331251
 31
0.0
  0
LINE
  5
A8
330
1F
100
AcDbEntity
  8
RUNDUNGEN
  6
Continuous
 62
     7
100
AcDbLine
 10
285.0308341996
 20
270.4848147202
 30
0.0
 11
285.0308341996
 21
327.4737077213
 31
0.0
  0
LWPOLYLINE
  5
A9
330
1F
100
AcDbEntity
  8
BEZUGSACHSEN
  6
DASHED
 62
     8
100
AcDbPolyline
 90
        2
 70
     0
 43
0.35
 10
271.0308341996
 20
314.9792612207
 10
271.0308341996
 20
334.9792612207
  0
LWPOLYLINE
  5
AA
330
1F
100
AcDbEntity
  8
BEZUGSACHSEN
  6
DASHED
 62
     8
100
AcDbPolyline
 90
        2
 70
     0
 43
0.35
 10
243.0308341996
 20
314.9792612207
 10
243.0308341996
 20
334.9792612207
  0
LWPOLYLINE
  5
AB
330
1F
100
AcDbEntity
  8
BEZUGSACHSEN
  6
DASHED
 62
     8
100
AcDbPolyline
 90
        2
 70
     0
 43
0.35
 10
251.0308341996
 20
314.9792612207
 10
251.0308341996
 20
334.9792612207
  0
LWPOLYLINE
  5
AC
330
1F
100
AcDbEntity
  8
BEZUGSACHSEN
  6
DASHED
 62
     8
100
AcDbPolyline
 90
        2
 70
     0
 43
0.35
 10
223.0308341996
 20
314.9792612207
 10
223.0308341996
 20
334.9792612207
  0
ARC
  5
AD
330
1F
100
AcDbEntity
  8
0
  6
Continuous
 62
     7
100
AcDbCircle
 10
55.53083419959997
 20
280.8178142196
 30
0.0
 40
2.25
100
AcDbArc
 50
180.0
 51
261.7021731726462
  0
ARC
  5
AE
330
1F
100
AcDbEntity
  8
0
  6
Continuous
 62
     7
100
AcDbCircle
 10
55.53083419959997
 20
317.1407082219
 30
0.0
 40
2.249999999996286
100
AcDbArc
 50
98.2978268273537
 51
180.0
  0
ARC
  5
AF
330
1F
100
AcDbEntity
  8
RUNDUNGEN
  6
Continuous
 62
     7
100
AcDbCircle
 10
284.0308341996
 20
270.4848147202
 30
0.0
 40
1.000000000013472
100
AcDbArc
 50
299.9999999995543
 51
0.0
  0
ARC
  5
B0
330
1F
100
AcDbEntity
  8
RUNDUNGEN
  6
Continuous
 62
     7
100
AcDbCircle
 10
272.7628850072
 20
333.9792612207
 30
0.0
 40
1.000000000013472
100
AcDbArc
 50
60.00000000044565
 51
90.0
  0
ARC
  5
B1
330
1F
100
AcDbEntity
  8
RUNDUNGEN
  6
Continuous
 62
     7
100
AcDbCircle
 10
272.7628850072
 20
263.9792612207
 30
0.0
 40
1.0
100
AcDbArc
 50
270.0
 51
299.9999999995543
  0
ARC
  5
B2
330
1F
100
AcDbEntity
  8
RUNDUNGEN
  6
Continuous
 62
     7
100
AcDbCircle
 10
175.1308341996
 20
335.9792612207
 30
0.0
 40
1.0
100
AcDbArc
 50
180.0
 51
270.0
  0
ARC
  5
B3
330
1F
100
AcDbEntity
  8
RUNDUNGEN
  6
Continuous
 62
     7
100
AcDbCircle
 10
175.1308341996
 20
261.9792612207
 30
0.0
 40
1.0
100
AcDbArc
 50
90.0
 51
180.0
  0
ARC
  5
B4
330
1F
100
AcDbEntity
  8
0
  6
Continuous
 62
     7
100
AcDbCircle
 10
157.2308341996
 20
334.5542612207
 30
0.0
 40
1.0
100
AcDbArc
 50
270.0
 51
344.0379858363401
  0
ARC
  5
B5
330
1F
100
AcDbEntity
  8
0
  6
Continuous
 62
     7
100
AcDbCircle
 10
157.2308341996
 20
263.4042612207
 30
0.0
 40
1.0
100
AcDbArc
 50
0.0
 51
90.0
  0
ARC
  5
B6
330
1F
100
AcDbEntity
  8
RUNDUNGEN
  6
Continuous
 62
     7
100
AcDbCircle
 10
284.0308341996
 20
327.4737077213
 30
0.0
 40
1.0
100
AcDbArc
 50
0.0
 51
60.00000000044565
  0
SPLINE
  5
B7
330
1F
100
AcDbEntity
  8
0
  6
Continuous
 62
     2
100
AcDbSpline
210
0.0
220
0.0
230
1.0
 70
     8
 71
     3
 72
    51
 73
    47
 74
    45
 42
0.0000000001
 43
0.0000000001
 44
0.00000001
 40
0.0
 40
0.0
 40
0.0
 40
0.0
 40
0.0256437910643309
 40
0.1028924978206609
 40
0.231963773982624
 40
0.4120414568825943
 40
0.6422154299649794
 40
0.9222275479340416
 40
1.251483107621165
 40
1.627366435601251
 40
2.047199745725975
 40
2.510037317059314
 40
3.014417479587127
 40
3.55501008366264
 40
4.126393058755294
 40
4.726557058045556
 40
5.353465900174078
 40
6.001459742334649
 40
6.664903616958711
 40
7.341788229455446
 40
8.030492601726209
 40
8.727253360390751
 40
9.428190309753385
 40
10.13104061127369
 40
10.8339292254057
 40
11.53491175473221
 40
12.23165307154279
 40
12.92032755671571
 40
13.59723285015973
 40
14.26070812359199
 40
14.90869732396668
 40
15.53559168321064
 40
16.13576451724551
 40
16.70716792314182
 40
17.24777350037464
 40
17.75215548551273
 40
18.21498691336863
 40
18.63482157630261
 40
19.01072546958016
 40
19.34000521085683
 40
19.62002880942303
 40
19.85020967381725
 40
20.03029975247312
 40
20.15938253541216
 40
20.23663436878275
 40
20.26227750777134
 40
20.26227750777134
 40
20.26227750777134
 40
20.26227750777134
 10
223.0308341996
 20
334.9793014726
 30
0.0
 10
223.0390683385521
 20
334.9770066760332
 30
0.0
 10
223.0721067891486
 20
334.9677990924058
 30
0.0
 10
223.146641730317
 20
334.9472288667088
 30
0.0
 10
223.2708666197906
 20
334.913207444497
 30
0.0
 10
223.4444440989433
 20
334.8664114659356
 30
0.0
 10
223.6668652719538
 20
334.8075067703845
 30
0.0
 10
223.9378000624194
 20
334.7375685633954
 30
0.0
 10
224.2563417125563
 20
334.6577611355701
 30
0.0
 10
224.6208567334428
 20
334.5697230834875
 30
0.0
 10
225.029585264033
 20
334.4751572689587
 30
0.0
 10
225.4811792014271
 20
334.3759574718175
 30
0.0
 10
225.973371467972
 20
334.2741216697732
 30
0.0
 10
226.5023945038263
 20
334.1719316646837
 30
0.0
 10
227.0642839689852
 20
334.0718387808269
 30
0.0
 10
227.6560763941783
 20
333.9759443586972
 30
0.0
 10
228.2746551860984
 20
333.8862218289456
 30
0.0
 10
228.915611375998
 20
333.8044644914265
 30
0.0
 10
229.5745209596933
 20
333.7326411895955
 30
0.0
 10
230.2481869170819
 20
333.6720449484335
 30
0.0
 10
230.9339832257637
 20
333.6237661655554
 30
0.0
 10
231.6286046954489
 20
333.5885502357642
 30
0.0
 10
232.3285116805892
 20
333.567258905981
 30
0.0
 10
233.0307488186492
 20
333.5601087862093
 30
0.0
 10
233.7330011418154
 20
333.5672579018064
 30
0.0
 10
234.432929746471
 20
333.5885446356771
 30
0.0
 10
235.1275502137062
 20
333.6237560875614
 30
0.0
 10
235.8133370569576
 20
333.6720334985067
 30
0.0
 10
236.4870104962519
 20
333.7326289540138
 30
0.0
 10
237.1459362255034
 20
333.8044500187928
 30
0.0
 10
237.7868968523395
 20
333.8862050099243
 30
0.0
 10
238.4054723901689
 20
333.9759260994372
 30
0.0
 10
238.9972699244838
 20
334.0718197575321
 30
0.0
 10
239.5591736475612
 20
334.1719128932118
 30
0.0
 10
240.0882084677018
 20
334.2741038277444
 30
0.0
 10
240.5804037432669
 20
334.375939316443
 30
0.0
 10
241.0319969727441
 20
334.4751377224534
 30
0.0
 10
241.4407308147691
 20
334.5697039140076
 30
0.0
 10
241.8052608926996
 20
334.6577450773812
 30
0.0
 10
242.1238208756403
 20
334.7375564526999
 30
0.0
 10
242.394769496831
 20
334.8074978348354
 30
0.0
 10
242.6172005944802
 20
334.866405117483
 30
0.0
 10
242.7907879905131
 20
334.9132037449706
 30
0.0
 10
242.915021590005
 20
334.9472274727469
 30
0.0
 10
242.9895610326337
 20
334.9677989061204
 30
0.0
 10
243.0226002715773
 20
334.9770067335202
 30
0.0
 10
243.0308341996
 20
334.9793014773
 30
0.0
 11
223.0308341996
 21
334.9793014726
 31
0.0
 11
223.0555380524451
 21
334.9724222520949
 31
0.0
 11
223.1299950429027
 21
334.9518426683399
 31
0.0
 11
223.2544870925367
 21
334.9177674000652
 31
0.0
 11
223.428351219391
 21
334.8708713738815
 31
0.0
 11
223.6508611056544
 21
334.8119696896987
 31
0.0
 11
223.9219819914445
 21
334.7419678933081
 31
0.0
 11
224.2413692485859
 21
334.6619616213004
 31
0.0
 11
224.6067472199431
 21
334.5737164270955
 31
0.0
 11
225.015782547384
 21
334.4791114103381
 31
0.0
 11
225.4678420957287
 21
334.3798099391097
 31
0.0
 11
225.9617613262909
 21
334.2776182465293
 31
0.0
 11
226.4925498652978
 21
334.1751297572243
 31
0.0
 11
227.0550827810571
 21
334.074953797468
 31
0.0
 11
227.6475227436586
 21
333.9789761086193
 31
0.0
 11
228.2679381134973
 21
333.8889790797413
 31
0.0
 11
228.91073241172
 21
333.807055275811
 31
0.0
 11
229.5702716275503
 21
333.7351817928139
 31
0.0
 11
230.2444364607825
 21
333.6745636744998
 31
0.0
 11
230.931439922705
 21
333.6261905859964
 31
0.0
 11
231.6273095606574
 21
333.5909627306715
 31
0.0
 11
232.3279220505517
 21
333.5696379566782
 31
0.0
 11
233.03073604615
 21
333.5624941524903
 31
0.0
 11
233.733588372588
 21
333.5696363578344
 31
0.0
 11
234.4342465534593
 21
333.5909581776215
 31
0.0
 11
235.1300969671242
 21
333.6261812432653
 31
0.0
 11
235.8170707217343
 21
333.6745507274999
 31
0.0
 11
236.4912563198685
 21
333.7351688399826
 31
0.0
 11
237.1508271124134
 21
333.807042396161
 31
0.0
 11
237.7936171434735
 21
333.8889629660559
 31
0.0
 11
238.4140183810747
 21
333.978956532686
 31
0.0
 11
239.0064673286409
 21
334.0749340052575
 31
0.0
 11
239.5690207082523
 21
334.1751115843743
 31
0.0
 11
240.0998222465675
 21
334.2776011792481
 31
0.0
 11
240.5937434685879
 21
334.3797922423098
 31
0.0
 11
241.0457972520931
 21
334.4790913230194
 31
0.0
 11
241.4548340892569
 21
334.5736958157455
 31
0.0
 11
241.8202321932224
 21
334.6619452497359
 31
0.0
 11
242.1396430447222
 21
334.7419568486414
 31
0.0
 11
242.4107751310248
 21
334.8119611880153
 31
0.0
 11
242.6332916999757
 21
334.8708645569816
 31
0.0
 11
242.8071678065716
 21
334.9177637679058
 31
0.0
 11
242.9316709716974
 21
334.9518420120648
 31
0.0
 11
243.0061309790174
 21
334.9724224170419
 31
0.0
 11
243.0308341996
 21
334.9793014773
 31
0.0
  0
SPLINE
  5
B8
330
1F
100
AcDbEntity
  8
0
  6
Continuous
 62
     2
100
AcDbSpline
210
0.0
220
0.0
230
1.0
 70
     8
 71
     3
 72
    51
 73
    47
 74
    45
 42
0.0000000001
 43
0.0000000001
 44
0.00000001
 40
0.0
 40
0.0
 40
0.0
 40
0.0
 40
0.0256437910643309
 40
0.1028924978206335
 40
0.231963773982624
 40
0.4120414568826492
 40
0.6422154299650068
 40
0.922227547934014
 40
1.251483107621165
 40
1.627366435601223
 40
2.047199745725975
 40
2.510037317059314
 40
3.014417479587127
 40
3.555010083662668
 40
4.126393058755322
 40
4.726557058045528
 40
5.353465900174106
 40
6.001459742334649
 40
6.664903616958711
 40
7.341788229455361
 40
8.030492601726266
 40
8.727253360390751
 40
9.428190309753413
 40
10.13104061127369
 40
10.8339292254057
 40
11.53491175473221
 40
12.23165307154276
 40
12.92032755671571
 40
13.5972328501597
 40
14.26070812359199
 40
14.90869732396671
 40
15.53559168321067
 40
16.13576451724548
 40
16.70716792314182
 40
17.24777350037467
 40
17.75215548551273
 40
18.21498691336866
 40
18.63482157630261
 40
19.01072546958021
 40
19.34000521085686
 40
19.62002880942304
 40
19.85020967381726
 40
20.03029975247316
 40
20.15938253541217
 40
20.23663436878273
 40
20.26227750777135
 40
20.26227750777135
 40
20.26227750777135
 40
20.26227750777135
 10
251.0308341996
 20
334.9793014726
 30
0.0
 10
251.0390683385521
 20
334.9770066760332
 30
0.0
 10
251.0721067891486
 20
334.9677990924058
 30
0.0
 10
251.1466417303171
 20
334.9472288667089
 30
0.0
 10
251.2708666197906
 20
334.9132074444969
 30
0.0
 10
251.4444440989434
 20
334.8664114659359
 30
0.0
 10
251.6668652719539
 20
334.8075067703845
 30
0.0
 10
251.9378000624193
 20
334.7375685633953
 30
0.0
 10
252.2563417125563
 20
334.6577611355701
 30
0.0
 10
252.6208567334428
 20
334.5697230834875
 30
0.0
 10
253.029585264033
 20
334.4751572689588
 30
0.0
 10
253.4811792014271
 20
334.3759574718176
 30
0.0
 10
253.973371467972
 20
334.2741216697732
 30
0.0
 10
254.5023945038262
 20
334.1719316646837
 30
0.0
 10
255.0642839689852
 20
334.0718387808269
 30
0.0
 10
255.6560763941783
 20
333.9759443586972
 30
0.0
 10
256.2746551860983
 20
333.8862218289456
 30
0.0
 10
256.9156113759981
 20
333.8044644914266
 30
0.0
 10
257.5745209596932
 20
333.7326411895954
 30
0.0
 10
258.2481869170818
 20
333.6720449484335
 30
0.0
 10
258.9339832257638
 20
333.6237661655554
 30
0.0
 10
259.6286046954489
 20
333.588550235764
 30
0.0
 10
260.3285116805892
 20
333.5672589059809
 30
0.0
 10
261.0307488186492
 20
333.5601087862094
 30
0.0
 10
261.7330011418154
 20
333.5672579018062
 30
0.0
 10
262.432929746471
 20
333.5885446356771
 30
0.0
 10
263.1275502137062
 20
333.6237560875613
 30
0.0
 10
263.8133370569577
 20
333.6720334985068
 30
0.0
 10
264.4870104962519
 20
333.7326289540139
 30
0.0
 10
265.1459362255034
 20
333.8044500187928
 30
0.0
 10
265.7868968523395
 20
333.8862050099243
 30
0.0
 10
266.4054723901689
 20
333.9759260994372
 30
0.0
 10
266.9972699244838
 20
334.0718197575321
 30
0.0
 10
267.5591736475612
 20
334.1719128932118
 30
0.0
 10
268.0882084677017
 20
334.2741038277444
 30
0.0
 10
268.5804037432669
 20
334.375939316443
 30
0.0
 10
269.0319969727441
 20
334.4751377224534
 30
0.0
 10
269.4407308147692
 20
334.5697039140076
 30
0.0
 10
269.8052608926996
 20
334.6577450773812
 30
0.0
 10
270.1238208756404
 20
334.7375564526999
 30
0.0
 10
270.3947694968311
 20
334.8074978348354
 30
0.0
 10
270.6172005944802
 20
334.8664051174829
 30
0.0
 10
270.7907879905131
 20
334.9132037449705
 30
0.0
 10
270.9150215900051
 20
334.9472274727472
 30
0.0
 10
270.9895610326336
 20
334.9677989061203
 30
0.0
 10
271.0226002715773
 20
334.9770067335202
 30
0.0
 10
271.0308341996
 20
334.9793014773
 30
0.0
 11
251.0308341996
 21
334.9793014726
 31
0.0
 11
251.0555380524451
 21
334.9724222520949
 31
0.0
 11
251.1299950429026
 21
334.9518426683399
 31
0.0
 11
251.2544870925367
 21
334.9177674000652
 31
0.0
 11
251.4283512193911
 21
334.8708713738815
 31
0.0
 11
251.6508611056545
 21
334.8119696896987
 31
0.0
 11
251.9219819914445
 21
334.7419678933081
 31
0.0
 11
252.2413692485859
 21
334.6619616213004
 31
0.0
 11
252.6067472199431
 21
334.5737164270955
 31
0.0
 11
253.015782547384
 21
334.4791114103381
 31
0.0
 11
253.4678420957287
 21
334.3798099391097
 31
0.0
 11
253.9617613262909
 21
334.2776182465293
 31
0.0
 11
254.4925498652978
 21
334.1751297572243
 31
0.0
 11
255.0550827810571
 21
334.074953797468
 31
0.0
 11
255.6475227436586
 21
333.9789761086193
 31
0.0
 11
256.2679381134973
 21
333.8889790797413
 31
0.0
 11
256.91073241172
 21
333.807055275811
 31
0.0
 11
257.5702716275503
 21
333.7351817928139
 31
0.0
 11
258.2444364607824
 21
333.6745636744998
 31
0.0
 11
258.931439922705
 21
333.6261905859964
 31
0.0
 11
259.6273095606574
 21
333.5909627306715
 31
0.0
 11
260.3279220505517
 21
333.5696379566782
 31
0.0
 11
261.03073604615
 21
333.5624941524903
 31
0.0
 11
261.733588372588
 21
333.5696363578344
 31
0.0
 11
262.4342465534593
 21
333.5909581776215
 31
0.0
 11
263.1300969671242
 21
333.6261812432653
 31
0.0
 11
263.8170707217343
 21
333.6745507274999
 31
0.0
 11
264.4912563198685
 21
333.7351688399826
 31
0.0
 11
265.1508271124134
 21
333.807042396161
 31
0.0
 11
265.7936171434736
 21
333.8889629660559
 31
0.0
 11
266.4140183810748
 21
333.978956532686
 31
0.0
 11
267.0064673286408
 21
334.0749340052575
 31
0.0
 11
267.5690207082523
 21
334.1751115843743
 31
0.0
 11
268.0998222465676
 21
334.2776011792481
 31
0.0
 11
268.5937434685879
 21
334.3797922423098
 31
0.0
 11
269.0457972520932
 21
334.4790913230194
 31
0.0
 11
269.4548340892569
 21
334.5736958157455
 31
0.0
 11
269.8202321932225
 21
334.6619452497359
 31
0.0
 11
270.1396430447222
 21
334.7419568486414
 31
0.0
 11
270.4107751310248
 21
334.8119611880153
 31
0.0
 11
270.6332916999757
 21
334.8708645569816
 31
0.0
 11
270.8071678065717
 21
334.9177637679058
 31
0.0
 11
270.9316709716974
 21
334.9518420120648
 31
0.0
 11
271.0061309790174
 21
334.9724224170419
 31
0.0
 11
271.0308341996
 21
334.9793014773
 31
0.0
  0
SPLINE
  5
B9
330
1F
100
AcDbEntity
  8
0
  6
Continuous
 62
     7
100
AcDbSpline
210
0.0
220
0.0
230
1.0
 70
     8
 71
     3
 72
    15
 73
    11
 74
     9
 42
0.0000000001
 43
0.0000000001
 44
0.00000001
 40
0.0
 40
0.0
 40
0.0
 40
0.0
 40
0.1994115817649319
 40
0.3995307347138375
 40
0.5993951287185221
 40
0.7990503741861813
 40
0.9987117985045089
 40
1.198567836682874
 40
1.39875121735688
 40
1.598077981812283
 40
1.598077981812283
 40
1.598077981812283
 40
1.598077981812283
 10
174.1308341996
 20
344.9407549546
 30
0.0
 10
174.127215975003
 20
345.00731327004
 30
0.0
 10
174.1199666872796
 20
345.1406660694797
 30
0.0
 10
174.0627701016982
 20
345.3339370824041
 30
0.0
 10
173.9726031431944
 20
345.513412175575
 30
0.0
 10
173.8493707656379
 20
345.6722531582718
 30
0.0
 10
173.6975826393583
 20
345.8041797142636
 30
0.0
 10
173.5224584841288
 20
345.9028092016449
 30
0.0
 10
173.3307543700494
 20
345.9662534285866
 30
0.0
 10
173.1973789300386
 20
345.9744624036649
 30
0.0
 10
173.1308341996
 20
345.9785580905
 30
0.0
 11
174.1308341996
 21
344.9407549546
 31
0.0
 11
174.112287974499
 21
345.1393022196945
 31
0.0
 11
174.057244521849
 21
345.3317025671405
 31
0.0
 11
173.9670426280026
 21
345.5100544506107
 31
0.0
 11
173.8446141762728
 21
345.6677677704344
 31
0.0
 11
173.6937714034545
 21
345.7985773352578
 31
0.0
 11
173.5197757988769
 21
345.8969031486745
 31
0.0
 11
173.3290758254194
 21
345.9577875146591
 31
0.0
 11
173.1308341996
 21
345.9785580905
 31
0.0
  0
SPLINE
  5
BA
330
1F
100
AcDbEntity
  8
0
  6
Continuous
 62
     7
100
AcDbSpline
210
0.0
220
0.0
230
1.0
 70
     8
 71
     3
 72
    15
 73
    11
 74
     9
 42
0.0000000001
 43
0.0000000001
 44
0.00000001
 40
0.0
 40
0.0
 40
0.0
 40
0.0
 40
0.1993272357805091
 40
0.3995110957482994
 40
0.5993673927739575
 40
0.7990290697814362
 40
0.9986840388761529
 40
1.198548154945466
 40
1.398666849449252
 40
1.598077976688157
 40
1.598077976688157
 40
1.598077976688157
 40
1.598077976688157
 10
173.1308341996
 20
251.979964351
 30
0.0
 10
173.1973790877802
 20
251.9840600599208
 30
0.0
 10
173.330754845936
 20
251.9922690793877
 30
0.0
 10
173.5224593046759
 20
252.0557135933456
 30
0.0
 10
173.6975836460545
 20
252.1543434282292
 30
0.0
 10
173.8493716673701
 20
252.2862702322342
 30
0.0
 10
173.972603775454
 20
252.4451112906002
 30
0.0
 10
174.0627703969918
 20
252.6245861707734
 30
0.0
 10
174.1199667381483
 20
252.8178568294064
 30
0.0
 10
174.1272159919253
 20
252.9512093234189
 30
0.0
 10
174.1308341996
 20
253.0177674868
 30
0.0
 11
173.1308341996
 21
251.979964351
 31
0.0
 11
173.3290762881781
 21
252.0007350332253
 31
0.0
 11
173.519776671518
 21
252.0616196912732
 31
0.0
 11
173.6937723965974
 21
252.159945817582
 31
0.0
 11
173.8446151925566
 21
252.290755741413
 31
0.0
 11
173.9670432720893
 21
252.4484690002917
 31
0.0
 11
174.0572448584905
 21
252.6268207277934
 31
0.0
 11
174.1122880601398
 21
252.8192206702105
 31
0.0
 11
174.1308341996
 21
253.0177674868
 31
0.0
  0
SPLINE
  5
BB
330
1F
100
AcDbEntity
  8
0
  6
Continuous
 62
     7
100
AcDbSpline
210
0.0
220
0.0
230
1.0
 70
     8
 71
     3
 72
    15
 73
    11
 74
     9
 42
0.0000000001
 43
0.0000000001
 44
0.00000001
 40
0.0
 40
0.0
 40
0.0
 40
0.0
 40
0.1993272936092533
 40
0.3995112141190226
 40
0.599367446027399
 40
0.7990290559599478
 40
0.9986840827410346
 40
1.198548256370598
 40
1.398666897383158
 40
1.598077972489076
 40
1.598077972489076
 40
1.598077972489076
 40
1.598077972489076
 10
159.2308341996
 20
345.9785580905
 30
0.0
 10
159.1642892920743
 20
345.9744623766609
 30
0.0
 10
159.0309134943217
 20
345.9662533472856
 30
0.0
 10
158.8392090285718
 20
345.9028087941088
 30
0.0
 10
158.6640847155142
 20
345.8041789626684
 30
0.0
 10
158.5122967087556
 20
345.6722521812767
 30
0.0
 10
158.3890645853741
 20
345.5134111131611
 30
0.0
 10
158.2988979622514
 20
345.3339362088407
 30
0.0
 10
158.2417016503388
 20
345.1406655592438
 30
0.0
 10
158.2344524037151
 20
345.007313100549
 30
0.0
 10
158.2308341996
 20
344.9407549546
 30
0.0
 11
159.2308341996
 21
345.9785580905
 31
0.0
 11
159.0325920550638
 21
345.9577873873998
 31
0.0
 11
158.8418916228222
 21
345.8969026834624
 31
0.0
 11
158.6678959612076
 21
345.7985765772041
 31
0.0
 11
158.5170532119109
 21
345.6677667019444
 31
0.0
 11
158.3946250924905
 21
345.510053401002
 31
0.0
 11
158.3044234899812
 21
345.3317016171439
 31
0.0
 11
158.2493803236032
 21
345.1393017202734
 31
0.0
 11
158.2308341996
 21
344.9407549546
 31
0.0
  0
SPLINE
  5
BC
330
1F
100
AcDbEntity
  8
0
  6
Continuous
 62
     7
100
AcDbSpline
210
0.0
220
0.0
230
1.0
 70
     8
 71
     3
 72
    15
 73
    11
 74
     9
 42
0.0000000001
 43
0.0000000001
 44
0.00000001
 40
0.0
 40
0.0
 40
0.0
 40
0.0
 40
0.1497935590768084
 40
0.3002398467343925
 40
0.4504306630372281
 40
0.6004783582558473
 40
0.7505149757745571
 40
0.9007081563555359
 40
1.05109127954109
 40
1.200944180862136
 40
1.200944180862136
 40
1.200944180862136
 40
1.200944180862136
 10
165.0433341996
 20
342.6122762438
 30
0.0
 10
164.9933253019465
 20
342.6153812552317
 30
0.0
 10
164.8930895918172
 20
342.6216048082475
 30
0.0
 10
164.7491098674157
 20
342.6696120569685
 30
0.0
 10
164.6177284641995
 20
342.7441433803012
 30
0.0
 10
164.5039970867412
 20
342.8436703586644
 30
0.0
 10
164.4117395130393
 20
342.9632997247083
 30
0.0
 10
164.3442800238685
 20
343.098312115203
 30
0.0
 10
164.3014709806436
 20
343.2435877527026
 30
0.0
 10
164.2960432648021
 20
343.3437975856506
 30
0.0
 10
164.2933341996
 20
343.393814016
 30
0.0
 11
165.0433341996
 21
342.6122762438
 31
0.0
 11
164.8943689599042
 21
342.6280073500319
 31
0.0
 11
164.7511463307902
 21
342.6740656172551
 31
0.0
 11
164.6206118320038
 21
342.7483490334952
 31
0.0
 11
164.5075724192685
 21
342.8470222416566
 31
0.0
 11
164.4159092739831
 21
342.9658029403953
 31
0.0
 11
164.3484110586998
 21
343.0999744069097
 31
0.0
 11
164.3072177305542
 21
343.2446056395509
 31
0.0
 11
164.2933341996
 21
343.393814016
 31
0.0
  0
SPLINE
  5
BD
330
1F
100
AcDbEntity
  8
0
  6
Continuous
 62
     7
100
AcDbSpline
210
0.0
220
0.0
230
1.0
 70
     8
 71
     3
 72
    15
 73
    11
 74
     9
 42
0.0000000001
 43
0.0000000001
 44
0.00000001
 40
0.0
 40
0.0
 40
0.0
 40
0.0
 40
0.1498537524275216
 40
0.3002377329249363
 40
0.4504313876674833
 40
0.600468478716027
 40
0.7505157523991646
 40
0.9007061337623727
 40
1.051151518434784
 40
1.200944190630653
 40
1.200944190630653
 40
1.200944190630653
 40
1.200944190630653
 10
164.2933341996
 20
254.5647084255
 30
0.0
 10
164.2960432956701
 20
254.6147251405697
 30
0.0
 10
164.3014710734147
 20
254.7149355450315
 30
0.0
 10
164.3442805643882
 20
254.860211832663
 30
0.0
 10
164.4117406699517
 20
254.9952245959125
 30
0.0
 10
164.5039987333884
 20
255.114853815653
 30
0.0
 10
164.6177303117627
 20
255.2143803566627
 30
0.0
 10
164.7491113929562
 20
255.288911052464
 30
0.0
 10
164.8930904876465
 20
255.3369177611463
 30
0.0
 10
164.993325598763
 20
255.3431412287534
 30
0.0
 10
165.0433341996
 20
255.3462461977
 30
0.0
 11
164.2933341996
 21
254.5647084255
 31
0.0
 11
164.3072178879682
 21
254.713917642085
 31
0.0
 11
164.3484116820704
 21
254.8585496334206
 31
0.0
 11
164.4159104502121
 21
254.9927213525878
 31
0.0
 11
164.5075742572178
 21
255.1115021388098
 31
0.0
 11
164.620613656975
 21
255.2101747208287
 31
0.0
 11
164.7511479716207
 21
255.2844575812611
 31
0.0
 11
164.8943698302355
 21
255.3305152948838
 31
0.0
 11
165.0433341996
 21
255.3462461977
 31
0.0
  0
SPLINE
  5
BE
330
1F
100
AcDbEntity
  8
0
  6
Continuous
 62
     7
100
AcDbSpline
210
0.0
220
0.0
230
1.0
 70
     8
 71
     3
 72
    15
 73
    11
 74
     9
 42
0.0000000001
 43
0.0000000001
 44
0.00000001
 40
0.0
 40
0.0
 40
0.0
 40
0.0
 40
0.1497938277227304
 40
0.3002403874548581
 40
0.4504310444407828
 40
0.6004785771134598
 40
0.7505151709523175
 40
0.900708329438243
 40
1.051091365209416
 40
1.200944179362162
 40
1.200944179362162
 40
1.200944179362162
 40
1.200944179362162
 10
167.3683341996
 20
255.3462461977
 30
0.0
 10
167.4183431871342
 20
255.3431411736145
 30
0.0
 10
167.5185790781702
 20
255.336917595189
 30
0.0
 10
167.6625589007888
 20
255.2889102158763
 30
0.0
 10
167.7939402434286
 20
255.214378826946
 30
0.0
 10
167.9076714957821
 20
255.1148518842705
 30
0.0
 10
167.9999289935627
 20
254.9952225480873
 30
0.0
 10
168.0673884295568
 20
254.8602101810895
 30
0.0
 10
168.1101974285542
 20
254.7149346012437
 30
0.0
 10
168.115625137727
 20
254.6147248266924
 30
0.0
 10
168.1183341996
 20
254.5647084255
 30
0.0
 11
167.3683341996
 21
255.3462461977
 31
0.0
 11
167.517299703014
 21
255.3305150306602
 31
0.0
 11
167.6605225646944
 21
255.2844565979108
 31
0.0
 11
167.791056880988
 21
255.2101731831023
 31
0.0
 11
167.9040961344753
 21
255.1115000396832
 31
0.0
 11
167.9957592329853
 21
254.9927193347589
 31
0.0
 11
168.0632574055115
 21
254.8585478714681
 31
0.0
 11
168.1044506853477
 21
254.7139167159583
 31
0.0
 11
168.1183341996
 21
254.5647084255
 31
0.0
  0
SPLINE
  5
BF
330
1F
100
AcDbEntity
  8
0
  6
Continuous
 62
     7
100
AcDbSpline
210
0.0
220
0.0
230
1.0
 70
     8
 71
     3
 72
    15
 73
    11
 74
     9
 42
0.0000000001
 43
0.0000000001
 44
0.00000001
 40
0.0
 40
0.0
 40
0.0
 40
0.0
 40
0.1498536493101515
 40
0.3002375262188486
 40
0.4504311697896237
 40
0.6004682483195122
 40
0.7505153760813841
 40
0.9007056145164942
 40
1.051151259702119
 40
1.20094418911117
 40
1.20094418911117
 40
1.20094418911117
 40
1.20094418911117
 10
168.1183341996
 20
343.393814016
 30
0.0
 10
168.1156251074747
 20
343.3437973354208
 30
0.0
 10
168.1101973376355
 20
343.2435870000975
 30
0.0
 10
168.0673878974929
 20
343.0983107759191
 30
0.0
 10
167.9999278483193
 20
342.9632980321456
 30
0.0
 10
167.9076698550601
 20
342.8436688301815
 30
0.0
 10
167.7939383909849
 20
342.7441423144202
 30
0.0
 10
167.6625573626461
 20
342.6696115514495
 30
0.0
 10
167.5185781708238
 20
342.6216047167667
 30
0.0
 10
167.4183428864929
 20
342.6153812248517
 30
0.0
 10
167.3683341996
 20
342.6122762438
 30
0.0
 11
168.1183341996
 21
343.393814016
 31
0.0
 11
168.1044505309887
 21
343.2446049011395
 31
0.0
 11
168.0632567939049
 21
343.0999730012724
 31
0.0
 11
167.9957580678458
 21
342.9658012734403
 31
0.0
 11
167.9040943030637
 21
342.8470204704469
 31
0.0
 11
167.7910550504479
 21
342.7483479417591
 31
0.0
 11
167.6605209027615
 21
342.6740650769181
 31
0.0
 11
167.5172988214636
 21
342.6280072048004
 31
0.0
 11
167.3683341996
 21
342.6122762438
 31
0.0
  0
SPLINE
  5
C0
330
1F
100
AcDbEntity
  8
0
  6
Continuous
 62
     7
100
AcDbSpline
210
0.0
220
0.0
230
1.0
 70
     8
 71
     3
 72
     9
 73
     5
 74
     3
 42
0.0000000001
 43
0.0000000001
 44
0.00000001
 40
0.0
 40
0.0
 40
0.0
 40
0.0
 40
1.366828047866222
 40
2.733656073394708
 40
2.733656073394708
 40
2.733656073394708
 40
2.733656073394708
 10
169.4462125854
 20
345.9785580905
 30
0.0
 10
169.2246561407966
 20
345.5804467190424
 30
0.0
 10
168.7815432552108
 20
344.7842239826335
 30
0.0
 10
168.3394038835993
 20
343.9874602463741
 30
0.0
 10
168.1183341996
 20
343.5890783815
 30
0.0
 11
169.4462125854
 21
345.9785580905
 31
0.0
 11
168.7817866300875
 21
344.7840887261625
 31
0.0
 11
168.1183341996
 21
343.5890783815
 31
0.0
  0
SPLINE
  5
C1
330
1F
100
AcDbEntity
  8
0
  6
Continuous
 62
     7
100
AcDbSpline
210
0.0
220
0.0
230
1.0
 70
     8
 71
     3
 72
     9
 73
     5
 74
     3
 42
0.0000000001
 43
0.0000000001
 44
0.00000001
 40
0.0
 40
0.0
 40
0.0
 40
0.0
 40
1.366828025528511
 40
2.733656073394708
 40
2.733656073394708
 40
2.733656073394708
 40
2.733656073394708
 10
168.1183341996
 20
254.36944406
 30
0.0
 10
168.3394038835993
 20
253.9710621951257
 30
0.0
 10
168.7815432552107
 20
253.1742984588664
 30
0.0
 10
169.2246561407966
 20
252.3780757224575
 30
0.0
 10
169.4462125854
 20
251.979964351
 30
0.0
 11
168.1183341996
 21
254.36944406
 31
0.0
 11
168.7817866300875
 21
253.1744337153375
 31
0.0
 11
169.4462125854
 21
251.979964351
 31
0.0
  0
SPLINE
  5
C2
330
1F
100
AcDbEntity
  8
0
  6
Continuous
 62
     7
100
AcDbSpline
210
0.0
220
0.0
230
1.0
 70
     8
 71
     3
 72
     9
 73
     5
 74
     3
 42
0.0000000001
 43
0.0000000001
 44
0.00000001
 40
0.0
 40
0.0
 40
0.0
 40
0.0
 40
1.366828047847998
 40
2.733656073394695
 40
2.733656073394695
 40
2.733656073394695
 40
2.733656073394695
 10
162.9654558138
 20
345.9785580905
 30
0.0
 10
163.187012258386
 20
345.5804467190397
 30
0.0
 10
163.6301251439432
 20
344.7842239826149
 30
0.0
 10
164.0722645155834
 20
343.9874602463716
 30
0.0
 10
164.2933341996
 20
343.5890783815
 30
0.0
 11
162.9654558138
 21
345.9785580905
 31
0.0
 11
163.629881769075
 21
344.7840887261625
 31
0.0
 11
164.2933341996
 21
343.5890783815
 31
0.0
  0
SPLINE
  5
C3
330
1F
100
AcDbEntity
  8
0
  6
Continuous
 62
     7
100
AcDbSpline
210
0.0
220
0.0
230
1.0
 70
     8
 71
     3
 72
     9
 73
     5
 74
     3
 42
0.0000000001
 43
0.0000000001
 44
0.00000001
 40
0.0
 40
0.0
 40
0.0
 40
0.0
 40
1.366828025546721
 40
2.733656073394695
 40
2.733656073394695
 40
2.733656073394695
 40
2.733656073394695
 10
164.2933341996
 20
254.36944406
 30
0.0
 10
164.0722645155835
 20
253.9710621951284
 30
0.0
 10
163.6301251439433
 20
253.1742984588851
 30
0.0
 10
163.187012258386
 20
252.3780757224602
 30
0.0
 10
162.9654558138
 20
251.979964351
 30
0.0
 11
164.2933341996
 21
254.36944406
 31
0.0
 11
163.629881769075
 21
253.1744337153375
 31
0.0
 11
162.9654558138
 21
251.979964351
 31
0.0
  0
SPLINE
  5
C4
330
1F
100
AcDbEntity
  8
0
  6
Continuous
 62
     7
100
AcDbSpline
210
0.0
220
0.0
230
1.0
 70
     8
 71
     3
 72
    15
 73
    11
 74
     9
 42
0.0000000001
 43
0.0000000001
 44
0.00000001
 40
0.0
 40
0.0
 40
0.0
 40
0.0
 40
0.1994115198643736
 40
0.3995306095204675
 40
0.5993950644765262
 40
0.7990503711684245
 40
0.9987117371811616
 40
1.198567718868715
 40
1.398751157569143
 40
1.598077977479343
 40
1.598077977479343
 40
1.598077977479343
 40
1.598077977479343
 10
158.2308341996
 20
253.0177674868
 30
0.0
 10
158.2344524202584
 20
252.9512091920593
 30
0.0
 10
158.2417017000693
 20
252.8178564344827
 30
0.0
 10
158.2988982520152
 20
252.6245854351572
 30
0.0
 10
158.3890652088643
 20
252.4451103172038
 30
0.0
 10
158.512297602879
 20
252.286269318974
 30
0.0
 10
158.6640857188114
 20
252.1543427795797
 30
0.0
 10
158.8392098501084
 20
252.0557132929828
 30
0.0
 10
159.0309139726343
 20
251.9922690273223
 30
0.0
 10
159.1642894506088
 20
251.9840600426152
 30
0.0
 10
159.2308341996
 20
251.979964351
 30
0.0
 11
158.2308341996
 21
253.0177674868
 31
0.0
 11
158.2493804073581
 21
252.8192202822556
 31
0.0
 11
158.304423819389
 21
252.6268199890209
 31
0.0
 11
158.3946257279996
 21
252.4484680447145
 31
0.0
 11
158.5170542196944
 21
252.2907546784085
 31
0.0
 11
158.6678969513483
 21
252.1599451551112
 31
0.0
 11
158.8418924999368
 21
252.0616193574399
 31
0.0
 11
159.0325925201448
 21
252.0007349470989
 31
0.0
 11
159.2308341996
 21
251.979964351
 31
0.0
  0
SPLINE
  5
C5
330
1F
100
AcDbEntity
  8
BEZUGSACHSEN
  6
Continuous
 62
     7
100
AcDbSpline
210
0.0
220
0.0
230
1.0
 70
     8
 71
     3
 72
    23
 73
    19
 74
    17
 42
0.0000000001
 43
0.0000000001
 44
0.00000001
 40
0.0
 40
0.0
 40
0.0
 40
0.0
 40
0.3437196271391694
 40
0.6874501138148355
 40
1.653172538506489
 40
2.618950141435626
 40
4.047528420143765
 40
5.476192766301407
 40
7.156584650214465
 40
8.837016060384109
 40
10.5174418595145
 40
12.1978281269623
 40
13.62647488691088
 40
15.05503556590179
 40
16.02077759451742
 40
16.98646446449008
 40
17.33017216449818
 40
17.67386900300492
 40
17.67386900300492
 40
17.67386900300492
 40
17.67386900300492
 10
269.7808341996
 20
334.9792612207
 30
0.0
 10
269.6694376785198
 20
334.9524654866651
 30
0.0
 10
269.4466411168785
 20
334.8988731720061
 30
0.0
 10
268.9095350139605
 20
334.7756295892759
 30
0.0
 10
268.1677149084563
 20
334.6174828428067
 30
0.0
 10
267.0667599168018
 20
334.411111165459
 30
0.0
 10
265.8071823286365
 20
334.2155655302329
 30
0.0
 10
264.3043150866168
 20
334.0414594684162
 30
0.0
 10
262.7113247988299
 20
333.9268254920454
 30
0.0
 10
261.0307544305818
 20
333.886163277655
 30
0.0
 10
259.3501860999919
 20
333.9268321735302
 30
0.0
 10
257.7572058567628
 20
334.0414719739928
 30
0.0
 10
256.2543528662974
 20
334.2155828126575
 30
0.0
 10
254.9947993864365
 20
334.4111299398081
 30
0.0
 10
253.8938742121534
 20
334.6175000815251
 30
0.0
 10
253.1520850218393
 20
334.7756416127033
 30
0.0
 10
252.6150052696278
 20
334.8988791009373
 30
0.0
 10
252.392223382903
 20
334.9524674630244
 30
0.0
 10
252.2808341996
 20
334.9792612207
 30
0.0
 11
269.7808341996
 21
334.9792612207
 31
0.0
 11
269.4465066493445
 21
334.8994597719611
 31
0.0
 11
269.1115130174468
 21
334.8224538367462
 31
0.0
 11
268.1669527118833
 21
334.621392575669
 31
0.0
 11
267.2176932751617
 21
334.4435361725947
 31
0.0
 11
265.8059759076711
 21
334.224698395412
 31
0.0
 11
264.3867677740178
 21
334.0605945034582
 31
0.0
 11
262.710697317338
 21
333.9401590113227
 31
0.0
 11
261.0307525876195
 21
333.8997185689913
 31
0.0
 11
259.3508136308698
 21
333.9401656699692
 31
0.0
 11
257.6747492736696
 21
334.0606076823665
 31
0.0
 11
256.2555592999741
 21
334.2247155227452
 31
0.0
 11
254.8438602101288
 21
334.4435563171346
 31
0.0
 11
253.8946363419406
 21
334.6214093854138
 31
0.0
 11
252.9501111423842
 21
334.822464796285
 31
0.0
 11
252.6151397042932
 21
334.8994655671131
 31
0.0
 11
252.2808341996
 21
334.9792612207
 31
0.0
  0
SPLINE
  5
C6
330
1F
100
AcDbEntity
  8
BEZUGSACHSEN
  6
Continuous
 62
     7
100
AcDbSpline
210
0.0
220
0.0
230
1.0
 70
     8
 71
     3
 72
    23
 73
    19
 74
    17
 42
0.0000000001
 43
0.0000000001
 44
0.00000001
 40
0.0
 40
0.0
 40
0.0
 40
0.0
 40
0.3437196271391694
 40
0.6874501138148355
 40
1.653172538506461
 40
2.618950141435626
 40
4.047528420143822
 40
5.476192766301436
 40
7.156584650214493
 40
8.837016060384109
 40
10.5174418595145
 40
12.19782812696227
 40
13.62647488691088
 40
15.05503556590184
 40
16.02077759451739
 40
16.98646446449008
 40
17.33017216449818
 40
17.67386900300492
 40
17.67386900300492
 40
17.67386900300492
 40
17.67386900300492
 10
241.7808341996
 20
334.9792612207
 30
0.0
 10
241.6694376785198
 20
334.952465486665
 30
0.0
 10
241.4466411168786
 20
334.898873172006
 30
0.0
 10
240.9095350139604
 20
334.7756295892759
 30
0.0
 10
240.1677149084563
 20
334.6174828428067
 30
0.0
 10
239.066759916802
 20
334.4111111654591
 30
0.0
 10
237.8071823286364
 20
334.215565530233
 30
0.0
 10
236.3043150866168
 20
334.0414594684162
 30
0.0
 10
234.7113247988298
 20
333.9268254920454
 30
0.0
 10
233.0307544305818
 20
333.8861632776548
 30
0.0
 10
231.3501860999919
 20
333.9268321735303
 30
0.0
 10
229.7572058567629
 20
334.0414719739929
 30
0.0
 10
228.2543528662974
 20
334.2155828126575
 30
0.0
 10
226.9947993864365
 20
334.4111299398081
 30
0.0
 10
225.8938742121533
 20
334.617500081525
 30
0.0
 10
225.1520850218394
 20
334.7756416127033
 30
0.0
 10
224.6150052696278
 20
334.8988791009373
 30
0.0
 10
224.3922233829029
 20
334.9524674630243
 30
0.0
 10
224.2808341996
 20
334.9792612207
 30
0.0
 11
241.7808341996
 21
334.9792612207
 31
0.0
 11
241.4465066493445
 21
334.8994597719611
 31
0.0
 11
241.1115130174468
 21
334.8224538367462
 31
0.0
 11
240.1669527118833
 21
334.621392575669
 31
0.0
 11
239.2176932751617
 21
334.4435361725947
 31
0.0
 11
237.805975907671
 21
334.224698395412
 31
0.0
 11
236.3867677740178
 21
334.0605945034582
 31
0.0
 11
234.7106973173379
 21
333.9401590113227
 31
0.0
 11
233.0307525876195
 21
333.8997185689913
 31
0.0
 11
231.3508136308698
 21
333.9401656699692
 31
0.0
 11
229.6747492736696
 21
334.0606076823665
 31
0.0
 11
228.2555592999741
 21
334.2247155227452
 31
0.0
 11
226.8438602101288
 21
334.4435563171346
 31
0.0
 11
225.8946363419406
 21
334.6214093854138
 31
0.0
 11
224.9501111423842
 21
334.822464796285
 31
0.0
 11
224.6151397042932
 21
334.8994655671131
 31
0.0
 11
224.2808341996
 21
334.9792612207
 31
0.0
  0
DIMENSION
  5
D1
330
1F
100
AcDbEntity
  8
1
100
AcDbDimension
  2
*D2
 10
298.667065217373
 20
314.9792612207
 30
0.0
 11
294.917065217373
 21
298.272782335118
 31
0.0
 70
    32
  1
<>
 71
     5
 42
-1.0
 53
90.0
  3
ME10_DIM_10
100
AcDbAlignedDimension
 13
285.0308341996
 23
282.9792612207
 33
0.0
 14
285.0308341996
 24
314.9792612207
 34
0.0
 50
90.0
100
AcDbRotatedDimension
  0
DIMENSION
  5
DC
330
1F
100
AcDbEntity
  8
1
100
AcDbDimension
  2
*D3
 10
307.170208684023
 20
334.9792612207
 30
0.0
 11
303.420208684023
 21
298.914529011846
 31
0.0
 70
    32
  1
<>
 71
     5
 42
-1.0
 53
90.0
  3
ME10_DIM_11
100
AcDbAlignedDimension
 13
272.7628850072
 23
262.9792612207
 33
0.0
 14
272.7628850072
 24
334.9792612207
 34
0.0
 50
90.0
100
AcDbRotatedDimension
  0
DIMENSION
  5
E7
330
1F
100
AcDbEntity
  8
1
100
AcDbDimension
  2
*D4
 10
285.0308341996
 20
353.783869872116
 30
0.0
 11
230.5203951381776
 21
357.533869872116
 31
0.0
 70
    32
  1
<>
 71
     5
 42
-1.0
 53
0.00013888888889
  3
ME10_DIM_12
100
AcDbAlignedDimension
 13
174.1308341996
 23
344.9407549546
 33
0.0
 14
285.0308341996
 24
327.4737077213
 34
0.0
100
AcDbRotatedDimension
  0
DIMENSION
  5
F2
330
1F
100
AcDbEntity
  8
1
100
AcDbDimension
  2
*D5
 10
285.0308341996
 20
361.805703331219
 30
0.0
 11
219.7480018879004
 21
365.555703331219
 31
0.0
 70
    32
  1
<>
 71
     5
 42
-1.0
 53
0.00013888888889
  3
ME10_DIM_13
100
AcDbAlignedDimension
 13
155.0308341996
 23
340.0167612207
 33
0.0
 14
285.0308341996
 24
327.4737077213
 34
0.0
100
AcDbRotatedDimension
  0
DIMENSION
  5
FD
330
1F
100
AcDbEntity
  8
1
100
AcDbDimension
  2
*D6
 10
285.0308341996001
 20
369.987973459505
 30
0.0
 11
194.6588482902501
 21
373.737973459505
 31
0.0
 70
    32
  1
<>
 71
     5
 42
-1.0
 53
0.00013888888889
  3
ME10_DIM_14
100
AcDbAlignedDimension
 13
53.28083419959997
 23
317.1407082219
 33
0.0
 14
285.0308341996
 24
327.4737077213
 34
0.0
100
AcDbRotatedDimension
  0
INSERT
  5
104
330
1F
100
AcDbEntity
  8
1
100
AcDbBlockReference
  2
*D7
 10
0.0
 20
0.0
 30
0.0
  0
ENDSEC
  0
SECTION
  2
OBJECTS
  0
DICTIONARY
  5
C
330
0
100
AcDbDictionary
281
     1
  3
ACAD_GROUP
350
D
  3
ACAD_LAYOUT
350
1A
  3
ACAD_MLEADERSTYLE
350
107
  3
ACAD_MLINESTYLE
350
17
  3
ACAD_PLOTSETTINGS
350
19
  3
ACAD_PLOTSTYLENAME
350
E
  3
ACAD_SCALELIST
350
4A
  3
ACAD_VISUALSTYLE
350
2A
  3
AcDbVariableDictionary
350
105
  0
DICTIONARY
  5
D
102
{ACAD_REACTORS
330
C
102
}
330
C
100
AcDbDictionary
281
     1
  0
DICTIONARY
  5
1A
102
{ACAD_REACTORS
330
C
102
}
330
C
100
AcDbDictionary
281
     1
  3
Layout1
350
1E
  3
Layout2
350
26
  3
Model
350
22
  0
DICTIONARY
  5
107
102
{ACAD_REACTORS
330
C
102
}
330
C
100
AcDbDictionary
281
     1
  0
DICTIONARY
  5
17
102
{ACAD_REACTORS
330
C
102
}
330
C
100
AcDbDictionary
281
     1
  3
Standard
350
18
  0
DICTIONARY
  5
19
102
{ACAD_REACTORS
330
C
102
}
330
C
100
AcDbDictionary
281
     1
  0
ACDBDICTIONARYWDFLT
  5
E
102
{ACAD_REACTORS
330
C
102
}
330
C
100
AcDbDictionary
281
     1
  3
Normal
350
F
100
AcDbDictionaryWithDefault
340
F
  0
DICTIONARY
  5
4A
102
{ACAD_REACTORS
330
C
102
}
330
C
100
AcDbDictionary
281
     1
  3
A0
350
4B
  3
A1
350
4C
  3
A2
350
4D
  3
A3
350
4E
  3
A4
350
4F
  3
A5
350
50
  3
A6
350
51
  3
A7
350
52
  3
A8
350
53
  3
A9
350
54
  3
B0
350
55
  3
B1
350
56
  3
B2
350
57
  3
B3
350
58
  3
B4
350
59
  3
B5
350
5A
  3
B6
350
5B
  3
B7
350
5C
  3
B8
350
5D
  3
B9
350
5E
  3
C0
350
5F
  3
C1
350
60
  3
C2
350
61
  3
C3
350
62
  3
C4
350
63
  3
C5
350
64
  3
C6
350
65
  3
C7
350
66
  3
C8
350
67
  3
C9
350
68
  3
D0
350
69
  3
D1
350
6A
  3
D2
350
6B
  0
DICTIONARY
  5
2A
102
{ACAD_REACTORS
330
C
102
}
330
C
100
AcDbDictionary
281
     1
  3
2dWireframe
350
2F
  3
3D Hidden
350
31
  3
3dWireframe
350
30
  3
Basic
350
32
  3
Brighten
350
36
  3
ColorChange
350
3A
  3
Conceptual
350
34
  3
Dim
350
35
  3
Facepattern
350
39
  3
Flat
350
2B
  3
FlatWithEdges
350
2C
  3
Gouraud
350
2D
  3
GouraudWithEdges
350
2E
  3
Linepattern
350
38
  3
Realistic
350
33
  3
Thicken
350
37
  0
DICTIONARY
  5
105
102
{ACAD_REACTORS
330
C
102
}
330
C
100
AcDbDictionary
281
     1
  3
CANNOSCALE
350
108
  0
LAYOUT
  5
1E
102
{ACAD_REACTORS
330
1A
102
}
330
1A
100
AcDbPlotSettings
  1

  2
none_device
  4

  6

 40
0.0
 41
0.0
 42
0.0
 43
0.0
 44
0.0
 45
0.0
 46
0.0
 47
0.0
 48
0.0
 49
0.0
140
0.0
141
0.0
142
1.0
143
1.0
 70
   688
 72
     0
 73
     0
 74
     5
  7

 75
    16
147
1.0
148
0.0
149
0.0
100
AcDbLayout
  1
Layout1
 70
     1
 71
     1
 10
0.0
 20
0.0
 11
12.0
 21
9.0
 12
0.0
 22
0.0
 32
0.0
 14
1.00000000000000E+20
 24
1.00000000000000E+20
 34
1.00000000000000E+20
 15
-1.00000000000000E+20
 25
-1.00000000000000E+20
 35
-1.00000000000000E+20
146
0.0
 13
0.0
 23
0.0
 33
0.0
 16
1.0
 26
0.0
 36
0.0
 17
0.0
 27
1.0
 37
0.0
 76
     0
330
1B
  0
LAYOUT
  5
26
102
{ACAD_REACTORS
330
1A
102
}
330
1A
100
AcDbPlotSettings
  1

  2
none_device
  4

  6

 40
0.0
 41
0.0
 42
0.0
 43
0.0
 44
0.0
 45
0.0
 46
0.0
 47
0.0
 48
0.0
 49
0.0
140
0.0
141
0.0
142
1.0
143
1.0
 70
   688
 72
     0
 73
     0
 74
     5
  7

 75
    16
147
1.0
148
0.0
149
0.0
100
AcDbLayout
  1
Layout2
 70
     1
 71
     2
 10
0.0
 20
0.0
 11
0.0
 21
0.0
 12
0.0
 22
0.0
 32
0.0
 14
0.0
 24
0.0
 34
0.0
 15
0.0
 25
0.0
 35
0.0
146
0.0
 13
0.0
 23
0.0
 33
0.0
 16
1.0
 26
0.0
 36
0.0
 17
0.0
 27
1.0
 37
0.0
 76
     0
330
23
  0
LAYOUT
  5
22
102
{ACAD_REACTORS
330
1A
102
}
330
1A
100
AcDbPlotSettings
  1

  2
none_device
  4

  6

 40
0.0
 41
0.0
 42
0.0
 43
0.0
 44
0.0
 45
0.0
 46
0.0
 47
0.0
 48
0.0
 49
0.0
140
0.0
141
0.0
142
1.0
143
1.0
 70
  1712
 72
     0
 73
     0
 74
     0
  7

 75
     0
147
1.0
148
0.0
149
0.0
100
AcDbLayout
  1
Model
 70
     1
 71
     0
 10
0.0
 20
0.0
 11
12.0
 21
9.0
 12
0.0
 22
0.0
 32
0.0
 14
29.2535450165585
 24
251.9662960717674
 34
0.0
 15
309.170208684023
 25
375.487973459505
 35
0.0
146
0.0
 13
0.0
 23
0.0
 33
0.0
 16
1.0
 26
0.0
 36
0.0
 17
0.0
 27
1.0
 37
0.0
 76
     0
330
1F
331
29
  0
MLINESTYLE
  5
18
102
{ACAD_REACTORS
330
17
102
}
330
17
100
AcDbMlineStyle
  2
Standard
 70
     0
  3

 62
   256
 51
90.0
 52
90.0
 71
     2
 49
0.5
 62
   256
  6
BYLAYER
 49
-0.5
 62
   256
  6
BYLAYER
  0
ACDBPLACEHOLDER
  5
F
102
{ACAD_REACTORS
330
E
102
}
330
E
  0
SCALE
  5
4B
102
{ACAD_REACTORS
330
4A
102
}
330
4A
100
AcDbScale
 70
     0
300
1:1
140
1.0
141
1.0
290
     1
  0
SCALE
  5
4C
102
{ACAD_REACTORS
330
4A
102
}
330
4A
100
AcDbScale
 70
     0
300
1:2
140
1.0
141
2.0
290
     0
  0
SCALE
  5
4D
102
{ACAD_REACTORS
330
4A
102
}
330
4A
100
AcDbScale
 70
     0
300
1:4
140
1.0
141
4.0
290
     0
  0
SCALE
  5
4E
102
{ACAD_REACTORS
330
4A
102
}
330
4A
100
AcDbScale
 70
     0
300
1:5
140
1.0
141
5.0
290
     0
  0
SCALE
  5
4F
102
{ACAD_REACTORS
330
4A
102
}
330
4A
100
AcDbScale
 70
     0
300
1:8
140
1.0
141
8.0
290
     0
  0
SCALE
  5
50
102
{ACAD_REACTORS
330
4A
102
}
330
4A
100
AcDbScale
 70
     0
300
1:10
140
1.0
141
10.0
290
     0
  0
SCALE
  5
51
102
{ACAD_REACTORS
330
4A
102
}
330
4A
100
AcDbScale
 70
     0
300
1:16
140
1.0
141
16.0
290
     0
  0
SCALE
  5
52
102
{ACAD_REACTORS
330
4A
102
}
330
4A
100
AcDbScale
 70
     0
300
1:20
140
1.0
141
20.0
290
     0
  0
SCALE
  5
53
102
{ACAD_REACTORS
330
4A
102
}
330
4A
100
AcDbScale
 70
     0
300
1:30
140
1.0
141
30.0
290
     0
  0
SCALE
  5
54
102
{ACAD_REACTORS
330
4A
102
}
330
4A
100
AcDbScale
 70
     0
300
1:40
140
1.0
141
40.0
290
     0
  0
SCALE
  5
55
102
{ACAD_REACTORS
330
4A
102
}
330
4A
100
AcDbScale
 70
     0
300
1:50
140
1.0
141
50.0
290
     0
  0
SCALE
  5
56
102
{ACAD_REACTORS
330
4A
102
}
330
4A
100
AcDbScale
 70
     0
300
1:100
140
1.0
141
100.0
290
     0
  0
SCALE
  5
57
102
{ACAD_REACTORS
330
4A
102
}
330
4A
100
AcDbScale
 70
     0
300
2:1
140
2.0
141
1.0
290
     0
  0
SCALE
  5
58
102
{ACAD_REACTORS
330
4A
102
}
330
4A
100
AcDbScale
 70
     0
300
4:1
140
4.0
141
1.0
290
     0
  0
SCALE
  5
59
102
{ACAD_REACTORS
330
4A
102
}
330
4A
100
AcDbScale
 70
     0
300
8:1
140
8.0
141
1.0
290
     0
  0
SCALE
  5
5A
102
{ACAD_REACTORS
330
4A
102
}
330
4A
100
AcDbScale
 70
     0
300
10:1
140
10.0
141
1.0
290
     0
  0
SCALE
  5
5B
102
{ACAD_REACTORS
330
4A
102
}
330
4A
100
AcDbScale
 70
     0
300
100:1
140
100.0
141
1.0
290
     0
  0
SCALE
  5
5C
102
{ACAD_REACTORS
330
4A
102
}
330
4A
100
AcDbScale
 70
     0
300
1/128" = 1'-0"
140
0.0078125
141
12.0
290
     0
  0
SCALE
  5
5D
102
{ACAD_REACTORS
330
4A
102
}
330
4A
100
AcDbScale
 70
     0
300
1/64" = 1'-0"
140
0.015625
141
12.0
290
     0
  0
SCALE
  5
5E
102
{ACAD_REACTORS
330
4A
102
}
330
4A
100
AcDbScale
 70
     0
300
1/32" = 1'-0"
140
0.03125
141
12.0
290
     0
  0
SCALE
  5
5F
102
{ACAD_REACTORS
330
4A
102
}
330
4A
100
AcDbScale
 70
     0
300
1/16" = 1'-0"
140
0.0625
141
12.0
290
     0
  0
SCALE
  5
60
102
{ACAD_REACTORS
330
4A
102
}
330
4A
100
AcDbScale
 70
     0
300
3/32" = 1'-0"
140
0.09375
141
12.0
290
     0
  0
SCALE
  5
61
102
{ACAD_REACTORS
330
4A
102
}
330
4A
100
AcDbScale
 70
     0
300
1/8" = 1'-0"
140
0.125
141
12.0
290
     0
  0
SCALE
  5
62
102
{ACAD_REACTORS
330
4A
102
}
330
4A
100
AcDbScale
 70
     0
300
3/16" = 1'-0"
140
0.1875
141
12.0
290
     0
  0
SCALE
  5
63
102
{ACAD_REACTORS
330
4A
102
}
330
4A
100
AcDbScale
 70
     0
300
1/4" = 1'-0"
140
0.25
141
12.0
290
     0
  0
SCALE
  5
64
102
{ACAD_REACTORS
330
4A
102
}
330
4A
100
AcDbScale
 70
     0
300
3/8" = 1'-0"
140
0.375
141
12.0
290
     0
  0
SCALE
  5
65
102
{ACAD_REACTORS
330
4A
102
}
330
4A
100
AcDbScale
 70
     0
300
1/2" = 1'-0"
140
0.5
141
12.0
290
     0
  0
SCALE
  5
66
102
{ACAD_REACTORS
330
4A
102
}
330
4A
100
AcDbScale
 70
     0
300
3/4" = 1'-0"
140
0.75
141
12.0
290
     0
  0
SCALE
  5
67
102
{ACAD_REACTORS
330
4A
102
}
330
4A
100
AcDbScale
 70
     0
300
1" = 1'-0"
140
1.0
141
12.0
290
     0
  0
SCALE
  5
68
102
{ACAD_REACTORS
330
4A
102
}
330
4A
100
AcDbScale
 70
     0
300
1-1/2" = 1'-0"
140
1.5
141
12.0
290
     0
  0
SCALE
  5
69
102
{ACAD_REACTORS
330
4A
102
}
330
4A
100
AcDbScale
 70
     0
300
3" = 1'-0"
140
3.0
141
12.0
290
     0
  0
SCALE
  5
6A
102
{ACAD_REACTORS
330
4A
102
}
330
4A
100
AcDbScale
 70
     0
300
6" = 1'-0"
140
6.0
141
12.0
290
     0
  0
SCALE
  5
6B
102
{ACAD_REACTORS
330
4A
102
}
330
4A
100
AcDbScale
 70
     0
300
1'-0" = 1'-0"
140
12.0
141
12.0
290
     0
  0
VISUALSTYLE
  5
2F
102
{ACAD_REACTORS
330
2A
102
}
330
2A
100
AcDbVisualStyle
  2
2dWireframe
 70
     4
 71
     0
 72
     2
 73
     0
 90
        0
 40
-0.6
 41
-30.0
 62
     5
 63
     7
 74
     1
 91
        4
 64
     7
 65
   257
 75
     1
175
     1
 42
1.0
 92
        0
 66
   257
 43
1.0
 76
     1
 77
     6
 78
     2
 67
     7
 79
     5
170
     0
171
     0
290
     0
174
     0
 93
        1
 44
0.0
173
     0
291
     0
 45
0.0
1001
ACAD
1000
AcDbSavedByObjectVersion
1070
     0
  0
VISUALSTYLE
  5
31
102
{ACAD_REACTORS
330
2A
102
}
330
2A
100
AcDbVisualStyle
  2
3D Hidden
 70
     6
 71
     1
 72
     2
 73
     2
 90
        0
 40
-0.6
 41
-30.0
 62
     5
 63
     7
 74
     2
 91
        2
 64
     7
 65
   257
 75
     2
175
     1
 42
40.0
 92
        0
 66
   257
 43
1.0
 76
     1
 77
     6
 78
     2
 67
     7
 79
     3
170
     0
171
     0
290
     0
174
     0
 93
        1
 44
0.0
173
     0
291
     0
 45
0.0
1001
ACAD
1000
AcDbSavedByObjectVersion
1070
     0
  0
VISUALSTYLE
  5
30
102
{ACAD_REACTORS
330
2A
102
}
330
2A
100
AcDbVisualStyle
  2
3dWireframe
 70
     5
 71
     0
 72
     2
 73
     0
 90
        0
 40
-0.6
 41
-30.0
 62
     5
 63
     7
 74
     1
 91
        4
 64
     7
 65
   257
 75
     1
175
     1
 42
1.0
 92
        0
 66
   257
 43
1.0
 76
     1
 77
     6
 78
     2
 67
     7
 79
     5
170
     0
171
     0
290
     0
174
     0
 93
        1
 44
0.0
173
     0
291
     0
 45
0.0
1001
ACAD
1000
AcDbSavedByObjectVersion
1070
     0
  0
VISUALSTYLE
  5
32
102
{ACAD_REACTORS
330
2A
102
}
330
2A
100
AcDbVisualStyle
  2
Basic
 70
     7
 71
     1
 72
     0
 73
     1
 90
        0
 40
-0.6
 41
-30.0
 62
     5
 63
     7
 74
     0
 91
        4
 64
     7
 65
   257
 75
     1
175
     1
 42
1.0
 92
        8
 66
     7
 43
1.0
 76
     1
 77
     6
 78
     2
 67
     7
 79
     5
170
     0
171
     0
290
     0
174
     0
 93
        1
 44
0.0
173
     0
291
     1
 45
0.0
1001
ACAD
1000
AcDbSavedByObjectVersion
1070
     0
  0
VISUALSTYLE
  5
36
102
{ACAD_REACTORS
330
2A
102
}
330
2A
100
AcDbVisualStyle
  2
Brighten
 70
    12
 71
     2
 72
     2
 73
     0
 90
        0
 40
-0.6
 41
-30.0
 62
     5
 63
     7
 74
     1
 91
        4
 64
     7
 65
   257
 75
     1
175
     1
 42
1.0
 92
        8
 66
     7
 43
1.0
 76
     1
 77
     6
 78
     2
 67
     7
 79
     5
170
     0
171
     0
290
     0
174
     0
 93
        1
 44
50.0
173
     0
291
     1
 45
0.0
1001
ACAD
1000
AcDbSavedByObjectVersion
1070
     0
  0
VISUALSTYLE
  5
3A
102
{ACAD_REACTORS
330
2A
102
}
330
2A
100
AcDbVisualStyle
  2
ColorChange
 70
    16
 71
     2
 72
     2
 73
     3
 90
        0
 40
-0.6
 41
-30.0
 62
     5
 63
     8
 74
     1
 91
        4
 64
     7
 65
   257
 75
     1
175
     1
 42
1.0
 92
        8
 66
     8
 43
1.0
 76
     1
 77
     6
 78
     2
 67
     7
 79
     5
170
     0
171
     0
290
     0
174
     0
 93
        1
 44
0.0
173
     0
291
     1
 45
0.0
1001
ACAD
1000
AcDbSavedByObjectVersion
1070
     0
  0
VISUALSTYLE
  5
34
102
{ACAD_REACTORS
330
2A
102
}
330
2A
100
AcDbVisualStyle
  2
Conceptual
 70
     9
 71
     3
 72
     2
 73
     0
 90
        0
 40
-0.6
 41
-30.0
 62
     5
 63
     7
 74
     2
 91
        2
 64
     7
 65
   257
 75
     1
175
     1
 42
40.0
 92
        8
 66
     7
 43
1.0
 76
     1
 77
     6
 78
     2
 67
     7
 79
     3
170
     0
171
     0
290
     0
174
     0
 93
        1
 44
0.0
173
     0
291
     0
 45
0.0
1001
ACAD
1000
AcDbSavedByObjectVersion
1070
     0
  0
VISUALSTYLE
  5
35
102
{ACAD_REACTORS
330
2A
102
}
330
2A
100
AcDbVisualStyle
  2
Dim
 70
    11
 71
     2
 72
     2
 73
     0
 90
        0
 40
-0.6
 41
-30.0
 62
     5
 63
     7
 74
     1
 91
        4
 64
     7
 65
   257
 75
     1
175
     1
 42
1.0
 92
        8
 66
     7
 43
1.0
 76
     1
 77
     6
 78
     2
 67
     7
 79
     5
170
     0
171
     0
290
     0
174
     0
 93
        1
 44
-50.0
173
     0
291
     1
 45
0.0
1001
ACAD
1000
AcDbSavedByObjectVersion
1070
     0
  0
VISUALSTYLE
  5
39
102
{ACAD_REACTORS
330
2A
102
}
330
2A
100
AcDbVisualStyle
  2
Facepattern
 70
    15
 71
     2
 72
     2
 73
     0
 90
        0
 40
-0.6
 41
-30.0
 62
     5
 63
     7
 74
     1
 91
        4
 64
     7
 65
   257
 75
     1
175
     1
 42
1.0
 92
        8
 66
     7
 43
1.0
 76
     1
 77
     6
 78
     2
 67
     7
 79
     5
170
     0
171
     0
290
     0
174
     0
 93
        1
 44
0.0
173
     0
291
     1
 45
0.0
1001
ACAD
1000
AcDbSavedByObjectVersion
1070
     0
  0
VISUALSTYLE
  5
2B
102
{ACAD_REACTORS
330
2A
102
}
330
2A
100
AcDbVisualStyle
  2
Flat
 70
     0
 71
     2
 72
     1
 73
     1
 90
        2
 40
-0.6
 41
30.0
 62
     5
 63
     7
 74
     0
 91
        4
 64
     7
 65
   257
 75
     1
175
     1
 42
1.0
 92
        8
 66
     7
 43
1.0
 76
     1
 77
     6
 78
     2
 67
     7
 79
     5
170
     0
171
     0
290
     0
174
     0
 93
       13
 44
0.0
173
     0
291
     1
 45
0.0
1001
ACAD
1000
AcDbSavedByObjectVersion
1070
     0
  0
VISUALSTYLE
  5
2C
102
{ACAD_REACTORS
330
2A
102
}
330
2A
100
AcDbVisualStyle
  2
FlatWithEdges
 70
     1
 71
     2
 72
     1
 73
     1
 90
        2
 40
-0.6
 41
30.0
 62
     5
 63
     7
 74
     1
 91
        4
 64
     7
 65
   257
 75
     1
175
     1
 42
1.0
 92
        0
 66
   257
 43
1.0
 76
     1
 77
     6
 78
     2
 67
     7
 79
     5
170
     0
171
     0
290
     0
174
     0
 93
       13
 44
0.0
173
     0
291
     1
 45
0.0
1001
ACAD
1000
AcDbSavedByObjectVersion
1070
     0
  0
VISUALSTYLE
  5
2D
102
{ACAD_REACTORS
330
2A
102
}
330
2A
100
AcDbVisualStyle
  2
Gouraud
 70
     2
 71
     2
 72
     2
 73
     1
 90
        2
 40
-0.6
 41
30.0
 62
     5
 63
     7
 74
     0
 91
        4
 64
     7
 65
   257
 75
     1
175
     1
 42
1.0
 92
        0
 66
     7
 43
1.0
 76
     1
 77
     6
 78
     2
 67
     7
 79
     5
170
     0
171
     0
290
     0
174
     0
 93
       13
 44
0.0
173
     0
291
     1
 45
0.0
1001
ACAD
1000
AcDbSavedByObjectVersion
1070
     0
  0
VISUALSTYLE
  5
2E
102
{ACAD_REACTORS
330
2A
102
}
330
2A
100
AcDbVisualStyle
  2
GouraudWithEdges
 70
     3
 71
     2
 72
     2
 73
     1
 90
        2
 40
-0.6
 41
30.0
 62
     5
 63
     7
 74
     1
 91
        4
 64
     7
 65
   257
 75
     1
175
     1
 42
1.0
 92
        0
 66
   257
 43
1.0
 76
     1
 77
     6
 78
     2
 67
     7
 79
     5
170
     0
171
     0
290
     0
174
     0
 93
       13
 44
0.0
173
     0
291
     1
 45
0.0
1001
ACAD
1000
AcDbSavedByObjectVersion
1070
     0
  0
VISUALSTYLE
  5
38
102
{ACAD_REACTORS
330
2A
102
}
330
2A
100
AcDbVisualStyle
  2
Linepattern
 70
    14
 71
     2
 72
     2
 73
     0
 90
        0
 40
-0.6
 41
-30.0
 62
     5
 63
     7
 74
     1
 91
        4
 64
     7
 65
   257
 75
     7
175
     7
 42
1.0
 92
        8
 66
     7
 43
1.0
 76
     1
 77
     6
 78
     2
 67
     7
 79
     5
170
     0
171
     0
290
     0
174
     0
 93
        1
 44
0.0
173
     0
291
     1
 45
0.0
1001
ACAD
1000
AcDbSavedByObjectVersion
1070
     0
  0
VISUALSTYLE
  5
33
102
{ACAD_REACTORS
330
2A
102
}
330
2A
100
AcDbVisualStyle
  2
Realistic
 70
     8
 71
     2
 72
     2
 73
     0
 90
        0
 40
-0.6
 41
-30.0
 62
     5
 63
     7
 74
     1
 91
        0
 64
     7
 65
   257
 75
     1
175
     1
 42
1.0
 92
        8
 66
     8
 43
1.0
 76
     1
 77
     6
 78
     2
 67
     7
 79
     5
170
     0
171
     0
290
     0
174
     0
 93
       13
 44
0.0
173
     0
291
     0
 45
0.0
1001
ACAD
1000
AcDbSavedByObjectVersion
1070
     0
  0
VISUALSTYLE
  5
37
102
{ACAD_REACTORS
330
2A
102
}
330
2A
100
AcDbVisualStyle
  2
Thicken
 70
    13
 71
     2
 72
     2
 73
     0
 90
        0
 40
-0.6
 41
-30.0
 62
     5
 63
     7
 74
     1
 91
        4
 64
     7
 65
   257
 75
     1
175
     1
 42
1.0
 92
       12
 66
     7
 43
1.0
 76
     1
 77
     6
 78
     2
 67
     7
 79
     5
170
     0
171
     0
290
     0
174
     0
 93
        1
 44
0.0
173
     0
291
     1
 45
0.0
1001
ACAD
1000
AcDbSavedByObjectVersion
1070
     0
  0
DICTIONARYVAR
  5
108
102
{ACAD_REACTORS
330
105
102
}
330
105
100
DictionaryVariables
280
     0
  1
1:1
  0
ENDSEC
  0
EOF
