  0
SECTION
  2
HEADER
  9
$ACADVER
  1
AC1015
  9
$ACADMAINTVER
 70
     6
  9
$DWGCODEPAGE
  3
ANSI_1252
  9
$INSBASE
 10
0.0
 20
0.0
 30
0.0
  9
$EXTMIN
 10
20.4924223372934
 20
233.2254165339
 30
0.0
  9
$EXTMAX
 10
268.346363589164
 20
358.55755515252
 30
0.0
  9
$LIMMIN
 10
0.0
 20
0.0
  9
$LIMMAX
 10
12.0
 20
9.0
  9
$ORTHOMODE
 70
     0
  9
$REGENMODE
 70
     1
  9
$FILLMODE
 70
     1
  9
$QTEXTMODE
 70
     0
  9
$MIRRTEXT
 70
     1
  9
$LTSCALE
 40
1.0
  9
$ATTMODE
 70
     1
  9
$TEXTSIZE
 40
0.2
  9
$TRACEWID
 40
0.05
  9
$TEXTSTYLE
  7
Standard
  9
$CLAYER
  8
0
  9
$CELTYPE
  6
ByLayer
  9
$CECOLOR
 62
   256
  9
$CELTSCALE
 40
1.0
  9
$DISPSILH
 70
     0
  9
$DIMSCALE
 40
1.0
  9
$DIMASZ
 40
0.18
  9
$DIMEXO
 40
0.0625
  9
$DIMDLI
 40
0.38
  9
$DIMRND
 40
0.0
  9
$DIMDLE
 40
0.0
  9
$DIMEXE
 40
0.18
  9
$DIMTP
 40
0.0
  9
$DIMTM
 40
0.0
  9
$DIMTXT
 40
0.18
  9
$DIMCEN
 40
0.09
  9
$DIMTSZ
 40
0.0
  9
$DIMTOL
 70
     0
  9
$DIMLIM
 70
     0
  9
$DIMTIH
 70
     1
  9
$DIMTOH
 70
     1
  9
$DIMSE1
 70
     0
  9
$DIMSE2
 70
     0
  9
$DIMTAD
 70
     0
  9
$DIMZIN
 70
     0
  9
$DIMBLK
  1

  9
$DIMASO
 70
     1
  9
$DIMSHO
 70
     1
  9
$DIMPOST
  1

  9
$DIMAPOST
  1

  9
$DIMALT
 70
     0
  9
$DIMALTD
 70
     2
  9
$DIMALTF
 40
25.4
  9
$DIMLFAC
 40
1.0
  9
$DIMTOFL
 70
     0
  9
$DIMTVP
 40
0.0
  9
$DIMTIX
 70
     0
  9
$DIMSOXD
 70
     0
  9
$DIMSAH
 70
     0
  9
$DIMBLK1
  1

  9
$DIMBLK2
  1

  9
$DIMSTYLE
  2
Standard
  9
$DIMCLRD
 70
     0
  9
$DIMCLRE
 70
     0
  9
$DIMCLRT
 70
     0
  9
$DIMTFAC
 40
1.0
  9
$DIMGAP
 40
0.09
  9
$DIMJUST
 70
     0
  9
$DIMSD1
 70
     0
  9
$DIMSD2
 70
     0
  9
$DIMTOLJ
 70
     1
  9
$DIMTZIN
 70
     0
  9
$DIMALTZ
 70
     0
  9
$DIMALTTZ
 70
     0
  9
$DIMUPT
 70
     0
  9
$DIMDEC
 70
     4
  9
$DIMTDEC
 70
     4
  9
$DIMALTU
 70
     2
  9
$DIMALTTD
 70
     2
  9
$DIMTXSTY
  7
Standard
  9
$DIMAUNIT
 70
     0
  9
$DIMADEC
 70
     0
  9
$DIMALTRND
 40
0.0
  9
$DIMAZIN
 70
     0
  9
$DIMDSEP
 70
    46
  9
$DIMATFIT
 70
     3
  9
$DIMFRAC
 70
     0
  9
$DIMLDRBLK
  1

  9
$DIMLUNIT
 70
     2
  9
$DIMLWD
 70
    -2
  9
$DIMLWE
 70
    -2
  9
$DIMTMOVE
 70
     0
  9
$LUNITS
 70
     2
  9
$LUPREC
 70
     4
  9
$SKETCHINC
 40
0.1
  9
$FILLETRAD
 40
0.5
  9
$AUNITS
 70
     0
  9
$AUPREC
 70
     0
  9
$MENU
  1
.
  9
$ELEVATION
 40
0.0
  9
$PELEVATION
 40
0.0
  9
$THICKNESS
 40
0.0
  9
$LIMCHECK
 70
     0
  9
$CHAMFERA
 40
0.5
  9
$CHAMFERB
 40
0.5
  9
$CHAMFERC
 40
1.0
  9
$CHAMFERD
 40
0.0
  9
$SKPOLY
 70
     0
  9
$TDCREATE
 40
2456821.36754331
  9
$TDUCREATE
 40
2456821.284209977
  9
$TDUPDATE
 40
2456821.367543322
  9
$TDUUPDATE
 40
2456821.284209989
  9
$TDINDWG
 40
0.0000000116
  9
$TDUSRTIMER
 40
0.0000000116
  9
$USRTIMER
 70
     1
  9
$ANGBASE
 50
0.0
  9
$ANGDIR
 70
     0
  9
$PDMODE
 70
     0
  9
$PDSIZE
 40
0.0
  9
$PLINEWID
 40
0.0
  9
$SPLFRAME
 70
     0
  9
$SPLINETYPE
 70
     6
  9
$SPLINESEGS
 70
     8
  9
$HANDSEED
  5
109
  9
$SURFTAB1
 70
     6
  9
$SURFTAB2
 70
     6
  9
$SURFTYPE
 70
     6
  9
$SURFU
 70
     6
  9
$SURFV
 70
     6
  9
$UCSBASE
  2

  9
$UCSNAME
  2

  9
$UCSORG
 10
0.0
 20
0.0
 30
0.0
  9
$UCSXDIR
 10
1.0
 20
0.0
 30
0.0
  9
$UCSYDIR
 10
0.0
 20
1.0
 30
0.0
  9
$UCSORTHOREF
  2

  9
$UCSORTHOVIEW
 70
     0
  9
$UCSORGTOP
 10
0.0
 20
0.0
 30
0.0
  9
$UCSORGBOTTOM
 10
0.0
 20
0.0
 30
0.0
  9
$UCSORGLEFT
 10
0.0
 20
0.0
 30
0.0
  9
$UCSORGRIGHT
 10
0.0
 20
0.0
 30
0.0
  9
$UCSORGFRONT
 10
0.0
 20
0.0
 30
0.0
  9
$UCSORGBACK
 10
0.0
 20
0.0
 30
0.0
  9
$PUCSBASE
  2

  9
$PUCSNAME
  2

  9
$PUCSORG
 10
0.0
 20
0.0
 30
0.0
  9
$PUCSXDIR
 10
1.0
 20
0.0
 30
0.0
  9
$PUCSYDIR
 10
0.0
 20
1.0
 30
0.0
  9
$PUCSORTHOREF
  2

  9
$PUCSORTHOVIEW
 70
     0
  9
$PUCSORGTOP
 10
0.0
 20
0.0
 30
0.0
  9
$PUCSORGBOTTOM
 10
0.0
 20
0.0
 30
0.0
  9
$PUCSORGLEFT
 10
0.0
 20
0.0
 30
0.0
  9
$PUCSORGRIGHT
 10
0.0
 20
0.0
 30
0.0
  9
$PUCSORGFRONT
 10
0.0
 20
0.0
 30
0.0
  9
$PUCSORGBACK
 10
0.0
 20
0.0
 30
0.0
  9
$USERI1
 70
     0
  9
$USERI2
 70
     0
  9
$USERI3
 70
     0
  9
$USERI4
 70
     0
  9
$USERI5
 70
     0
  9
$USERR1
 40
16.5
  9
$USERR2
 40
0.0
  9
$USERR3
 40
0.0
  9
$USERR4
 40
0.0
  9
$USERR5
 40
0.0
  9
$WORLDVIEW
 70
     1
  9
$SHADEDGE
 70
     3
  9
$SHADEDIF
 70
    70
  9
$TILEMODE
 70
     1
  9
$MAXACTVP
 70
    64
  9
$PINSBASE
 10
0.0
 20
0.0
 30
0.0
  9
$PLIMCHECK
 70
     0
  9
$PEXTMIN
 10
1.00000000000000E+20
 20
1.00000000000000E+20
 30
1.00000000000000E+20
  9
$PEXTMAX
 10
-1.00000000000000E+20
 20
-1.00000000000000E+20
 30
-1.00000000000000E+20
  9
$PLIMMIN
 10
0.0
 20
0.0
  9
$PLIMMAX
 10
12.0
 20
9.0
  9
$UNITMODE
 70
     0
  9
$VISRETAIN
 70
     1
  9
$PLINEGEN
 70
     0
  9
$PSLTSCALE
 70
     1
  9
$TREEDEPTH
 70
  3020
  9
$CMLSTYLE
  2
Standard
  9
$CMLJUST
 70
     0
  9
$CMLSCALE
 40
1.0
  9
$PROXYGRAPHICS
 70
     1
  9
$MEASUREMENT
 70
     1
  9
$CELWEIGHT
370
    -1
  9
$ENDCAPS
280
     0
  9
$JOINSTYLE
280
     0
  9
$LWDISPLAY
290
     0
  9
$INSUNITS
 70
     1
  9
$HYPERLINKBASE
  1

  9
$STYLESHEET
  1

  9
$XEDIT
290
     1
  9
$CEPSNTYPE
380
     0
  9
$PSTYLEMODE
290
     1
  9
$FINGERPRINTGUID
  2
{A88AA7F1-616E-43C8-BF7C-426D1F88F174}
  9
$VERSIONGUID
  2
{FAEB1C32-E019-11D5-929B-00C0DF256EC4}
  9
$EXTNAMES
290
     1
  9
$PSVPSCALE
 40
0.0
  9
$OLESTARTUP
290
     0
  0
ENDSEC
  0
SECTION
  2
CLASSES
  0
CLASS
  1
ACDBDICTIONARYWDFLT
  2
AcDbDictionaryWithDefault
  3
ObjectDBX Classes
 90
        0
280
     0
281
     0
  0
CLASS
  1
VISUALSTYLE
  2
AcDbVisualStyle
  3
ObjectDBX Classes
 90
     4095
280
     0
281
     0
  0
CLASS
  1
SCALE
  2
AcDbScale
  3
ObjectDBX Classes
 90
     1153
280
     0
281
     0
  0
CLASS
  1

  2
exOdDbPolyline
  3

 90
        0
280
     0
281
     1
  0
CLASS
  1

  2
exOdDbSpline
  3

 90
        0
280
     0
281
     1
  0
CLASS
  1
DICTIONARYVAR
  2
AcDbDictionaryVar
  3
ObjectDBX Classes
 90
        0
280
     0
281
     0
  0
CLASS
  1
ACDBPLACEHOLDER
  2
AcDbPlaceHolder
  3
ObjectDBX Classes
 90
        0
280
     0
281
     0
  0
CLASS
  1
LAYOUT
  2
AcDbLayout
  3
ObjectDBX Classes
 90
        0
280
     0
281
     0
  0
ENDSEC
  0
SECTION
  2
TABLES
  0
TABLE
  2
VPORT
  5
8
330
0
100
AcDbSymbolTable
 70
     1
  0
VPORT
  5
29
330
8
100
AcDbSymbolTableRecord
100
AcDbViewportTableRecord
  2
*Active
 70
     0
 10
0.0
 20
0.0
 11
1.0
 21
1.0
 12
144.4193929632287
 22
295.89148584321
 13
0.0
 23
0.0
 14
0.5
 24
0.5
 15
0.5
 25
0.5
 16
0.0
 26
0.0
 36
1.0
 17
0.0
 27
0.0
 37
0.0
 40
170.1147942185542
 41
1.60267857142857
 42
50.0
 43
0.0
 44
0.0
 50
0.0
 51
0.0
 71
     0
 72
   100
 73
     1
 74
     3
 75
     0
 76
     0
 77
     0
 78
     0
281
     0
 65
     1
110
0.0
120
0.0
130
0.0
111
1.0
121
0.0
131
0.0
112
0.0
122
1.0
132
0.0
 79
     0
146
0.0
  0
ENDTAB
  0
TABLE
  2
LTYPE
  5
5
330
0
100
AcDbSymbolTable
 70
     8
  0
LTYPE
  5
14
330
5
100
AcDbSymbolTableRecord
100
AcDbLinetypeTableRecord
  2
ByBlock
 70
     0
  3

 72
    65
 73
     0
 40
0.0
  0
LTYPE
  5
15
330
5
100
AcDbSymbolTableRecord
100
AcDbLinetypeTableRecord
  2
ByLayer
 70
     0
  3

 72
    65
 73
     0
 40
0.0
  0
LTYPE
  5
16
330
5
100
AcDbSymbolTableRecord
100
AcDbLinetypeTableRecord
  2
Continuous
 70
     0
  3
Solid line
 72
    65
 73
     0
 40
0.0
  0
LTYPE
  5
3B
330
5
100
AcDbSymbolTableRecord
100
AcDbLinetypeTableRecord
  2
DASHED
 70
     0
  3
Dashed
 72
    65
 73
     2
 40
15.0
 49
7.0
 74
     0
 49
-8.0
 74
     0
  0
LTYPE
  5
3C
330
5
100
AcDbSymbolTableRecord
100
AcDbLinetypeTableRecord
  2
DOTTED
 70
     0
  3
Dotted
 72
    65
 73
     2
 40
1.0
 49
0.0
 74
     0
 49
-1.0
 74
     0
  0
LTYPE
  5
3D
330
5
100
AcDbSymbolTableRecord
100
AcDbLinetypeTableRecord
  2
DOT_CENTER
 70
     0
  3
Dot_Center
 72
    65
 73
     4
 40
14.0
 49
12.0
 74
     0
 49
-1.0
 74
     0
 49
0.0
 74
     0
 49
-1.0
 74
     0
  0
LTYPE
  5
3E
330
5
100
AcDbSymbolTableRecord
100
AcDbLinetypeTableRecord
  2
LONG_DASHED
 70
     0
  3
Long_Dashed
 72
    65
 73
     2
 40
15.0
 49
10.0
 74
     0
 49
-5.0
 74
     0
  0
LTYPE
  5
3F
330
5
100
AcDbSymbolTableRecord
100
AcDbLinetypeTableRecord
  2
DASH_CENTER
 70
     0
  3
Dash_Center
 72
    65
 73
     4
 40
14.0
 49
11.0
 74
     0
 49
-1.0
 74
     0
 49
1.0
 74
     0
 49
-1.0
 74
     0
  0
LTYPE
  5
40
330
5
100
AcDbSymbolTableRecord
100
AcDbLinetypeTableRecord
  2
PHANTOM
 70
     0
  3
Phantom
 72
    65
 73
     6
 40
13.0
 49
10.0
 74
     0
 49
-1.0
 74
     0
 49
0.0
 74
     0
 49
-1.0
 74
     0
 49
0.0
 74
     0
 49
-1.0
 74
     0
  0
LTYPE
  5
41
330
5
100
AcDbSymbolTableRecord
100
AcDbLinetypeTableRecord
  2
CENTER_DASH_DASH
 70
     0
  3
Center_Dash_Dash
 72
    65
 73
     6
 40
14.0
 49
9.0
 74
     0
 49
-1.0
 74
     0
 49
1.0
 74
     0
 49
-1.0
 74
     0
 49
1.0
 74
     0
 49
-1.0
 74
     0
  0
ENDTAB
  0
TABLE
  2
LAYER
  5
2
330
0
100
AcDbSymbolTable
 70
     6
  0
LAYER
  5
10
330
2
100
AcDbSymbolTableRecord
100
AcDbLayerTableRecord
  2
0
 70
     0
 62
     7
  6
Continuous
370
    -3
390
F
  0
LAYER
  5
42
330
2
100
AcDbSymbolTableRecord
100
AcDbLayerTableRecord
  2
1
 70
     0
 62
     7
  6
Continuous
370
    -3
390
F
  0
LAYER
  5
43
330
2
100
AcDbSymbolTableRecord
100
AcDbLayerTableRecord
  2
BEZUGSACHSEN
 70
     0
 62
     7
  6
Continuous
370
    -3
390
F
  0
LAYER
  5
44
330
2
100
AcDbSymbolTableRecord
100
AcDbLayerTableRecord
  2
DEFAULT_2
 70
     0
 62
     7
  6
Continuous
370
    -3
390
F
  0
LAYER
  5
45
330
2
100
AcDbSymbolTableRecord
100
AcDbLayerTableRecord
  2
RUNDUNGEN
 70
     0
 62
     7
  6
Continuous
370
    -3
390
F
  0
LAYER
  5
46
330
2
100
AcDbSymbolTableRecord
100
AcDbLayerTableRecord
  2
TEIL_STARTBEZUEGE
 70
     0
 62
     7
  6
Continuous
370
    -3
390
F
  0
ENDTAB
  0
TABLE
  2
STYLE
  5
3
330
0
100
AcDbSymbolTable
 70
     2
  0
STYLE
  5
11
330
3
100
AcDbSymbolTableRecord
100
AcDbTextStyleTableRecord
  2
Standard
 70
     0
 40
0.0
 41
1.0
 50
0.0
 71
     0
 42
0.2
  3
txt
  4

  0
STYLE
  5
6D
330
3
100
AcDbSymbolTableRecord
100
AcDbTextStyleTableRecord
  2
CONVERTER_11
 70
     0
 40
0.0
 41
0.72
 50
0.0
 71
     0
 42
0.2
  3
txt.shx
  4

  0
ENDTAB
  0
TABLE
  2
VIEW
  5
6
330
0
100
AcDbSymbolTable
 70
     0
  0
ENDTAB
  0
TABLE
  2
UCS
  5
7
330
0
100
AcDbSymbolTable
 70
     0
  0
ENDTAB
  0
TABLE
  2
APPID
  5
9
330
0
100
AcDbSymbolTable
 70
     1
  0
APPID
  5
12
330
9
100
AcDbSymbolTableRecord
100
AcDbRegAppTableRecord
  2
ACAD
 70
     0
  0
ENDTAB
  0
TABLE
  2
DIMSTYLE
  5
A
330
0
100
AcDbSymbolTable
 70
     6
100
AcDbDimStyleTable
  0
DIMSTYLE
105
27
330
A
100
AcDbSymbolTableRecord
100
AcDbDimStyleTableRecord
  2
Standard
 70
     0
340
11
  0
DIMSTYLE
105
D0
102
{ACAD_REACTORS
330
D1
102
}
330
A
100
AcDbSymbolTableRecord
100
AcDbDimStyleTableRecord
  2
ME10_DIM_10
 70
     0
  3
\U+2300<>
 41
3.5
 42
2.0
 44
2.0
 71
     1
 73
     0
 74
     0
 77
     1
 78
     8
140
3.5
146
0.7
147
2.0
172
     1
173
     1
176
     2
177
     2
178
     3
271
     2
272
     0
340
6D
  0
DIMSTYLE
105
DB
102
{ACAD_REACTORS
330
DC
102
}
330
A
100
AcDbSymbolTableRecord
100
AcDbDimStyleTableRecord
  2
ME10_DIM_11
 70
     0
  3
\U+2300<>
 41
3.5
 42
2.0
 44
2.0
 71
     1
 73
     0
 74
     0
 77
     1
 78
     8
140
3.5
146
0.7
147
2.0
172
     1
173
     1
176
     2
177
     2
178
     3
271
     2
272
     0
340
6D
  0
DIMSTYLE
105
E6
102
{ACAD_REACTORS
330
E7
102
}
330
A
100
AcDbSymbolTableRecord
100
AcDbDimStyleTableRecord
  2
ME10_DIM_12
 70
     0
  3
<>
 41
3.5
 42
2.0
 44
2.0
 71
     1
 73
     0
 74
     0
 77
     1
 78
     8
140
3.5
146
0.7
147
2.0
172
     1
173
     1
176
     2
177
     2
178
     3
271
     2
272
     0
340
6D
  0
DIMSTYLE
105
F1
102
{ACAD_REACTORS
330
F2
102
}
330
A
100
AcDbSymbolTableRecord
100
AcDbDimStyleTableRecord
  2
ME10_DIM_13
 70
     0
  3
<>
 41
3.5
 42
2.0
 44
2.0
 71
     1
 73
     0
 74
     0
 77
     1
 78
     8
140
3.5
146
0.7
147
2.0
172
     1
173
     1
176
     2
177
     2
178
     3
271
     2
272
     0
340
6D
  0
DIMSTYLE
105
FC
102
{ACAD_REACTORS
330
FD
102
}
330
A
100
AcDbSymbolTableRecord
100
AcDbDimStyleTableRecord
  2
ME10_DIM_14
 70
     0
  3
<>
 41
3.5
 42
2.0
 44
2.0
 71
     1
 73
     0
 74
     0
 77
     1
 78
     8
140
3.5
146
0.7
147
2.0
172
     1
173
     1
176
     2
177
     2
178
     3
271
     2
272
     0
340
6D
  0
ENDTAB
  0
TABLE
  2
BLOCK_RECORD
  5
1
330
0
100
AcDbSymbolTable
 70
     8
  0
BLOCK_RECORD
  5
1F
330
1
100
AcDbSymbolTableRecord
100
AcDbBlockTableRecord
  2
*Model_Space
340
22
  0
BLOCK_RECORD
  5
1B
330
1
100
AcDbSymbolTableRecord
100
AcDbBlockTableRecord
  2
*Paper_Space
340
1E
  0
BLOCK_RECORD
  5
23
330
1
100
AcDbSymbolTableRecord
100
AcDbBlockTableRecord
  2
*Paper_Space0
340
26
  0
BLOCK_RECORD
  5
47
330
1
100
AcDbSymbolTableRecord
100
AcDbBlockTableRecord
  2
Urheberrecht_DE-EN
340
0
102
{BLKREFS
331
6C
102
}
  0
BLOCK_RECORD
  5
C7
330
1
100
AcDbSymbolTableRecord
100
AcDbBlockTableRecord
  2
*D2
340
0
  0
BLOCK_RECORD
  5
D2
330
1
100
AcDbSymbolTableRecord
100
AcDbBlockTableRecord
  2
*D3
340
0
  0
BLOCK_RECORD
  5
DD
330
1
100
AcDbSymbolTableRecord
100
AcDbBlockTableRecord
  2
*D4
340
0
  0
BLOCK_RECORD
  5
E8
330
1
100
AcDbSymbolTableRecord
100
AcDbBlockTableRecord
  2
*D5
340
0
  0
BLOCK_RECORD
  5
F3
330
1
100
AcDbSymbolTableRecord
100
AcDbBlockTableRecord
  2
*D6
340
0
  0
BLOCK_RECORD
  5
FE
330
1
100
AcDbSymbolTableRecord
100
AcDbBlockTableRecord
  2
*D7
340
0
102
{BLKREFS
331
104
102
}
  0
ENDTAB
  0
ENDSEC
  0
SECTION
  2
BLOCKS
  0
BLOCK
  5
20
330
1F
100
AcDbEntity
  8
0
100
AcDbBlockBegin
  2
*Model_Space
 70
     0
 10
0.0
 20
0.0
 30
0.0
  3
*Model_Space
  1

  0
ENDBLK
  5
21
330
1F
100
AcDbEntity
  8
0
100
AcDbBlockEnd
  0
BLOCK
  5
1C
330
1B
100
AcDbEntity
 67
     1
  8
0
100
AcDbBlockBegin
  2
*Paper_Space
 70
     0
 10
0.0
 20
0.0
 30
0.0
  3
*Paper_Space
  1

  0
ENDBLK
  5
1D
330
1B
100
AcDbEntity
 67
     1
  8
0
100
AcDbBlockEnd
  0
BLOCK
  5
24
330
23
100
AcDbEntity
  8
0
100
AcDbBlockBegin
  2
*Paper_Space0
 70
     0
 10
0.0
 20
0.0
 30
0.0
  3
*Paper_Space0
  1

  0
ENDBLK
  5
25
330
23
100
AcDbEntity
  8
0
100
AcDbBlockEnd
  0
BLOCK
  5
48
330
47
100
AcDbEntity
  8
0
100
AcDbBlockBegin
  2
Urheberrecht_DE-EN
 70
     0
 10
34.4924223372934
 20
297.462574068229
 30
0.0
  3
Urheberrecht_DE-EN
  1

  0
MTEXT
  5
6E
330
47
100
AcDbEntity
  8
1
 62
     1
100
AcDbMText
 10
34.4924223372934
 20
241.1731871509228
 30
0.0
 40
2.0
 41
0.0
 71
     7
 72
     1
  1
F\U+00fcr diese Unterlage behalten wir das Ur-\Pheberrecht. Sie darf nur f\U+00fcr den von uns \Pbestimmten Zweck benutzt und ohne unsere \PZustimmung weder vervielf\U+00e4ltigt noch\PDritten zug\U+00e4nglich gemacht werden.
  7
CONVERTER_11
 11
0.0
 21
1.0
 31
0.0
 73
     1
 44
0.90036014405762
  0
MTEXT
  5
6F
330
47
100
AcDbEntity
  8
1
 62
     1
100
AcDbMText
 10
34.4924223372934
 20
297.462574068229
 30
0.0
 40
2.0
 41
0.0
 71
     7
 72
     1
  1
We own the copyright of this document. It \Pdetermined and may neither be copied or \Pmade accessible to outsiders without our\Ppermission.
  7
CONVERTER_11
 11
0.0
 21
1.0
 31
0.0
 73
     1
 44
0.90036014405762
  0
ENDBLK
  5
49
330
47
100
AcDbEntity
  8
0
100
AcDbBlockEnd
  0
BLOCK
  5
CE
330
C7
100
AcDbEntity
  8
0
100
AcDbBlockBegin
  2
*D2
 70
     1
 10
0.0
 20
0.0
 30
0.0
  3
*D2
  1

  0
LINE
  5
C8
330
C7
100
AcDbEntity
  8
1
  6
Continuous
 62
     2
100
AcDbLine
 10
266.346363589164
 20
315.8497134037
 30
0.0
 11
266.346363589164
 21
250.8497134037
 31
0.0
  0
LINE
  5
C9
330
C7
100
AcDbEntity
  8
1
  6
Continuous
 62
     2
100
AcDbLine
 10
234.4864426995
 20
315.8497134037
 30
0.0
 11
268.346363589164
 21
315.8497134037
 31
0.0
  0
LINE
  5
CA
330
C7
100
AcDbEntity
  8
1
  6
Continuous
 62
     2
100
AcDbLine
 10
234.4864426995
 20
250.8497134037
 30
0.0
 11
268.346363589164
 21
250.8497134037
 31
0.0
  0
SOLID
  5
CB
330
C7
100
AcDbEntity
  8
1
 62
     2
100
AcDbTrace
 10
266.8071473307199
 20
312.3497134037
 30
0.0
 11
265.8855798476081
 21
312.3497134037
 31
0.0
 12
266.346363589164
 22
315.8497134037
 32
0.0
 13
266.346363589164
 23
315.8497134037
 33
0.0
  0
SOLID
  5
CC
330
C7
100
AcDbEntity
  8
1
 62
     2
100
AcDbTrace
 10
265.8855798476081
 20
254.3497134037
 30
0.0
 11
266.8071473307199
 21
254.3497134037
 31
0.0
 12
266.346363589164
 22
250.8497134037
 32
0.0
 13
266.346363589164
 23
250.8497134037
 33
0.0
  0
MTEXT
  5
CD
330
C7
100
AcDbEntity
  8
1
 62
     3
100
AcDbMText
 10
264.346363589164
 20
274.671765476434
 30
0.0
 40
3.5
 41
0.0
 71
     7
 72
     1
  1
\C3;%%c\C3;\C3;65\C2;\H2.45;\S^ ;\C3;
  7
CONVERTER_11
 11
0.0
 21
1.0
 31
0.0
 73
     1
 44
0.60024009603842
  0
ENDBLK
  5
CF
330
C7
100
AcDbEntity
  8
0
100
AcDbBlockEnd
  0
BLOCK
  5
D9
330
D2
100
AcDbEntity
  8
0
100
AcDbBlockBegin
  2
*D3
 70
     1
 10
0.0
 20
0.0
 30
0.0
  3
*D3
  1

  0
LINE
  5
D3
330
D2
100
AcDbEntity
  8
1
  6
Continuous
 62
     2
100
AcDbLine
 10
257.599419898569
 20
295.8497134037
 30
0.0
 11
257.599419898569
 21
270.8497134037
 31
0.0
  0
LINE
  5
D4
330
D2
100
AcDbEntity
  8
1
  6
Continuous
 62
     2
100
AcDbLine
 10
247.7543918919
 20
295.8497134037
 30
0.0
 11
259.599419898569
 21
295.8497134037
 31
0.0
  0
LINE
  5
D5
330
D2
100
AcDbEntity
  8
1
  6
Continuous
 62
     2
100
AcDbLine
 10
247.7543918919
 20
270.8497134037
 30
0.0
 11
259.599419898569
 21
270.8497134037
 31
0.0
  0
SOLID
  5
D6
330
D2
100
AcDbEntity
  8
1
 62
     2
100
AcDbTrace
 10
258.0602036401249
 20
292.3497134037
 30
0.0
 11
257.1386361570131
 21
292.3497134037
 31
0.0
 12
257.599419898569
 22
295.8497134037
 32
0.0
 13
257.599419898569
 23
295.8497134037
 33
0.0
  0
SOLID
  5
D7
330
D2
100
AcDbEntity
  8
1
 62
     2
100
AcDbTrace
 10
257.1386361570131
 20
274.3497134037
 30
0.0
 11
258.0602036401249
 21
274.3497134037
 31
0.0
 12
257.599419898569
 22
270.8497134037
 32
0.0
 13
257.599419898569
 23
270.8497134037
 33
0.0
  0
MTEXT
  5
D8
330
D2
100
AcDbEntity
  8
1
 62
     3
100
AcDbMText
 10
255.599419898569
 20
273.782245779085
 30
0.0
 40
3.5
 41
0.0
 71
     7
 72
     1
  1
\C3;%%c\C3;\C3;25\C2;\H2.45;\S^ ;\C3;
  7
CONVERTER_11
 11
0.0
 21
1.0
 31
0.0
 73
     1
 44
0.60024009603842
  0
ENDBLK
  5
DA
330
D2
100
AcDbEntity
  8
0
100
AcDbBlockEnd
  0
BLOCK
  5
E4
330
DD
100
AcDbEntity
  8
0
100
AcDbBlockBegin
  2
*D4
 70
     1
 10
0.0
 20
0.0
 30
0.0
  3
*D4
  1

  0
LINE
  5
DE
330
DD
100
AcDbEntity
  8
1
  6
Continuous
 62
     2
100
AcDbLine
 10
245.7543918919001
 20
353.05755515252
 30
0.0
 11
44.00439189190011
 21
353.05755515252
 31
0.0
  0
LINE
  5
DF
330
DD
100
AcDbEntity
  8
1
  6
Continuous
 62
     2
100
AcDbLine
 10
245.7543918919001
 20
309.766809635
 30
0.0
 11
245.7543918919001
 21
355.05755515252
 31
0.0
  0
LINE
  5
E0
330
DD
100
AcDbEntity
  8
1
  6
Continuous
 62
     2
100
AcDbLine
 10
44.00439189190001
 20
303.5111604049
 30
0.0
 11
44.00439189190001
 21
355.05755515252
 31
0.0
  0
SOLID
  5
E1
330
DD
100
AcDbEntity
  8
1
 62
     2
100
AcDbTrace
 10
242.2543918919001
 20
352.5967714109642
 30
0.0
 11
242.2543918919001
 21
353.5183388940759
 31
0.0
 12
245.7543918919001
 22
353.05755515252
 32
0.0
 13
245.7543918919001
 23
353.05755515252
 33
0.0
  0
SOLID
  5
E2
330
DD
100
AcDbEntity
  8
1
 62
     2
100
AcDbTrace
 10
47.50439189190011
 20
353.5183388940759
 30
0.0
 11
47.50439189190011
 21
352.5967714109642
 31
0.0
 12
44.00439189190011
 22
353.05755515252
 32
0.0
 13
44.00439189190011
 23
353.05755515252
 33
0.0
  0
MTEXT
  5
E3
330
DD
100
AcDbEntity
  8
1
 62
     3
100
AcDbMText
 10
152.0356650671912
 20
355.05755515252
 30
0.0
 40
3.5
 41
0.0
 71
     7
 72
     1
  1
\C3;\C3;\C3;201.75\C2;\H2.45;\S^ ;\C3;
  7
CONVERTER_11
 11
0.9999999999970619
 21
2.424068405545306E-6
 31
0.0
 73
     1
 44
0.60024009603842
  0
ENDBLK
  5
E5
330
DD
100
AcDbEntity
  8
0
100
AcDbBlockEnd
  0
BLOCK
  5
EF
330
E8
100
AcDbEntity
  8
0
100
AcDbBlockBegin
  2
*D5
 70
     1
 10
0.0
 20
0.0
 30
0.0
  3
*D5
  1

  0
LINE
  5
E9
330
E8
100
AcDbEntity
  8
1
  6
Continuous
 62
     2
100
AcDbLine
 10
245.7543918919
 20
345.496637725056
 30
0.0
 11
145.7543918919
 21
345.496637725056
 31
0.0
  0
LINE
  5
EA
330
E8
100
AcDbEntity
  8
1
  6
Continuous
 62
     2
100
AcDbLine
 10
245.7543918919
 20
309.766809635
 30
0.0
 11
245.7543918919
 21
347.496637725056
 31
0.0
  0
LINE
  5
EB
330
E8
100
AcDbEntity
  8
1
  6
Continuous
 62
     2
100
AcDbLine
 10
145.7543918919
 20
337.0872134037
 30
0.0
 11
145.7543918919
 21
347.496637725056
 31
0.0
  0
SOLID
  5
EC
330
E8
100
AcDbEntity
  8
1
 62
     2
100
AcDbTrace
 10
242.2543918919
 20
345.0358539835001
 30
0.0
 11
242.2543918919
 21
345.9574214666119
 31
0.0
 12
245.7543918919
 22
345.496637725056
 32
0.0
 13
245.7543918919
 23
345.496637725056
 33
0.0
  0
SOLID
  5
ED
330
E8
100
AcDbEntity
  8
1
 62
     2
100
AcDbTrace
 10
149.2543918919
 20
345.9574214666119
 30
0.0
 11
149.2543918919
 21
345.0358539835001
 31
0.0
 12
145.7543918919
 22
345.496637725056
 32
0.0
 13
145.7543918919
 23
345.496637725056
 33
0.0
  0
MTEXT
  5
EE
330
E8
100
AcDbEntity
  8
1
 62
     3
100
AcDbMText
 10
195.3542980858312
 20
347.496637725056
 30
0.0
 40
3.5
 41
0.0
 71
     7
 72
     1
  1
\C3;\C3;\C3;100\C2;\H2.45;\S^ ;\C3;
  7
CONVERTER_11
 11
0.9999999999970619
 21
2.424068405545306E-6
 31
0.0
 73
     1
 44
0.60024009603842
  0
ENDBLK
  5
F0
330
E8
100
AcDbEntity
  8
0
100
AcDbBlockEnd
  0
BLOCK
  5
FA
330
F3
100
AcDbEntity
  8
0
100
AcDbBlockBegin
  2
*D6
 70
     1
 10
0.0
 20
0.0
 30
0.0
  3
*D6
  1

  0
LINE
  5
F4
330
F3
100
AcDbEntity
  8
1
  6
Continuous
 62
     2
100
AcDbLine
 10
245.7543918919
 20
337.63921373181
 30
0.0
 11
164.8543918919
 21
337.63921373181
 31
0.0
  0
LINE
  5
F5
330
F3
100
AcDbEntity
  8
1
  6
Continuous
 62
     2
100
AcDbLine
 10
245.7543918919
 20
309.766809635
 30
0.0
 11
245.7543918919
 21
339.63921373181
 31
0.0
  0
LINE
  5
F6
330
F3
100
AcDbEntity
  8
1
  6
Continuous
 62
     2
100
AcDbLine
 10
164.8543918919
 20
331.3112071376
 30
0.0
 11
164.8543918919
 21
339.63921373181
 31
0.0
  0
SOLID
  5
F7
330
F3
100
AcDbEntity
  8
1
 62
     2
100
AcDbTrace
 10
242.2543918919
 20
337.1784299902541
 30
0.0
 11
242.2543918919
 21
338.0999974733659
 31
0.0
 12
245.7543918919
 22
337.63921373181
 32
0.0
 13
245.7543918919
 23
337.63921373181
 33
0.0
  0
SOLID
  5
F8
330
F3
100
AcDbEntity
  8
1
 62
     2
100
AcDbTrace
 10
168.3543918919
 20
338.0999974733659
 30
0.0
 11
168.3543918919
 21
337.1784299902541
 31
0.0
 12
164.8543918919
 22
337.63921373181
 32
0.0
 13
164.8543918919
 23
337.63921373181
 33
0.0
  0
MTEXT
  5
F9
330
F3
100
AcDbEntity
  8
1
 62
     3
100
AcDbMText
 10
200.989102753184
 20
339.63921373181
 30
0.0
 40
3.5
 41
0.0
 71
     7
 72
     1
  1
\C3;\C3;\C3;80.9\C2;\H2.45;\S^ ;\C3;
  7
CONVERTER_11
 11
0.9999999999970619
 21
2.424068405545306E-6
 31
0.0
 73
     1
 44
0.60024009603842
  0
ENDBLK
  5
FB
330
F3
100
AcDbEntity
  8
0
100
AcDbBlockEnd
  0
BLOCK
  5
102
330
FE
100
AcDbEntity
  8
0
100
AcDbBlockBegin
  2
*D7
 70
     1
 10
0.0
 20
0.0
 30
0.0
  3
*D7
  1

  0
LINE
  5
FF
330
FE
100
AcDbEntity
  8
1
  6
Continuous
 62
     2
100
AcDbLine
 10
176.1764825235718
 20
324.9285297111016
 30
0.0
 11
165.652923230313
 21
318.1390564564448
 31
0.0
  0
SOLID
  5
100
330
FE
100
AcDbEntity
  8
1
 62
     2
100
AcDbTrace
 10
168.3441459633778
 20
320.4237100095066
 30
0.0
 11
168.8437566234701
 21
319.6493226295402
 31
0.0
 12
165.652923230313
 22
318.1390564564448
 32
0.0
 13
165.652923230313
 23
318.1390564564448
 33
0.0
  0
MTEXT
  5
101
330
FE
100
AcDbEntity
  8
1
 62
     3
100
AcDbMText
 10
168.8572402508747
 20
322.5865022660098
 30
0.0
 40
3.5
 41
0.0
 71
     7
 72
     1
  1
\C3; R\C3;\C3;5\C2;\H2.45;\S^ ;\C3;
  7
CONVERTER_11
 11
0.8402937323173943
 21
0.5421313894510289
 31
0.0
 73
     1
 44
0.60024009603842
  0
ENDBLK
  5
103
330
FE
100
AcDbEntity
  8
0
100
AcDbBlockEnd
  0
ENDSEC
  0
SECTION
  2
ENTITIES
  0
INSERT
  5
6C
330
1F
100
AcDbEntity
  8
0
100
AcDbBlockReference
  2
Urheberrecht_DE-EN
 10
34.4924223372934
 20
297.462574068229
 30
0.0
  0
LWPOLYLINE
  5
70
330
1F
100
AcDbEntity
  8
BEZUGSACHSEN
  6
DASHED
 62
     8
100
AcDbPolyline
 90
        2
 70
     0
 43
0.35
 10
205.7543918919
 20
295.8497134037
 10
205.7543918919
 20
315.8497134037
  0
LWPOLYLINE
  5
71
330
1F
100
AcDbEntity
  8
BEZUGSACHSEN
  6
DASHED
 62
     8
100
AcDbPolyline
 90
        2
 70
     0
 43
0.35
 10
187.7543918919
 20
295.8497134037
 10
187.7543918919
 20
315.8497134037
  0
LWPOLYLINE
  5
72
330
1F
100
AcDbEntity
  8
BEZUGSACHSEN
  6
DASHED
 62
     8
100
AcDbPolyline
 90
        2
 70
     0
 43
0.35
 10
212.7543918919
 20
295.8497134037
 10
212.7543918919
 20
315.8497134037
  0
LWPOLYLINE
  5
73
330
1F
100
AcDbEntity
  8
BEZUGSACHSEN
  6
DASHED
 62
     8
100
AcDbPolyline
 90
        2
 70
     0
 43
0.35
 10
230.7543918919
 20
295.8497134037
 10
230.7543918919
 20
315.8497134037
  0
LINE
  5
74
330
1F
100
AcDbEntity
  8
RUNDUNGEN
  6
Continuous
 62
     7
100
AcDbLine
 10
245.7543918919
 20
258.9326171723
 30
0.0
 11
245.7543918919
 21
307.766809635
 31
0.0
  0
LINE
  5
75
330
1F
100
AcDbEntity
  8
RUNDUNGEN
  6
Continuous
 62
     9
100
AcDbLine
 10
245.2543918919
 20
258.0665917686
 30
0.0
 11
245.2543918919
 21
308.6328350388
 31
0.0
  0
LINE
  5
76
330
1F
100
AcDbEntity
  8
RUNDUNGEN
  6
Continuous
 62
     9
100
AcDbLine
 10
232.9864426995
 20
250.9836879999
 30
0.0
 11
232.9864426995
 21
315.7157388075
 31
0.0
  0
LINE
  5
77
330
1F
100
AcDbEntity
  8
RUNDUNGEN
  6
Continuous
 62
     9
100
AcDbLine
 10
232.4864426995
 20
250.8497134037
 30
0.0
 11
232.4864426995
 21
315.8497134037
 31
0.0
  0
LWPOLYLINE
  5
78
330
1F
100
AcDbEntity
  8
BEZUGSACHSEN
  6
DASHED
 62
     8
100
AcDbPolyline
 90
        2
 70
     0
 43
0.35
 10
229.7543918919
 20
295.8497134037
 10
229.7543918919
 20
315.8497134037
  0
LINE
  5
79
330
1F
100
AcDbEntity
  8
0
  6
Continuous
 62
     7
100
AcDbLine
 10
232.9864426995
 20
315.7157388075
 30
0.0
 11
245.2543918919
 21
308.6328350388
 31
0.0
  0
LINE
  5
7A
330
1F
100
AcDbEntity
  8
RUNDUNGEN
  6
Continuous
 62
     7
100
AcDbLine
 10
245.2543918919
 20
308.6328350388
 30
0.0
 11
232.9864426995
 21
315.7157388075
 31
0.0
  0
LINE
  5
7B
330
1F
100
AcDbEntity
  8
0
  6
Continuous
 62
     7
100
AcDbLine
 10
232.9864426995
 20
250.9836879999
 30
0.0
 11
245.2543918919
 21
258.0665917686
 31
0.0
  0
LWPOLYLINE
  5
7C
330
1F
100
AcDbEntity
  8
BEZUGSACHSEN
  6
DOT_CENTER
 62
     7
100
AcDbPolyline
 90
        2
 70
     0
 43
0.25
 10
221.7543918919
 20
318.8497134037
 10
221.7543918919
 20
289.9496481982
  0
LWPOLYLINE
  5
7D
330
1F
100
AcDbEntity
  8
BEZUGSACHSEN
  6
DASHED
 62
     8
100
AcDbPolyline
 90
        2
 70
     0
 43
0.35
 10
213.7543918919
 20
295.8497134037
 10
213.7543918919
 20
315.8497134037
  0
LWPOLYLINE
  5
7E
330
1F
100
AcDbEntity
  8
BEZUGSACHSEN
  6
DASHED
 62
     8
100
AcDbPolyline
 90
        2
 70
     0
 43
0.35
 10
204.7543918919
 20
295.8497134037
 10
204.7543918919
 20
315.8497134037
  0
LINE
  5
7F
330
1F
100
AcDbEntity
  8
0
  6
Continuous
 62
     7
100
AcDbLine
 10
160.1697702777
 20
330.3490102734
 30
0.0
 11
163.8543918919
 21
330.3490102734
 31
0.0
  0
LINE
  5
80
330
1F
100
AcDbEntity
  8
0
  6
Continuous
 62
     7
100
AcDbLine
 10
149.9543918919
 20
330.3490102734
 30
0.0
 11
153.6890135061
 21
330.3490102734
 31
0.0
  0
LINE
  5
81
330
1F
100
AcDbEntity
  8
0
  6
Continuous
 62
     7
100
AcDbLine
 10
155.7668918919
 20
326.9827284267
 30
0.0
 11
158.0918918919
 21
326.9827284267
 31
0.0
  0
LINE
  5
82
330
1F
100
AcDbEntity
  8
0
  6
Continuous
 62
     7
100
AcDbLine
 10
146.3043918919
 20
317.9247134037
 30
0.0
 11
145.2647095587
 21
318.2032954453
 31
0.0
  0
LWPOLYLINE
  5
83
330
1F
100
AcDbEntity
  8
BEZUGSACHSEN
  6
DOT_CENTER
 62
     7
100
AcDbPolyline
 90
        2
 70
     0
 43
0.25
 10
196.7543918919
 20
318.8497134037
 10
196.7543918919
 20
289.9496481982
  0
LINE
  5
84
330
1F
100
AcDbEntity
  8
0
  6
Continuous
 62
     7
100
AcDbLine
 10
148.9543918919
 20
318.6497134037
 30
0.0
 11
148.915836118
 21
318.6497134037
 31
0.0
  0
LINE
  5
85
330
1F
100
AcDbEntity
  8
0
  6
Continuous
 62
     7
100
AcDbLine
 10
147.9543918919
 20
317.9247134037
 30
0.0
 11
146.3043918919
 21
317.9247134037
 31
0.0
  0
LINE
  5
86
330
1F
100
AcDbEntity
  8
0
  6
Continuous
 62
     7
100
AcDbLine
 10
229.7543918919
 20
315.8497134037
 30
0.0
 11
232.4864426995
 21
315.8497134037
 31
0.0
  0
LINE
  5
87
330
1F
100
AcDbEntity
  8
0
  6
Continuous
 62
     7
100
AcDbLine
 10
204.7543918919
 20
315.8497134037
 30
0.0
 11
213.7543918919
 21
315.8497134037
 31
0.0
  0
LINE
  5
88
330
1F
100
AcDbEntity
  8
0
  6
Continuous
 62
     7
100
AcDbLine
 10
169.8543918919
 20
315.8497134037
 30
0.0
 11
188.7543918919
 21
315.8497134037
 31
0.0
  0
LINE
  5
89
330
1F
100
AcDbEntity
  8
BEZUGSACHSEN
  6
Continuous
 62
     7
100
AcDbLine
 10
188.7543918919
 20
315.8497134037
 30
0.0
 11
169.8543918919
 21
315.8497134037
 31
0.0
  0
LINE
  5
8A
330
1F
100
AcDbEntity
  8
BEZUGSACHSEN
  6
Continuous
 62
     7
100
AcDbLine
 10
213.7543918919
 20
315.8497134037
 30
0.0
 11
204.7543918919
 21
315.8497134037
 31
0.0
  0
LINE
  5
8B
330
1F
100
AcDbEntity
  8
BEZUGSACHSEN
  6
Continuous
 62
     7
100
AcDbLine
 10
232.4864426995
 20
315.8497134037
 30
0.0
 11
229.7543918919
 21
315.8497134037
 31
0.0
  0
LINE
  5
8C
330
1F
100
AcDbEntity
  8
0
  6
Continuous
 62
     7
100
AcDbLine
 10
145.2647095587
 20
318.2032954453
 30
0.0
 11
45.92967488629996
 21
303.7376057481
 31
0.0
  0
LWPOLYLINE
  5
8D
330
1F
100
AcDbEntity
  8
BEZUGSACHSEN
  6
DASHED
 62
     8
100
AcDbPolyline
 90
        2
 70
     0
 43
0.35
 10
188.7543918919
 20
295.8497134037
 10
188.7543918919
 20
315.8497134037
  0
LINE
  5
8E
330
1F
100
AcDbEntity
  8
RUNDUNGEN
  6
Continuous
 62
     9
100
AcDbLine
 10
169.8543918919
 20
315.8497134037
 30
0.0
 11
169.8543918919
 21
250.8497134037
 31
0.0
  0
LINE
  5
8F
330
1F
100
AcDbEntity
  8
0
  6
Continuous
 62
     7
100
AcDbLine
 10
164.8543918919
 20
329.3112071376
 30
0.0
 11
164.8543918919
 21
320.8497134037
 31
0.0
  0
LWPOLYLINE
  5
90
330
1F
100
AcDbEntity
  8
DEFAULT_2
  6
DASHED
 62
     8
100
AcDbPolyline
 90
        2
 70
     0
 43
0.35
 10
184.6543918919
 20
295.8497134037
 10
184.6543918919
 20
270.8497134037
  0
LINE
  5
91
330
1F
100
AcDbEntity
  8
0
  6
Continuous
 62
     9
100
AcDbLine
 10
163.8543918919
 20
330.3490102734
 30
0.0
 11
163.8543918919
 21
236.3504165339
 31
0.0
  0
LINE
  5
92
330
1F
100
AcDbEntity
  8
0
  6
Continuous
 62
     7
100
AcDbLine
 10
160.1697702777
 20
330.3490102734
 30
0.0
 11
160.1697702777
 21
236.3504165339
 31
0.0
  0
LINE
  5
93
330
1F
100
AcDbEntity
  8
0
  6
Continuous
 62
     7
100
AcDbLine
 10
158.8418918919
 20
327.9595305645
 30
0.0
 11
158.8418918919
 21
238.7398962429
 31
0.0
  0
LINE
  5
94
330
1F
100
AcDbEntity
  8
0
  6
Continuous
 62
     9
100
AcDbLine
 10
158.0918918919
 20
326.9827284267
 30
0.0
 11
158.0918918919
 21
239.7166983807
 31
0.0
  0
LINE
  5
95
330
1F
100
AcDbEntity
  8
0
  6
Continuous
 62
     9
100
AcDbLine
 10
155.7668918919
 20
326.9827284267
 30
0.0
 11
155.7668918919
 21
239.7166983807
 31
0.0
  0
LINE
  5
96
330
1F
100
AcDbEntity
  8
0
  6
Continuous
 62
     7
100
AcDbLine
 10
155.0168918919
 20
327.9595305645
 30
0.0
 11
155.0168918919
 21
238.7398962429
 31
0.0
  0
LINE
  5
97
330
1F
100
AcDbEntity
  8
0
  6
Continuous
 62
     7
100
AcDbLine
 10
153.6890135061
 20
330.3490102734
 30
0.0
 11
153.6890135061
 21
236.3504165339
 31
0.0
  0
LINE
  5
98
330
1F
100
AcDbEntity
  8
0
  6
Continuous
 62
     9
100
AcDbLine
 10
149.9543918919
 20
330.3490102734
 30
0.0
 11
149.9543918919
 21
236.3504165339
 31
0.0
  0
LWPOLYLINE
  5
99
330
1F
100
AcDbEntity
  8
DEFAULT_2
  6
DASHED
 62
     8
100
AcDbPolyline
 90
        2
 70
     0
 43
0.35
 10
213.7543918919
 20
295.8497134037
 10
245.7543918919
 20
295.8497134037
  0
LWPOLYLINE
  5
9A
330
1F
100
AcDbEntity
  8
DEFAULT_2
  6
DASHED
 62
     8
100
AcDbPolyline
 90
        2
 70
     0
 43
0.35
 10
188.7543918919
 20
295.8497134037
 10
213.7543918919
 20
295.8497134037
  0
LWPOLYLINE
  5
9B
330
1F
100
AcDbEntity
  8
DEFAULT_2
  6
DASHED
 62
     8
100
AcDbPolyline
 90
        2
 70
     0
 43
0.35
 10
184.6543918919
 20
295.8497134037
 10
188.7543918919
 20
295.8497134037
  0
LINE
  5
9C
330
1F
100
AcDbEntity
  8
0
  6
Continuous
 62
     7
100
AcDbLine
 10
148.9543918919
 20
329.3112071376
 30
0.0
 11
148.9543918919
 21
237.3882196698
 31
0.0
  0
LINE
  5
9D
330
1F
100
AcDbEntity
  8
0
  6
Continuous
 62
     9
100
AcDbLine
 10
147.9543918919
 20
317.9247134037
 30
0.0
 11
147.9543918919
 21
248.7747134037
 31
0.0
  0
LINE
  5
9E
330
1F
100
AcDbEntity
  8
0
  6
Continuous
 62
     7
100
AcDbLine
 10
146.3043918919
 20
317.9247134037
 30
0.0
 11
146.3043918919
 21
248.7747134037
 31
0.0
  0
LWPOLYLINE
  5
9F
330
1F
100
AcDbEntity
  8
TEIL_STARTBEZUEGE
  6
DOT_CENTER
 62
     7
100
AcDbPolyline
 90
        2
 70
     0
 43
0.25
 10
145.7543918919
 20
233.3504165339
 10
145.7543918919
 20
335.0872134037
  0
LINE
  5
A0
330
1F
100
AcDbEntity
  8
0
  6
Continuous
 62
     7
100
AcDbLine
 10
145.2647095587
 20
318.2032954453
 30
0.0
 11
145.2647095587
 21
248.4961313621
 31
0.0
  0
LWPOLYLINE
  5
A1
330
1F
100
AcDbEntity
  8
TEIL_STARTBEZUEGE
  6
DOT_CENTER
 62
     7
100
AcDbPolyline
 90
        2
 70
     0
 43
0.25
 10
248.7543918919
 20
283.3497134037
 10
41.00439189189993
 20
283.3497134037
  0
LWPOLYLINE
  5
A2
330
1F
100
AcDbEntity
  8
DEFAULT_2
  6
DASHED
 62
     8
100
AcDbPolyline
 90
        2
 70
     0
 43
0.35
 10
245.7543918919
 20
270.8497134037
 10
184.6543918919
 20
270.8497134037
  0
LINE
  5
A3
330
1F
100
AcDbEntity
  8
0
  6
Continuous
 62
     7
100
AcDbLine
 10
145.2647095587
 20
248.4961313621
 30
0.0
 11
45.92967488629993
 21
262.9618210593
 31
0.0
  0
LINE
  5
A4
330
1F
100
AcDbEntity
  8
0
  6
Continuous
 62
     7
100
AcDbLine
 10
169.8543918919
 20
250.8497134037
 30
0.0
 11
232.4864426995
 21
250.8497134037
 31
0.0
  0
LINE
  5
A5
330
1F
100
AcDbEntity
  8
0
  6
Continuous
 62
     7
100
AcDbLine
 10
147.9543918919
 20
248.7747134037
 30
0.0
 11
146.3043918919
 21
248.7747134037
 31
0.0
  0
LINE
  5
A6
330
1F
100
AcDbEntity
  8
0
  6
Continuous
 62
     7
100
AcDbLine
 10
146.3043918919
 20
248.7747134037
 30
0.0
 11
145.2647095587
 21
248.4961313621
 31
0.0
  0
LINE
  5
A7
330
1F
100
AcDbEntity
  8
0
  6
Continuous
 62
     7
100
AcDbLine
 10
155.7668918919
 20
239.7166983807
 30
0.0
 11
158.0918918919
 21
239.7166983807
 31
0.0
  0
LINE
  5
A8
330
1F
100
AcDbEntity
  8
0
  6
Continuous
 62
     7
100
AcDbLine
 10
160.1697702777
 20
236.3504165339
 30
0.0
 11
163.8543918919
 21
236.3504165339
 31
0.0
  0
LINE
  5
A9
330
1F
100
AcDbEntity
  8
0
  6
Continuous
 62
     7
100
AcDbLine
 10
149.9543918919
 20
236.3504165339
 30
0.0
 11
153.6890135061
 21
236.3504165339
 31
0.0
  0
LINE
  5
AA
330
1F
100
AcDbEntity
  8
0
  6
Continuous
 62
     9
100
AcDbLine
 10
45.92967488629996
 20
303.7376057481
 30
0.0
 11
45.92967488629993
 21
262.9618210593
 31
0.0
  0
LINE
  5
AB
330
1F
100
AcDbEntity
  8
0
  6
Continuous
 62
     7
100
AcDbLine
 10
44.00439189189996
 20
301.5111604049
 30
0.0
 11
44.00439189189996
 21
265.1882664025
 31
0.0
  0
LINE
  5
AC
330
1F
100
AcDbEntity
  8
0
  6
Continuous
 62
     7
100
AcDbLine
 10
164.8543918919
 20
320.8497134037
 30
0.0
 11
164.8543918919
 21
237.3882196698
 31
0.0
  0
ARC
  5
AD
330
1F
100
AcDbEntity
  8
RUNDUNGEN
  6
Continuous
 62
     7
100
AcDbCircle
 10
244.7543918919
 20
307.766809635
 30
0.0
 40
1.0
100
AcDbArc
 50
0.0
 51
60.00000000044565
  0
ARC
  5
AE
330
1F
100
AcDbEntity
  8
RUNDUNGEN
  6
Continuous
 62
     7
100
AcDbCircle
 10
244.7543918919
 20
258.9326171723
 30
0.0
 40
0.9999999999268803
100
AcDbArc
 50
300.0000000024187
 51
0.0
  0
ARC
  5
AF
330
1F
100
AcDbEntity
  8
0
  6
Continuous
 62
     7
100
AcDbCircle
 10
147.9543918919
 20
247.7747134037
 30
0.0
 40
1.0
100
AcDbArc
 50
0.0
 51
90.0
  0
ARC
  5
B0
330
1F
100
AcDbEntity
  8
0
  6
Continuous
 62
     7
100
AcDbCircle
 10
147.9543918919
 20
318.9247134037
 30
0.0
 40
1.0
100
AcDbArc
 50
270.0
 51
344.0379858363397
  0
ARC
  5
B1
330
1F
100
AcDbEntity
  8
RUNDUNGEN
  6
Continuous
 62
     7
100
AcDbCircle
 10
232.4864426995
 20
251.8497134037
 30
0.0
 40
1.0
100
AcDbArc
 50
270.0
 51
299.9999999995543
  0
ARC
  5
B2
330
1F
100
AcDbEntity
  8
RUNDUNGEN
  6
Continuous
 62
     7
100
AcDbCircle
 10
232.4864426995
 20
314.8497134037
 30
0.0
 40
1.000000000013472
100
AcDbArc
 50
60.00000000044565
 51
90.0
  0
ARC
  5
B3
330
1F
100
AcDbEntity
  8
0
  6
Continuous
 62
     7
100
AcDbCircle
 10
46.25439189189996
 20
301.5111604049
 30
0.0
 40
2.249999999996174
100
AcDbArc
 50
98.29782682735429
 51
180.0
  0
ARC
  5
B4
330
1F
100
AcDbEntity
  8
0
  6
Continuous
 62
     7
100
AcDbCircle
 10
46.25439189189996
 20
265.1882664025
 30
0.0
 40
2.25
100
AcDbArc
 50
180.0
 51
261.7021731726448
  0
SPLINE
  5
B5
330
1F
100
AcDbEntity
  8
BEZUGSACHSEN
  6
Continuous
 62
     7
100
AcDbSpline
210
0.0
220
0.0
230
1.0
 70
     8
 71
     3
 72
    23
 73
    19
 74
    17
 42
0.0000000001
 43
0.0000000001
 44
0.00000001
 40
0.0
 40
0.0
 40
0.0
 40
0.0
 40
0.3144957559685181
 40
0.6290017447641332
 40
1.512307000279255
 40
2.39566362733689
 40
3.702004895812384
 40
5.00842715271947
 40
6.544950955591816
 40
8.081510353323708
 40
9.618074095341466
 40
11.15460225001927
 40
12.46103799873969
 40
13.7673927529068
 40
14.65076904711194
 40
15.53409396958329
 40
15.84860771378081
 40
16.16311122358123
 40
16.16311122358123
 40
16.16311122358123
 40
16.16311122358123
 10
204.7543918919
 20
315.8497134037
 30
0.0
 10
204.6525381104935
 20
315.8249003280727
 30
0.0
 10
204.4488272336383
 20
315.7752733694687
 30
0.0
 10
203.957804654203
 20
315.6611574562637
 30
0.0
 10
203.2796399599849
 20
315.5147078645437
 30
0.0
 10
202.2731957928494
 20
315.3235793400383
 30
0.0
 10
201.1216774253804
 20
315.1424381371511
 30
0.0
 10
199.74766941035
 20
314.9811144295786
 30
0.0
 10
198.2911291655618
 20
314.8748562855211
 30
0.0
 10
196.7544357255246
 20
314.8371429394044
 30
0.0
 10
195.2177407296937
 20
314.8748521902742
 30
0.0
 10
193.7611928281106
 20
314.9811070621392
 30
0.0
 10
192.3871740344897
 20
315.1424286071134
 30
0.0
 10
191.2356399380311
 20
315.3235699623355
 30
0.0
 10
190.2291782277277
 20
315.5147005202197
 30
0.0
 10
189.5509981016673
 20
315.6611530381658
 30
0.0
 10
189.0599640790219
 20
315.7752715122533
 30
0.0
 10
188.8562481827572
 20
315.8248997090423
 30
0.0
 10
188.7543918919
 20
315.8497134037
 30
0.0
 11
204.7543918919
 21
315.8497134037
 31
0.0
 11
204.4487014983732
 21
315.7758150692964
 31
0.0
 11
204.142388046329
 21
315.7044982684351
 31
0.0
 11
203.2789262985495
 21
315.5183209751308
 31
0.0
 11
202.4110657789471
 21
315.3535877086601
 31
0.0
 11
201.1205462143755
 21
315.1508890081705
 31
0.0
 11
199.8230027557307
 21
314.9988361020152
 31
0.0
 11
198.290538935053
 21
314.8872115746598
 31
0.0
 11
196.7544371562466
 21
314.849713469294
 31
0.0
 11
195.2183309332341
 21
314.8872075342364
 31
0.0
 11
193.6858624789574
 21
314.9988283511311
 31
0.0
 11
192.3883052507259
 21
315.1508796746993
 31
0.0
 11
191.0977719712683
 21
315.3535779685932
 31
0.0
 11
190.2298919219001
 21
315.5183138088716
 31
0.0
 11
189.366410838575
 21
315.7044947353887
 31
0.0
 11
189.0600898201199
 21
315.7758132388905
 31
0.0
 11
188.7543918919
 21
315.8497134037
 31
0.0
  0
SPLINE
  5
B6
330
1F
100
AcDbEntity
  8
BEZUGSACHSEN
  6
Continuous
 62
     7
100
AcDbSpline
210
0.0
220
0.0
230
1.0
 70
     8
 71
     3
 72
    23
 73
    19
 74
    17
 42
0.0000000001
 43
0.0000000001
 44
0.00000001
 40
0.0
 40
0.0
 40
0.0
 40
0.0
 40
0.3144957559685181
 40
0.6290017447641054
 40
1.512307000279227
 40
2.39566362733689
 40
3.702004895812355
 40
5.00842715271947
 40
6.544950955591844
 40
8.081510353323708
 40
9.618074095341495
 40
11.15460225001927
 40
12.46103799873969
 40
13.76739275290683
 40
14.65076904711194
 40
15.53409396958329
 40
15.84860771378079
 40
16.16311122358123
 40
16.16311122358123
 40
16.16311122358123
 40
16.16311122358123
 10
229.7543918919
 20
315.8497134037
 30
0.0
 10
229.6525381104935
 20
315.8249003280727
 30
0.0
 10
229.4488272336384
 20
315.7752733694688
 30
0.0
 10
228.957804654203
 20
315.6611574562637
 30
0.0
 10
228.2796399599849
 20
315.5147078645436
 30
0.0
 10
227.2731957928494
 20
315.3235793400385
 30
0.0
 10
226.1216774253805
 20
315.1424381371511
 30
0.0
 10
224.7476694103499
 20
314.9811144295784
 30
0.0
 10
223.2911291655618
 20
314.8748562855212
 30
0.0
 10
221.7544357255245
 20
314.8371429394043
 30
0.0
 10
220.2177407296937
 20
314.8748521902743
 30
0.0
 10
218.7611928281106
 20
314.9811070621391
 30
0.0
 10
217.3871740344898
 20
315.1424286071135
 30
0.0
 10
216.2356399380312
 20
315.3235699623356
 30
0.0
 10
215.2291782277277
 20
315.5147005202197
 30
0.0
 10
214.5509981016673
 20
315.6611530381655
 30
0.0
 10
214.059964079022
 20
315.7752715122535
 30
0.0
 10
213.8562481827572
 20
315.8248997090422
 30
0.0
 10
213.7543918919
 20
315.8497134037
 30
0.0
 11
229.7543918919
 21
315.8497134037
 31
0.0
 11
229.4487014983732
 21
315.7758150692964
 31
0.0
 11
229.142388046329
 21
315.7044982684351
 31
0.0
 11
228.2789262985495
 21
315.5183209751308
 31
0.0
 11
227.4110657789471
 21
315.3535877086601
 31
0.0
 11
226.1205462143755
 21
315.1508890081705
 31
0.0
 11
224.8230027557307
 21
314.9988361020152
 31
0.0
 11
223.290538935053
 21
314.8872115746598
 31
0.0
 11
221.7544371562466
 21
314.849713469294
 31
0.0
 11
220.2183309332341
 21
314.8872075342364
 31
0.0
 11
218.6858624789574
 21
314.9988283511311
 31
0.0
 11
217.3883052507259
 21
315.1508796746993
 31
0.0
 11
216.0977719712683
 21
315.3535779685932
 31
0.0
 11
215.2298919219001
 21
315.5183138088716
 31
0.0
 11
214.366410838575
 21
315.7044947353887
 31
0.0
 11
214.0600898201199
 21
315.7758132388905
 31
0.0
 11
213.7543918919
 21
315.8497134037
 31
0.0
  0
SPLINE
  5
B7
330
1F
100
AcDbEntity
  8
0
  6
Continuous
 62
     7
100
AcDbSpline
210
0.0
220
0.0
230
1.0
 70
     8
 71
     3
 72
    15
 73
    11
 74
     9
 42
0.0000000001
 43
0.0000000001
 44
0.00000001
 40
0.0
 40
0.0
 40
0.0
 40
0.0
 40
0.1994115198643762
 40
0.399530609520435
 40
0.5993950644765573
 40
0.7990503711683707
 40
0.9987117371855152
 40
1.198567718902927
 40
1.398751157650362
 40
1.598077977504418
 40
1.598077977504418
 40
1.598077977504418
 40
1.598077977504418
 10
148.9543918919
 20
237.3882196698
 30
0.0
 10
148.9580101125584
 20
237.3216613750592
 30
0.0
 10
148.9652593923693
 20
237.1883086174826
 30
0.0
 10
149.0224559443152
 20
236.9950376181572
 30
0.0
 10
149.1126229011643
 20
236.8155625002037
 30
0.0
 10
149.2358552951799
 20
236.656721501973
 30
0.0
 10
149.3876434111214
 20
236.524794962571
 30
0.0
 10
149.5627675424403
 20
236.4261654759617
 30
0.0
 10
149.7544716649579
 20
236.3627212102558
 30
0.0
 10
149.8878471429281
 20
236.3545122255255
 30
0.0
 10
149.9543918919
 20
236.3504165339
 30
0.0
 11
148.9543918919
 21
237.3882196698
 31
0.0
 11
148.9729380996582
 21
237.1896724652556
 31
0.0
 11
149.027981511689
 21
236.9972721720209
 31
0.0
 11
149.1181834202996
 21
236.8189202277144
 31
0.0
 11
149.2406119119944
 21
236.6612068614085
 31
0.0
 11
149.3914546436514
 21
236.5303973381081
 31
0.0
 11
149.5654501922618
 21
236.4320715404149
 31
0.0
 11
149.7561502125042
 21
236.371187130027
 31
0.0
 11
149.9543918919
 21
236.3504165339
 31
0.0
  0
SPLINE
  5
B8
330
1F
100
AcDbEntity
  8
0
  6
Continuous
 62
     7
100
AcDbSpline
210
0.0
220
0.0
230
1.0
 70
     8
 71
     3
 72
     9
 73
     5
 74
     3
 42
0.0000000001
 43
0.0000000001
 44
0.00000001
 40
0.0
 40
0.0
 40
0.0
 40
0.0
 40
1.366828025513907
 40
2.73365607339468
 40
2.73365607339468
 40
2.73365607339468
 40
2.73365607339468
 10
155.0168918919
 20
238.7398962429
 30
0.0
 10
154.7958222078807
 20
238.3415143780423
 30
0.0
 10
154.3536828362247
 20
237.5447506418079
 30
0.0
 10
153.9105699506835
 20
236.7485279053742
 30
0.0
 10
153.6890135061
 20
236.3504165339
 30
0.0
 11
155.0168918919
 21
238.7398962429
 31
0.0
 11
154.353439461375
 21
237.544885898275
 31
0.0
 11
153.6890135061
 21
236.3504165339
 31
0.0
  0
SPLINE
  5
B9
330
1F
100
AcDbEntity
  8
0
  6
Continuous
 62
     7
100
AcDbSpline
210
0.0
220
0.0
230
1.0
 70
     8
 71
     3
 72
     9
 73
     5
 74
     3
 42
0.0000000001
 43
0.0000000001
 44
0.00000001
 40
0.0
 40
0.0
 40
0.0
 40
0.0
 40
1.366828047837084
 40
2.733656073307231
 40
2.733656073307231
 40
2.733656073307231
 40
2.733656073307231
 10
153.6890135061
 20
330.3490102734
 30
0.0
 10
153.9105699506834
 20
329.9508989019424
 30
0.0
 10
154.3536828362248
 20
329.1546761655421
 30
0.0
 10
154.7958222078807
 20
328.357912429341
 30
0.0
 10
155.0168918919
 20
327.9595305645
 30
0.0
 11
153.6890135061
 21
330.3490102734
 31
0.0
 11
154.353439461375
 21
329.154540909075
 31
0.0
 11
155.0168918919
 21
327.9595305645
 31
0.0
  0
SPLINE
  5
BA
330
1F
100
AcDbEntity
  8
0
  6
Continuous
 62
     7
100
AcDbSpline
210
0.0
220
0.0
230
1.0
 70
     8
 71
     3
 72
     9
 73
     5
 74
     3
 42
0.0000000001
 43
0.0000000001
 44
0.00000001
 40
0.0
 40
0.0
 40
0.0
 40
0.0
 40
1.366828025513921
 40
2.73365607339468
 40
2.73365607339468
 40
2.73365607339468
 40
2.73365607339468
 10
158.8418918919
 20
238.7398962429
 30
0.0
 10
159.0629615759192
 20
238.3415143780423
 30
0.0
 10
159.5051009475753
 20
237.5447506418079
 30
0.0
 10
159.9482138331165
 20
236.7485279053741
 30
0.0
 10
160.1697702777
 20
236.3504165339
 30
0.0
 11
158.8418918919
 21
238.7398962429
 31
0.0
 11
159.505344322425
 21
237.544885898275
 31
0.0
 11
160.1697702777
 21
236.3504165339
 31
0.0
  0
SPLINE
  5
BB
330
1F
100
AcDbEntity
  8
0
  6
Continuous
 62
     7
100
AcDbSpline
210
0.0
220
0.0
230
1.0
 70
     8
 71
     3
 72
     9
 73
     5
 74
     3
 42
0.0000000001
 43
0.0000000001
 44
0.00000001
 40
0.0
 40
0.0
 40
0.0
 40
0.0
 40
1.36682804783707
 40
2.733656073307231
 40
2.733656073307231
 40
2.733656073307231
 40
2.733656073307231
 10
160.1697702777
 20
330.3490102734
 30
0.0
 10
159.9482138331165
 20
329.9508989019424
 30
0.0
 10
159.5051009475753
 20
329.1546761655421
 30
0.0
 10
159.0629615759192
 20
328.357912429341
 30
0.0
 10
158.8418918919
 20
327.9595305645
 30
0.0
 11
160.1697702777
 21
330.3490102734
 31
0.0
 11
159.505344322425
 21
329.154540909075
 31
0.0
 11
158.8418918919
 21
327.9595305645
 31
0.0
  0
SPLINE
  5
BC
330
1F
100
AcDbEntity
  8
0
  6
Continuous
 62
     7
100
AcDbSpline
210
0.0
220
0.0
230
1.0
 70
     8
 71
     3
 72
    15
 73
    11
 74
     9
 42
0.0000000001
 43
0.0000000001
 44
0.00000001
 40
0.0
 40
0.0
 40
0.0
 40
0.0
 40
0.1498536492840343
 40
0.3002375261576385
 40
0.4504311697228435
 40
0.6004682482535848
 40
0.7505153760192929
 40
0.9007056144769117
 40
1.051151259686302
 40
1.200944189100178
 40
1.200944189100178
 40
1.200944189100178
 40
1.200944189100178
 10
158.8418918919
 20
327.7642661989
 30
0.0
 10
158.8391827997752
 20
327.7142495183294
 30
0.0
 10
158.8337550299373
 20
327.6140391830264
 30
0.0
 10
158.790945589799
 20
327.4687629588713
 30
0.0
 10
158.7234855406676
 20
327.3337502150941
 30
0.0
 10
158.6312275474351
 20
327.2141210131057
 30
0.0
 10
158.517496083326
 20
327.1145944973636
 30
0.0
 10
158.3861150549576
 20
327.0400637344198
 30
0.0
 10
158.2421358631348
 20
326.9920568996904
 30
0.0
 10
158.1419005787944
 20
326.9858334077595
 30
0.0
 10
158.0918918919
 20
326.9827284267
 30
0.0
 11
158.8418918919
 21
327.7642661989
 31
0.0
 11
158.8280082232908
 21
327.6150570840655
 31
0.0
 11
158.7868144862215
 21
327.4704251842307
 31
0.0
 11
158.7193157601937
 21
327.3362534563891
 31
0.0
 11
158.6276519954303
 21
327.2174726533802
 31
0.0
 11
158.5146127427957
 21
327.1188001247081
 31
0.0
 11
158.3840785950782
 21
327.0445172598764
 31
0.0
 11
158.2408565137656
 21
326.9984593877265
 31
0.0
 11
158.0918918919
 21
326.9827284267
 31
0.0
  0
SPLINE
  5
BD
330
1F
100
AcDbEntity
  8
0
  6
Continuous
 62
     7
100
AcDbSpline
210
0.0
220
0.0
230
1.0
 70
     8
 71
     3
 72
    15
 73
    11
 74
     9
 42
0.0000000001
 43
0.0000000001
 44
0.00000001
 40
0.0
 40
0.0
 40
0.0
 40
0.0
 40
0.1497938277513801
 40
0.3002403875241736
 40
0.4504310444944148
 40
0.6004785771245033
 40
0.7505151709429052
 40
0.9007083294260064
 40
1.051091365197187
 40
1.200944179349905
 40
1.200944179349905
 40
1.200944179349905
 40
1.200944179349905
 10
158.0918918919
 20
239.7166983807
 30
0.0
 10
158.1419008794434
 20
239.7135933566064
 30
0.0
 10
158.242136770502
 20
239.7073697781644
 30
0.0
 10
158.3861165931274
 20
239.6593623988192
 30
0.0
 10
158.5174979357682
 20
239.5848310099058
 30
0.0
 10
158.6312291881042
 20
239.4853040672483
 30
0.0
 10
158.723486685867
 20
239.3656747310795
 30
0.0
 10
158.7909461218568
 20
239.2306623640886
 30
0.0
 10
158.8337551208542
 20
239.0853867842438
 30
0.0
 10
158.839182830027
 20
238.9851770096924
 30
0.0
 10
158.8418918919
 20
238.9351606085
 30
0.0
 11
158.0918918919
 21
239.7166983807
 31
0.0
 11
158.2408573953401
 21
239.7009672136342
 31
0.0
 11
158.3840802570527
 21
239.6549087808524
 31
0.0
 11
158.5146145733349
 21
239.5806253660554
 31
0.0
 11
158.6276538267919
 21
239.4819522226665
 31
0.0
 11
158.7193169252874
 21
239.3631715177568
 31
0.0
 11
158.7868150978115
 21
239.2290000544681
 31
0.0
 11
158.8280083776476
 21
239.0843688989583
 31
0.0
 11
158.8418918919
 21
238.9351606085
 31
0.0
  0
SPLINE
  5
BE
330
1F
100
AcDbEntity
  8
0
  6
Continuous
 62
     7
100
AcDbSpline
210
0.0
220
0.0
230
1.0
 70
     8
 71
     3
 72
    15
 73
    11
 74
     9
 42
0.0000000001
 43
0.0000000001
 44
0.00000001
 40
0.0
 40
0.0
 40
0.0
 40
0.0
 40
0.1498537523994768
 40
0.3002377328517543
 40
0.45043138757484
 40
0.6004684786208863
 40
0.7505157523061011
 40
0.9007061336801333
 40
1.051151518366901
 40
1.200944190565694
 40
1.200944190565694
 40
1.200944190565694
 40
1.200944190565694
 10
155.0168918919
 20
238.9351606085
 30
0.0
 10
155.0196009879695
 20
238.9851773235605
 30
0.0
 10
155.0250287657124
 20
239.0853877279982
 30
0.0
 10
155.0678382566933
 20
239.2306640155959
 30
0.0
 10
155.1352983622565
 20
239.3656767788193
 30
0.0
 10
155.2275564256894
 20
239.4853059985541
 30
0.0
 10
155.3412880040666
 20
239.5848325395658
 30
0.0
 10
155.4726690852586
 20
239.6593632353824
 30
0.0
 10
155.6166481799397
 20
239.7073699441233
 30
0.0
 10
155.7168832910621
 20
239.7135934117458
 30
0.0
 10
155.7668918919
 20
239.7166983807
 30
0.0
 11
155.0168918919
 21
238.9351606085
 31
0.0
 11
155.0307755802682
 21
239.0843698250568
 31
0.0
 11
155.0719693743704
 21
239.2290018163455
 31
0.0
 11
155.1394681425121
 21
239.3631735354909
 31
0.0
 11
155.2311319495178
 21
239.4819543217098
 31
0.0
 11
155.3441713492751
 21
239.5806269037318
 31
0.0
 11
155.4747056639207
 21
239.6549097641861
 31
0.0
 11
155.6179275225355
 21
239.7009674778556
 31
0.0
 11
155.7668918919
 21
239.7166983807
 31
0.0
  0
SPLINE
  5
BF
330
1F
100
AcDbEntity
  8
0
  6
Continuous
 62
     7
100
AcDbSpline
210
0.0
220
0.0
230
1.0
 70
     8
 71
     3
 72
    15
 73
    11
 74
     9
 42
0.0000000001
 43
0.0000000001
 44
0.00000001
 40
0.0
 40
0.0
 40
0.0
 40
0.0
 40
0.1497935590536521
 40
0.3002398466904014
 40
0.4504306629984968
 40
0.6004783582295914
 40
0.7505149757721667
 40
0.900708156381918
 40
1.05109127956944
 40
1.200944180805418
 40
1.200944180805418
 40
1.200944180805418
 40
1.200944180805418
 10
155.7668918919
 20
326.9827284267
 30
0.0
 10
155.716882994254
 20
326.9858334381387
 30
0.0
 10
155.6166472841392
 20
326.9920569911687
 30
0.0
 10
155.4726675597709
 20
327.0400642399446
 30
0.0
 10
155.3412861565479
 20
327.1145955632524
 30
0.0
 10
155.2275547790492
 20
327.2141225415939
 30
0.0
 10
155.1352972053379
 20
327.3337519076612
 30
0.0
 10
155.0678377161744
 20
327.4687642981793
 30
0.0
 10
155.0250286729514
 20
327.6140399356595
 30
0.0
 10
155.0196009571042
 20
327.7142497685791
 30
0.0
 10
155.0168918919
 20
327.7642661989
 30
0.0
 11
155.7668918919
 21
326.9827284267
 31
0.0
 11
155.6179266522303
 21
326.998459532958
 31
0.0
 11
155.4747040231485
 21
327.0445178002135
 31
0.0
 11
155.3441695243506
 21
327.1188012164441
 31
0.0
 11
155.2311301115852
 21
327.21747442459
 31
0.0
 11
155.1394669662852
 21
327.3362551233475
 31
0.0
 11
155.0719687509998
 21
327.470426589893
 31
0.0
 11
155.0307754228542
 21
327.6150578225363
 31
0.0
 11
155.0168918919
 21
327.7642661989
 31
0.0
  0
SPLINE
  5
C0
330
1F
100
AcDbEntity
  8
0
  6
Continuous
 62
     7
100
AcDbSpline
210
0.0
220
0.0
230
1.0
 70
     8
 71
     3
 72
    15
 73
    11
 74
     9
 42
0.0000000001
 43
0.0000000001
 44
0.00000001
 40
0.0
 40
0.0
 40
0.0
 40
0.0
 40
0.1993272936062871
 40
0.399511214101882
 40
0.5993674459994914
 40
0.7990290559300077
 40
0.9986840827110671
 40
1.198548256340669
 40
1.398666897353174
 40
1.598077972459092
 40
1.598077972459092
 40
1.598077972459092
 40
1.598077972459092
 10
149.9543918919
 20
330.3490102734
 30
0.0
 10
149.8878469843753
 20
330.3449145595685
 30
0.0
 10
149.7544711866284
 20
330.3367055302086
 30
0.0
 10
149.5627667208695
 20
330.2732609770904
 30
0.0
 10
149.3876424078103
 20
330.1746311456652
 30
0.0
 10
149.2358544010552
 20
330.0427043642762
 30
0.0
 10
149.112622277674
 20
329.8838632961611
 30
0.0
 10
149.0224556545515
 20
329.7043883918408
 30
0.0
 10
148.9652593426387
 20
329.5111177422438
 30
0.0
 10
148.958010096015
 20
329.3777652835489
 30
0.0
 10
148.9543918919
 20
329.3112071376
 30
0.0
 11
149.9543918919
 21
330.3490102734
 31
0.0
 11
149.7561497473638
 21
330.328239570328
 31
0.0
 11
149.5654493151222
 21
330.2673548664374
 31
0.0
 11
149.3914536535076
 21
330.169028760201
 31
0.0
 11
149.2406109042109
 21
330.0382188849443
 31
0.0
 11
149.1181827847905
 21
329.880505584002
 31
0.0
 11
149.0279811822812
 21
329.7021538001438
 31
0.0
 11
148.9729380159032
 21
329.5097539032733
 31
0.0
 11
148.9543918919
 21
329.3112071376
 31
0.0
  0
SPLINE
  5
C1
330
1F
100
AcDbEntity
  8
0
  6
Continuous
 62
     7
100
AcDbSpline
210
0.0
220
0.0
230
1.0
 70
     8
 71
     3
 72
    15
 73
    11
 74
     9
 42
0.0000000001
 43
0.0000000001
 44
0.00000001
 40
0.0
 40
0.0
 40
0.0
 40
0.0
 40
0.1993272358090892
 40
0.399511095817484
 40
0.5993673928285558
 40
0.799029069802968
 40
0.9986840389035393
 40
1.198548154999815
 40
1.398666849517611
 40
1.598077976758613
 40
1.598077976758613
 40
1.598077976758613
 40
1.598077976758613
 10
163.8543918919
 20
236.3504165339
 30
0.0
 10
163.9209367800895
 20
236.3545122428289
 30
0.0
 10
164.0543125382678
 20
236.3627212623124
 30
0.0
 10
164.2460169970148
 20
236.4261657763028
 30
0.0
 10
164.4211413383977
 20
236.5247956111717
 30
0.0
 10
164.5729293596985
 20
236.6567224151756
 30
0.0
 10
164.6961614677589
 20
236.8155634735599
 30
0.0
 10
164.7863280892884
 20
236.9950383537536
 30
0.0
 10
164.8435244304476
 20
237.1883090124003
 30
0.0
 10
164.8507736842251
 20
237.3216615064182
 30
0.0
 10
164.8543918919
 20
237.3882196698
 30
0.0
 11
163.8543918919
 21
236.3504165339
 31
0.0
 11
164.0526339805041
 21
236.3711872161513
 31
0.0
 11
164.2433343638763
 21
236.4320718742315
 31
0.0
 11
164.4173300889443
 21
236.530398000531
 31
0.0
 11
164.5681728848732
 21
236.6612079243463
 31
0.0
 11
164.6906009643914
 21
236.8189211832437
 31
0.0
 11
164.7808025507906
 21
236.9972729107768
 31
0.0
 11
164.8358457524398
 21
237.1896728532084
 31
0.0
 11
164.8543918919
 21
237.3882196698
 31
0.0
  0
SPLINE
  5
C2
330
1F
100
AcDbEntity
  8
0
  6
Continuous
 62
     7
100
AcDbSpline
210
0.0
220
0.0
230
1.0
 70
     8
 71
     3
 72
    15
 73
    11
 74
     9
 42
0.0000000001
 43
0.0000000001
 44
0.00000001
 40
0.0
 40
0.0
 40
0.0
 40
0.0
 40
0.1994115816775795
 40
0.3995307346104906
 40
0.5993951286010781
 40
0.7990503740572522
 40
0.99871179838973
 40
1.198567836595311
 40
1.39875121728325
 40
1.598077981740689
 40
1.598077981740689
 40
1.598077981740689
 40
1.598077981740689
 10
164.8543918919
 20
329.3112071376
 30
0.0
 10
164.8507736673011
 20
329.3777654530105
 30
0.0
 10
164.8435243795726
 20
329.511118252415
 30
0.0
 10
164.7863277940102
 20
329.7043892653019
 30
0.0
 10
164.6961608355449
 20
329.8838643584761
 30
0.0
 10
164.572928458003
 20
330.0427053411823
 30
0.0
 10
164.4211403317021
 20
330.174631897167
 30
0.0
 10
164.2460161764484
 20
330.2732613845412
 30
0.0
 10
164.0543120623553
 20
330.3367056114857
 30
0.0
 10
163.9209366223394
 20
330.3449145865648
 30
0.0
 10
163.8543918919
 20
330.3490102734
 30
0.0
 11
164.8543918919
 21
329.3112071376
 31
0.0
 11
164.8358456668011
 21
329.5097544026069
 31
0.0
 11
164.7808022141658
 21
329.7021547500405
 31
0.0
 11
164.6906003203505
 21
329.8805066335107
 31
0.0
 11
164.5681718686395
 21
330.0382199533344
 31
0.0
 11
164.4173290958024
 21
330.1690295181579
 31
0.0
 11
164.2433334911936
 21
330.2673553315744
 31
0.0
 11
164.0526335177214
 21
330.3282396975591
 31
0.0
 11
163.8543918919
 21
330.3490102734
 31
0.0
  0
SPLINE
  5
C3
330
1F
100
AcDbEntity
  8
0
  6
Continuous
 62
     2
100
AcDbSpline
210
0.0
220
0.0
230
1.0
 70
     8
 71
     3
 72
    49
 73
    45
 74
    43
 42
0.0000000001
 43
0.0000000001
 44
0.00000001
 40
0.0
 40
0.0
 40
0.0
 40
0.0
 40
0.0258981152185416
 40
0.1033645105469047
 40
0.2318911148791888
 40
0.4103047568753686
 40
0.6373639302882221
 40
0.9122113502054605
 40
1.233771465364653
 40
1.599685496684858
 40
2.007568042527665
 40
2.456164315578349
 40
2.943881120722144
 40
3.466561432922948
 40
4.019948810565937
 40
4.601854427310014
 40
5.209603713856891
 40
5.836383017630727
 40
6.475606822233218
 40
7.125642345728525
 40
7.785228351670302
 40
8.449567108046358
 40
9.114088358894135
 40
9.778636293053387
 40
10.44304728467201
 40
11.10271164835339
 40
11.75279633671818
 40
12.39205288472112
 40
13.01888360640031
 40
13.6267797307286
 40
14.20900557358032
 40
14.76292738404939
 40
15.28635874590223
 40
15.77492814092366
 40
16.2243541224436
 40
16.6329993335554
 40
16.99958160185474
 40
17.3216756458213
 40
17.59689219659115
 40
17.82417558105967
 40
18.0026995598442
 40
18.13124813109953
 40
18.20868011298095
 40
18.2345509036549
 40
18.2345509036549
 40
18.2345509036549
 40
18.2345509036549
 10
212.7543918919
 20
315.8497548814
 30
0.0
 10
212.7627094891009
 20
315.8474437776958
 30
0.0
 10
212.7959066679823
 20
315.8382197047782
 30
0.0
 10
212.8704385742436
 20
315.8177295979888
 30
0.0
 10
212.9940637884786
 20
315.7840313155889
 30
0.0
 10
213.1660019252558
 20
315.7379721106992
 30
0.0
 10
213.3853386649739
 20
315.6803687873926
 30
0.0
 10
213.6512956619494
 20
315.6124541210775
 30
0.0
 10
213.9627077903555
 20
315.5355072634567
 30
0.0
 10
214.3179679585948
 20
315.4512081549657
 30
0.0
 10
214.715392383423
 20
315.3612753129581
 30
0.0
 10
215.1535757616846
 20
315.2676350976893
 30
0.0
 10
215.6304821478705
 20
315.172277124261
 30
0.0
 10
216.143057159546
 20
315.0774044552327
 30
0.0
 10
216.6880195392453
 20
314.9853516867549
 30
0.0
 10
217.2625047530322
 20
314.8982939811428
 30
0.0
 10
217.862722697795
 20
314.8184004818004
 30
0.0
 10
218.4833033231331
 20
314.747459791629
 30
0.0
 10
219.1192015096039
 20
314.6874588542445
 30
0.0
 10
219.7670973729255
 20
314.6395970188602
 30
0.0
 10
220.4242106325685
 20
314.6047958249643
 30
0.0
 10
221.0867319684117
 20
314.5834791367108
 30
0.0
 10
221.7512133675712
 20
314.57628452045
 30
0.0
 10
222.4157203127044
 20
314.5833438785304
 30
0.0
 10
223.0783049829299
 20
314.6045297469691
 30
0.0
 10
223.7354916717673
 20
314.639203538278
 30
0.0
 10
224.3834501507634
 20
314.6869431108274
 30
0.0
 10
225.019404008195
 20
314.7468271135438
 30
0.0
 10
225.6400745601466
 20
314.8176592161462
 30
0.0
 10
226.2404782649353
 20
314.8974672278187
 30
0.0
 10
226.8153086530174
 20
314.9844755199871
 30
0.0
 10
227.3608133194828
 20
315.0765319543729
 30
0.0
 10
227.8741017219531
 20
315.1714666706578
 30
0.0
 10
228.3518144150839
 20
315.2669293687763
 30
0.0
 10
228.7908028645782
 20
315.3607024561001
 30
0.0
 10
229.1889677523033
 20
315.450777487774
 30
0.0
 10
229.5448686282645
 20
315.5352133693532
 30
0.0
 10
229.8567912124636
 20
315.6122779165163
 30
0.0
 10
230.123113246109
 20
315.6802818297461
 30
0.0
 10
230.3426770249389
 20
315.7379440914382
 30
0.0
 10
230.5147299991618
 20
315.7840338766913
 30
0.0
 10
230.6383866352338
 20
315.8177409596038
 30
0.0
 10
230.712905748723
 20
315.838227588821
 30
0.0
 10
230.7460830762323
 20
315.8474462359532
 30
0.0
 10
230.7543918919
 20
315.8497549222
 30
0.0
 11
212.7543918919
 21
315.8497548814
 31
0.0
 11
212.7793462599165
 21
315.842827263572
 31
0.0
 11
212.8540329255319
 21
315.8222616518761
 31
0.0
 11
212.978040659047
 21
315.7884804433479
 31
0.0
 11
213.1503719425698
 21
315.7422921724369
 31
0.0
 11
213.3699901975587
 21
315.6846407170646
 31
0.0
 11
213.6362888881994
 21
315.6166251923793
 31
0.0
 11
213.9484641047484
 21
315.5395048848478
 31
0.0
 11
214.3044924009783
 21
315.4550245285475
 31
0.0
 11
214.7023229364285
 21
315.365029882781
 31
0.0
 11
215.14101483345
 21
315.2712853593
 31
0.0
 11
215.6192665499982
 21
315.1756664404692
 31
0.0
 11
216.1332239236357
 21
315.0805742386545
 31
0.0
 11
216.6788874512323
 21
314.9884389881507
 31
0.0
 11
217.254228887281
 21
314.9012817809693
 31
0.0
 11
217.8566616202395
 21
314.8210695776684
 31
0.0
 11
218.4793943091353
 21
314.7499619562772
 31
0.0
 11
219.1157937683918
 21
314.689938622244
 31
0.0
 11
219.7640641643
 21
314.6420671736039
 31
0.0
 11
220.4227253127062
 21
314.6071502605901
 31
0.0
 11
221.08672228365
 21
314.5858428487167
 31
0.0
 11
221.7512047174979
 21
314.5786603745
 31
0.0
 11
222.4157152817333
 21
314.5857078431833
 31
0.0
 11
223.0797887178604
 21
314.606884179363
 31
0.0
 11
223.73853503635
 21
314.6416744163207
 31
0.0
 11
224.3868637707602
 21
314.6894232821129
 31
0.0
 11
225.0233072780313
 21
314.7493281752106
 31
0.0
 11
225.6461044187876
 21
314.8203244786828
 31
0.0
 11
226.2486972371693
 21
314.9004468426524
 31
0.0
 11
226.8243703185076
 21
314.9875527294049
 31
0.0
 11
227.3705752285311
 21
315.0796915832045
 31
0.0
 11
227.8852838489622
 21
315.1748515885902
 31
0.0
 11
228.3643823527666
 21
315.2705839102167
 31
0.0
 11
228.803893685261
 21
315.3644641609309
 31
0.0
 11
229.2024735899215
 21
315.4546027662308
 31
0.0
 11
229.5591555312345
 21
315.5392228121581
 31
0.0
 11
229.8718510595666
 21
315.6164632142791
 31
0.0
 11
230.1385083079205
 21
315.6845665307769
 31
0.0
 11
230.3583436506971
 21
315.742274059937
 31
0.0
 11
230.5307815294249
 21
315.7884908207594
 31
0.0
 11
230.6548104107764
 21
315.8222779745678
 31
0.0
 11
230.7294638696908
 21
315.8428345523522
 31
0.0
 11
230.7543918919
 21
315.8497549222
 31
0.0
  0
SPLINE
  5
C4
330
1F
100
AcDbEntity
  8
0
  6
Continuous
 62
     2
100
AcDbSpline
210
0.0
220
0.0
230
1.0
 70
     8
 71
     3
 72
    49
 73
    45
 74
    43
 42
0.0000000001
 43
0.0000000001
 44
0.00000001
 40
0.0
 40
0.0
 40
0.0
 40
0.0
 40
0.0258981152185416
 40
0.1033645105469047
 40
0.2318911148791613
 40
0.410304756875396
 40
0.6373639302881946
 40
0.9122113502054605
 40
1.233771465364653
 40
1.599685496684802
 40
2.007568042527665
 40
2.456164315578377
 40
2.943881120722172
 40
3.46656143292292
 40
4.019948810565966
 40
4.601854427310015
 40
5.209603713856893
 40
5.836383017630729
 40
6.475606822233249
 40
7.125642345728498
 40
7.785228351670304
 40
8.44956710804636
 40
9.114088358894136
 40
9.77863629305336
 40
10.44304728467201
 40
11.1027116483534
 40
11.75279633671821
 40
12.39205288472112
 40
13.01888360640034
 40
13.6267797307286
 40
14.20900557358032
 40
14.76292738404939
 40
15.2863587459022
 40
15.77492814092369
 40
16.22435412244362
 40
16.63299933355543
 40
16.99958160185474
 40
17.3216756458213
 40
17.59689219659115
 40
17.82417558105967
 40
18.0026995598442
 40
18.13124813109953
 40
18.20868011298095
 40
18.23455090365491
 40
18.23455090365491
 40
18.23455090365491
 40
18.23455090365491
 10
187.7543918919
 20
315.8497548814
 30
0.0
 10
187.7627094891009
 20
315.8474437776958
 30
0.0
 10
187.7959066679823
 20
315.8382197047782
 30
0.0
 10
187.8704385742437
 20
315.8177295979889
 30
0.0
 10
187.9940637884786
 20
315.7840313155888
 30
0.0
 10
188.1660019252558
 20
315.7379721106992
 30
0.0
 10
188.3853386649739
 20
315.6803687873926
 30
0.0
 10
188.6512956619493
 20
315.6124541210775
 30
0.0
 10
188.9627077903556
 20
315.5355072634569
 30
0.0
 10
189.3179679585948
 20
315.4512081549657
 30
0.0
 10
189.715392383423
 20
315.3612753129581
 30
0.0
 10
190.1535757616846
 20
315.2676350976894
 30
0.0
 10
190.6304821478705
 20
315.1722771242611
 30
0.0
 10
191.1430571595461
 20
315.0774044552327
 30
0.0
 10
191.6880195392453
 20
314.9853516867549
 30
0.0
 10
192.2625047530323
 20
314.8982939811429
 30
0.0
 10
192.862722697795
 20
314.8184004818004
 30
0.0
 10
193.483303323133
 20
314.747459791629
 30
0.0
 10
194.1192015096039
 20
314.6874588542445
 30
0.0
 10
194.7670973729255
 20
314.6395970188602
 30
0.0
 10
195.4242106325685
 20
314.6047958249642
 30
0.0
 10
196.0867319684116
 20
314.5834791367108
 30
0.0
 10
196.7512133675712
 20
314.5762845204501
 30
0.0
 10
197.4157203127044
 20
314.5833438785303
 30
0.0
 10
198.0783049829299
 20
314.604529746969
 30
0.0
 10
198.7354916717673
 20
314.639203538278
 30
0.0
 10
199.3834501507635
 20
314.6869431108274
 30
0.0
 10
200.019404008195
 20
314.7468271135438
 30
0.0
 10
200.6400745601465
 20
314.8176592161462
 30
0.0
 10
201.2404782649354
 20
314.8974672278188
 30
0.0
 10
201.8153086530174
 20
314.984475519987
 30
0.0
 10
202.3608133194827
 20
315.0765319543727
 30
0.0
 10
202.8741017219531
 20
315.1714666706578
 30
0.0
 10
203.3518144150839
 20
315.2669293687763
 30
0.0
 10
203.7908028645782
 20
315.3607024561001
 30
0.0
 10
204.1889677523034
 20
315.4507774877741
 30
0.0
 10
204.5448686282645
 20
315.5352133693533
 30
0.0
 10
204.8567912124637
 20
315.6122779165163
 30
0.0
 10
205.123113246109
 20
315.6802818297461
 30
0.0
 10
205.342677024939
 20
315.7379440914382
 30
0.0
 10
205.5147299991617
 20
315.7840338766913
 30
0.0
 10
205.638386635234
 20
315.8177409596038
 30
0.0
 10
205.7129057487228
 20
315.838227588821
 30
0.0
 10
205.7460830762323
 20
315.8474462359532
 30
0.0
 10
205.7543918919
 20
315.8497549222
 30
0.0
 11
187.7543918919
 21
315.8497548814
 31
0.0
 11
187.7793462599165
 21
315.842827263572
 31
0.0
 11
187.8540329255319
 21
315.8222616518761
 31
0.0
 11
187.978040659047
 21
315.7884804433479
 31
0.0
 11
188.1503719425698
 21
315.7422921724369
 31
0.0
 11
188.3699901975586
 21
315.6846407170646
 31
0.0
 11
188.6362888881994
 21
315.6166251923793
 31
0.0
 11
188.9484641047484
 21
315.5395048848478
 31
0.0
 11
189.3044924009783
 21
315.4550245285475
 31
0.0
 11
189.7023229364285
 21
315.365029882781
 31
0.0
 11
190.14101483345
 21
315.2712853593
 31
0.0
 11
190.6192665499982
 21
315.1756664404692
 31
0.0
 11
191.1332239236357
 21
315.0805742386545
 31
0.0
 11
191.6788874512323
 21
314.9884389881507
 31
0.0
 11
192.254228887281
 21
314.9012817809693
 31
0.0
 11
192.8566616202395
 21
314.8210695776684
 31
0.0
 11
193.4793943091353
 21
314.7499619562772
 31
0.0
 11
194.1157937683919
 21
314.689938622244
 31
0.0
 11
194.7640641643
 21
314.6420671736039
 31
0.0
 11
195.4227253127062
 21
314.6071502605901
 31
0.0
 11
196.08672228365
 21
314.5858428487167
 31
0.0
 11
196.7512047174979
 21
314.5786603745
 31
0.0
 11
197.4157152817333
 21
314.5857078431833
 31
0.0
 11
198.0797887178604
 21
314.606884179363
 31
0.0
 11
198.73853503635
 21
314.6416744163207
 31
0.0
 11
199.3868637707602
 21
314.6894232821129
 31
0.0
 11
200.0233072780313
 21
314.7493281752106
 31
0.0
 11
200.6461044187876
 21
314.8203244786828
 31
0.0
 11
201.2486972371693
 21
314.9004468426524
 31
0.0
 11
201.8243703185076
 21
314.9875527294049
 31
0.0
 11
202.3705752285311
 21
315.0796915832045
 31
0.0
 11
202.8852838489622
 21
315.1748515885902
 31
0.0
 11
203.3643823527667
 21
315.2705839102167
 31
0.0
 11
203.803893685261
 21
315.3644641609309
 31
0.0
 11
204.2024735899216
 21
315.4546027662308
 31
0.0
 11
204.5591555312345
 21
315.5392228121581
 31
0.0
 11
204.8718510595666
 21
315.6164632142791
 31
0.0
 11
205.1385083079205
 21
315.6845665307769
 31
0.0
 11
205.3583436506971
 21
315.742274059937
 31
0.0
 11
205.5307815294249
 21
315.7884908207594
 31
0.0
 11
205.6548104107764
 21
315.8222779745678
 31
0.0
 11
205.7294638696908
 21
315.8428345523522
 31
0.0
 11
205.7543918919
 21
315.8497549222
 31
0.0
  0
ARC
  5
C5
330
1F
100
AcDbEntity
  8
1
  6
Continuous
 62
     7
100
AcDbCircle
 10
169.8543918919
 20
320.8497134037
 30
0.0
 40
5.0
100
AcDbArc
 50
180.0
 51
270.0
  0
ARC
  5
C6
330
1F
100
AcDbEntity
  8
1
  6
Continuous
 62
     7
100
AcDbCircle
 10
169.8543918919
 20
245.8497134037
 30
0.0
 40
5.0
100
AcDbArc
 50
90.0
 51
180.0
  0
DIMENSION
  5
D1
330
1F
100
AcDbEntity
  8
1
100
AcDbDimension
  2
*D2
 10
266.346363589164
 20
315.8497134037
 30
0.0
 11
262.596363589164
 21
283.526765476434
 31
0.0
 70
    32
  1
<>
 71
     5
 42
-1.0
 53
90.0
  3
ME10_DIM_10
100
AcDbAlignedDimension
 13
232.4864426995
 23
250.8497134037
 33
0.0
 14
232.4864426995
 24
315.8497134037
 34
0.0
 50
90.0
100
AcDbRotatedDimension
  0
DIMENSION
  5
DC
330
1F
100
AcDbEntity
  8
1
100
AcDbDimension
  2
*D3
 10
257.599419898569
 20
295.8497134037
 30
0.0
 11
253.849419898569
 21
282.637245779085
 31
0.0
 70
    32
  1
<>
 71
     5
 42
-1.0
 53
90.0
  3
ME10_DIM_11
100
AcDbAlignedDimension
 13
245.7543918919
 23
270.8497134037
 33
0.0
 14
245.7543918919
 24
295.8497134037
 34
0.0
 50
90.0
100
AcDbRotatedDimension
  0
DIMENSION
  5
E7
330
1F
100
AcDbEntity
  8
1
100
AcDbDimension
  2
*D4
 10
245.7543918919001
 20
353.05755515252
 30
0.0
 11
157.9506650671912
 21
356.80755515252
 31
0.0
 70
    32
  1
<>
 71
     5
 42
-1.0
 53
0.00013888888889
  3
ME10_DIM_12
100
AcDbAlignedDimension
 13
44.00439189189996
 23
301.5111604049
 33
0.0
 14
245.7543918919
 24
307.766809635
 34
0.0
100
AcDbRotatedDimension
  0
DIMENSION
  5
F2
330
1F
100
AcDbEntity
  8
1
100
AcDbDimension
  2
*D5
 10
245.7543918919
 20
345.496637725056
 30
0.0
 11
198.2942980858312
 21
349.246637725056
 31
0.0
 70
    32
  1
<>
 71
     5
 42
-1.0
 53
0.00013888888889
  3
ME10_DIM_13
100
AcDbAlignedDimension
 13
145.7543918919
 23
335.0872134037
 33
0.0
 14
245.7543918919
 24
307.766809635
 34
0.0
100
AcDbRotatedDimension
  0
DIMENSION
  5
FD
330
1F
100
AcDbEntity
  8
1
100
AcDbDimension
  2
*D6
 10
245.7543918919
 20
337.63921373181
 30
0.0
 11
204.804102753184
 21
341.38921373181
 31
0.0
 70
    32
  1
<>
 71
     5
 42
-1.0
 53
0.00013888888889
  3
ME10_DIM_14
100
AcDbAlignedDimension
 13
164.8543918919
 23
329.3112071376
 33
0.0
 14
245.7543918919
 24
307.766809635
 34
0.0
100
AcDbRotatedDimension
  0
INSERT
  5
104
330
1F
100
AcDbEntity
  8
1
100
AcDbBlockReference
  2
*D7
 10
0.0
 20
0.0
 30
0.0
  0
ENDSEC
  0
SECTION
  2
OBJECTS
  0
DICTIONARY
  5
C
330
0
100
AcDbDictionary
281
     1
  3
ACAD_GROUP
350
D
  3
ACAD_LAYOUT
350
1A
  3
ACAD_MLEADERSTYLE
350
107
  3
ACAD_MLINESTYLE
350
17
  3
ACAD_PLOTSETTINGS
350
19
  3
ACAD_PLOTSTYLENAME
350
E
  3
ACAD_SCALELIST
350
4A
  3
ACAD_VISUALSTYLE
350
2A
  3
AcDbVariableDictionary
350
105
  0
DICTIONARY
  5
D
102
{ACAD_REACTORS
330
C
102
}
330
C
100
AcDbDictionary
281
     1
  0
DICTIONARY
  5
1A
102
{ACAD_REACTORS
330
C
102
}
330
C
100
AcDbDictionary
281
     1
  3
Layout1
350
1E
  3
Layout2
350
26
  3
Model
350
22
  0
DICTIONARY
  5
107
102
{ACAD_REACTORS
330
C
102
}
330
C
100
AcDbDictionary
281
     1
  0
DICTIONARY
  5
17
102
{ACAD_REACTORS
330
C
102
}
330
C
100
AcDbDictionary
281
     1
  3
Standard
350
18
  0
DICTIONARY
  5
19
102
{ACAD_REACTORS
330
C
102
}
330
C
100
AcDbDictionary
281
     1
  0
ACDBDICTIONARYWDFLT
  5
E
102
{ACAD_REACTORS
330
C
102
}
330
C
100
AcDbDictionary
281
     1
  3
Normal
350
F
100
AcDbDictionaryWithDefault
340
F
  0
DICTIONARY
  5
4A
102
{ACAD_REACTORS
330
C
102
}
330
C
100
AcDbDictionary
281
     1
  3
A0
350
4B
  3
A1
350
4C
  3
A2
350
4D
  3
A3
350
4E
  3
A4
350
4F
  3
A5
350
50
  3
A6
350
51
  3
A7
350
52
  3
A8
350
53
  3
A9
350
54
  3
B0
350
55
  3
B1
350
56
  3
B2
350
57
  3
B3
350
58
  3
B4
350
59
  3
B5
350
5A
  3
B6
350
5B
  3
B7
350
5C
  3
B8
350
5D
  3
B9
350
5E
  3
C0
350
5F
  3
C1
350
60
  3
C2
350
61
  3
C3
350
62
  3
C4
350
63
  3
C5
350
64
  3
C6
350
65
  3
C7
350
66
  3
C8
350
67
  3
C9
350
68
  3
D0
350
69
  3
D1
350
6A
  3
D2
350
6B
  0
DICTIONARY
  5
2A
102
{ACAD_REACTORS
330
C
102
}
330
C
100
AcDbDictionary
281
     1
  3
2dWireframe
350
2F
  3
3D Hidden
350
31
  3
3dWireframe
350
30
  3
Basic
350
32
  3
Brighten
350
36
  3
ColorChange
350
3A
  3
Conceptual
350
34
  3
Dim
350
35
  3
Facepattern
350
39
  3
Flat
350
2B
  3
FlatWithEdges
350
2C
  3
Gouraud
350
2D
  3
GouraudWithEdges
350
2E
  3
Linepattern
350
38
  3
Realistic
350
33
  3
Thicken
350
37
  0
DICTIONARY
  5
105
102
{ACAD_REACTORS
330
C
102
}
330
C
100
AcDbDictionary
281
     1
  3
CANNOSCALE
350
108
  0
LAYOUT
  5
1E
102
{ACAD_REACTORS
330
1A
102
}
330
1A
100
AcDbPlotSettings
  1

  2
none_device
  4

  6

 40
0.0
 41
0.0
 42
0.0
 43
0.0
 44
0.0
 45
0.0
 46
0.0
 47
0.0
 48
0.0
 49
0.0
140
0.0
141
0.0
142
1.0
143
1.0
 70
   688
 72
     0
 73
     0
 74
     5
  7

 75
    16
147
1.0
148
0.0
149
0.0
100
AcDbLayout
  1
Layout1
 70
     1
 71
     1
 10
0.0
 20
0.0
 11
12.0
 21
9.0
 12
0.0
 22
0.0
 32
0.0
 14
1.00000000000000E+20
 24
1.00000000000000E+20
 34
1.00000000000000E+20
 15
-1.00000000000000E+20
 25
-1.00000000000000E+20
 35
-1.00000000000000E+20
146
0.0
 13
0.0
 23
0.0
 33
0.0
 16
1.0
 26
0.0
 36
0.0
 17
0.0
 27
1.0
 37
0.0
 76
     0
330
1B
  0
LAYOUT
  5
26
102
{ACAD_REACTORS
330
1A
102
}
330
1A
100
AcDbPlotSettings
  1

  2
none_device
  4

  6

 40
0.0
 41
0.0
 42
0.0
 43
0.0
 44
0.0
 45
0.0
 46
0.0
 47
0.0
 48
0.0
 49
0.0
140
0.0
141
0.0
142
1.0
143
1.0
 70
   688
 72
     0
 73
     0
 74
     5
  7

 75
    16
147
1.0
148
0.0
149
0.0
100
AcDbLayout
  1
Layout2
 70
     1
 71
     2
 10
0.0
 20
0.0
 11
0.0
 21
0.0
 12
0.0
 22
0.0
 32
0.0
 14
0.0
 24
0.0
 34
0.0
 15
0.0
 25
0.0
 35
0.0
146
0.0
 13
0.0
 23
0.0
 33
0.0
 16
1.0
 26
0.0
 36
0.0
 17
0.0
 27
1.0
 37
0.0
 76
     0
330
23
  0
LAYOUT
  5
22
102
{ACAD_REACTORS
330
1A
102
}
330
1A
100
AcDbPlotSettings
  1

  2
none_device
  4

  6

 40
0.0
 41
0.0
 42
0.0
 43
0.0
 44
0.0
 45
0.0
 46
0.0
 47
0.0
 48
0.0
 49
0.0
140
0.0
141
0.0
142
1.0
143
1.0
 70
  1712
 72
     0
 73
     0
 74
     0
  7

 75
     0
147
1.0
148
0.0
149
0.0
100
AcDbLayout
  1
Model
 70
     1
 71
     0
 10
0.0
 20
0.0
 11
12.0
 21
9.0
 12
0.0
 22
0.0
 32
0.0
 14
20.4924223372934
 24
233.2254165339
 34
0.0
 15
268.346363589164
 25
358.55755515252
 35
0.0
146
0.0
 13
0.0
 23
0.0
 33
0.0
 16
1.0
 26
0.0
 36
0.0
 17
0.0
 27
1.0
 37
0.0
 76
     0
330
1F
331
29
  0
MLINESTYLE
  5
18
102
{ACAD_REACTORS
330
17
102
}
330
17
100
AcDbMlineStyle
  2
Standard
 70
     0
  3

 62
   256
 51
90.0
 52
90.0
 71
     2
 49
0.5
 62
   256
  6
BYLAYER
 49
-0.5
 62
   256
  6
BYLAYER
  0
ACDBPLACEHOLDER
  5
F
102
{ACAD_REACTORS
330
E
102
}
330
E
  0
SCALE
  5
4B
102
{ACAD_REACTORS
330
4A
102
}
330
4A
100
AcDbScale
 70
     0
300
1:1
140
1.0
141
1.0
290
     1
  0
SCALE
  5
4C
102
{ACAD_REACTORS
330
4A
102
}
330
4A
100
AcDbScale
 70
     0
300
1:2
140
1.0
141
2.0
290
     0
  0
SCALE
  5
4D
102
{ACAD_REACTORS
330
4A
102
}
330
4A
100
AcDbScale
 70
     0
300
1:4
140
1.0
141
4.0
290
     0
  0
SCALE
  5
4E
102
{ACAD_REACTORS
330
4A
102
}
330
4A
100
AcDbScale
 70
     0
300
1:5
140
1.0
141
5.0
290
     0
  0
SCALE
  5
4F
102
{ACAD_REACTORS
330
4A
102
}
330
4A
100
AcDbScale
 70
     0
300
1:8
140
1.0
141
8.0
290
     0
  0
SCALE
  5
50
102
{ACAD_REACTORS
330
4A
102
}
330
4A
100
AcDbScale
 70
     0
300
1:10
140
1.0
141
10.0
290
     0
  0
SCALE
  5
51
102
{ACAD_REACTORS
330
4A
102
}
330
4A
100
AcDbScale
 70
     0
300
1:16
140
1.0
141
16.0
290
     0
  0
SCALE
  5
52
102
{ACAD_REACTORS
330
4A
102
}
330
4A
100
AcDbScale
 70
     0
300
1:20
140
1.0
141
20.0
290
     0
  0
SCALE
  5
53
102
{ACAD_REACTORS
330
4A
102
}
330
4A
100
AcDbScale
 70
     0
300
1:30
140
1.0
141
30.0
290
     0
  0
SCALE
  5
54
102
{ACAD_REACTORS
330
4A
102
}
330
4A
100
AcDbScale
 70
     0
300
1:40
140
1.0
141
40.0
290
     0
  0
SCALE
  5
55
102
{ACAD_REACTORS
330
4A
102
}
330
4A
100
AcDbScale
 70
     0
300
1:50
140
1.0
141
50.0
290
     0
  0
SCALE
  5
56
102
{ACAD_REACTORS
330
4A
102
}
330
4A
100
AcDbScale
 70
     0
300
1:100
140
1.0
141
100.0
290
     0
  0
SCALE
  5
57
102
{ACAD_REACTORS
330
4A
102
}
330
4A
100
AcDbScale
 70
     0
300
2:1
140
2.0
141
1.0
290
     0
  0
SCALE
  5
58
102
{ACAD_REACTORS
330
4A
102
}
330
4A
100
AcDbScale
 70
     0
300
4:1
140
4.0
141
1.0
290
     0
  0
SCALE
  5
59
102
{ACAD_REACTORS
330
4A
102
}
330
4A
100
AcDbScale
 70
     0
300
8:1
140
8.0
141
1.0
290
     0
  0
SCALE
  5
5A
102
{ACAD_REACTORS
330
4A
102
}
330
4A
100
AcDbScale
 70
     0
300
10:1
140
10.0
141
1.0
290
     0
  0
SCALE
  5
5B
102
{ACAD_REACTORS
330
4A
102
}
330
4A
100
AcDbScale
 70
     0
300
100:1
140
100.0
141
1.0
290
     0
  0
SCALE
  5
5C
102
{ACAD_REACTORS
330
4A
102
}
330
4A
100
AcDbScale
 70
     0
300
1/128" = 1'-0"
140
0.0078125
141
12.0
290
     0
  0
SCALE
  5
5D
102
{ACAD_REACTORS
330
4A
102
}
330
4A
100
AcDbScale
 70
     0
300
1/64" = 1'-0"
140
0.015625
141
12.0
290
     0
  0
SCALE
  5
5E
102
{ACAD_REACTORS
330
4A
102
}
330
4A
100
AcDbScale
 70
     0
300
1/32" = 1'-0"
140
0.03125
141
12.0
290
     0
  0
SCALE
  5
5F
102
{ACAD_REACTORS
330
4A
102
}
330
4A
100
AcDbScale
 70
     0
300
1/16" = 1'-0"
140
0.0625
141
12.0
290
     0
  0
SCALE
  5
60
102
{ACAD_REACTORS
330
4A
102
}
330
4A
100
AcDbScale
 70
     0
300
3/32" = 1'-0"
140
0.09375
141
12.0
290
     0
  0
SCALE
  5
61
102
{ACAD_REACTORS
330
4A
102
}
330
4A
100
AcDbScale
 70
     0
300
1/8" = 1'-0"
140
0.125
141
12.0
290
     0
  0
SCALE
  5
62
102
{ACAD_REACTORS
330
4A
102
}
330
4A
100
AcDbScale
 70
     0
300
3/16" = 1'-0"
140
0.1875
141
12.0
290
     0
  0
SCALE
  5
63
102
{ACAD_REACTORS
330
4A
102
}
330
4A
100
AcDbScale
 70
     0
300
1/4" = 1'-0"
140
0.25
141
12.0
290
     0
  0
SCALE
  5
64
102
{ACAD_REACTORS
330
4A
102
}
330
4A
100
AcDbScale
 70
     0
300
3/8" = 1'-0"
140
0.375
141
12.0
290
     0
  0
SCALE
  5
65
102
{ACAD_REACTORS
330
4A
102
}
330
4A
100
AcDbScale
 70
     0
300
1/2" = 1'-0"
140
0.5
141
12.0
290
     0
  0
SCALE
  5
66
102
{ACAD_REACTORS
330
4A
102
}
330
4A
100
AcDbScale
 70
     0
300
3/4" = 1'-0"
140
0.75
141
12.0
290
     0
  0
SCALE
  5
67
102
{ACAD_REACTORS
330
4A
102
}
330
4A
100
AcDbScale
 70
     0
300
1" = 1'-0"
140
1.0
141
12.0
290
     0
  0
SCALE
  5
68
102
{ACAD_REACTORS
330
4A
102
}
330
4A
100
AcDbScale
 70
     0
300
1-1/2" = 1'-0"
140
1.5
141
12.0
290
     0
  0
SCALE
  5
69
102
{ACAD_REACTORS
330
4A
102
}
330
4A
100
AcDbScale
 70
     0
300
3" = 1'-0"
140
3.0
141
12.0
290
     0
  0
SCALE
  5
6A
102
{ACAD_REACTORS
330
4A
102
}
330
4A
100
AcDbScale
 70
     0
300
6" = 1'-0"
140
6.0
141
12.0
290
     0
  0
SCALE
  5
6B
102
{ACAD_REACTORS
330
4A
102
}
330
4A
100
AcDbScale
 70
     0
300
1'-0" = 1'-0"
140
12.0
141
12.0
290
     0
  0
VISUALSTYLE
  5
2F
102
{ACAD_REACTORS
330
2A
102
}
330
2A
100
AcDbVisualStyle
  2
2dWireframe
 70
     4
 71
     0
 72
     2
 73
     0
 90
        0
 40
-0.6
 41
-30.0
 62
     5
 63
     7
 74
     1
 91
        4
 64
     7
 65
   257
 75
     1
175
     1
 42
1.0
 92
        0
 66
   257
 43
1.0
 76
     1
 77
     6
 78
     2
 67
     7
 79
     5
170
     0
171
     0
290
     0
174
     0
 93
        1
 44
0.0
173
     0
291
     0
 45
0.0
1001
ACAD
1000
AcDbSavedByObjectVersion
1070
     0
  0
VISUALSTYLE
  5
31
102
{ACAD_REACTORS
330
2A
102
}
330
2A
100
AcDbVisualStyle
  2
3D Hidden
 70
     6
 71
     1
 72
     2
 73
     2
 90
        0
 40
-0.6
 41
-30.0
 62
     5
 63
     7
 74
     2
 91
        2
 64
     7
 65
   257
 75
     2
175
     1
 42
40.0
 92
        0
 66
   257
 43
1.0
 76
     1
 77
     6
 78
     2
 67
     7
 79
     3
170
     0
171
     0
290
     0
174
     0
 93
        1
 44
0.0
173
     0
291
     0
 45
0.0
1001
ACAD
1000
AcDbSavedByObjectVersion
1070
     0
  0
VISUALSTYLE
  5
30
102
{ACAD_REACTORS
330
2A
102
}
330
2A
100
AcDbVisualStyle
  2
3dWireframe
 70
     5
 71
     0
 72
     2
 73
     0
 90
        0
 40
-0.6
 41
-30.0
 62
     5
 63
     7
 74
     1
 91
        4
 64
     7
 65
   257
 75
     1
175
     1
 42
1.0
 92
        0
 66
   257
 43
1.0
 76
     1
 77
     6
 78
     2
 67
     7
 79
     5
170
     0
171
     0
290
     0
174
     0
 93
        1
 44
0.0
173
     0
291
     0
 45
0.0
1001
ACAD
1000
AcDbSavedByObjectVersion
1070
     0
  0
VISUALSTYLE
  5
32
102
{ACAD_REACTORS
330
2A
102
}
330
2A
100
AcDbVisualStyle
  2
Basic
 70
     7
 71
     1
 72
     0
 73
     1
 90
        0
 40
-0.6
 41
-30.0
 62
     5
 63
     7
 74
     0
 91
        4
 64
     7
 65
   257
 75
     1
175
     1
 42
1.0
 92
        8
 66
     7
 43
1.0
 76
     1
 77
     6
 78
     2
 67
     7
 79
     5
170
     0
171
     0
290
     0
174
     0
 93
        1
 44
0.0
173
     0
291
     1
 45
0.0
1001
ACAD
1000
AcDbSavedByObjectVersion
1070
     0
  0
VISUALSTYLE
  5
36
102
{ACAD_REACTORS
330
2A
102
}
330
2A
100
AcDbVisualStyle
  2
Brighten
 70
    12
 71
     2
 72
     2
 73
     0
 90
        0
 40
-0.6
 41
-30.0
 62
     5
 63
     7
 74
     1
 91
        4
 64
     7
 65
   257
 75
     1
175
     1
 42
1.0
 92
        8
 66
     7
 43
1.0
 76
     1
 77
     6
 78
     2
 67
     7
 79
     5
170
     0
171
     0
290
     0
174
     0
 93
        1
 44
50.0
173
     0
291
     1
 45
0.0
1001
ACAD
1000
AcDbSavedByObjectVersion
1070
     0
  0
VISUALSTYLE
  5
3A
102
{ACAD_REACTORS
330
2A
102
}
330
2A
100
AcDbVisualStyle
  2
ColorChange
 70
    16
 71
     2
 72
     2
 73
     3
 90
        0
 40
-0.6
 41
-30.0
 62
     5
 63
     8
 74
     1
 91
        4
 64
     7
 65
   257
 75
     1
175
     1
 42
1.0
 92
        8
 66
     8
 43
1.0
 76
     1
 77
     6
 78
     2
 67
     7
 79
     5
170
     0
171
     0
290
     0
174
     0
 93
        1
 44
0.0
173
     0
291
     1
 45
0.0
1001
ACAD
1000
AcDbSavedByObjectVersion
1070
     0
  0
VISUALSTYLE
  5
34
102
{ACAD_REACTORS
330
2A
102
}
330
2A
100
AcDbVisualStyle
  2
Conceptual
 70
     9
 71
     3
 72
     2
 73
     0
 90
        0
 40
-0.6
 41
-30.0
 62
     5
 63
     7
 74
     2
 91
        2
 64
     7
 65
   257
 75
     1
175
     1
 42
40.0
 92
        8
 66
     7
 43
1.0
 76
     1
 77
     6
 78
     2
 67
     7
 79
     3
170
     0
171
     0
290
     0
174
     0
 93
        1
 44
0.0
173
     0
291
     0
 45
0.0
1001
ACAD
1000
AcDbSavedByObjectVersion
1070
     0
  0
VISUALSTYLE
  5
35
102
{ACAD_REACTORS
330
2A
102
}
330
2A
100
AcDbVisualStyle
  2
Dim
 70
    11
 71
     2
 72
     2
 73
     0
 90
        0
 40
-0.6
 41
-30.0
 62
     5
 63
     7
 74
     1
 91
        4
 64
     7
 65
   257
 75
     1
175
     1
 42
1.0
 92
        8
 66
     7
 43
1.0
 76
     1
 77
     6
 78
     2
 67
     7
 79
     5
170
     0
171
     0
290
     0
174
     0
 93
        1
 44
-50.0
173
     0
291
     1
 45
0.0
1001
ACAD
1000
AcDbSavedByObjectVersion
1070
     0
  0
VISUALSTYLE
  5
39
102
{ACAD_REACTORS
330
2A
102
}
330
2A
100
AcDbVisualStyle
  2
Facepattern
 70
    15
 71
     2
 72
     2
 73
     0
 90
        0
 40
-0.6
 41
-30.0
 62
     5
 63
     7
 74
     1
 91
        4
 64
     7
 65
   257
 75
     1
175
     1
 42
1.0
 92
        8
 66
     7
 43
1.0
 76
     1
 77
     6
 78
     2
 67
     7
 79
     5
170
     0
171
     0
290
     0
174
     0
 93
        1
 44
0.0
173
     0
291
     1
 45
0.0
1001
ACAD
1000
AcDbSavedByObjectVersion
1070
     0
  0
VISUALSTYLE
  5
2B
102
{ACAD_REACTORS
330
2A
102
}
330
2A
100
AcDbVisualStyle
  2
Flat
 70
     0
 71
     2
 72
     1
 73
     1
 90
        2
 40
-0.6
 41
30.0
 62
     5
 63
     7
 74
     0
 91
        4
 64
     7
 65
   257
 75
     1
175
     1
 42
1.0
 92
        8
 66
     7
 43
1.0
 76
     1
 77
     6
 78
     2
 67
     7
 79
     5
170
     0
171
     0
290
     0
174
     0
 93
       13
 44
0.0
173
     0
291
     1
 45
0.0
1001
ACAD
1000
AcDbSavedByObjectVersion
1070
     0
  0
VISUALSTYLE
  5
2C
102
{ACAD_REACTORS
330
2A
102
}
330
2A
100
AcDbVisualStyle
  2
FlatWithEdges
 70
     1
 71
     2
 72
     1
 73
     1
 90
        2
 40
-0.6
 41
30.0
 62
     5
 63
     7
 74
     1
 91
        4
 64
     7
 65
   257
 75
     1
175
     1
 42
1.0
 92
        0
 66
   257
 43
1.0
 76
     1
 77
     6
 78
     2
 67
     7
 79
     5
170
     0
171
     0
290
     0
174
     0
 93
       13
 44
0.0
173
     0
291
     1
 45
0.0
1001
ACAD
1000
AcDbSavedByObjectVersion
1070
     0
  0
VISUALSTYLE
  5
2D
102
{ACAD_REACTORS
330
2A
102
}
330
2A
100
AcDbVisualStyle
  2
Gouraud
 70
     2
 71
     2
 72
     2
 73
     1
 90
        2
 40
-0.6
 41
30.0
 62
     5
 63
     7
 74
     0
 91
        4
 64
     7
 65
   257
 75
     1
175
     1
 42
1.0
 92
        0
 66
     7
 43
1.0
 76
     1
 77
     6
 78
     2
 67
     7
 79
     5
170
     0
171
     0
290
     0
174
     0
 93
       13
 44
0.0
173
     0
291
     1
 45
0.0
1001
ACAD
1000
AcDbSavedByObjectVersion
1070
     0
  0
VISUALSTYLE
  5
2E
102
{ACAD_REACTORS
330
2A
102
}
330
2A
100
AcDbVisualStyle
  2
GouraudWithEdges
 70
     3
 71
     2
 72
     2
 73
     1
 90
        2
 40
-0.6
 41
30.0
 62
     5
 63
     7
 74
     1
 91
        4
 64
     7
 65
   257
 75
     1
175
     1
 42
1.0
 92
        0
 66
   257
 43
1.0
 76
     1
 77
     6
 78
     2
 67
     7
 79
     5
170
     0
171
     0
290
     0
174
     0
 93
       13
 44
0.0
173
     0
291
     1
 45
0.0
1001
ACAD
1000
AcDbSavedByObjectVersion
1070
     0
  0
VISUALSTYLE
  5
38
102
{ACAD_REACTORS
330
2A
102
}
330
2A
100
AcDbVisualStyle
  2
Linepattern
 70
    14
 71
     2
 72
     2
 73
     0
 90
        0
 40
-0.6
 41
-30.0
 62
     5
 63
     7
 74
     1
 91
        4
 64
     7
 65
   257
 75
     7
175
     7
 42
1.0
 92
        8
 66
     7
 43
1.0
 76
     1
 77
     6
 78
     2
 67
     7
 79
     5
170
     0
171
     0
290
     0
174
     0
 93
        1
 44
0.0
173
     0
291
     1
 45
0.0
1001
ACAD
1000
AcDbSavedByObjectVersion
1070
     0
  0
VISUALSTYLE
  5
33
102
{ACAD_REACTORS
330
2A
102
}
330
2A
100
AcDbVisualStyle
  2
Realistic
 70
     8
 71
     2
 72
     2
 73
     0
 90
        0
 40
-0.6
 41
-30.0
 62
     5
 63
     7
 74
     1
 91
        0
 64
     7
 65
   257
 75
     1
175
     1
 42
1.0
 92
        8
 66
     8
 43
1.0
 76
     1
 77
     6
 78
     2
 67
     7
 79
     5
170
     0
171
     0
290
     0
174
     0
 93
       13
 44
0.0
173
     0
291
     0
 45
0.0
1001
ACAD
1000
AcDbSavedByObjectVersion
1070
     0
  0
VISUALSTYLE
  5
37
102
{ACAD_REACTORS
330
2A
102
}
330
2A
100
AcDbVisualStyle
  2
Thicken
 70
    13
 71
     2
 72
     2
 73
     0
 90
        0
 40
-0.6
 41
-30.0
 62
     5
 63
     7
 74
     1
 91
        4
 64
     7
 65
   257
 75
     1
175
     1
 42
1.0
 92
       12
 66
     7
 43
1.0
 76
     1
 77
     6
 78
     2
 67
     7
 79
     5
170
     0
171
     0
290
     0
174
     0
 93
        1
 44
0.0
173
     0
291
     1
 45
0.0
1001
ACAD
1000
AcDbSavedByObjectVersion
1070
     0
  0
DICTIONARYVAR
  5
108
102
{ACAD_REACTORS
330
105
102
}
330
105
100
DictionaryVariables
280
     0
  1
1:1
  0
ENDSEC
  0
EOF
