  0
SECTION
  2
HEADER
  9
$ACADVER
  1
AC1015
  9
$ACADMAINTVER
 70
     6
  9
$DWGCODEPAGE
  3
ANSI_1252
  9
$INSBASE
 10
0.0
 20
0.0
 30
0.0
  9
$EXTMIN
 10
47.8038979886626
 20
238.4352658063
 30
0.0
  9
$EXTMAX
 10
293.425074614154
 20
364.460965663871
 30
0.0
  9
$LIMMIN
 10
0.0
 20
0.0
  9
$LIMMAX
 10
12.0
 20
9.0
  9
$ORTHOMODE
 70
     0
  9
$REGENMODE
 70
     1
  9
$FILLMODE
 70
     1
  9
$QTEXTMODE
 70
     0
  9
$MIRRTEXT
 70
     1
  9
$LTSCALE
 40
1.0
  9
$ATTMODE
 70
     1
  9
$TEXTSIZE
 40
0.2
  9
$TRACEWID
 40
0.05
  9
$TEXTSTYLE
  7
Standard
  9
$CLAYER
  8
0
  9
$CELTYPE
  6
ByLayer
  9
$CECOLOR
 62
   256
  9
$CELTSCALE
 40
1.0
  9
$DISPSILH
 70
     0
  9
$DIMSCALE
 40
1.0
  9
$DIMASZ
 40
0.18
  9
$DIMEXO
 40
0.0625
  9
$DIMDLI
 40
0.38
  9
$DIMRND
 40
0.0
  9
$DIMDLE
 40
0.0
  9
$DIMEXE
 40
0.18
  9
$DIMTP
 40
0.0
  9
$DIMTM
 40
0.0
  9
$DIMTXT
 40
0.18
  9
$DIMCEN
 40
0.09
  9
$DIMTSZ
 40
0.0
  9
$DIMTOL
 70
     0
  9
$DIMLIM
 70
     0
  9
$DIMTIH
 70
     1
  9
$DIMTOH
 70
     1
  9
$DIMSE1
 70
     0
  9
$DIMSE2
 70
     0
  9
$DIMTAD
 70
     0
  9
$DIMZIN
 70
     0
  9
$DIMBLK
  1

  9
$DIMASO
 70
     1
  9
$DIMSHO
 70
     1
  9
$DIMPOST
  1

  9
$DIMAPOST
  1

  9
$DIMALT
 70
     0
  9
$DIMALTD
 70
     2
  9
$DIMALTF
 40
25.4
  9
$DIMLFAC
 40
1.0
  9
$DIMTOFL
 70
     0
  9
$DIMTVP
 40
0.0
  9
$DIMTIX
 70
     0
  9
$DIMSOXD
 70
     0
  9
$DIMSAH
 70
     0
  9
$DIMBLK1
  1

  9
$DIMBLK2
  1

  9
$DIMSTYLE
  2
Standard
  9
$DIMCLRD
 70
     0
  9
$DIMCLRE
 70
     0
  9
$DIMCLRT
 70
     0
  9
$DIMTFAC
 40
1.0
  9
$DIMGAP
 40
0.09
  9
$DIMJUST
 70
     0
  9
$DIMSD1
 70
     0
  9
$DIMSD2
 70
     0
  9
$DIMTOLJ
 70
     1
  9
$DIMTZIN
 70
     0
  9
$DIMALTZ
 70
     0
  9
$DIMALTTZ
 70
     0
  9
$DIMUPT
 70
     0
  9
$DIMDEC
 70
     4
  9
$DIMTDEC
 70
     4
  9
$DIMALTU
 70
     2
  9
$DIMALTTD
 70
     2
  9
$DIMTXSTY
  7
Standard
  9
$DIMAUNIT
 70
     0
  9
$DIMADEC
 70
     0
  9
$DIMALTRND
 40
0.0
  9
$DIMAZIN
 70
     0
  9
$DIMDSEP
 70
    46
  9
$DIMATFIT
 70
     3
  9
$DIMFRAC
 70
     0
  9
$DIMLDRBLK
  1

  9
$DIMLUNIT
 70
     2
  9
$DIMLWD
 70
    -2
  9
$DIMLWE
 70
    -2
  9
$DIMTMOVE
 70
     0
  9
$LUNITS
 70
     2
  9
$LUPREC
 70
     4
  9
$SKETCHINC
 40
0.1
  9
$FILLETRAD
 40
0.5
  9
$AUNITS
 70
     0
  9
$AUPREC
 70
     0
  9
$MENU
  1
.
  9
$ELEVATION
 40
0.0
  9
$PELEVATION
 40
0.0
  9
$THICKNESS
 40
0.0
  9
$LIMCHECK
 70
     0
  9
$CHAMFERA
 40
0.5
  9
$CHAMFERB
 40
0.5
  9
$CHAMFERC
 40
1.0
  9
$CHAMFERD
 40
0.0
  9
$SKPOLY
 70
     0
  9
$TDCREATE
 40
2456821.367617014
  9
$TDUCREATE
 40
2456821.28428368
  9
$TDUPDATE
 40
2456821.367617026
  9
$TDUUPDATE
 40
2456821.284283692
  9
$TDINDWG
 40
0.0000000116
  9
$TDUSRTIMER
 40
0.0000000116
  9
$USRTIMER
 70
     1
  9
$ANGBASE
 50
0.0
  9
$ANGDIR
 70
     0
  9
$PDMODE
 70
     0
  9
$PDSIZE
 40
0.0
  9
$PLINEWID
 40
0.0
  9
$SPLFRAME
 70
     0
  9
$SPLINETYPE
 70
     6
  9
$SPLINESEGS
 70
     8
  9
$HANDSEED
  5
100
  9
$SURFTAB1
 70
     6
  9
$SURFTAB2
 70
     6
  9
$SURFTYPE
 70
     6
  9
$SURFU
 70
     6
  9
$SURFV
 70
     6
  9
$UCSBASE
  2

  9
$UCSNAME
  2

  9
$UCSORG
 10
0.0
 20
0.0
 30
0.0
  9
$UCSXDIR
 10
1.0
 20
0.0
 30
0.0
  9
$UCSYDIR
 10
0.0
 20
1.0
 30
0.0
  9
$UCSORTHOREF
  2

  9
$UCSORTHOVIEW
 70
     0
  9
$UCSORGTOP
 10
0.0
 20
0.0
 30
0.0
  9
$UCSORGBOTTOM
 10
0.0
 20
0.0
 30
0.0
  9
$UCSORGLEFT
 10
0.0
 20
0.0
 30
0.0
  9
$UCSORGRIGHT
 10
0.0
 20
0.0
 30
0.0
  9
$UCSORGFRONT
 10
0.0
 20
0.0
 30
0.0
  9
$UCSORGBACK
 10
0.0
 20
0.0
 30
0.0
  9
$PUCSBASE
  2

  9
$PUCSNAME
  2

  9
$PUCSORG
 10
0.0
 20
0.0
 30
0.0
  9
$PUCSXDIR
 10
1.0
 20
0.0
 30
0.0
  9
$PUCSYDIR
 10
0.0
 20
1.0
 30
0.0
  9
$PUCSORTHOREF
  2

  9
$PUCSORTHOVIEW
 70
     0
  9
$PUCSORGTOP
 10
0.0
 20
0.0
 30
0.0
  9
$PUCSORGBOTTOM
 10
0.0
 20
0.0
 30
0.0
  9
$PUCSORGLEFT
 10
0.0
 20
0.0
 30
0.0
  9
$PUCSORGRIGHT
 10
0.0
 20
0.0
 30
0.0
  9
$PUCSORGFRONT
 10
0.0
 20
0.0
 30
0.0
  9
$PUCSORGBACK
 10
0.0
 20
0.0
 30
0.0
  9
$USERI1
 70
     0
  9
$USERI2
 70
     0
  9
$USERI3
 70
     0
  9
$USERI4
 70
     0
  9
$USERI5
 70
     0
  9
$USERR1
 40
16.5
  9
$USERR2
 40
0.0
  9
$USERR3
 40
0.0
  9
$USERR4
 40
0.0
  9
$USERR5
 40
0.0
  9
$WORLDVIEW
 70
     1
  9
$SHADEDGE
 70
     3
  9
$SHADEDIF
 70
    70
  9
$TILEMODE
 70
     1
  9
$MAXACTVP
 70
    64
  9
$PINSBASE
 10
0.0
 20
0.0
 30
0.0
  9
$PLIMCHECK
 70
     0
  9
$PEXTMIN
 10
1.00000000000000E+20
 20
1.00000000000000E+20
 30
1.00000000000000E+20
  9
$PEXTMAX
 10
-1.00000000000000E+20
 20
-1.00000000000000E+20
 30
-1.00000000000000E+20
  9
$PLIMMIN
 10
0.0
 20
0.0
  9
$PLIMMAX
 10
12.0
 20
9.0
  9
$UNITMODE
 70
     0
  9
$VISRETAIN
 70
     1
  9
$PLINEGEN
 70
     0
  9
$PSLTSCALE
 70
     1
  9
$TREEDEPTH
 70
  3020
  9
$CMLSTYLE
  2
Standard
  9
$CMLJUST
 70
     0
  9
$CMLSCALE
 40
1.0
  9
$PROXYGRAPHICS
 70
     1
  9
$MEASUREMENT
 70
     1
  9
$CELWEIGHT
370
    -1
  9
$ENDCAPS
280
     0
  9
$JOINSTYLE
280
     0
  9
$LWDISPLAY
290
     0
  9
$INSUNITS
 70
     1
  9
$HYPERLINKBASE
  1

  9
$STYLESHEET
  1

  9
$XEDIT
290
     1
  9
$CEPSNTYPE
380
     0
  9
$PSTYLEMODE
290
     1
  9
$FINGERPRINTGUID
  2
{7171FBC8-59D7-4D4F-94CD-85A57ECC19B0}
  9
$VERSIONGUID
  2
{FAEB1C32-E019-11D5-929B-00C0DF256EC4}
  9
$EXTNAMES
290
     1
  9
$PSVPSCALE
 40
0.0
  9
$OLESTARTUP
290
     0
  0
ENDSEC
  0
SECTION
  2
CLASSES
  0
CLASS
  1
ACDBDICTIONARYWDFLT
  2
AcDbDictionaryWithDefault
  3
ObjectDBX Classes
 90
        0
280
     0
281
     0
  0
CLASS
  1
VISUALSTYLE
  2
AcDbVisualStyle
  3
ObjectDBX Classes
 90
     4095
280
     0
281
     0
  0
CLASS
  1
SCALE
  2
AcDbScale
  3
ObjectDBX Classes
 90
     1153
280
     0
281
     0
  0
CLASS
  1

  2
exOdDbPolyline
  3

 90
        0
280
     0
281
     1
  0
CLASS
  1

  2
exOdDbSpline
  3

 90
        0
280
     0
281
     1
  0
CLASS
  1
DICTIONARYVAR
  2
AcDbDictionaryVar
  3
ObjectDBX Classes
 90
        0
280
     0
281
     0
  0
CLASS
  1
ACDBPLACEHOLDER
  2
AcDbPlaceHolder
  3
ObjectDBX Classes
 90
        0
280
     0
281
     0
  0
CLASS
  1
LAYOUT
  2
AcDbLayout
  3
ObjectDBX Classes
 90
        0
280
     0
281
     0
  0
ENDSEC
  0
SECTION
  2
TABLES
  0
TABLE
  2
VPORT
  5
8
330
0
100
AcDbSymbolTable
 70
     1
  0
VPORT
  5
29
330
8
100
AcDbSymbolTableRecord
100
AcDbViewportTableRecord
  2
*Active
 70
     0
 10
0.0
 20
0.0
 11
1.0
 21
1.0
 12
170.6144863014083
 22
301.4481157350855
 13
0.0
 23
0.0
 14
0.5
 24
0.5
 15
0.5
 25
0.5
 16
0.0
 26
0.0
 36
1.0
 17
0.0
 27
0.0
 37
0.0
 40
168.5823340404488
 41
1.60267857142857
 42
50.0
 43
0.0
 44
0.0
 50
0.0
 51
0.0
 71
     0
 72
   100
 73
     1
 74
     3
 75
     0
 76
     0
 77
     0
 78
     0
281
     0
 65
     1
110
0.0
120
0.0
130
0.0
111
1.0
121
0.0
131
0.0
112
0.0
122
1.0
132
0.0
 79
     0
146
0.0
  0
ENDTAB
  0
TABLE
  2
LTYPE
  5
5
330
0
100
AcDbSymbolTable
 70
     8
  0
LTYPE
  5
14
330
5
100
AcDbSymbolTableRecord
100
AcDbLinetypeTableRecord
  2
ByBlock
 70
     0
  3

 72
    65
 73
     0
 40
0.0
  0
LTYPE
  5
15
330
5
100
AcDbSymbolTableRecord
100
AcDbLinetypeTableRecord
  2
ByLayer
 70
     0
  3

 72
    65
 73
     0
 40
0.0
  0
LTYPE
  5
16
330
5
100
AcDbSymbolTableRecord
100
AcDbLinetypeTableRecord
  2
Continuous
 70
     0
  3
Solid line
 72
    65
 73
     0
 40
0.0
  0
LTYPE
  5
3B
330
5
100
AcDbSymbolTableRecord
100
AcDbLinetypeTableRecord
  2
DASHED
 70
     0
  3
Dashed
 72
    65
 73
     2
 40
15.0
 49
7.0
 74
     0
 49
-8.0
 74
     0
  0
LTYPE
  5
3C
330
5
100
AcDbSymbolTableRecord
100
AcDbLinetypeTableRecord
  2
DOTTED
 70
     0
  3
Dotted
 72
    65
 73
     2
 40
1.0
 49
0.0
 74
     0
 49
-1.0
 74
     0
  0
LTYPE
  5
3D
330
5
100
AcDbSymbolTableRecord
100
AcDbLinetypeTableRecord
  2
DOT_CENTER
 70
     0
  3
Dot_Center
 72
    65
 73
     4
 40
14.0
 49
12.0
 74
     0
 49
-1.0
 74
     0
 49
0.0
 74
     0
 49
-1.0
 74
     0
  0
LTYPE
  5
3E
330
5
100
AcDbSymbolTableRecord
100
AcDbLinetypeTableRecord
  2
LONG_DASHED
 70
     0
  3
Long_Dashed
 72
    65
 73
     2
 40
15.0
 49
10.0
 74
     0
 49
-5.0
 74
     0
  0
LTYPE
  5
3F
330
5
100
AcDbSymbolTableRecord
100
AcDbLinetypeTableRecord
  2
DASH_CENTER
 70
     0
  3
Dash_Center
 72
    65
 73
     4
 40
14.0
 49
11.0
 74
     0
 49
-1.0
 74
     0
 49
1.0
 74
     0
 49
-1.0
 74
     0
  0
LTYPE
  5
40
330
5
100
AcDbSymbolTableRecord
100
AcDbLinetypeTableRecord
  2
PHANTOM
 70
     0
  3
Phantom
 72
    65
 73
     6
 40
13.0
 49
10.0
 74
     0
 49
-1.0
 74
     0
 49
0.0
 74
     0
 49
-1.0
 74
     0
 49
0.0
 74
     0
 49
-1.0
 74
     0
  0
LTYPE
  5
41
330
5
100
AcDbSymbolTableRecord
100
AcDbLinetypeTableRecord
  2
CENTER_DASH_DASH
 70
     0
  3
Center_Dash_Dash
 72
    65
 73
     6
 40
14.0
 49
9.0
 74
     0
 49
-1.0
 74
     0
 49
1.0
 74
     0
 49
-1.0
 74
     0
 49
1.0
 74
     0
 49
-1.0
 74
     0
  0
ENDTAB
  0
TABLE
  2
LAYER
  5
2
330
0
100
AcDbSymbolTable
 70
     6
  0
LAYER
  5
10
330
2
100
AcDbSymbolTableRecord
100
AcDbLayerTableRecord
  2
0
 70
     0
 62
     7
  6
Continuous
370
    -3
390
F
  0
LAYER
  5
42
330
2
100
AcDbSymbolTableRecord
100
AcDbLayerTableRecord
  2
1
 70
     0
 62
     7
  6
Continuous
370
    -3
390
F
  0
LAYER
  5
43
330
2
100
AcDbSymbolTableRecord
100
AcDbLayerTableRecord
  2
BEZUGSACHSEN
 70
     0
 62
     7
  6
Continuous
370
    -3
390
F
  0
LAYER
  5
44
330
2
100
AcDbSymbolTableRecord
100
AcDbLayerTableRecord
  2
DEFAULT_2
 70
     0
 62
     7
  6
Continuous
370
    -3
390
F
  0
LAYER
  5
45
330
2
100
AcDbSymbolTableRecord
100
AcDbLayerTableRecord
  2
RUNDUNGEN
 70
     0
 62
     7
  6
Continuous
370
    -3
390
F
  0
LAYER
  5
46
330
2
100
AcDbSymbolTableRecord
100
AcDbLayerTableRecord
  2
TEIL_STARTBEZUEGE
 70
     0
 62
     7
  6
Continuous
370
    -3
390
F
  0
ENDTAB
  0
TABLE
  2
STYLE
  5
3
330
0
100
AcDbSymbolTable
 70
     2
  0
STYLE
  5
11
330
3
100
AcDbSymbolTableRecord
100
AcDbTextStyleTableRecord
  2
Standard
 70
     0
 40
0.0
 41
1.0
 50
0.0
 71
     0
 42
0.2
  3
txt
  4

  0
STYLE
  5
6D
330
3
100
AcDbSymbolTableRecord
100
AcDbTextStyleTableRecord
  2
CONVERTER_11
 70
     0
 40
0.0
 41
0.72
 50
0.0
 71
     0
 42
0.2
  3
txt.shx
  4

  0
ENDTAB
  0
TABLE
  2
VIEW
  5
6
330
0
100
AcDbSymbolTable
 70
     0
  0
ENDTAB
  0
TABLE
  2
UCS
  5
7
330
0
100
AcDbSymbolTable
 70
     0
  0
ENDTAB
  0
TABLE
  2
APPID
  5
9
330
0
100
AcDbSymbolTable
 70
     1
  0
APPID
  5
12
330
9
100
AcDbSymbolTableRecord
100
AcDbRegAppTableRecord
  2
ACAD
 70
     0
  0
ENDTAB
  0
TABLE
  2
DIMSTYLE
  5
A
330
0
100
AcDbSymbolTable
 70
     6
100
AcDbDimStyleTable
  0
DIMSTYLE
105
27
330
A
100
AcDbSymbolTableRecord
100
AcDbDimStyleTableRecord
  2
Standard
 70
     0
340
11
  0
DIMSTYLE
105
C7
102
{ACAD_REACTORS
330
C8
102
}
330
A
100
AcDbSymbolTableRecord
100
AcDbDimStyleTableRecord
  2
ME10_DIM_10
 70
     0
  3
<>
 41
3.5
 42
2.0
 44
2.0
 71
     1
 73
     0
 74
     0
 77
     1
 78
     8
140
3.5
146
0.7
147
2.0
172
     1
173
     1
176
     2
177
     2
178
     3
271
     2
272
     0
340
6D
  0
DIMSTYLE
105
D2
102
{ACAD_REACTORS
330
D3
102
}
330
A
100
AcDbSymbolTableRecord
100
AcDbDimStyleTableRecord
  2
ME10_DIM_11
 70
     0
  3
<>
 41
3.5
 42
2.0
 44
2.0
 71
     1
 73
     0
 74
     0
 77
     1
 78
     8
140
3.5
146
0.7
147
2.0
172
     1
173
     1
176
     2
177
     2
178
     3
271
     2
272
     0
340
6D
  0
DIMSTYLE
105
DD
102
{ACAD_REACTORS
330
DE
102
}
330
A
100
AcDbSymbolTableRecord
100
AcDbDimStyleTableRecord
  2
ME10_DIM_12
 70
     0
  3
<>
 41
3.5
 42
2.0
 44
2.0
 71
     1
 73
     0
 74
     0
 77
     1
 78
     8
140
3.5
146
0.7
147
2.0
172
     1
173
     1
176
     2
177
     2
178
     3
271
     2
272
     0
340
6D
  0
DIMSTYLE
105
E8
102
{ACAD_REACTORS
330
E9
102
}
330
A
100
AcDbSymbolTableRecord
100
AcDbDimStyleTableRecord
  2
ME10_DIM_13
 70
     0
  3
\U+2300<>
 41
3.5
 42
2.0
 44
2.0
 71
     1
 73
     0
 74
     0
 77
     1
 78
     8
140
3.5
146
0.7
147
2.0
172
     1
173
     1
176
     2
177
     2
178
     3
271
     2
272
     0
340
6D
  0
DIMSTYLE
105
F3
102
{ACAD_REACTORS
330
F4
102
}
330
A
100
AcDbSymbolTableRecord
100
AcDbDimStyleTableRecord
  2
ME10_DIM_14
 70
     0
  3
\U+2300<>
 41
3.5
 42
2.0
 44
2.0
 71
     1
 73
     0
 74
     0
 77
     1
 78
     8
140
3.5
146
0.7
147
2.0
172
     1
173
     1
176
     2
177
     2
178
     3
271
     2
272
     0
340
6D
  0
ENDTAB
  0
TABLE
  2
BLOCK_RECORD
  5
1
330
0
100
AcDbSymbolTable
 70
     8
  0
BLOCK_RECORD
  5
1F
330
1
100
AcDbSymbolTableRecord
100
AcDbBlockTableRecord
  2
*Model_Space
340
22
  0
BLOCK_RECORD
  5
1B
330
1
100
AcDbSymbolTableRecord
100
AcDbBlockTableRecord
  2
*Paper_Space
340
1E
  0
BLOCK_RECORD
  5
23
330
1
100
AcDbSymbolTableRecord
100
AcDbBlockTableRecord
  2
*Paper_Space0
340
26
  0
BLOCK_RECORD
  5
47
330
1
100
AcDbSymbolTableRecord
100
AcDbBlockTableRecord
  2
Urheberrecht_DE-EN
340
0
102
{BLKREFS
331
6C
102
}
  0
BLOCK_RECORD
  5
BE
330
1
100
AcDbSymbolTableRecord
100
AcDbBlockTableRecord
  2
*D2
340
0
  0
BLOCK_RECORD
  5
C9
330
1
100
AcDbSymbolTableRecord
100
AcDbBlockTableRecord
  2
*D3
340
0
  0
BLOCK_RECORD
  5
D4
330
1
100
AcDbSymbolTableRecord
100
AcDbBlockTableRecord
  2
*D4
340
0
  0
BLOCK_RECORD
  5
DF
330
1
100
AcDbSymbolTableRecord
100
AcDbBlockTableRecord
  2
*D5
340
0
  0
BLOCK_RECORD
  5
EA
330
1
100
AcDbSymbolTableRecord
100
AcDbBlockTableRecord
  2
*D6
340
0
  0
BLOCK_RECORD
  5
F5
330
1
100
AcDbSymbolTableRecord
100
AcDbBlockTableRecord
  2
*D7
340
0
102
{BLKREFS
331
FB
102
}
  0
ENDTAB
  0
ENDSEC
  0
SECTION
  2
BLOCKS
  0
BLOCK
  5
20
330
1F
100
AcDbEntity
  8
0
100
AcDbBlockBegin
  2
*Model_Space
 70
     0
 10
0.0
 20
0.0
 30
0.0
  3
*Model_Space
  1

  0
ENDBLK
  5
21
330
1F
100
AcDbEntity
  8
0
100
AcDbBlockEnd
  0
BLOCK
  5
1C
330
1B
100
AcDbEntity
 67
     1
  8
0
100
AcDbBlockBegin
  2
*Paper_Space
 70
     0
 10
0.0
 20
0.0
 30
0.0
  3
*Paper_Space
  1

  0
ENDBLK
  5
1D
330
1B
100
AcDbEntity
 67
     1
  8
0
100
AcDbBlockEnd
  0
BLOCK
  5
24
330
23
100
AcDbEntity
  8
0
100
AcDbBlockBegin
  2
*Paper_Space0
 70
     0
 10
0.0
 20
0.0
 30
0.0
  3
*Paper_Space0
  1

  0
ENDBLK
  5
25
330
23
100
AcDbEntity
  8
0
100
AcDbBlockEnd
  0
BLOCK
  5
48
330
47
100
AcDbEntity
  8
0
100
AcDbBlockBegin
  2
Urheberrecht_DE-EN
 70
     0
 10
61.8038979886626
 20
304.883489766705
 30
0.0
  3
Urheberrecht_DE-EN
  1

  0
MTEXT
  5
6E
330
47
100
AcDbEntity
  8
1
 62
     1
100
AcDbMText
 10
61.8038979886626
 20
248.5941028493988
 30
0.0
 40
2.0
 41
0.0
 71
     7
 72
     1
  1
F\U+00fcr diese Unterlage behalten wir das Ur-\Pheberrecht. Sie darf nur f\U+00fcr den von uns \Pbestimmten Zweck benutzt und ohne unsere \PZustimmung weder vervielf\U+00e4ltigt noch\PDritten zug\U+00e4nglich gemacht werden.
  7
CONVERTER_11
 11
0.0
 21
1.0
 31
0.0
 73
     1
 44
0.90036014405762
  0
MTEXT
  5
6F
330
47
100
AcDbEntity
  8
1
 62
     1
100
AcDbMText
 10
61.8038979886626
 20
304.883489766705
 30
0.0
 40
2.0
 41
0.0
 71
     7
 72
     1
  1
We own the copyright of this document. It \Pdetermined and may neither be copied or \Pmade accessible to outsiders without our\Ppermission.
  7
CONVERTER_11
 11
0.0
 21
1.0
 31
0.0
 73
     1
 44
0.90036014405762
  0
ENDBLK
  5
49
330
47
100
AcDbEntity
  8
0
100
AcDbBlockEnd
  0
BLOCK
  5
C5
330
BE
100
AcDbEntity
  8
0
100
AcDbBlockBegin
  2
*D2
 70
     1
 10
0.0
 20
0.0
 30
0.0
  3
*D2
  1

  0
LINE
  5
BF
330
BE
100
AcDbEntity
  8
1
  6
Continuous
 62
     2
100
AcDbLine
 10
270.9259095634001
 20
358.960965663871
 30
0.0
 11
69.17590956340011
 21
358.960965663871
 31
0.0
  0
LINE
  5
C0
330
BE
100
AcDbEntity
  8
1
  6
Continuous
 62
     2
100
AcDbLine
 10
270.9259095634001
 20
308.4766589074
 30
0.0
 11
270.9259095634001
 21
360.960965663871
 31
0.0
  0
LINE
  5
C1
330
BE
100
AcDbEntity
  8
1
  6
Continuous
 62
     2
100
AcDbLine
 10
69.17590956340011
 20
308.7210096772
 30
0.0
 11
69.17590956340011
 21
360.960965663871
 31
0.0
  0
SOLID
  5
C2
330
BE
100
AcDbEntity
  8
1
 62
     2
100
AcDbTrace
 10
267.4259095634001
 20
358.5001819223151
 30
0.0
 11
267.4259095634001
 21
359.4217494054269
 31
0.0
 12
270.9259095634001
 22
358.960965663871
 32
0.0
 13
270.9259095634001
 23
358.960965663871
 33
0.0
  0
SOLID
  5
C3
330
BE
100
AcDbEntity
  8
1
 62
     2
100
AcDbTrace
 10
72.67590956340011
 20
359.4217494054269
 30
0.0
 11
72.67590956340011
 21
358.5001819223151
 31
0.0
 12
69.17590956340011
 22
358.960965663871
 32
0.0
 13
69.17590956340011
 23
358.960965663871
 33
0.0
  0
MTEXT
  5
C4
330
BE
100
AcDbEntity
  8
1
 62
     3
100
AcDbMText
 10
178.4920165740498
 20
360.960965663871
 30
0.0
 40
3.5
 41
0.0
 71
     7
 72
     1
  1
\C3;\C3;\C3;201.75\C2;\H2.45;\S^ ;\C3;
  7
CONVERTER_11
 11
0.9999999999970619
 21
2.424068405545306E-6
 31
0.0
 73
     1
 44
0.60024009603842
  0
ENDBLK
  5
C6
330
BE
100
AcDbEntity
  8
0
100
AcDbBlockEnd
  0
BLOCK
  5
D0
330
C9
100
AcDbEntity
  8
0
100
AcDbBlockBegin
  2
*D3
 70
     1
 10
0.0
 20
0.0
 30
0.0
  3
*D3
  1

  0
LINE
  5
CA
330
C9
100
AcDbEntity
  8
1
  6
Continuous
 62
     2
100
AcDbLine
 10
270.9259095634001
 20
351.230846216796
 30
0.0
 11
170.9259095634
 21
351.230846216796
 31
0.0
  0
LINE
  5
CB
330
C9
100
AcDbEntity
  8
1
  6
Continuous
 62
     2
100
AcDbLine
 10
270.9259095634001
 20
308.4766589074
 30
0.0
 11
270.9259095634001
 21
353.230846216796
 31
0.0
  0
LINE
  5
CC
330
C9
100
AcDbEntity
  8
1
  6
Continuous
 62
     2
100
AcDbLine
 10
170.9259095634
 20
342.297062676
 30
0.0
 11
170.9259095634
 21
353.230846216796
 31
0.0
  0
SOLID
  5
CD
330
C9
100
AcDbEntity
  8
1
 62
     2
100
AcDbTrace
 10
267.4259095634001
 20
350.7700624752401
 30
0.0
 11
267.4259095634001
 21
351.6916299583519
 31
0.0
 12
270.9259095634001
 22
351.230846216796
 32
0.0
 13
270.9259095634001
 23
351.230846216796
 33
0.0
  0
SOLID
  5
CE
330
C9
100
AcDbEntity
  8
1
 62
     2
100
AcDbTrace
 10
174.4259095634
 20
351.6916299583519
 30
0.0
 11
174.4259095634
 21
350.7700624752401
 31
0.0
 12
170.9259095634
 22
351.230846216796
 32
0.0
 13
170.9259095634
 23
351.230846216796
 33
0.0
  0
MTEXT
  5
CF
330
C9
100
AcDbEntity
  8
1
 62
     3
100
AcDbMText
 10
220.7690661424016
 20
353.230846216796
 30
0.0
 40
3.5
 41
0.0
 71
     7
 72
     1
  1
\C3;\C3;\C3;100\C2;\H2.45;\S^ ;\C3;
  7
CONVERTER_11
 11
0.9999999999970619
 21
2.424068405545306E-6
 31
0.0
 73
     1
 44
0.60024009603842
  0
ENDBLK
  5
D1
330
C9
100
AcDbEntity
  8
0
100
AcDbBlockEnd
  0
BLOCK
  5
DB
330
D4
100
AcDbEntity
  8
0
100
AcDbBlockBegin
  2
*D4
 70
     1
 10
0.0
 20
0.0
 30
0.0
  3
*D4
  1

  0
LINE
  5
D5
330
D4
100
AcDbEntity
  8
1
  6
Continuous
 62
     2
100
AcDbLine
 10
270.9259095634001
 20
343.114220797368
 30
0.0
 11
190.0259095634
 21
343.114220797368
 31
0.0
  0
LINE
  5
D6
330
D4
100
AcDbEntity
  8
1
  6
Continuous
 62
     2
100
AcDbLine
 10
270.9259095634001
 20
308.4766589074
 30
0.0
 11
270.9259095634001
 21
345.114220797368
 31
0.0
  0
LINE
  5
D7
330
D4
100
AcDbEntity
  8
1
  6
Continuous
 62
     2
100
AcDbLine
 10
190.0259095634
 20
336.5210564099
 30
0.0
 11
190.0259095634
 21
345.114220797368
 31
0.0
  0
SOLID
  5
D8
330
D4
100
AcDbEntity
  8
1
 62
     2
100
AcDbTrace
 10
267.4259095634001
 20
342.6534370558121
 30
0.0
 11
267.4259095634001
 21
343.5750045389238
 31
0.0
 12
270.9259095634001
 22
343.114220797368
 32
0.0
 13
270.9259095634001
 23
343.114220797368
 33
0.0
  0
SOLID
  5
D9
330
D4
100
AcDbEntity
  8
1
 62
     2
100
AcDbTrace
 10
193.5259095634
 20
343.5750045389238
 30
0.0
 11
193.5259095634
 21
342.6534370558121
 31
0.0
 12
190.0259095634
 22
343.114220797368
 32
0.0
 13
190.0259095634
 23
343.114220797368
 33
0.0
  0
MTEXT
  5
DA
330
D4
100
AcDbEntity
  8
1
 62
     3
100
AcDbMText
 10
224.6873278310035
 20
345.114220797368
 30
0.0
 40
3.5
 41
0.0
 71
     7
 72
     1
  1
\C3;\C3;\C3;80.9\C2;\H2.45;\S^ ;\C3;
  7
CONVERTER_11
 11
0.9999999999970619
 21
2.424068405545306E-6
 31
0.0
 73
     1
 44
0.60024009603842
  0
ENDBLK
  5
DC
330
D4
100
AcDbEntity
  8
0
100
AcDbBlockEnd
  0
BLOCK
  5
E6
330
DF
100
AcDbEntity
  8
0
100
AcDbBlockBegin
  2
*D5
 70
     1
 10
0.0
 20
0.0
 30
0.0
  3
*D5
  1

  0
LINE
  5
E0
330
DF
100
AcDbEntity
  8
1
  6
Continuous
 62
     2
100
AcDbLine
 10
291.425074614154
 20
314.559562676
 30
0.0
 11
291.425074614154
 21
262.559562676
 31
0.0
  0
LINE
  5
E1
330
DF
100
AcDbEntity
  8
1
  6
Continuous
 62
     2
100
AcDbLine
 10
259.657960371
 20
314.559562676
 30
0.0
 11
293.425074614154
 21
314.559562676
 31
0.0
  0
LINE
  5
E2
330
DF
100
AcDbEntity
  8
1
  6
Continuous
 62
     2
100
AcDbLine
 10
259.6579603710001
 20
262.559562676
 30
0.0
 11
293.425074614154
 21
262.559562676
 31
0.0
  0
SOLID
  5
E3
330
DF
100
AcDbEntity
  8
1
 62
     2
100
AcDbTrace
 10
291.8858583557099
 20
311.059562676
 30
0.0
 11
290.9642908725982
 21
311.059562676
 31
0.0
 12
291.425074614154
 22
314.559562676
 32
0.0
 13
291.425074614154
 23
314.559562676
 33
0.0
  0
SOLID
  5
E4
330
DF
100
AcDbEntity
  8
1
 62
     2
100
AcDbTrace
 10
290.9642908725982
 20
266.059562676
 30
0.0
 11
291.8858583557099
 21
266.059562676
 31
0.0
 12
291.425074614154
 22
262.559562676
 32
0.0
 13
291.425074614154
 23
262.559562676
 33
0.0
  0
MTEXT
  5
E5
330
DF
100
AcDbEntity
  8
1
 62
     3
100
AcDbMText
 10
289.425074614154
 20
279.633043371377
 30
0.0
 40
3.5
 41
0.0
 71
     7
 72
     1
  1
\C3;%%c\C3;\C3;52\C2;\H2.45;\S^ ;\C3;
  7
CONVERTER_11
 11
0.0
 21
1.0
 31
0.0
 73
     1
 44
0.60024009603842
  0
ENDBLK
  5
E7
330
DF
100
AcDbEntity
  8
0
100
AcDbBlockEnd
  0
BLOCK
  5
F1
330
EA
100
AcDbEntity
  8
0
100
AcDbBlockBegin
  2
*D6
 70
     1
 10
0.0
 20
0.0
 30
0.0
  3
*D6
  1

  0
LINE
  5
EB
330
EA
100
AcDbEntity
  8
1
  6
Continuous
 62
     2
100
AcDbLine
 10
282.535437250019
 20
298.559562676
 30
0.0
 11
282.535437250019
 21
278.559562676
 31
0.0
  0
LINE
  5
EC
330
EA
100
AcDbEntity
  8
1
  6
Continuous
 62
     2
100
AcDbLine
 10
272.9259095634001
 20
298.559562676
 30
0.0
 11
284.535437250019
 21
298.559562676
 31
0.0
  0
LINE
  5
ED
330
EA
100
AcDbEntity
  8
1
  6
Continuous
 62
     2
100
AcDbLine
 10
272.9259095634001
 20
278.559562676
 30
0.0
 11
284.535437250019
 21
278.559562676
 31
0.0
  0
SOLID
  5
EE
330
EA
100
AcDbEntity
  8
1
 62
     2
100
AcDbTrace
 10
282.9962209915749
 20
295.059562676
 30
0.0
 11
282.0746535084631
 21
295.059562676
 31
0.0
 12
282.535437250019
 22
298.559562676
 32
0.0
 13
282.535437250019
 23
298.559562676
 33
0.0
  0
SOLID
  5
EF
330
EA
100
AcDbEntity
  8
1
 62
     2
100
AcDbTrace
 10
282.0746535084631
 20
282.059562676
 30
0.0
 11
282.9962209915749
 21
282.059562676
 31
0.0
 12
282.535437250019
 22
278.559562676
 32
0.0
 13
282.535437250019
 23
278.559562676
 33
0.0
  0
MTEXT
  5
F0
330
EA
100
AcDbEntity
  8
1
 62
     3
100
AcDbMText
 10
280.535437250019
 20
279.117702074905
 30
0.0
 40
3.5
 41
0.0
 71
     7
 72
     1
  1
\C3;%%c\C3;\C3;20\C2;\H2.45;\S^ ;\C3;
  7
CONVERTER_11
 11
0.0
 21
1.0
 31
0.0
 73
     1
 44
0.60024009603842
  0
ENDBLK
  5
F2
330
EA
100
AcDbEntity
  8
0
100
AcDbBlockEnd
  0
BLOCK
  5
F9
330
F5
100
AcDbEntity
  8
0
100
AcDbBlockBegin
  2
*D7
 70
     1
 10
0.0
 20
0.0
 30
0.0
  3
*D7
  1

  0
LINE
  5
F6
330
F5
100
AcDbEntity
  8
1
  6
Continuous
 62
     2
100
AcDbLine
 10
203.437855931595
 20
328.1235643601446
 30
0.0
 11
195.3582265229792
 21
317.0616277937652
 31
0.0
  0
SOLID
  5
F7
330
F5
100
AcDbEntity
  8
1
 62
     2
100
AcDbTrace
 10
197.0505044405043
 20
320.1597751605538
 30
0.0
 11
197.7947010118345
 21
319.6162145943338
 31
0.0
 12
195.3582265229792
 22
317.0616277937652
 32
0.0
 13
195.3582265229792
 23
317.0616277937652
 33
0.0
  0
MTEXT
  5
F8
330
F5
100
AcDbEntity
  8
1
 62
     3
100
AcDbMText
 10
196.4554108983412
 20
321.9546534872604
 30
0.0
 40
3.5
 41
0.0
 71
     7
 72
     1
  1
\C3; R\C3;\C3;13\C2;\H2.45;\S^ ;\C3;
  7
CONVERTER_11
 11
0.5898217723400637
 21
0.807533452479602
 31
0.0
 73
     1
 44
0.60024009603842
  0
ENDBLK
  5
FA
330
F5
100
AcDbEntity
  8
0
100
AcDbBlockEnd
  0
ENDSEC
  0
SECTION
  2
ENTITIES
  0
INSERT
  5
6C
330
1F
100
AcDbEntity
  8
0
100
AcDbBlockReference
  2
Urheberrecht_DE-EN
 10
61.8038979886626
 20
304.883489766705
 30
0.0
  0
LWPOLYLINE
  5
70
330
1F
100
AcDbEntity
  8
BEZUGSACHSEN
  6
DASHED
 62
     8
100
AcDbPolyline
 90
        2
 70
     0
 43
0.35
 10
237.9259095634
 20
298.559562676
 10
237.9259095634
 20
314.559562676
  0
LWPOLYLINE
  5
71
330
1F
100
AcDbEntity
  8
BEZUGSACHSEN
  6
DASHED
 62
     8
100
AcDbPolyline
 90
        2
 70
     0
 43
0.35
 10
253.9259095634
 20
298.559562676
 10
253.9259095634
 20
314.559562676
  0
LINE
  5
72
330
1F
100
AcDbEntity
  8
RUNDUNGEN
  6
Continuous
 62
     7
100
AcDbLine
 10
270.9259095634
 20
270.6424664447
 30
0.0
 11
270.9259095634
 21
306.4766589074
 31
0.0
  0
LINE
  5
73
330
1F
100
AcDbEntity
  8
RUNDUNGEN
  6
Continuous
 62
     9
100
AcDbLine
 10
270.4259095634
 20
269.7764410409
 30
0.0
 11
270.4259095634
 21
307.3426843112
 31
0.0
  0
LINE
  5
74
330
1F
100
AcDbEntity
  8
RUNDUNGEN
  6
Continuous
 62
     9
100
AcDbLine
 10
258.157960371
 20
262.6935372723
 30
0.0
 11
258.157960371
 21
314.4255880798
 31
0.0
  0
LINE
  5
75
330
1F
100
AcDbEntity
  8
RUNDUNGEN
  6
Continuous
 62
     9
100
AcDbLine
 10
257.6579603710001
 20
262.559562676
 30
0.0
 11
257.657960371
 21
314.559562676
 31
0.0
  0
LWPOLYLINE
  5
76
330
1F
100
AcDbEntity
  8
BEZUGSACHSEN
  6
DASHED
 62
     8
100
AcDbPolyline
 90
        2
 70
     0
 43
0.35
 10
252.9259095634
 20
298.559562676
 10
252.9259095634
 20
314.559562676
  0
LINE
  5
77
330
1F
100
AcDbEntity
  8
0
  6
Continuous
 62
     7
100
AcDbLine
 10
258.157960371
 20
314.4255880798
 30
0.0
 11
270.4259095634
 21
307.3426843112
 31
0.0
  0
LINE
  5
78
330
1F
100
AcDbEntity
  8
RUNDUNGEN
  6
Continuous
 62
     7
100
AcDbLine
 10
270.4259095634
 20
307.3426843112
 30
0.0
 11
258.157960371
 21
314.4255880798
 31
0.0
  0
LINE
  5
79
330
1F
100
AcDbEntity
  8
0
  6
Continuous
 62
     7
100
AcDbLine
 10
258.157960371
 20
262.6935372723
 30
0.0
 11
270.4259095634
 21
269.7764410409
 31
0.0
  0
LWPOLYLINE
  5
7A
330
1F
100
AcDbEntity
  8
BEZUGSACHSEN
  6
DOT_CENTER
 62
     7
100
AcDbPolyline
 90
        2
 70
     0
 43
0.25
 10
245.9259095634
 20
317.559562676
 10
245.9259095634
 20
292.6964318911
  0
LINE
  5
7B
330
1F
100
AcDbEntity
  8
0
  6
Continuous
 62
     7
100
AcDbLine
 10
185.3412879492
 20
335.5588595458
 30
0.0
 11
189.0259095634
 21
335.5588595458
 31
0.0
  0
LINE
  5
7C
330
1F
100
AcDbEntity
  8
0
  6
Continuous
 62
     7
100
AcDbLine
 10
175.1259095634
 20
335.5588595458
 30
0.0
 11
178.8605311776
 21
335.5588595458
 31
0.0
  0
LWPOLYLINE
  5
7D
330
1F
100
AcDbEntity
  8
BEZUGSACHSEN
  6
DASHED
 62
     8
100
AcDbPolyline
 90
        2
 70
     0
 43
0.35
 10
238.9259095634
 20
298.559562676
 10
238.9259095634
 20
314.559562676
  0
LINE
  5
7E
330
1F
100
AcDbEntity
  8
0
  6
Continuous
 62
     7
100
AcDbLine
 10
180.9384095634
 20
332.1925776991
 30
0.0
 11
183.2634095634
 21
332.1925776991
 31
0.0
  0
LINE
  5
7F
330
1F
100
AcDbEntity
  8
RUNDUNGEN
  6
Continuous
 62
     9
100
AcDbLine
 10
203.0259095634
 20
314.559562676
 30
0.0
 11
203.0259095634
 21
262.559562676
 31
0.0
  0
LINE
  5
80
330
1F
100
AcDbEntity
  8
0
  6
Continuous
 62
     7
100
AcDbLine
 10
171.4759095634
 20
323.134562676
 30
0.0
 11
170.4362272302
 21
323.4131447176
 31
0.0
  0
LINE
  5
81
330
1F
100
AcDbEntity
  8
0
  6
Continuous
 62
     7
100
AcDbLine
 10
174.1259095634
 20
323.859562676
 30
0.0
 11
174.0873537896
 21
323.859562676
 31
0.0
  0
LINE
  5
82
330
1F
100
AcDbEntity
  8
0
  6
Continuous
 62
     7
100
AcDbLine
 10
173.1259095634
 20
323.134562676
 30
0.0
 11
171.4759095634
 21
323.134562676
 31
0.0
  0
LINE
  5
83
330
1F
100
AcDbEntity
  8
0
  6
Continuous
 62
     7
100
AcDbLine
 10
190.0259095634
 20
334.5210564099
 30
0.0
 11
190.0259095634
 21
249.559562676
 31
0.0
  0
LINE
  5
84
330
1F
100
AcDbEntity
  8
0
  6
Continuous
 62
     9
100
AcDbLine
 10
189.0259095634
 20
335.5588595458
 30
0.0
 11
189.0259095634
 21
241.5602658063
 31
0.0
  0
LINE
  5
85
330
1F
100
AcDbEntity
  8
0
  6
Continuous
 62
     7
100
AcDbLine
 10
185.3412879492
 20
335.5588595458
 30
0.0
 11
185.3412879492
 21
241.5602658063
 31
0.0
  0
LINE
  5
86
330
1F
100
AcDbEntity
  8
0
  6
Continuous
 62
     7
100
AcDbLine
 10
170.4362272302
 20
323.4131447176
 30
0.0
 11
71.10119255779996
 21
308.9474550204
 31
0.0
  0
LINE
  5
87
330
1F
100
AcDbEntity
  8
0
  6
Continuous
 62
     7
100
AcDbLine
 10
184.0134095634
 20
333.1693798368
 30
0.0
 11
184.0134095634
 21
243.9497455153
 31
0.0
  0
LINE
  5
88
330
1F
100
AcDbEntity
  8
0
  6
Continuous
 62
     9
100
AcDbLine
 10
183.2634095634
 20
332.1925776991
 30
0.0
 11
183.2634095634
 21
244.926547653
 31
0.0
  0
LINE
  5
89
330
1F
100
AcDbEntity
  8
0
  6
Continuous
 62
     9
100
AcDbLine
 10
180.9384095634
 20
332.1925776991
 30
0.0
 11
180.9384095634
 21
244.926547653
 31
0.0
  0
LINE
  5
8A
330
1F
100
AcDbEntity
  8
0
  6
Continuous
 62
     7
100
AcDbLine
 10
180.1884095634
 20
333.1693798368
 30
0.0
 11
180.1884095634
 21
243.9497455153
 31
0.0
  0
LINE
  5
8B
330
1F
100
AcDbEntity
  8
0
  6
Continuous
 62
     7
100
AcDbLine
 10
178.8605311776
 20
335.5588595458
 30
0.0
 11
178.8605311776
 21
241.5602658063
 31
0.0
  0
LINE
  5
8C
330
1F
100
AcDbEntity
  8
0
  6
Continuous
 62
     7
100
AcDbLine
 10
252.9259095634
 20
314.559562676
 30
0.0
 11
257.657960371
 21
314.559562676
 31
0.0
  0
LINE
  5
8D
330
1F
100
AcDbEntity
  8
0
  6
Continuous
 62
     7
100
AcDbLine
 10
203.0259095634
 20
314.559562676
 30
0.0
 11
238.9259095634
 21
314.559562676
 31
0.0
  0
LINE
  5
8E
330
1F
100
AcDbEntity
  8
BEZUGSACHSEN
  6
Continuous
 62
     7
100
AcDbLine
 10
238.9259095634
 20
314.559562676
 30
0.0
 11
203.0259095634
 21
314.559562676
 31
0.0
  0
LINE
  5
8F
330
1F
100
AcDbEntity
  8
BEZUGSACHSEN
  6
Continuous
 62
     7
100
AcDbLine
 10
257.657960371
 20
314.559562676
 30
0.0
 11
252.9259095634
 21
314.559562676
 31
0.0
  0
LINE
  5
90
330
1F
100
AcDbEntity
  8
0
  6
Continuous
 62
     9
100
AcDbLine
 10
175.1259095634
 20
335.5588595458
 30
0.0
 11
175.1259095634
 21
241.5602658063
 31
0.0
  0
LINE
  5
91
330
1F
100
AcDbEntity
  8
0
  6
Continuous
 62
     7
100
AcDbLine
 10
174.1259095634
 20
334.5210564099
 30
0.0
 11
174.1259095634
 21
242.5980689421
 31
0.0
  0
LWPOLYLINE
  5
92
330
1F
100
AcDbEntity
  8
DEFAULT_2
  6
DASHED
 62
     8
100
AcDbPolyline
 90
        2
 70
     0
 43
0.35
 10
210.8259095634
 20
298.559562676
 10
210.8259095634
 20
278.559562676
  0
LINE
  5
93
330
1F
100
AcDbEntity
  8
0
  6
Continuous
 62
     9
100
AcDbLine
 10
173.1259095634
 20
323.134562676
 30
0.0
 11
173.1259095634
 21
253.984562676
 31
0.0
  0
LINE
  5
94
330
1F
100
AcDbEntity
  8
0
  6
Continuous
 62
     7
100
AcDbLine
 10
171.4759095634
 20
323.134562676
 30
0.0
 11
171.4759095634
 21
253.984562676
 31
0.0
  0
LWPOLYLINE
  5
95
330
1F
100
AcDbEntity
  8
TEIL_STARTBEZUEGE
  6
DOT_CENTER
 62
     7
100
AcDbPolyline
 90
        2
 70
     0
 43
0.25
 10
170.9259095634
 20
238.5602658063
 10
170.9259095634
 20
340.297062676
  0
LINE
  5
96
330
1F
100
AcDbEntity
  8
0
  6
Continuous
 62
     7
100
AcDbLine
 10
170.4362272302
 20
323.4131447176
 30
0.0
 11
170.4362272302
 21
253.7059806345
 31
0.0
  0
LWPOLYLINE
  5
97
330
1F
100
AcDbEntity
  8
DEFAULT_2
  6
DASHED
 62
     8
100
AcDbPolyline
 90
        2
 70
     0
 43
0.35
 10
238.9259095634
 20
298.559562676
 10
270.9259095634
 20
298.559562676
  0
LWPOLYLINE
  5
98
330
1F
100
AcDbEntity
  8
DEFAULT_2
  6
DASHED
 62
     8
100
AcDbPolyline
 90
        2
 70
     0
 43
0.35
 10
210.8259095634
 20
298.559562676
 10
238.9259095634
 20
298.559562676
  0
LWPOLYLINE
  5
99
330
1F
100
AcDbEntity
  8
TEIL_STARTBEZUEGE
  6
DOT_CENTER
 62
     7
100
AcDbPolyline
 90
        2
 70
     0
 43
0.25
 10
273.9259095634
 20
288.559562676
 10
66.17590956340003
 20
288.559562676
  0
LWPOLYLINE
  5
9A
330
1F
100
AcDbEntity
  8
DEFAULT_2
  6
DASHED
 62
     8
100
AcDbPolyline
 90
        2
 70
     0
 43
0.35
 10
270.9259095634
 20
278.559562676
 10
210.8259095634
 20
278.559562676
  0
LINE
  5
9B
330
1F
100
AcDbEntity
  8
0
  6
Continuous
 62
     7
100
AcDbLine
 10
203.0259095634
 20
262.559562676
 30
0.0
 11
257.6579603710001
 21
262.559562676
 31
0.0
  0
LINE
  5
9C
330
1F
100
AcDbEntity
  8
RUNDUNGEN
  6
Continuous
 62
     7
100
AcDbLine
 10
257.6579603710001
 20
262.559562676
 30
0.0
 11
203.0259095634
 21
262.559562676
 31
0.0
  0
LINE
  5
9D
330
1F
100
AcDbEntity
  8
0
  6
Continuous
 62
     7
100
AcDbLine
 10
170.4362272302
 20
253.7059806345
 30
0.0
 11
71.10119255779998
 21
268.1716703317
 31
0.0
  0
LINE
  5
9E
330
1F
100
AcDbEntity
  8
0
  6
Continuous
 62
     7
100
AcDbLine
 10
173.1259095634
 20
253.984562676
 30
0.0
 11
171.4759095634
 21
253.984562676
 31
0.0
  0
LINE
  5
9F
330
1F
100
AcDbEntity
  8
0
  6
Continuous
 62
     7
100
AcDbLine
 10
171.4759095634
 20
253.984562676
 30
0.0
 11
170.4362272302
 21
253.7059806345
 31
0.0
  0
LINE
  5
A0
330
1F
100
AcDbEntity
  8
0
  6
Continuous
 62
     7
100
AcDbLine
 10
180.9384095634
 20
244.926547653
 30
0.0
 11
183.2634095634
 21
244.926547653
 31
0.0
  0
LINE
  5
A1
330
1F
100
AcDbEntity
  8
0
  6
Continuous
 62
     7
100
AcDbLine
 10
185.3412879492
 20
241.5602658063
 30
0.0
 11
189.0259095634
 21
241.5602658063
 31
0.0
  0
LINE
  5
A2
330
1F
100
AcDbEntity
  8
0
  6
Continuous
 62
     7
100
AcDbLine
 10
175.1259095634
 20
241.5602658063
 30
0.0
 11
178.8605311776
 21
241.5602658063
 31
0.0
  0
LINE
  5
A3
330
1F
100
AcDbEntity
  8
0
  6
Continuous
 62
     9
100
AcDbLine
 10
71.10119255779996
 20
308.9474550204
 30
0.0
 11
71.10119255779998
 21
268.1716703317
 31
0.0
  0
LINE
  5
A4
330
1F
100
AcDbEntity
  8
0
  6
Continuous
 62
     7
100
AcDbLine
 10
69.1759095634
 20
306.7210096772
 30
0.0
 11
69.1759095634
 21
270.3981156749
 31
0.0
  0
LINE
  5
A5
330
1F
100
AcDbEntity
  8
0
  6
Continuous
 62
     7
100
AcDbLine
 10
190.0259095634
 20
249.559562676
 30
0.0
 11
190.0259095634
 21
242.5980689421
 31
0.0
  0
ARC
  5
A6
330
1F
100
AcDbEntity
  8
0
  6
Continuous
 62
     7
100
AcDbCircle
 10
173.1259095634
 20
252.984562676
 30
0.0
 40
1.0
100
AcDbArc
 50
0.0
 51
90.0
  0
ARC
  5
A7
330
1F
100
AcDbEntity
  8
0
  6
Continuous
 62
     7
100
AcDbCircle
 10
173.1259095634
 20
324.134562676
 30
0.0
 40
1.0
100
AcDbArc
 50
270.0
 51
344.0379858379187
  0
ARC
  5
A8
330
1F
100
AcDbEntity
  8
RUNDUNGEN
  6
Continuous
 62
     7
100
AcDbCircle
 10
257.657960371
 20
263.559562676
 30
0.0
 40
1.0
100
AcDbArc
 50
270.0000000000065
 51
300.0000000024187
  0
ARC
  5
A9
330
1F
100
AcDbEntity
  8
RUNDUNGEN
  6
Continuous
 62
     7
100
AcDbCircle
 10
257.657960371
 20
313.559562676
 30
0.0
 40
1.000000000013472
100
AcDbArc
 50
60.00000000044565
 51
90.0
  0
ARC
  5
AA
330
1F
100
AcDbEntity
  8
RUNDUNGEN
  6
Continuous
 62
     7
100
AcDbCircle
 10
269.9259095634
 20
270.6424664447
 30
0.0
 40
1.000000000013472
100
AcDbArc
 50
299.9999999995543
 51
0.0
  0
ARC
  5
AB
330
1F
100
AcDbEntity
  8
RUNDUNGEN
  6
Continuous
 62
     7
100
AcDbCircle
 10
269.9259095634
 20
306.4766589074
 30
0.0
 40
1.0
100
AcDbArc
 50
0.0
 51
60.00000000044565
  0
ARC
  5
AC
330
1F
100
AcDbEntity
  8
0
  6
Continuous
 62
     7
100
AcDbCircle
 10
71.4259095634
 20
306.7210096772
 30
0.0
 40
2.24999999999618
100
AcDbArc
 50
98.29782682735537
 51
180.0
  0
ARC
  5
AD
330
1F
100
AcDbEntity
  8
0
  6
Continuous
 62
     7
100
AcDbCircle
 10
71.4259095634
 20
270.3981156749
 30
0.0
 40
2.25
100
AcDbArc
 50
180.0
 51
261.702173172645
  0
SPLINE
  5
AE
330
1F
100
AcDbEntity
  8
BEZUGSACHSEN
  6
Continuous
 62
     7
100
AcDbSpline
210
0.0
220
0.0
230
1.0
 70
     8
 71
     3
 72
    23
 73
    19
 74
    17
 42
0.0000000001
 43
0.0000000001
 44
0.00000001
 40
0.0
 40
0.0
 40
0.0
 40
0.0
 40
0.2769076281970742
 40
0.5538260994001247
 40
1.329544338742302
 40
2.105314627930546
 40
3.249908384433347
 40
4.394584472088943
 40
5.740074937540771
 40
7.085599512303535
 40
8.431128760281142
 40
9.776623907787974
 40
10.92131367974401
 40
12.06592111357718
 40
12.84171149511136
 40
13.61744982651892
 40
13.89437634852849
 40
14.17129202551181
 40
14.17129202551181
 40
14.17129202551181
 40
14.17129202551181
 10
252.9259095634
 20
314.559562676
 30
0.0
 10
252.8367189316716
 20
314.5357945378039
 30
0.0
 10
252.658334175734
 20
314.4882573307111
 30
0.0
 10
252.2288228186671
 20
314.3790076904921
 30
0.0
 10
251.6356486088356
 20
314.2386893966881
 30
0.0
 10
250.7557355216427
 20
314.0554331793025
 30
0.0
 10
249.7486596110712
 20
313.8814456727226
 30
0.0
 10
248.5466875160106
 20
313.7262185796207
 30
0.0
 10
247.2716218568233
 20
313.6238164058446
 30
0.0
 10
245.925954536008
 20
313.5873890220726
 30
0.0
 10
244.5802855229719
 20
313.6238117778708
 30
0.0
 10
243.3052118611081
 20
313.7262102874364
 30
0.0
 10
242.1032286745369
 20
313.8814349855389
 30
0.0
 10
241.0961367262748
 20
314.0554226712467
 30
0.0
 10
240.2162057624035
 20
314.2386811557071
 30
0.0
 10
239.6230157973323
 20
314.3790027190857
 30
0.0
 10
239.1934927219795
 20
314.4882552305664
 30
0.0
 10
239.0151027852161
 20
314.5357938378136
 30
0.0
 10
238.9259095634
 20
314.559562676
 30
0.0
 11
252.9259095634
 21
314.559562676
 31
0.0
 11
252.6582052676687
 21
314.4887654684229
 31
0.0
 11
252.3898610692153
 21
314.4203898086465
 31
0.0
 11
251.6349107548712
 21
314.2420956423933
 31
0.0
 11
250.8754175806389
 21
314.0840144610919
 31
0.0
 11
249.7474736983606
 21
313.8894959122174
 31
0.0
 11
248.6121824522342
 21
313.743218326377
 31
0.0
 11
247.2709942516203
 21
313.6357064518893
 31
0.0
 11
245.9259560720297
 21
313.5995308145896
 31
0.0
 11
244.5809130949246
 21
313.6357018928629
 31
0.0
 11
243.2397198650526
 21
313.7432096233284
 31
0.0
 11
242.104414594143
 21
313.8894854445212
 31
0.0
 11
240.9764567547198
 21
314.0840035415455
 31
0.0
 11
240.2169436560526
 21
314.2420875984074
 31
0.0
 11
239.4619736528224
 21
314.4203858121887
 31
0.0
 11
239.1936216371974
 21
314.4887633984454
 31
0.0
 11
238.9259095634
 21
314.559562676
 31
0.0
  0
SPLINE
  5
AF
330
1F
100
AcDbEntity
  8
0
  6
Continuous
 62
     7
100
AcDbSpline
210
0.0
220
0.0
230
1.0
 70
     8
 71
     3
 72
    15
 73
    11
 74
     9
 42
0.0000000001
 43
0.0000000001
 44
0.00000001
 40
0.0
 40
0.0
 40
0.0
 40
0.0
 40
0.1994115198644071
 40
0.3995306095204582
 40
0.5993950644765422
 40
0.7990503711684129
 40
0.9987117371835091
 40
1.198567718890116
 40
1.398751157623269
 40
1.598077977474421
 40
1.598077977474421
 40
1.598077977474421
 40
1.598077977474421
 10
174.1259095634
 20
242.5980689421
 30
0.0
 10
174.1295277840584
 20
242.5315106473591
 30
0.0
 10
174.1367770638694
 20
242.3981578897826
 30
0.0
 10
174.1939736158151
 20
242.2048868904572
 30
0.0
 10
174.2841405726644
 20
242.0254117725037
 30
0.0
 10
174.4073729666794
 20
241.8665707742735
 30
0.0
 10
174.5591610826176
 20
241.7346442348741
 30
0.0
 10
174.734285213938
 20
241.6360147482801
 30
0.0
 10
174.9259893364646
 20
241.5725704826328
 30
0.0
 10
175.0593648144291
 20
241.564361497918
 30
0.0
 10
175.1259095634
 20
241.5602658063
 30
0.0
 11
174.1259095634
 21
242.5980689421
 31
0.0
 11
174.1444557711582
 21
242.3995217375555
 31
0.0
 11
174.199499183189
 21
242.2071214443209
 31
0.0
 11
174.2897010917996
 21
242.0287695000144
 31
0.0
 11
174.4121295834944
 21
241.8710561337085
 31
0.0
 11
174.5629723151514
 21
241.7402466104112
 31
0.0
 11
174.7369678637618
 21
241.6419208127399
 31
0.0
 11
174.9276678840042
 21
241.5810364023989
 31
0.0
 11
175.1259095634
 21
241.5602658063
 31
0.0
  0
SPLINE
  5
B0
330
1F
100
AcDbEntity
  8
0
  6
Continuous
 62
     7
100
AcDbSpline
210
0.0
220
0.0
230
1.0
 70
     8
 71
     3
 72
     9
 73
     5
 74
     3
 42
0.0000000001
 43
0.0000000001
 44
0.00000001
 40
0.0
 40
0.0
 40
0.0
 40
0.0
 40
1.366828025546721
 40
2.733656073394695
 40
2.733656073394695
 40
2.733656073394695
 40
2.733656073394695
 10
180.1884095634
 20
243.9497455153
 30
0.0
 10
179.9673398793834
 20
243.5513636504284
 30
0.0
 10
179.5252005077433
 20
242.7545999141851
 30
0.0
 10
179.082087622186
 20
241.9583771777602
 30
0.0
 10
178.8605311776
 20
241.5602658063
 30
0.0
 11
180.1884095634
 21
243.9497455153
 31
0.0
 11
179.524957132875
 21
242.7547351706375
 31
0.0
 11
178.8605311776
 21
241.5602658063
 31
0.0
  0
SPLINE
  5
B1
330
1F
100
AcDbEntity
  8
0
  6
Continuous
 62
     7
100
AcDbSpline
210
0.0
220
0.0
230
1.0
 70
     8
 71
     3
 72
     9
 73
     5
 74
     3
 42
0.0000000001
 43
0.0000000001
 44
0.00000001
 40
0.0
 40
0.0
 40
0.0
 40
0.0
 40
1.366828047847949
 40
2.733656073394695
 40
2.733656073394695
 40
2.733656073394695
 40
2.733656073394695
 10
178.8605311776
 20
335.5588595458
 30
0.0
 10
179.0820876221861
 20
335.1607481743398
 30
0.0
 10
179.5252005077433
 20
334.3645254379149
 30
0.0
 10
179.9673398793834
 20
333.5677617016717
 30
0.0
 10
180.1884095634
 20
333.1693798368
 30
0.0
 11
178.8605311776
 21
335.5588595458
 31
0.0
 11
179.524957132875
 21
334.3643901814625
 31
0.0
 11
180.1884095634
 21
333.1693798368
 31
0.0
  0
SPLINE
  5
B2
330
1F
100
AcDbEntity
  8
0
  6
Continuous
 62
     7
100
AcDbSpline
210
0.0
220
0.0
230
1.0
 70
     8
 71
     3
 72
     9
 73
     5
 74
     3
 42
0.0000000001
 43
0.0000000001
 44
0.00000001
 40
0.0
 40
0.0
 40
0.0
 40
0.0
 40
1.366828025546708
 40
2.733656073394695
 40
2.733656073394695
 40
2.733656073394695
 40
2.733656073394695
 10
184.0134095634
 20
243.9497455153
 30
0.0
 10
184.2344792474165
 20
243.5513636504284
 30
0.0
 10
184.6766186190567
 20
242.7545999141851
 30
0.0
 10
185.1197315046139
 20
241.9583771777602
 30
0.0
 10
185.3412879492
 20
241.5602658063
 30
0.0
 11
184.0134095634
 21
243.9497455153
 31
0.0
 11
184.676861993925
 21
242.7547351706375
 31
0.0
 11
185.3412879492
 21
241.5602658063
 31
0.0
  0
SPLINE
  5
B3
330
1F
100
AcDbEntity
  8
0
  6
Continuous
 62
     7
100
AcDbSpline
210
0.0
220
0.0
230
1.0
 70
     8
 71
     3
 72
     9
 73
     5
 74
     3
 42
0.0000000001
 43
0.0000000001
 44
0.00000001
 40
0.0
 40
0.0
 40
0.0
 40
0.0
 40
1.366828047847949
 40
2.733656073394695
 40
2.733656073394695
 40
2.733656073394695
 40
2.733656073394695
 10
185.3412879492
 20
335.5588595458
 30
0.0
 10
185.1197315046139
 20
335.1607481743398
 30
0.0
 10
184.6766186190566
 20
334.3645254379149
 30
0.0
 10
184.2344792474166
 20
333.5677617016717
 30
0.0
 10
184.0134095634
 20
333.1693798368
 30
0.0
 11
185.3412879492
 21
335.5588595458
 31
0.0
 11
184.676861993925
 21
334.3643901814625
 31
0.0
 11
184.0134095634
 21
333.1693798368
 31
0.0
  0
SPLINE
  5
B4
330
1F
100
AcDbEntity
  8
0
  6
Continuous
 62
     7
100
AcDbSpline
210
0.0
220
0.0
230
1.0
 70
     8
 71
     3
 72
    15
 73
    11
 74
     9
 42
0.0000000001
 43
0.0000000001
 44
0.00000001
 40
0.0
 40
0.0
 40
0.0
 40
0.0
 40
0.149793827748649
 40
0.3002403875115492
 40
0.4504310444874803
 40
0.6004785771374367
 40
0.7505151709673469
 40
0.9007083294523017
 40
1.051091365223529
 40
1.200944179376247
 40
1.200944179376247
 40
1.200944179376247
 40
1.200944179376247
 10
183.2634095634
 20
244.926547653
 30
0.0
 10
183.3134185509426
 20
244.923442628914
 30
0.0
 10
183.413654441997
 20
244.9172190504872
 30
0.0
 10
183.5576342646358
 20
244.8692116711857
 30
0.0
 10
183.6890156072744
 20
244.7946802822505
 30
0.0
 10
183.8027468596004
 20
244.6951533395645
 30
0.0
 10
183.8950043573644
 20
244.5755240033839
 30
0.0
 10
183.9624637933568
 20
244.4405116363892
 30
0.0
 10
184.0052727923542
 20
244.2952360565438
 30
0.0
 10
184.010700501527
 20
244.1950262819924
 30
0.0
 10
184.0134095634
 20
244.1450098808
 30
0.0
 11
183.2634095634
 21
244.926547653
 31
0.0
 11
183.4123750668401
 21
244.9108164859602
 31
0.0
 11
183.5555979285527
 21
244.8647580532107
 31
0.0
 11
183.6861322448349
 21
244.7904746384023
 31
0.0
 11
183.799171498292
 21
244.6918014949832
 31
0.0
 11
183.8908345967873
 21
244.5730207900589
 31
0.0
 11
183.9583327693115
 21
244.4388493267681
 31
0.0
 11
183.9995260491476
 21
244.2942181712583
 31
0.0
 11
184.0134095634
 21
244.1450098808
 31
0.0
  0
SPLINE
  5
B5
330
1F
100
AcDbEntity
  8
0
  6
Continuous
 62
     7
100
AcDbSpline
210
0.0
220
0.0
230
1.0
 70
     8
 71
     3
 72
    15
 73
    11
 74
     9
 42
0.0000000001
 43
0.0000000001
 44
0.00000001
 40
0.0
 40
0.0
 40
0.0
 40
0.0
 40
0.1498537524276829
 40
0.3002377329290641
 40
0.450431387685725
 40
0.6004684787456892
 40
0.7505157524147137
 40
0.9007061337507883
 40
1.051151518409355
 40
1.200944190603127
 40
1.200944190603127
 40
1.200944190603127
 40
1.200944190603127
 10
180.1884095634
 20
244.1450098808
 30
0.0
 10
180.1911186594701
 20
244.1950265958698
 30
0.0
 10
180.1965464372147
 20
244.2952370003331
 30
0.0
 10
180.2393559282028
 20
244.4405132879685
 30
0.0
 10
180.3068160338017
 20
244.5755260512115
 30
0.0
 10
180.3990740972537
 20
244.6951552709423
 30
0.0
 10
180.5128056756065
 20
244.7946818119591
 30
0.0
 10
180.6441867567758
 20
244.8692125077677
 30
0.0
 10
180.7881658514526
 20
244.9172192164471
 30
0.0
 10
180.8884009625638
 20
244.9234426840535
 30
0.0
 10
180.9384095634
 20
244.926547653
 30
0.0
 11
180.1884095634
 21
244.1450098808
 31
0.0
 11
180.2022932517703
 21
244.2942190973849
 31
0.0
 11
180.243487045887
 21
244.4388510887206
 31
0.0
 11
180.31098581406
 21
244.5730228078878
 31
0.0
 11
180.4026496210845
 21
244.6918035941098
 31
0.0
 11
180.5156890208229
 21
244.7904761761287
 31
0.0
 11
180.6462233354373
 21
244.8647590365611
 31
0.0
 11
180.7894451940376
 21
244.9108167501838
 31
0.0
 11
180.9384095634
 21
244.926547653
 31
0.0
  0
SPLINE
  5
B6
330
1F
100
AcDbEntity
  8
0
  6
Continuous
 62
     7
100
AcDbSpline
210
0.0
220
0.0
230
1.0
 70
     8
 71
     3
 72
    15
 73
    11
 74
     9
 42
0.0000000001
 43
0.0000000001
 44
0.00000001
 40
0.0
 40
0.0
 40
0.0
 40
0.0
 40
0.1497935590509403
 40
0.3002398466777509
 40
0.4504306629905134
 40
0.600478358231952
 40
0.7505149757596421
 40
0.9007081563414518
 40
1.051091279527006
 40
1.200944180848054
 40
1.200944180848054
 40
1.200944180848054
 40
1.200944180848054
 10
180.9384095634
 20
332.1925776991
 30
0.0
 10
180.8884006657549
 20
332.1956827105311
 30
0.0
 10
180.7881649556441
 20
332.2019062635457
 30
0.0
 10
180.6441852312627
 20
332.249913512278
 30
0.0
 10
180.5128038280453
 20
332.3244448356056
 30
0.0
 10
180.3990724505594
 20
332.4239718139584
 30
0.0
 10
180.3068148768411
 20
332.5436011800049
 30
0.0
 10
180.2393553876685
 20
332.6786135705026
 30
0.0
 10
180.1965463444438
 20
332.8238892080028
 30
0.0
 10
180.1911186286021
 20
332.9240990409505
 30
0.0
 10
180.1884095634
 20
332.9741154713
 30
0.0
 11
180.9384095634
 21
332.1925776991
 31
0.0
 11
180.7894443237302
 21
332.2083088053319
 31
0.0
 11
180.6462216946485
 21
332.2543670725551
 31
0.0
 11
180.5156871958507
 21
332.3286504887951
 31
0.0
 11
180.4026477830851
 21
332.4273236969566
 31
0.0
 11
180.3109846377852
 21
332.5461043956955
 31
0.0
 11
180.2434864224999
 21
332.6802758622097
 31
0.0
 11
180.2022930943542
 21
332.8249070948509
 31
0.0
 11
180.1884095634
 21
332.9741154713
 31
0.0
  0
SPLINE
  5
B7
330
1F
100
AcDbEntity
  8
0
  6
Continuous
 62
     7
100
AcDbSpline
210
0.0
220
0.0
230
1.0
 70
     8
 71
     3
 72
    15
 73
    11
 74
     9
 42
0.0000000001
 43
0.0000000001
 44
0.00000001
 40
0.0
 40
0.0
 40
0.0
 40
0.0
 40
0.1498536493100159
 40
0.3002375262146644
 40
0.4504311697714272
 40
0.6004682482898553
 40
0.7505153760658431
 40
0.9007056145280726
 40
1.051151259727578
 40
1.200944189138726
 40
1.200944189138726
 40
1.200944189138726
 40
1.200944189138726
 10
184.0134095634
 20
332.9741154713
 30
0.0
 10
184.0107004712746
 20
332.9240987907209
 30
0.0
 10
184.0052727014356
 20
332.8238884553993
 30
0.0
 10
183.9624632613073
 20
332.6786122312242
 30
0.0
 10
183.8950032121695
 20
332.5435994874447
 30
0.0
 10
183.8027452189255
 20
332.4239702854708
 30
0.0
 10
183.6890137548287
 20
332.3244437697167
 30
0.0
 10
183.5576327264658
 20
332.2499130067533
 30
0.0
 10
183.4136535346298
 20
332.2019061720675
 30
0.0
 10
183.3134182502936
 20
332.1956826801519
 30
0.0
 10
183.2634095634
 20
332.1925776991
 30
0.0
 11
184.0134095634
 21
332.9741154713
 31
0.0
 11
183.9995258947908
 21
332.8249063564394
 31
0.0
 11
183.9583321577215
 21
332.6802744565724
 31
0.0
 11
183.8908334316937
 21
332.5461027287402
 31
0.0
 11
183.7991696669303
 21
332.4273219257469
 31
0.0
 11
183.6861304142957
 21
332.3286493970591
 31
0.0
 11
183.5555962665782
 21
332.2543665322181
 31
0.0
 11
183.4123741852656
 21
332.2083086601005
 31
0.0
 11
183.2634095634
 21
332.1925776991
 31
0.0
  0
SPLINE
  5
B8
330
1F
100
AcDbEntity
  8
0
  6
Continuous
 62
     7
100
AcDbSpline
210
0.0
220
0.0
230
1.0
 70
     8
 71
     3
 72
    15
 73
    11
 74
     9
 42
0.0000000001
 43
0.0000000001
 44
0.00000001
 40
0.0
 40
0.0
 40
0.0
 40
0.0
 40
0.1993272936092474
 40
0.399511214119061
 40
0.5993674460274374
 40
0.799029055960002
 40
0.9986840827410888
 40
1.198548256370602
 40
1.398666897383216
 40
1.598077972489078
 40
1.598077972489078
 40
1.598077972489078
 40
1.598077972489078
 10
175.1259095634
 20
335.5588595458
 30
0.0
 10
175.0593646558743
 20
335.5547638319609
 30
0.0
 10
174.9259888581217
 20
335.5465548025857
 30
0.0
 10
174.7342843923717
 20
335.4831102494088
 30
0.0
 10
174.5591600793142
 20
335.3844804179683
 30
0.0
 10
174.4073720725556
 20
335.2525536365767
 30
0.0
 10
174.2841399491741
 20
335.0937125684611
 30
0.0
 10
174.1939733260514
 20
334.9142376641407
 30
0.0
 10
174.1367770141388
 20
334.7209670145439
 30
0.0
 10
174.1295277675151
 20
334.587614555849
 30
0.0
 10
174.1259095634
 20
334.5210564099
 30
0.0
 11
175.1259095634
 21
335.5588595458
 31
0.0
 11
174.9276674188638
 21
335.5380888426999
 31
0.0
 11
174.7369669866222
 21
335.4772041387624
 31
0.0
 11
174.5629713250076
 21
335.3788780325041
 31
0.0
 11
174.4121285757109
 21
335.2480681572443
 31
0.0
 11
174.2897004562905
 21
335.090354856302
 31
0.0
 11
174.1994988537812
 21
334.9120030724439
 31
0.0
 11
174.1444556874032
 21
334.7196031755733
 31
0.0
 11
174.1259095634
 21
334.5210564099
 31
0.0
  0
SPLINE
  5
B9
330
1F
100
AcDbEntity
  8
0
  6
Continuous
 62
     7
100
AcDbSpline
210
0.0
220
0.0
230
1.0
 70
     8
 71
     3
 72
    15
 73
    11
 74
     9
 42
0.0000000001
 43
0.0000000001
 44
0.00000001
 40
0.0
 40
0.0
 40
0.0
 40
0.0
 40
0.1993272358063763
 40
0.3995110958049426
 40
0.5993673928206535
 40
0.7990290698052671
 40
0.9986840388910656
 40
1.198548154959455
 40
1.398666849463198
 40
1.598077976702135
 40
1.598077976702135
 40
1.598077976702135
 40
1.598077976702135
 10
189.0259095634
 20
241.5602658063
 30
0.0
 10
189.0924544515887
 20
241.5643615152214
 30
0.0
 10
189.2258302097629
 20
241.5725705346896
 30
0.0
 10
189.417534668523
 20
241.6360150486362
 30
0.0
 10
189.5926590099003
 20
241.7346448835248
 30
0.0
 10
189.7444470311884
 20
241.8665716875403
 30
0.0
 10
189.8676791392558
 20
242.0254127459035
 30
0.0
 10
189.9578457607918
 20
242.2048876260736
 30
0.0
 10
190.0150421019483
 20
242.3981582847065
 30
0.0
 10
190.0222913557253
 20
242.531510778719
 30
0.0
 10
190.0259095634
 20
242.5980689421
 30
0.0
 11
189.0259095634
 21
241.5602658063
 31
0.0
 11
189.2241516520041
 21
241.5810364885253
 31
0.0
 11
189.4148520353763
 21
241.6419211465732
 31
0.0
 11
189.5888477604443
 21
241.740247272882
 31
0.0
 11
189.7396905563732
 21
241.8710571967129
 31
0.0
 11
189.8621186358914
 21
242.0287704555917
 31
0.0
 11
189.9523202222906
 21
242.2071221830934
 31
0.0
 11
190.0073634239398
 21
242.3995221255105
 31
0.0
 11
190.0259095634
 21
242.5980689421
 31
0.0
  0
SPLINE
  5
BA
330
1F
100
AcDbEntity
  8
0
  6
Continuous
 62
     7
100
AcDbSpline
210
0.0
220
0.0
230
1.0
 70
     8
 71
     3
 72
    15
 73
    11
 74
     9
 42
0.0000000001
 43
0.0000000001
 44
0.00000001
 40
0.0
 40
0.0
 40
0.0
 40
0.0
 40
0.1994115817647363
 40
0.3995307347096315
 40
0.5993951287002062
 40
0.7990503741563353
 40
0.9987117984888718
 40
1.198567836694428
 40
1.398751217382341
 40
1.598077981839807
 40
1.598077981839807
 40
1.598077981839807
 40
1.598077981839807
 10
190.0259095634
 20
334.5210564099
 30
0.0
 10
190.022291338803
 20
334.5876147253398
 30
0.0
 10
190.0150420510798
 20
334.7209675247779
 30
0.0
 10
189.9578454655127
 20
334.9142385376987
 30
0.0
 10
189.8676785070447
 20
335.093713630876
 30
0.0
 10
189.7444461295031
 20
335.2525546135823
 30
0.0
 10
189.5926580032021
 20
335.3844811695672
 30
0.0
 10
189.4175338479484
 20
335.4831106569412
 30
0.0
 10
189.2258297338554
 20
335.5465548838858
 30
0.0
 10
189.0924542938394
 20
335.5547638589648
 30
0.0
 10
189.0259095634
 20
335.5588595458
 30
0.0
 11
190.0259095634
 21
334.5210564099
 31
0.0
 11
190.0073633383011
 21
334.7196036749945
 31
0.0
 11
189.9523198856657
 21
334.9120040224405
 31
0.0
 11
189.8621179918505
 21
335.0903559059107
 31
0.0
 11
189.7396895401395
 21
335.2480692257343
 31
0.0
 11
189.5888467673024
 21
335.3788787905578
 31
0.0
 11
189.4148511626936
 21
335.4772046039744
 31
0.0
 11
189.2241511892214
 21
335.5380889699591
 31
0.0
 11
189.0259095634
 21
335.5588595458
 31
0.0
  0
SPLINE
  5
BB
330
1F
100
AcDbEntity
  8
0
  6
Continuous
 62
     2
100
AcDbSpline
210
0.0
220
0.0
230
1.0
 70
     8
 71
     3
 72
    47
 73
    43
 74
    41
 42
0.0000000001
 43
0.0000000001
 44
0.00000001
 40
0.0
 40
0.0
 40
0.0
 40
0.0
 40
0.0261343742992085
 40
0.1037947255623829
 40
0.2318155914352476
 40
0.4088260389418335
 40
0.6334016544436019
 40
0.904098023611491
 40
1.21945930276108
 40
1.57796992442285
 40
1.977899592741683
 40
2.416650833171364
 40
2.891353238932793
 40
3.398802626645818
 40
3.935449853018746
 40
4.496549968438565
 40
5.077113041788967
 40
5.672198972719082
 40
6.277281701794477
 40
6.889321184478026
 40
7.50575480235452
 40
8.124377598281125
 40
8.743067749427105
 40
9.359652133984259
 40
9.971859531260154
 40
10.57710255469286
 40
11.17234179321614
 40
11.75311261711709
 40
12.31455583233179
 40
12.85177961379983
 40
13.36009739539996
 40
13.83584072574046
 40
14.27565982000344
 40
14.67661104651315
 40
15.03604800087375
 40
15.35221748594604
 40
15.62359328056189
 40
15.84873243338642
 40
16.02620340271517
 40
16.15457129048169
 40
16.23244944914165
 40
16.25865921906321
 40
16.25865921906321
 40
16.25865921906321
 40
16.25865921906321
 10
237.9259095634
 20
314.5595856713
 30
0.0
 10
237.9342343040047
 20
314.557018916898
 30
0.0
 10
237.9672966668743
 20
314.5468248496636
 30
0.0
 10
238.0412052717742
 20
314.5242753672417
 30
0.0
 10
238.1633077202549
 20
314.4873483210941
 30
0.0
 10
238.3325505744416
 20
314.4371284714294
 30
0.0
 10
238.5477613053887
 20
314.3746519429473
 30
0.0
 10
238.8078593068015
 20
314.3014064513283
 30
0.0
 10
239.1117075183299
 20
314.2188593339405
 30
0.0
 10
239.4581557587532
 20
314.1288798335372
 30
0.0
 10
239.8456449487034
 20
314.0334146452848
 30
0.0
 10
240.2722002056408
 20
313.9347777908285
 30
0.0
 10
240.7353153672735
 20
313.835406806409
 30
0.0
 10
241.2321238517408
 20
313.7378581633359
 30
0.0
 10
241.7590694879029
 20
313.6447970975662
 30
0.0
 10
242.3118813057303
 20
313.5586847301632
 30
0.0
 10
242.8857578785569
 20
313.4821008068221
 30
0.0
 10
243.4757907030627
 20
313.4168457959038
 30
0.0
 10
244.0776633157917
 20
313.3647005922711
 30
0.0
 10
244.6877224878907
 20
313.3266255280329
 30
0.0
 10
245.303049697512
 20
313.3034930375061
 30
0.0
 10
245.9209793250982
 20
313.2956054536425
 30
0.0
 10
246.5389622793197
 20
313.3032486726754
 30
0.0
 10
247.1544272479164
 20
313.3261421174429
 30
0.0
 10
247.7646604054892
 20
313.3639932440336
 30
0.0
 10
248.3667123870899
 20
313.4159278228502
 30
0.0
 10
248.956941673509
 20
313.4809877195173
 30
0.0
 10
249.5310775333838
 20
313.5574034227026
 30
0.0
 10
250.0842896206724
 20
313.6433882510033
 30
0.0
 10
250.6118508351647
 20
313.7363915881871
 30
0.0
 10
251.1094989054303
 20
313.8339656258337
 30
0.0
 10
251.5736085241227
 20
313.9334328925511
 30
0.0
 10
252.0011996634534
 20
314.0322221347302
 30
0.0
 10
252.3896797032584
 20
314.1278681463981
 30
0.0
 10
252.7370279432565
 20
314.2180372632572
 30
0.0
 10
253.0416600703856
 20
314.3007682314636
 30
0.0
 10
253.3024209756032
 20
314.3741821849626
 30
0.0
 10
253.5181796813136
 20
314.4368079066544
 30
0.0
 10
253.6878620370375
 20
314.4871532201777
 30
0.0
 10
253.8102921676694
 20
314.5241774530997
 30
0.0
 10
253.8844050600723
 20
314.5467886649814
 30
0.0
 10
253.9175608090058
 20
314.5570115602803
 30
0.0
 10
253.9259095634
 20
314.5595857275
 30
0.0
 11
237.9259095634
 21
314.5595856713
 31
0.0
 11
237.9508856865146
 21
314.5518915960354
 31
0.0
 11
238.0251560367167
 21
314.5291969878833
 31
0.0
 11
238.1477039111041
 21
314.4921651018666
 31
0.0
 11
238.3173939100167
 21
314.44178650725
 31
0.0
 11
238.53307233105
 21
314.3792003603917
 31
0.0
 11
238.7936309575833
 21
314.3058128517833
 31
0.0
 11
239.0979685956312
 21
314.2231609404063
 31
0.0
 11
239.4449666559666
 21
314.1330376250667
 31
0.0
 11
239.8332915870958
 21
314.03739512685
 31
0.0
 11
240.2607673837
 21
313.9385665161333
 31
0.0
 11
240.7249119504125
 21
313.8390065079624
 31
0.0
 11
241.2228612855
 21
313.7412755467667
 31
0.0
 11
241.75133371865
 21
313.6479635273145
 31
0.0
 11
242.3057588116
 21
313.56167241635
 31
0.0
 11
242.8812203722604
 21
313.484877401275
 31
0.0
 11
243.4727079611833
 21
313.4195344801499
 31
0.0
 11
244.0755327289042
 21
313.3673098839562
 31
0.0
 11
244.68638643325
 21
313.3292299646999
 31
0.0
 11
245.3023846206958
 21
313.3060645095625
 31
0.0
 11
245.9209573850166
 21
313.2981969254
 31
0.0
 11
246.5396005753833
 21
313.3058196636209
 31
0.0
 11
247.15575851525
 21
313.3287477341667
 31
0.0
 11
247.7667943804416
 21
313.3666036284083
 31
0.0
 11
248.3697982819833
 21
313.4186172049
 31
0.0
 11
248.9614618792438
 21
313.4837627247354
 31
0.0
 11
249.5371560897667
 21
313.5603846919834
 31
0.0
 11
250.0919489545146
 21
313.6465436215001
 31
0.0
 11
250.62101774995
 21
313.7397938283166
 31
0.0
 11
251.119845878425
 21
313.83755611825
 31
0.0
 11
251.58503201035
 21
313.9372234600833
 31
0.0
 11
252.0135674919104
 21
314.036209200077
 31
0.0
 11
252.4028991043334
 21
314.1320360314333
 31
0.0
 11
252.7508045155208
 21
314.222350753525
 31
0.0
 11
253.0559295050334
 21
314.3051872434667
 31
0.0
 11
253.3171468446542
 21
314.3787421439479
 31
0.0
 11
253.5333691634
 21
314.4414760822167
 31
0.0
 11
253.7035019902219
 21
314.4919811927709
 31
0.0
 11
253.826382596575
 21
314.52911165455
 31
0.0
 11
253.9008613879406
 21
314.5518694495438
 31
0.0
 11
253.9259095634
 21
314.5595857275
 31
0.0
  0
ARC
  5
BC
330
1F
100
AcDbEntity
  8
1
  6
Continuous
 62
     7
100
AcDbCircle
 10
203.0259095634
 20
327.559562676
 30
0.0
 40
13.0
100
AcDbArc
 50
180.0
 51
270.0
  0
ARC
  5
BD
330
1F
100
AcDbEntity
  8
1
  6
Continuous
 62
     7
100
AcDbCircle
 10
203.0259095634
 20
249.559562676
 30
0.0
 40
12.99999999999997
100
AcDbArc
 50
90.0
 51
180.0
  0
DIMENSION
  5
C8
330
1F
100
AcDbEntity
  8
1
100
AcDbDimension
  2
*D2
 10
270.9259095634001
 20
358.960965663871
 30
0.0
 11
184.4070165740498
 21
362.710965663871
 31
0.0
 70
    32
  1
<>
 71
     5
 42
-1.0
 53
0.00013888888889
  3
ME10_DIM_10
100
AcDbAlignedDimension
 13
69.1759095634
 23
306.7210096772
 33
0.0
 14
270.9259095634
 24
306.4766589074
 34
0.0
100
AcDbRotatedDimension
  0
DIMENSION
  5
D3
330
1F
100
AcDbEntity
  8
1
100
AcDbDimension
  2
*D3
 10
270.9259095634001
 20
351.230846216796
 30
0.0
 11
223.7090661424016
 21
354.980846216796
 31
0.0
 70
    32
  1
<>
 71
     5
 42
-1.0
 53
0.00013888888889
  3
ME10_DIM_11
100
AcDbAlignedDimension
 13
170.9259095634
 23
340.297062676
 33
0.0
 14
270.9259095634
 24
306.4766589074
 34
0.0
100
AcDbRotatedDimension
  0
DIMENSION
  5
DE
330
1F
100
AcDbEntity
  8
1
100
AcDbDimension
  2
*D4
 10
270.9259095634001
 20
343.114220797368
 30
0.0
 11
228.5023278310035
 21
346.864220797368
 31
0.0
 70
    32
  1
<>
 71
     5
 42
-1.0
 53
0.00013888888889
  3
ME10_DIM_12
100
AcDbAlignedDimension
 13
190.0259095634
 23
334.5210564099
 33
0.0
 14
270.9259095634
 24
306.4766589074
 34
0.0
100
AcDbRotatedDimension
  0
DIMENSION
  5
E9
330
1F
100
AcDbEntity
  8
1
100
AcDbDimension
  2
*D5
 10
291.425074614154
 20
314.559562676
 30
0.0
 11
287.675074614154
 21
288.488043371377
 31
0.0
 70
    32
  1
<>
 71
     5
 42
-1.0
 53
90.0
  3
ME10_DIM_13
100
AcDbAlignedDimension
 13
257.6579603710001
 23
262.559562676
 33
0.0
 14
257.657960371
 24
314.559562676
 34
0.0
 50
90.0
100
AcDbRotatedDimension
  0
DIMENSION
  5
F4
330
1F
100
AcDbEntity
  8
1
100
AcDbDimension
  2
*D6
 10
282.535437250019
 20
298.559562676
 30
0.0
 11
278.785437250019
 21
287.972702074905
 31
0.0
 70
    32
  1
<>
 71
     5
 42
-1.0
 53
90.0
  3
ME10_DIM_14
100
AcDbAlignedDimension
 13
270.9259095634
 23
278.559562676
 33
0.0
 14
270.9259095634
 24
298.559562676
 34
0.0
 50
90.0
100
AcDbRotatedDimension
  0
INSERT
  5
FB
330
1F
100
AcDbEntity
  8
1
100
AcDbBlockReference
  2
*D7
 10
0.0
 20
0.0
 30
0.0
  0
ENDSEC
  0
SECTION
  2
OBJECTS
  0
DICTIONARY
  5
C
330
0
100
AcDbDictionary
281
     1
  3
ACAD_GROUP
350
D
  3
ACAD_LAYOUT
350
1A
  3
ACAD_MLEADERSTYLE
350
FE
  3
ACAD_MLINESTYLE
350
17
  3
ACAD_PLOTSETTINGS
350
19
  3
ACAD_PLOTSTYLENAME
350
E
  3
ACAD_SCALELIST
350
4A
  3
ACAD_VISUALSTYLE
350
2A
  3
AcDbVariableDictionary
350
FC
  0
DICTIONARY
  5
D
102
{ACAD_REACTORS
330
C
102
}
330
C
100
AcDbDictionary
281
     1
  0
DICTIONARY
  5
1A
102
{ACAD_REACTORS
330
C
102
}
330
C
100
AcDbDictionary
281
     1
  3
Layout1
350
1E
  3
Layout2
350
26
  3
Model
350
22
  0
DICTIONARY
  5
FE
102
{ACAD_REACTORS
330
C
102
}
330
C
100
AcDbDictionary
281
     1
  0
DICTIONARY
  5
17
102
{ACAD_REACTORS
330
C
102
}
330
C
100
AcDbDictionary
281
     1
  3
Standard
350
18
  0
DICTIONARY
  5
19
102
{ACAD_REACTORS
330
C
102
}
330
C
100
AcDbDictionary
281
     1
  0
ACDBDICTIONARYWDFLT
  5
E
102
{ACAD_REACTORS
330
C
102
}
330
C
100
AcDbDictionary
281
     1
  3
Normal
350
F
100
AcDbDictionaryWithDefault
340
F
  0
DICTIONARY
  5
4A
102
{ACAD_REACTORS
330
C
102
}
330
C
100
AcDbDictionary
281
     1
  3
A0
350
4B
  3
A1
350
4C
  3
A2
350
4D
  3
A3
350
4E
  3
A4
350
4F
  3
A5
350
50
  3
A6
350
51
  3
A7
350
52
  3
A8
350
53
  3
A9
350
54
  3
B0
350
55
  3
B1
350
56
  3
B2
350
57
  3
B3
350
58
  3
B4
350
59
  3
B5
350
5A
  3
B6
350
5B
  3
B7
350
5C
  3
B8
350
5D
  3
B9
350
5E
  3
C0
350
5F
  3
C1
350
60
  3
C2
350
61
  3
C3
350
62
  3
C4
350
63
  3
C5
350
64
  3
C6
350
65
  3
C7
350
66
  3
C8
350
67
  3
C9
350
68
  3
D0
350
69
  3
D1
350
6A
  3
D2
350
6B
  0
DICTIONARY
  5
2A
102
{ACAD_REACTORS
330
C
102
}
330
C
100
AcDbDictionary
281
     1
  3
2dWireframe
350
2F
  3
3D Hidden
350
31
  3
3dWireframe
350
30
  3
Basic
350
32
  3
Brighten
350
36
  3
ColorChange
350
3A
  3
Conceptual
350
34
  3
Dim
350
35
  3
Facepattern
350
39
  3
Flat
350
2B
  3
FlatWithEdges
350
2C
  3
Gouraud
350
2D
  3
GouraudWithEdges
350
2E
  3
Linepattern
350
38
  3
Realistic
350
33
  3
Thicken
350
37
  0
DICTIONARY
  5
FC
102
{ACAD_REACTORS
330
C
102
}
330
C
100
AcDbDictionary
281
     1
  3
CANNOSCALE
350
FF
  0
LAYOUT
  5
1E
102
{ACAD_REACTORS
330
1A
102
}
330
1A
100
AcDbPlotSettings
  1

  2
none_device
  4

  6

 40
0.0
 41
0.0
 42
0.0
 43
0.0
 44
0.0
 45
0.0
 46
0.0
 47
0.0
 48
0.0
 49
0.0
140
0.0
141
0.0
142
1.0
143
1.0
 70
   688
 72
     0
 73
     0
 74
     5
  7

 75
    16
147
1.0
148
0.0
149
0.0
100
AcDbLayout
  1
Layout1
 70
     1
 71
     1
 10
0.0
 20
0.0
 11
12.0
 21
9.0
 12
0.0
 22
0.0
 32
0.0
 14
1.00000000000000E+20
 24
1.00000000000000E+20
 34
1.00000000000000E+20
 15
-1.00000000000000E+20
 25
-1.00000000000000E+20
 35
-1.00000000000000E+20
146
0.0
 13
0.0
 23
0.0
 33
0.0
 16
1.0
 26
0.0
 36
0.0
 17
0.0
 27
1.0
 37
0.0
 76
     0
330
1B
  0
LAYOUT
  5
26
102
{ACAD_REACTORS
330
1A
102
}
330
1A
100
AcDbPlotSettings
  1

  2
none_device
  4

  6

 40
0.0
 41
0.0
 42
0.0
 43
0.0
 44
0.0
 45
0.0
 46
0.0
 47
0.0
 48
0.0
 49
0.0
140
0.0
141
0.0
142
1.0
143
1.0
 70
   688
 72
     0
 73
     0
 74
     5
  7

 75
    16
147
1.0
148
0.0
149
0.0
100
AcDbLayout
  1
Layout2
 70
     1
 71
     2
 10
0.0
 20
0.0
 11
0.0
 21
0.0
 12
0.0
 22
0.0
 32
0.0
 14
0.0
 24
0.0
 34
0.0
 15
0.0
 25
0.0
 35
0.0
146
0.0
 13
0.0
 23
0.0
 33
0.0
 16
1.0
 26
0.0
 36
0.0
 17
0.0
 27
1.0
 37
0.0
 76
     0
330
23
  0
LAYOUT
  5
22
102
{ACAD_REACTORS
330
1A
102
}
330
1A
100
AcDbPlotSettings
  1

  2
none_device
  4

  6

 40
0.0
 41
0.0
 42
0.0
 43
0.0
 44
0.0
 45
0.0
 46
0.0
 47
0.0
 48
0.0
 49
0.0
140
0.0
141
0.0
142
1.0
143
1.0
 70
  1712
 72
     0
 73
     0
 74
     0
  7

 75
     0
147
1.0
148
0.0
149
0.0
100
AcDbLayout
  1
Model
 70
     1
 71
     0
 10
0.0
 20
0.0
 11
12.0
 21
9.0
 12
0.0
 22
0.0
 32
0.0
 14
47.8038979886626
 24
238.4352658063
 34
0.0
 15
293.425074614154
 25
364.460965663871
 35
0.0
146
0.0
 13
0.0
 23
0.0
 33
0.0
 16
1.0
 26
0.0
 36
0.0
 17
0.0
 27
1.0
 37
0.0
 76
     0
330
1F
331
29
  0
MLINESTYLE
  5
18
102
{ACAD_REACTORS
330
17
102
}
330
17
100
AcDbMlineStyle
  2
Standard
 70
     0
  3

 62
   256
 51
90.0
 52
90.0
 71
     2
 49
0.5
 62
   256
  6
BYLAYER
 49
-0.5
 62
   256
  6
BYLAYER
  0
ACDBPLACEHOLDER
  5
F
102
{ACAD_REACTORS
330
E
102
}
330
E
  0
SCALE
  5
4B
102
{ACAD_REACTORS
330
4A
102
}
330
4A
100
AcDbScale
 70
     0
300
1:1
140
1.0
141
1.0
290
     1
  0
SCALE
  5
4C
102
{ACAD_REACTORS
330
4A
102
}
330
4A
100
AcDbScale
 70
     0
300
1:2
140
1.0
141
2.0
290
     0
  0
SCALE
  5
4D
102
{ACAD_REACTORS
330
4A
102
}
330
4A
100
AcDbScale
 70
     0
300
1:4
140
1.0
141
4.0
290
     0
  0
SCALE
  5
4E
102
{ACAD_REACTORS
330
4A
102
}
330
4A
100
AcDbScale
 70
     0
300
1:5
140
1.0
141
5.0
290
     0
  0
SCALE
  5
4F
102
{ACAD_REACTORS
330
4A
102
}
330
4A
100
AcDbScale
 70
     0
300
1:8
140
1.0
141
8.0
290
     0
  0
SCALE
  5
50
102
{ACAD_REACTORS
330
4A
102
}
330
4A
100
AcDbScale
 70
     0
300
1:10
140
1.0
141
10.0
290
     0
  0
SCALE
  5
51
102
{ACAD_REACTORS
330
4A
102
}
330
4A
100
AcDbScale
 70
     0
300
1:16
140
1.0
141
16.0
290
     0
  0
SCALE
  5
52
102
{ACAD_REACTORS
330
4A
102
}
330
4A
100
AcDbScale
 70
     0
300
1:20
140
1.0
141
20.0
290
     0
  0
SCALE
  5
53
102
{ACAD_REACTORS
330
4A
102
}
330
4A
100
AcDbScale
 70
     0
300
1:30
140
1.0
141
30.0
290
     0
  0
SCALE
  5
54
102
{ACAD_REACTORS
330
4A
102
}
330
4A
100
AcDbScale
 70
     0
300
1:40
140
1.0
141
40.0
290
     0
  0
SCALE
  5
55
102
{ACAD_REACTORS
330
4A
102
}
330
4A
100
AcDbScale
 70
     0
300
1:50
140
1.0
141
50.0
290
     0
  0
SCALE
  5
56
102
{ACAD_REACTORS
330
4A
102
}
330
4A
100
AcDbScale
 70
     0
300
1:100
140
1.0
141
100.0
290
     0
  0
SCALE
  5
57
102
{ACAD_REACTORS
330
4A
102
}
330
4A
100
AcDbScale
 70
     0
300
2:1
140
2.0
141
1.0
290
     0
  0
SCALE
  5
58
102
{ACAD_REACTORS
330
4A
102
}
330
4A
100
AcDbScale
 70
     0
300
4:1
140
4.0
141
1.0
290
     0
  0
SCALE
  5
59
102
{ACAD_REACTORS
330
4A
102
}
330
4A
100
AcDbScale
 70
     0
300
8:1
140
8.0
141
1.0
290
     0
  0
SCALE
  5
5A
102
{ACAD_REACTORS
330
4A
102
}
330
4A
100
AcDbScale
 70
     0
300
10:1
140
10.0
141
1.0
290
     0
  0
SCALE
  5
5B
102
{ACAD_REACTORS
330
4A
102
}
330
4A
100
AcDbScale
 70
     0
300
100:1
140
100.0
141
1.0
290
     0
  0
SCALE
  5
5C
102
{ACAD_REACTORS
330
4A
102
}
330
4A
100
AcDbScale
 70
     0
300
1/128" = 1'-0"
140
0.0078125
141
12.0
290
     0
  0
SCALE
  5
5D
102
{ACAD_REACTORS
330
4A
102
}
330
4A
100
AcDbScale
 70
     0
300
1/64" = 1'-0"
140
0.015625
141
12.0
290
     0
  0
SCALE
  5
5E
102
{ACAD_REACTORS
330
4A
102
}
330
4A
100
AcDbScale
 70
     0
300
1/32" = 1'-0"
140
0.03125
141
12.0
290
     0
  0
SCALE
  5
5F
102
{ACAD_REACTORS
330
4A
102
}
330
4A
100
AcDbScale
 70
     0
300
1/16" = 1'-0"
140
0.0625
141
12.0
290
     0
  0
SCALE
  5
60
102
{ACAD_REACTORS
330
4A
102
}
330
4A
100
AcDbScale
 70
     0
300
3/32" = 1'-0"
140
0.09375
141
12.0
290
     0
  0
SCALE
  5
61
102
{ACAD_REACTORS
330
4A
102
}
330
4A
100
AcDbScale
 70
     0
300
1/8" = 1'-0"
140
0.125
141
12.0
290
     0
  0
SCALE
  5
62
102
{ACAD_REACTORS
330
4A
102
}
330
4A
100
AcDbScale
 70
     0
300
3/16" = 1'-0"
140
0.1875
141
12.0
290
     0
  0
SCALE
  5
63
102
{ACAD_REACTORS
330
4A
102
}
330
4A
100
AcDbScale
 70
     0
300
1/4" = 1'-0"
140
0.25
141
12.0
290
     0
  0
SCALE
  5
64
102
{ACAD_REACTORS
330
4A
102
}
330
4A
100
AcDbScale
 70
     0
300
3/8" = 1'-0"
140
0.375
141
12.0
290
     0
  0
SCALE
  5
65
102
{ACAD_REACTORS
330
4A
102
}
330
4A
100
AcDbScale
 70
     0
300
1/2" = 1'-0"
140
0.5
141
12.0
290
     0
  0
SCALE
  5
66
102
{ACAD_REACTORS
330
4A
102
}
330
4A
100
AcDbScale
 70
     0
300
3/4" = 1'-0"
140
0.75
141
12.0
290
     0
  0
SCALE
  5
67
102
{ACAD_REACTORS
330
4A
102
}
330
4A
100
AcDbScale
 70
     0
300
1" = 1'-0"
140
1.0
141
12.0
290
     0
  0
SCALE
  5
68
102
{ACAD_REACTORS
330
4A
102
}
330
4A
100
AcDbScale
 70
     0
300
1-1/2" = 1'-0"
140
1.5
141
12.0
290
     0
  0
SCALE
  5
69
102
{ACAD_REACTORS
330
4A
102
}
330
4A
100
AcDbScale
 70
     0
300
3" = 1'-0"
140
3.0
141
12.0
290
     0
  0
SCALE
  5
6A
102
{ACAD_REACTORS
330
4A
102
}
330
4A
100
AcDbScale
 70
     0
300
6" = 1'-0"
140
6.0
141
12.0
290
     0
  0
SCALE
  5
6B
102
{ACAD_REACTORS
330
4A
102
}
330
4A
100
AcDbScale
 70
     0
300
1'-0" = 1'-0"
140
12.0
141
12.0
290
     0
  0
VISUALSTYLE
  5
2F
102
{ACAD_REACTORS
330
2A
102
}
330
2A
100
AcDbVisualStyle
  2
2dWireframe
 70
     4
 71
     0
 72
     2
 73
     0
 90
        0
 40
-0.6
 41
-30.0
 62
     5
 63
     7
 74
     1
 91
        4
 64
     7
 65
   257
 75
     1
175
     1
 42
1.0
 92
        0
 66
   257
 43
1.0
 76
     1
 77
     6
 78
     2
 67
     7
 79
     5
170
     0
171
     0
290
     0
174
     0
 93
        1
 44
0.0
173
     0
291
     0
 45
0.0
1001
ACAD
1000
AcDbSavedByObjectVersion
1070
     0
  0
VISUALSTYLE
  5
31
102
{ACAD_REACTORS
330
2A
102
}
330
2A
100
AcDbVisualStyle
  2
3D Hidden
 70
     6
 71
     1
 72
     2
 73
     2
 90
        0
 40
-0.6
 41
-30.0
 62
     5
 63
     7
 74
     2
 91
        2
 64
     7
 65
   257
 75
     2
175
     1
 42
40.0
 92
        0
 66
   257
 43
1.0
 76
     1
 77
     6
 78
     2
 67
     7
 79
     3
170
     0
171
     0
290
     0
174
     0
 93
        1
 44
0.0
173
     0
291
     0
 45
0.0
1001
ACAD
1000
AcDbSavedByObjectVersion
1070
     0
  0
VISUALSTYLE
  5
30
102
{ACAD_REACTORS
330
2A
102
}
330
2A
100
AcDbVisualStyle
  2
3dWireframe
 70
     5
 71
     0
 72
     2
 73
     0
 90
        0
 40
-0.6
 41
-30.0
 62
     5
 63
     7
 74
     1
 91
        4
 64
     7
 65
   257
 75
     1
175
     1
 42
1.0
 92
        0
 66
   257
 43
1.0
 76
     1
 77
     6
 78
     2
 67
     7
 79
     5
170
     0
171
     0
290
     0
174
     0
 93
        1
 44
0.0
173
     0
291
     0
 45
0.0
1001
ACAD
1000
AcDbSavedByObjectVersion
1070
     0
  0
VISUALSTYLE
  5
32
102
{ACAD_REACTORS
330
2A
102
}
330
2A
100
AcDbVisualStyle
  2
Basic
 70
     7
 71
     1
 72
     0
 73
     1
 90
        0
 40
-0.6
 41
-30.0
 62
     5
 63
     7
 74
     0
 91
        4
 64
     7
 65
   257
 75
     1
175
     1
 42
1.0
 92
        8
 66
     7
 43
1.0
 76
     1
 77
     6
 78
     2
 67
     7
 79
     5
170
     0
171
     0
290
     0
174
     0
 93
        1
 44
0.0
173
     0
291
     1
 45
0.0
1001
ACAD
1000
AcDbSavedByObjectVersion
1070
     0
  0
VISUALSTYLE
  5
36
102
{ACAD_REACTORS
330
2A
102
}
330
2A
100
AcDbVisualStyle
  2
Brighten
 70
    12
 71
     2
 72
     2
 73
     0
 90
        0
 40
-0.6
 41
-30.0
 62
     5
 63
     7
 74
     1
 91
        4
 64
     7
 65
   257
 75
     1
175
     1
 42
1.0
 92
        8
 66
     7
 43
1.0
 76
     1
 77
     6
 78
     2
 67
     7
 79
     5
170
     0
171
     0
290
     0
174
     0
 93
        1
 44
50.0
173
     0
291
     1
 45
0.0
1001
ACAD
1000
AcDbSavedByObjectVersion
1070
     0
  0
VISUALSTYLE
  5
3A
102
{ACAD_REACTORS
330
2A
102
}
330
2A
100
AcDbVisualStyle
  2
ColorChange
 70
    16
 71
     2
 72
     2
 73
     3
 90
        0
 40
-0.6
 41
-30.0
 62
     5
 63
     8
 74
     1
 91
        4
 64
     7
 65
   257
 75
     1
175
     1
 42
1.0
 92
        8
 66
     8
 43
1.0
 76
     1
 77
     6
 78
     2
 67
     7
 79
     5
170
     0
171
     0
290
     0
174
     0
 93
        1
 44
0.0
173
     0
291
     1
 45
0.0
1001
ACAD
1000
AcDbSavedByObjectVersion
1070
     0
  0
VISUALSTYLE
  5
34
102
{ACAD_REACTORS
330
2A
102
}
330
2A
100
AcDbVisualStyle
  2
Conceptual
 70
     9
 71
     3
 72
     2
 73
     0
 90
        0
 40
-0.6
 41
-30.0
 62
     5
 63
     7
 74
     2
 91
        2
 64
     7
 65
   257
 75
     1
175
     1
 42
40.0
 92
        8
 66
     7
 43
1.0
 76
     1
 77
     6
 78
     2
 67
     7
 79
     3
170
     0
171
     0
290
     0
174
     0
 93
        1
 44
0.0
173
     0
291
     0
 45
0.0
1001
ACAD
1000
AcDbSavedByObjectVersion
1070
     0
  0
VISUALSTYLE
  5
35
102
{ACAD_REACTORS
330
2A
102
}
330
2A
100
AcDbVisualStyle
  2
Dim
 70
    11
 71
     2
 72
     2
 73
     0
 90
        0
 40
-0.6
 41
-30.0
 62
     5
 63
     7
 74
     1
 91
        4
 64
     7
 65
   257
 75
     1
175
     1
 42
1.0
 92
        8
 66
     7
 43
1.0
 76
     1
 77
     6
 78
     2
 67
     7
 79
     5
170
     0
171
     0
290
     0
174
     0
 93
        1
 44
-50.0
173
     0
291
     1
 45
0.0
1001
ACAD
1000
AcDbSavedByObjectVersion
1070
     0
  0
VISUALSTYLE
  5
39
102
{ACAD_REACTORS
330
2A
102
}
330
2A
100
AcDbVisualStyle
  2
Facepattern
 70
    15
 71
     2
 72
     2
 73
     0
 90
        0
 40
-0.6
 41
-30.0
 62
     5
 63
     7
 74
     1
 91
        4
 64
     7
 65
   257
 75
     1
175
     1
 42
1.0
 92
        8
 66
     7
 43
1.0
 76
     1
 77
     6
 78
     2
 67
     7
 79
     5
170
     0
171
     0
290
     0
174
     0
 93
        1
 44
0.0
173
     0
291
     1
 45
0.0
1001
ACAD
1000
AcDbSavedByObjectVersion
1070
     0
  0
VISUALSTYLE
  5
2B
102
{ACAD_REACTORS
330
2A
102
}
330
2A
100
AcDbVisualStyle
  2
Flat
 70
     0
 71
     2
 72
     1
 73
     1
 90
        2
 40
-0.6
 41
30.0
 62
     5
 63
     7
 74
     0
 91
        4
 64
     7
 65
   257
 75
     1
175
     1
 42
1.0
 92
        8
 66
     7
 43
1.0
 76
     1
 77
     6
 78
     2
 67
     7
 79
     5
170
     0
171
     0
290
     0
174
     0
 93
       13
 44
0.0
173
     0
291
     1
 45
0.0
1001
ACAD
1000
AcDbSavedByObjectVersion
1070
     0
  0
VISUALSTYLE
  5
2C
102
{ACAD_REACTORS
330
2A
102
}
330
2A
100
AcDbVisualStyle
  2
FlatWithEdges
 70
     1
 71
     2
 72
     1
 73
     1
 90
        2
 40
-0.6
 41
30.0
 62
     5
 63
     7
 74
     1
 91
        4
 64
     7
 65
   257
 75
     1
175
     1
 42
1.0
 92
        0
 66
   257
 43
1.0
 76
     1
 77
     6
 78
     2
 67
     7
 79
     5
170
     0
171
     0
290
     0
174
     0
 93
       13
 44
0.0
173
     0
291
     1
 45
0.0
1001
ACAD
1000
AcDbSavedByObjectVersion
1070
     0
  0
VISUALSTYLE
  5
2D
102
{ACAD_REACTORS
330
2A
102
}
330
2A
100
AcDbVisualStyle
  2
Gouraud
 70
     2
 71
     2
 72
     2
 73
     1
 90
        2
 40
-0.6
 41
30.0
 62
     5
 63
     7
 74
     0
 91
        4
 64
     7
 65
   257
 75
     1
175
     1
 42
1.0
 92
        0
 66
     7
 43
1.0
 76
     1
 77
     6
 78
     2
 67
     7
 79
     5
170
     0
171
     0
290
     0
174
     0
 93
       13
 44
0.0
173
     0
291
     1
 45
0.0
1001
ACAD
1000
AcDbSavedByObjectVersion
1070
     0
  0
VISUALSTYLE
  5
2E
102
{ACAD_REACTORS
330
2A
102
}
330
2A
100
AcDbVisualStyle
  2
GouraudWithEdges
 70
     3
 71
     2
 72
     2
 73
     1
 90
        2
 40
-0.6
 41
30.0
 62
     5
 63
     7
 74
     1
 91
        4
 64
     7
 65
   257
 75
     1
175
     1
 42
1.0
 92
        0
 66
   257
 43
1.0
 76
     1
 77
     6
 78
     2
 67
     7
 79
     5
170
     0
171
     0
290
     0
174
     0
 93
       13
 44
0.0
173
     0
291
     1
 45
0.0
1001
ACAD
1000
AcDbSavedByObjectVersion
1070
     0
  0
VISUALSTYLE
  5
38
102
{ACAD_REACTORS
330
2A
102
}
330
2A
100
AcDbVisualStyle
  2
Linepattern
 70
    14
 71
     2
 72
     2
 73
     0
 90
        0
 40
-0.6
 41
-30.0
 62
     5
 63
     7
 74
     1
 91
        4
 64
     7
 65
   257
 75
     7
175
     7
 42
1.0
 92
        8
 66
     7
 43
1.0
 76
     1
 77
     6
 78
     2
 67
     7
 79
     5
170
     0
171
     0
290
     0
174
     0
 93
        1
 44
0.0
173
     0
291
     1
 45
0.0
1001
ACAD
1000
AcDbSavedByObjectVersion
1070
     0
  0
VISUALSTYLE
  5
33
102
{ACAD_REACTORS
330
2A
102
}
330
2A
100
AcDbVisualStyle
  2
Realistic
 70
     8
 71
     2
 72
     2
 73
     0
 90
        0
 40
-0.6
 41
-30.0
 62
     5
 63
     7
 74
     1
 91
        0
 64
     7
 65
   257
 75
     1
175
     1
 42
1.0
 92
        8
 66
     8
 43
1.0
 76
     1
 77
     6
 78
     2
 67
     7
 79
     5
170
     0
171
     0
290
     0
174
     0
 93
       13
 44
0.0
173
     0
291
     0
 45
0.0
1001
ACAD
1000
AcDbSavedByObjectVersion
1070
     0
  0
VISUALSTYLE
  5
37
102
{ACAD_REACTORS
330
2A
102
}
330
2A
100
AcDbVisualStyle
  2
Thicken
 70
    13
 71
     2
 72
     2
 73
     0
 90
        0
 40
-0.6
 41
-30.0
 62
     5
 63
     7
 74
     1
 91
        4
 64
     7
 65
   257
 75
     1
175
     1
 42
1.0
 92
       12
 66
     7
 43
1.0
 76
     1
 77
     6
 78
     2
 67
     7
 79
     5
170
     0
171
     0
290
     0
174
     0
 93
        1
 44
0.0
173
     0
291
     1
 45
0.0
1001
ACAD
1000
AcDbSavedByObjectVersion
1070
     0
  0
DICTIONARYVAR
  5
FF
102
{ACAD_REACTORS
330
FC
102
}
330
FC
100
DictionaryVariables
280
     0
  1
1:1
  0
ENDSEC
  0
EOF
