  0
SECTION
  2
HEADER
  9
$ACADVER
  1
AC1015
  9
$ACADMAINTVER
 70
     6
  9
$DWGCODEPAGE
  3
ANSI_1252
  9
$INSBASE
 10
0.0
 20
0.0
 30
0.0
  9
$EXTMIN
 10
51.2298923439208
 20
255.3526980987674
 30
0.0
  9
$EXTMAX
 10
294.6243292098491
 20
375.245377734626
 30
0.0
  9
$LIMMIN
 10
0.0
 20
0.0
  9
$LIMMAX
 10
12.0
 20
9.0
  9
$ORTHOMODE
 70
     0
  9
$REGENMODE
 70
     1
  9
$FILLMODE
 70
     1
  9
$QTEXTMODE
 70
     0
  9
$MIRRTEXT
 70
     1
  9
$LTSCALE
 40
1.0
  9
$ATTMODE
 70
     1
  9
$TEXTSIZE
 40
0.2
  9
$TRACEWID
 40
0.05
  9
$TEXTSTYLE
  7
Standard
  9
$CLAYER
  8
0
  9
$CELTYPE
  6
ByLayer
  9
$CECOLOR
 62
   256
  9
$CELTSCALE
 40
1.0
  9
$DISPSILH
 70
     0
  9
$DIMSCALE
 40
1.0
  9
$DIMASZ
 40
0.18
  9
$DIMEXO
 40
0.0625
  9
$DIMDLI
 40
0.38
  9
$DIMRND
 40
0.0
  9
$DIMDLE
 40
0.0
  9
$DIMEXE
 40
0.18
  9
$DIMTP
 40
0.0
  9
$DIMTM
 40
0.0
  9
$DIMTXT
 40
0.18
  9
$DIMCEN
 40
0.09
  9
$DIMTSZ
 40
0.0
  9
$DIMTOL
 70
     0
  9
$DIMLIM
 70
     0
  9
$DIMTIH
 70
     1
  9
$DIMTOH
 70
     1
  9
$DIMSE1
 70
     0
  9
$DIMSE2
 70
     0
  9
$DIMTAD
 70
     0
  9
$DIMZIN
 70
     0
  9
$DIMBLK
  1

  9
$DIMASO
 70
     1
  9
$DIMSHO
 70
     1
  9
$DIMPOST
  1

  9
$DIMAPOST
  1

  9
$DIMALT
 70
     0
  9
$DIMALTD
 70
     2
  9
$DIMALTF
 40
25.4
  9
$DIMLFAC
 40
1.0
  9
$DIMTOFL
 70
     0
  9
$DIMTVP
 40
0.0
  9
$DIMTIX
 70
     0
  9
$DIMSOXD
 70
     0
  9
$DIMSAH
 70
     0
  9
$DIMBLK1
  1

  9
$DIMBLK2
  1

  9
$DIMSTYLE
  2
Standard
  9
$DIMCLRD
 70
     0
  9
$DIMCLRE
 70
     0
  9
$DIMCLRT
 70
     0
  9
$DIMTFAC
 40
1.0
  9
$DIMGAP
 40
0.09
  9
$DIMJUST
 70
     0
  9
$DIMSD1
 70
     0
  9
$DIMSD2
 70
     0
  9
$DIMTOLJ
 70
     1
  9
$DIMTZIN
 70
     0
  9
$DIMALTZ
 70
     0
  9
$DIMALTTZ
 70
     0
  9
$DIMUPT
 70
     0
  9
$DIMDEC
 70
     4
  9
$DIMTDEC
 70
     4
  9
$DIMALTU
 70
     2
  9
$DIMALTTD
 70
     2
  9
$DIMTXSTY
  7
Standard
  9
$DIMAUNIT
 70
     0
  9
$DIMADEC
 70
     0
  9
$DIMALTRND
 40
0.0
  9
$DIMAZIN
 70
     0
  9
$DIMDSEP
 70
    46
  9
$DIMATFIT
 70
     3
  9
$DIMFRAC
 70
     0
  9
$DIMLDRBLK
  1

  9
$DIMLUNIT
 70
     2
  9
$DIMLWD
 70
    -2
  9
$DIMLWE
 70
    -2
  9
$DIMTMOVE
 70
     0
  9
$LUNITS
 70
     2
  9
$LUPREC
 70
     4
  9
$SKETCHINC
 40
0.1
  9
$FILLETRAD
 40
0.5
  9
$AUNITS
 70
     0
  9
$AUPREC
 70
     0
  9
$MENU
  1
.
  9
$ELEVATION
 40
0.0
  9
$PELEVATION
 40
0.0
  9
$THICKNESS
 40
0.0
  9
$LIMCHECK
 70
     0
  9
$CHAMFERA
 40
0.5
  9
$CHAMFERB
 40
0.5
  9
$CHAMFERC
 40
1.0
  9
$CHAMFERD
 40
0.0
  9
$SKPOLY
 70
     0
  9
$TDCREATE
 40
2456821.367695405
  9
$TDUCREATE
 40
2456821.284362072
  9
$TDUPDATE
 40
2456821.367695417
  9
$TDUUPDATE
 40
2456821.284362083
  9
$TDINDWG
 40
0.0000000116
  9
$TDUSRTIMER
 40
0.0000000116
  9
$USRTIMER
 70
     1
  9
$ANGBASE
 50
0.0
  9
$ANGDIR
 70
     0
  9
$PDMODE
 70
     0
  9
$PDSIZE
 40
0.0
  9
$PLINEWID
 40
0.0
  9
$SPLFRAME
 70
     0
  9
$SPLINETYPE
 70
     6
  9
$SPLINESEGS
 70
     8
  9
$HANDSEED
  5
100
  9
$SURFTAB1
 70
     6
  9
$SURFTAB2
 70
     6
  9
$SURFTYPE
 70
     6
  9
$SURFU
 70
     6
  9
$SURFV
 70
     6
  9
$UCSBASE
  2

  9
$UCSNAME
  2

  9
$UCSORG
 10
0.0
 20
0.0
 30
0.0
  9
$UCSXDIR
 10
1.0
 20
0.0
 30
0.0
  9
$UCSYDIR
 10
0.0
 20
1.0
 30
0.0
  9
$UCSORTHOREF
  2

  9
$UCSORTHOVIEW
 70
     0
  9
$UCSORGTOP
 10
0.0
 20
0.0
 30
0.0
  9
$UCSORGBOTTOM
 10
0.0
 20
0.0
 30
0.0
  9
$UCSORGLEFT
 10
0.0
 20
0.0
 30
0.0
  9
$UCSORGRIGHT
 10
0.0
 20
0.0
 30
0.0
  9
$UCSORGFRONT
 10
0.0
 20
0.0
 30
0.0
  9
$UCSORGBACK
 10
0.0
 20
0.0
 30
0.0
  9
$PUCSBASE
  2

  9
$PUCSNAME
  2

  9
$PUCSORG
 10
0.0
 20
0.0
 30
0.0
  9
$PUCSXDIR
 10
1.0
 20
0.0
 30
0.0
  9
$PUCSYDIR
 10
0.0
 20
1.0
 30
0.0
  9
$PUCSORTHOREF
  2

  9
$PUCSORTHOVIEW
 70
     0
  9
$PUCSORGTOP
 10
0.0
 20
0.0
 30
0.0
  9
$PUCSORGBOTTOM
 10
0.0
 20
0.0
 30
0.0
  9
$PUCSORGLEFT
 10
0.0
 20
0.0
 30
0.0
  9
$PUCSORGRIGHT
 10
0.0
 20
0.0
 30
0.0
  9
$PUCSORGFRONT
 10
0.0
 20
0.0
 30
0.0
  9
$PUCSORGBACK
 10
0.0
 20
0.0
 30
0.0
  9
$USERI1
 70
     0
  9
$USERI2
 70
     0
  9
$USERI3
 70
     0
  9
$USERI4
 70
     0
  9
$USERI5
 70
     0
  9
$USERR1
 40
16.5
  9
$USERR2
 40
0.0
  9
$USERR3
 40
0.0
  9
$USERR4
 40
0.0
  9
$USERR5
 40
0.0
  9
$WORLDVIEW
 70
     1
  9
$SHADEDGE
 70
     3
  9
$SHADEDIF
 70
    70
  9
$TILEMODE
 70
     1
  9
$MAXACTVP
 70
    64
  9
$PINSBASE
 10
0.0
 20
0.0
 30
0.0
  9
$PLIMCHECK
 70
     0
  9
$PEXTMIN
 10
1.00000000000000E+20
 20
1.00000000000000E+20
 30
1.00000000000000E+20
  9
$PEXTMAX
 10
-1.00000000000000E+20
 20
-1.00000000000000E+20
 30
-1.00000000000000E+20
  9
$PLIMMIN
 10
0.0
 20
0.0
  9
$PLIMMAX
 10
12.0
 20
9.0
  9
$UNITMODE
 70
     0
  9
$VISRETAIN
 70
     1
  9
$PLINEGEN
 70
     0
  9
$PSLTSCALE
 70
     1
  9
$TREEDEPTH
 70
  3020
  9
$CMLSTYLE
  2
Standard
  9
$CMLJUST
 70
     0
  9
$CMLSCALE
 40
1.0
  9
$PROXYGRAPHICS
 70
     1
  9
$MEASUREMENT
 70
     1
  9
$CELWEIGHT
370
    -1
  9
$ENDCAPS
280
     0
  9
$JOINSTYLE
280
     0
  9
$LWDISPLAY
290
     0
  9
$INSUNITS
 70
     1
  9
$HYPERLINKBASE
  1

  9
$STYLESHEET
  1

  9
$XEDIT
290
     1
  9
$CEPSNTYPE
380
     0
  9
$PSTYLEMODE
290
     1
  9
$FINGERPRINTGUID
  2
{4841D41A-7FB9-4035-B241-464811FC0C7F}
  9
$VERSIONGUID
  2
{FAEB1C32-E019-11D5-929B-00C0DF256EC4}
  9
$EXTNAMES
290
     1
  9
$PSVPSCALE
 40
0.0
  9
$OLESTARTUP
290
     0
  0
ENDSEC
  0
SECTION
  2
CLASSES
  0
CLASS
  1
ACDBDICTIONARYWDFLT
  2
AcDbDictionaryWithDefault
  3
ObjectDBX Classes
 90
        0
280
     0
281
     0
  0
CLASS
  1
VISUALSTYLE
  2
AcDbVisualStyle
  3
ObjectDBX Classes
 90
     4095
280
     0
281
     0
  0
CLASS
  1
SCALE
  2
AcDbScale
  3
ObjectDBX Classes
 90
     1153
280
     0
281
     0
  0
CLASS
  1

  2
exOdDbPolyline
  3

 90
        0
280
     0
281
     1
  0
CLASS
  1

  2
exOdDbSpline
  3

 90
        0
280
     0
281
     1
  0
CLASS
  1
DICTIONARYVAR
  2
AcDbDictionaryVar
  3
ObjectDBX Classes
 90
        0
280
     0
281
     0
  0
CLASS
  1
ACDBPLACEHOLDER
  2
AcDbPlaceHolder
  3
ObjectDBX Classes
 90
        0
280
     0
281
     0
  0
CLASS
  1
LAYOUT
  2
AcDbLayout
  3
ObjectDBX Classes
 90
        0
280
     0
281
     0
  0
ENDSEC
  0
SECTION
  2
TABLES
  0
TABLE
  2
VPORT
  5
8
330
0
100
AcDbSymbolTable
 70
     1
  0
VPORT
  5
29
330
8
100
AcDbSymbolTableRecord
100
AcDbViewportTableRecord
  2
*Active
 70
     0
 10
0.0
 20
0.0
 11
1.0
 21
1.0
 12
172.927110776885
 22
315.2990379166967
 13
0.0
 23
0.0
 14
0.5
 24
0.5
 15
0.5
 25
0.5
 16
0.0
 26
0.0
 36
1.0
 17
0.0
 27
0.0
 37
0.0
 40
167.0540090355564
 41
1.60267857142857
 42
50.0
 43
0.0
 44
0.0
 50
0.0
 51
0.0
 71
     0
 72
   100
 73
     1
 74
     3
 75
     0
 76
     0
 77
     0
 78
     0
281
     0
 65
     1
110
0.0
120
0.0
130
0.0
111
1.0
121
0.0
131
0.0
112
0.0
122
1.0
132
0.0
 79
     0
146
0.0
  0
ENDTAB
  0
TABLE
  2
LTYPE
  5
5
330
0
100
AcDbSymbolTable
 70
     8
  0
LTYPE
  5
14
330
5
100
AcDbSymbolTableRecord
100
AcDbLinetypeTableRecord
  2
ByBlock
 70
     0
  3

 72
    65
 73
     0
 40
0.0
  0
LTYPE
  5
15
330
5
100
AcDbSymbolTableRecord
100
AcDbLinetypeTableRecord
  2
ByLayer
 70
     0
  3

 72
    65
 73
     0
 40
0.0
  0
LTYPE
  5
16
330
5
100
AcDbSymbolTableRecord
100
AcDbLinetypeTableRecord
  2
Continuous
 70
     0
  3
Solid line
 72
    65
 73
     0
 40
0.0
  0
LTYPE
  5
3B
330
5
100
AcDbSymbolTableRecord
100
AcDbLinetypeTableRecord
  2
DASHED
 70
     0
  3
Dashed
 72
    65
 73
     2
 40
15.0
 49
7.0
 74
     0
 49
-8.0
 74
     0
  0
LTYPE
  5
3C
330
5
100
AcDbSymbolTableRecord
100
AcDbLinetypeTableRecord
  2
DOTTED
 70
     0
  3
Dotted
 72
    65
 73
     2
 40
1.0
 49
0.0
 74
     0
 49
-1.0
 74
     0
  0
LTYPE
  5
3D
330
5
100
AcDbSymbolTableRecord
100
AcDbLinetypeTableRecord
  2
DOT_CENTER
 70
     0
  3
Dot_Center
 72
    65
 73
     4
 40
14.0
 49
12.0
 74
     0
 49
-1.0
 74
     0
 49
0.0
 74
     0
 49
-1.0
 74
     0
  0
LTYPE
  5
3E
330
5
100
AcDbSymbolTableRecord
100
AcDbLinetypeTableRecord
  2
LONG_DASHED
 70
     0
  3
Long_Dashed
 72
    65
 73
     2
 40
15.0
 49
10.0
 74
     0
 49
-5.0
 74
     0
  0
LTYPE
  5
3F
330
5
100
AcDbSymbolTableRecord
100
AcDbLinetypeTableRecord
  2
DASH_CENTER
 70
     0
  3
Dash_Center
 72
    65
 73
     4
 40
14.0
 49
11.0
 74
     0
 49
-1.0
 74
     0
 49
1.0
 74
     0
 49
-1.0
 74
     0
  0
LTYPE
  5
40
330
5
100
AcDbSymbolTableRecord
100
AcDbLinetypeTableRecord
  2
PHANTOM
 70
     0
  3
Phantom
 72
    65
 73
     6
 40
13.0
 49
10.0
 74
     0
 49
-1.0
 74
     0
 49
0.0
 74
     0
 49
-1.0
 74
     0
 49
0.0
 74
     0
 49
-1.0
 74
     0
  0
LTYPE
  5
41
330
5
100
AcDbSymbolTableRecord
100
AcDbLinetypeTableRecord
  2
CENTER_DASH_DASH
 70
     0
  3
Center_Dash_Dash
 72
    65
 73
     6
 40
14.0
 49
9.0
 74
     0
 49
-1.0
 74
     0
 49
1.0
 74
     0
 49
-1.0
 74
     0
 49
1.0
 74
     0
 49
-1.0
 74
     0
  0
ENDTAB
  0
TABLE
  2
LAYER
  5
2
330
0
100
AcDbSymbolTable
 70
     6
  0
LAYER
  5
10
330
2
100
AcDbSymbolTableRecord
100
AcDbLayerTableRecord
  2
0
 70
     0
 62
     7
  6
Continuous
370
    -3
390
F
  0
LAYER
  5
42
330
2
100
AcDbSymbolTableRecord
100
AcDbLayerTableRecord
  2
1
 70
     0
 62
     7
  6
Continuous
370
    -3
390
F
  0
LAYER
  5
43
330
2
100
AcDbSymbolTableRecord
100
AcDbLayerTableRecord
  2
BEZUGSACHSEN
 70
     0
 62
     7
  6
Continuous
370
    -3
390
F
  0
LAYER
  5
44
330
2
100
AcDbSymbolTableRecord
100
AcDbLayerTableRecord
  2
DEFAULT_2
 70
     0
 62
     7
  6
Continuous
370
    -3
390
F
  0
LAYER
  5
45
330
2
100
AcDbSymbolTableRecord
100
AcDbLayerTableRecord
  2
RUNDUNGEN
 70
     0
 62
     7
  6
Continuous
370
    -3
390
F
  0
LAYER
  5
46
330
2
100
AcDbSymbolTableRecord
100
AcDbLayerTableRecord
  2
TEIL_STARTBEZUEGE
 70
     0
 62
     7
  6
Continuous
370
    -3
390
F
  0
ENDTAB
  0
TABLE
  2
STYLE
  5
3
330
0
100
AcDbSymbolTable
 70
     2
  0
STYLE
  5
11
330
3
100
AcDbSymbolTableRecord
100
AcDbTextStyleTableRecord
  2
Standard
 70
     0
 40
0.0
 41
1.0
 50
0.0
 71
     0
 42
0.2
  3
txt
  4

  0
STYLE
  5
6D
330
3
100
AcDbSymbolTableRecord
100
AcDbTextStyleTableRecord
  2
CONVERTER_11
 70
     0
 40
0.0
 41
0.72
 50
0.0
 71
     0
 42
0.2
  3
txt.shx
  4

  0
ENDTAB
  0
TABLE
  2
VIEW
  5
6
330
0
100
AcDbSymbolTable
 70
     0
  0
ENDTAB
  0
TABLE
  2
UCS
  5
7
330
0
100
AcDbSymbolTable
 70
     0
  0
ENDTAB
  0
TABLE
  2
APPID
  5
9
330
0
100
AcDbSymbolTable
 70
     1
  0
APPID
  5
12
330
9
100
AcDbSymbolTableRecord
100
AcDbRegAppTableRecord
  2
ACAD
 70
     0
  0
ENDTAB
  0
TABLE
  2
DIMSTYLE
  5
A
330
0
100
AcDbSymbolTable
 70
     6
100
AcDbDimStyleTable
  0
DIMSTYLE
105
27
330
A
100
AcDbSymbolTableRecord
100
AcDbDimStyleTableRecord
  2
Standard
 70
     0
340
11
  0
DIMSTYLE
105
C7
102
{ACAD_REACTORS
330
C8
102
}
330
A
100
AcDbSymbolTableRecord
100
AcDbDimStyleTableRecord
  2
ME10_DIM_10
 70
     0
  3
<>
 41
3.5
 42
2.0
 44
2.0
 71
     1
 73
     0
 74
     0
 77
     1
 78
     8
140
3.5
146
0.7
147
2.0
172
     1
173
     1
176
     2
177
     2
178
     3
271
     2
272
     0
340
6D
  0
DIMSTYLE
105
D2
102
{ACAD_REACTORS
330
D3
102
}
330
A
100
AcDbSymbolTableRecord
100
AcDbDimStyleTableRecord
  2
ME10_DIM_11
 70
     0
  3
<>
 41
3.5
 42
2.0
 44
2.0
 71
     1
 73
     0
 74
     0
 77
     1
 78
     8
140
3.5
146
0.7
147
2.0
172
     1
173
     1
176
     2
177
     2
178
     3
271
     2
272
     0
340
6D
  0
DIMSTYLE
105
DD
102
{ACAD_REACTORS
330
DE
102
}
330
A
100
AcDbSymbolTableRecord
100
AcDbDimStyleTableRecord
  2
ME10_DIM_12
 70
     0
  3
<>
 41
3.5
 42
2.0
 44
2.0
 71
     1
 73
     0
 74
     0
 77
     1
 78
     8
140
3.5
146
0.7
147
2.0
172
     1
173
     1
176
     2
177
     2
178
     3
271
     2
272
     0
340
6D
  0
DIMSTYLE
105
E8
102
{ACAD_REACTORS
330
E9
102
}
330
A
100
AcDbSymbolTableRecord
100
AcDbDimStyleTableRecord
  2
ME10_DIM_13
 70
     0
  3
\U+2300<>
 41
3.5
 42
2.0
 44
2.0
 71
     1
 73
     0
 74
     0
 77
     1
 78
     8
140
3.5
146
0.7
147
2.0
172
     1
173
     1
176
     2
177
     2
178
     3
271
     2
272
     0
340
6D
  0
DIMSTYLE
105
F3
102
{ACAD_REACTORS
330
F4
102
}
330
A
100
AcDbSymbolTableRecord
100
AcDbDimStyleTableRecord
  2
ME10_DIM_14
 70
     0
  3
\U+2300<>
 41
3.5
 42
2.0
 44
2.0
 71
     1
 73
     0
 74
     0
 77
     1
 78
     8
140
3.5
146
0.7
147
2.0
172
     1
173
     1
176
     2
177
     2
178
     3
271
     2
272
     0
340
6D
  0
ENDTAB
  0
TABLE
  2
BLOCK_RECORD
  5
1
330
0
100
AcDbSymbolTable
 70
     8
  0
BLOCK_RECORD
  5
1F
330
1
100
AcDbSymbolTableRecord
100
AcDbBlockTableRecord
  2
*Model_Space
340
22
  0
BLOCK_RECORD
  5
1B
330
1
100
AcDbSymbolTableRecord
100
AcDbBlockTableRecord
  2
*Paper_Space
340
1E
  0
BLOCK_RECORD
  5
23
330
1
100
AcDbSymbolTableRecord
100
AcDbBlockTableRecord
  2
*Paper_Space0
340
26
  0
BLOCK_RECORD
  5
47
330
1
100
AcDbSymbolTableRecord
100
AcDbBlockTableRecord
  2
Urheberrecht_DE-EN
340
0
102
{BLKREFS
331
6C
102
}
  0
BLOCK_RECORD
  5
BE
330
1
100
AcDbSymbolTableRecord
100
AcDbBlockTableRecord
  2
*D2
340
0
  0
BLOCK_RECORD
  5
C9
330
1
100
AcDbSymbolTableRecord
100
AcDbBlockTableRecord
  2
*D3
340
0
  0
BLOCK_RECORD
  5
D4
330
1
100
AcDbSymbolTableRecord
100
AcDbBlockTableRecord
  2
*D4
340
0
  0
BLOCK_RECORD
  5
DF
330
1
100
AcDbSymbolTableRecord
100
AcDbBlockTableRecord
  2
*D5
340
0
  0
BLOCK_RECORD
  5
EA
330
1
100
AcDbSymbolTableRecord
100
AcDbBlockTableRecord
  2
*D6
340
0
  0
BLOCK_RECORD
  5
F5
330
1
100
AcDbSymbolTableRecord
100
AcDbBlockTableRecord
  2
*D7
340
0
102
{BLKREFS
331
FB
102
}
  0
ENDTAB
  0
ENDSEC
  0
SECTION
  2
BLOCKS
  0
BLOCK
  5
20
330
1F
100
AcDbEntity
  8
0
100
AcDbBlockBegin
  2
*Model_Space
 70
     0
 10
0.0
 20
0.0
 30
0.0
  3
*Model_Space
  1

  0
ENDBLK
  5
21
330
1F
100
AcDbEntity
  8
0
100
AcDbBlockEnd
  0
BLOCK
  5
1C
330
1B
100
AcDbEntity
 67
     1
  8
0
100
AcDbBlockBegin
  2
*Paper_Space
 70
     0
 10
0.0
 20
0.0
 30
0.0
  3
*Paper_Space
  1

  0
ENDBLK
  5
1D
330
1B
100
AcDbEntity
 67
     1
  8
0
100
AcDbBlockEnd
  0
BLOCK
  5
24
330
23
100
AcDbEntity
  8
0
100
AcDbBlockBegin
  2
*Paper_Space0
 70
     0
 10
0.0
 20
0.0
 30
0.0
  3
*Paper_Space0
  1

  0
ENDBLK
  5
25
330
23
100
AcDbEntity
  8
0
100
AcDbBlockEnd
  0
BLOCK
  5
48
330
47
100
AcDbEntity
  8
0
100
AcDbBlockBegin
  2
Urheberrecht_DE-EN
 70
     0
 10
65.2298923439208
 20
315.220655102742
 30
0.0
  3
Urheberrecht_DE-EN
  1

  0
MTEXT
  5
6E
330
47
100
AcDbEntity
  8
1
 62
     1
100
AcDbMText
 10
65.2298923439208
 20
258.9312681854358
 30
0.0
 40
2.0
 41
0.0
 71
     7
 72
     1
  1
F\U+00fcr diese Unterlage behalten wir das Ur-\Pheberrecht. Sie darf nur f\U+00fcr den von uns \Pbestimmten Zweck benutzt und ohne unsere \PZustimmung weder vervielf\U+00e4ltigt noch\PDritten zug\U+00e4nglich gemacht werden.
  7
CONVERTER_11
 11
0.0
 21
1.0
 31
0.0
 73
     1
 44
0.90036014405762
  0
MTEXT
  5
6F
330
47
100
AcDbEntity
  8
1
 62
     1
100
AcDbMText
 10
65.2298923439208
 20
315.220655102742
 30
0.0
 40
2.0
 41
0.0
 71
     7
 72
     1
  1
We own the copyright of this document. It \Pdetermined and may neither be copied or \Pmade accessible to outsiders without our\Ppermission.
  7
CONVERTER_11
 11
0.0
 21
1.0
 31
0.0
 73
     1
 44
0.90036014405762
  0
ENDBLK
  5
49
330
47
100
AcDbEntity
  8
0
100
AcDbBlockEnd
  0
BLOCK
  5
C5
330
BE
100
AcDbEntity
  8
0
100
AcDbBlockBegin
  2
*D2
 70
     1
 10
0.0
 20
0.0
 30
0.0
  3
*D2
  1

  0
LINE
  5
BF
330
BE
100
AcDbEntity
  8
1
  6
Continuous
 62
     2
100
AcDbLine
 10
70.47837188150001
 20
369.745377734626
 30
0.0
 11
272.2283718815
 21
369.745377734626
 31
0.0
  0
LINE
  5
C0
330
BE
100
AcDbEntity
  8
1
  6
Continuous
 62
     2
100
AcDbLine
 10
70.47837188150001
 20
322.5271102489
 30
0.0
 11
70.47837188150001
 21
371.745377734626
 31
0.0
  0
LINE
  5
C1
330
BE
100
AcDbEntity
  8
1
  6
Continuous
 62
     2
100
AcDbLine
 10
272.2283718815
 20
320.2827594791
 30
0.0
 11
272.2283718815
 21
371.745377734626
 31
0.0
  0
SOLID
  5
C2
330
BE
100
AcDbEntity
  8
1
 62
     2
100
AcDbTrace
 10
73.97837188150001
 20
370.2061614761819
 30
0.0
 11
73.97837188150001
 21
369.2845939930701
 31
0.0
 12
70.47837188150001
 22
369.745377734626
 32
0.0
 13
70.47837188150001
 23
369.745377734626
 33
0.0
  0
SOLID
  5
C3
330
BE
100
AcDbEntity
  8
1
 62
     2
100
AcDbTrace
 10
268.7283718815
 20
369.2845939930701
 30
0.0
 11
268.7283718815
 21
370.2061614761819
 31
0.0
 12
272.2283718815
 22
369.745377734626
 32
0.0
 13
272.2283718815
 23
369.745377734626
 33
0.0
  0
MTEXT
  5
C4
330
BE
100
AcDbEntity
  8
1
 62
     3
100
AcDbMText
 10
181.3126540883171
 20
371.745377734626
 30
0.0
 40
3.5
 41
0.0
 71
     7
 72
     1
  1
\C3;\C3;\C3;201.75\C2;\H2.45;\S^ ;\C3;
  7
CONVERTER_11
 11
0.9999999999970619
 21
2.424068405545306E-6
 31
0.0
 73
     1
 44
0.60024009603842
  0
ENDBLK
  5
C6
330
BE
100
AcDbEntity
  8
0
100
AcDbBlockEnd
  0
BLOCK
  5
D0
330
C9
100
AcDbEntity
  8
0
100
AcDbBlockBegin
  2
*D3
 70
     1
 10
0.0
 20
0.0
 30
0.0
  3
*D3
  1

  0
LINE
  5
CA
330
C9
100
AcDbEntity
  8
1
  6
Continuous
 62
     2
100
AcDbLine
 10
272.2283718815
 20
361.787715512675
 30
0.0
 11
172.2283718815
 21
361.787715512675
 31
0.0
  0
LINE
  5
CB
330
C9
100
AcDbEntity
  8
1
  6
Continuous
 62
     2
100
AcDbLine
 10
272.2283718815
 20
320.2827594791
 30
0.0
 11
272.2283718815
 21
363.787715512675
 31
0.0
  0
LINE
  5
CC
330
C9
100
AcDbEntity
  8
1
  6
Continuous
 62
     2
100
AcDbLine
 10
172.2283718815
 20
345.8031632478
 30
0.0
 11
172.2283718815
 21
363.787715512675
 31
0.0
  0
SOLID
  5
CD
330
C9
100
AcDbEntity
  8
1
 62
     2
100
AcDbTrace
 10
268.7283718815
 20
361.3269317711191
 30
0.0
 11
268.7283718815
 21
362.2484992542309
 31
0.0
 12
272.2283718815
 22
361.787715512675
 32
0.0
 13
272.2283718815
 23
361.787715512675
 33
0.0
  0
SOLID
  5
CE
330
C9
100
AcDbEntity
  8
1
 62
     2
100
AcDbTrace
 10
175.7283718815
 20
362.2484992542309
 30
0.0
 11
175.7283718815
 21
361.3269317711191
 31
0.0
 12
172.2283718815
 22
361.787715512675
 32
0.0
 13
172.2283718815
 23
361.787715512675
 33
0.0
  0
MTEXT
  5
CF
330
C9
100
AcDbEntity
  8
1
 62
     3
100
AcDbMText
 10
219.0922205405921
 20
363.787715512675
 30
0.0
 40
3.5
 41
0.0
 71
     7
 72
     1
  1
\C3;\C3;\C3;100\C2;\H2.45;\S^ ;\C3;
  7
CONVERTER_11
 11
0.9999999999970619
 21
2.424068405545306E-6
 31
0.0
 73
     1
 44
0.60024009603842
  0
ENDBLK
  5
D1
330
C9
100
AcDbEntity
  8
0
100
AcDbBlockEnd
  0
BLOCK
  5
DB
330
D4
100
AcDbEntity
  8
0
100
AcDbBlockBegin
  2
*D4
 70
     1
 10
0.0
 20
0.0
 30
0.0
  3
*D4
  1

  0
LINE
  5
D5
330
D4
100
AcDbEntity
  8
1
  6
Continuous
 62
     2
100
AcDbLine
 10
272.2283718815001
 20
354.41950975161
 30
0.0
 11
191.3283718815
 21
354.41950975161
 31
0.0
  0
LINE
  5
D6
330
D4
100
AcDbEntity
  8
1
  6
Continuous
 62
     2
100
AcDbLine
 10
272.2283718815001
 20
320.2827594791
 30
0.0
 11
272.2283718815001
 21
356.41950975161
 31
0.0
  0
LINE
  5
D7
330
D4
100
AcDbEntity
  8
1
  6
Continuous
 62
     2
100
AcDbLine
 10
191.3283718815
 20
350.3271569816
 30
0.0
 11
191.3283718815
 21
356.41950975161
 31
0.0
  0
SOLID
  5
D8
330
D4
100
AcDbEntity
  8
1
 62
     2
100
AcDbTrace
 10
268.7283718815001
 20
353.9587260100541
 30
0.0
 11
268.7283718815001
 21
354.8802934931659
 31
0.0
 12
272.2283718815001
 22
354.41950975161
 32
0.0
 13
272.2283718815001
 23
354.41950975161
 33
0.0
  0
SOLID
  5
D9
330
D4
100
AcDbEntity
  8
1
 62
     2
100
AcDbTrace
 10
194.8283718815
 20
354.8802934931659
 30
0.0
 11
194.8283718815
 21
353.9587260100541
 31
0.0
 12
191.3283718815
 22
354.41950975161
 32
0.0
 13
191.3283718815
 23
354.41950975161
 33
0.0
  0
MTEXT
  5
DA
330
D4
100
AcDbEntity
  8
1
 62
     3
100
AcDbMText
 10
227.0209187241615
 20
356.41950975161
 30
0.0
 40
3.5
 41
0.0
 71
     7
 72
     1
  1
\C3;\C3;\C3;80.9\C2;\H2.45;\S^ ;\C3;
  7
CONVERTER_11
 11
0.9999999999970619
 21
2.424068405545306E-6
 31
0.0
 73
     1
 44
0.60024009603842
  0
ENDBLK
  5
DC
330
D4
100
AcDbEntity
  8
0
100
AcDbBlockEnd
  0
BLOCK
  5
E6
330
DF
100
AcDbEntity
  8
0
100
AcDbBlockBegin
  2
*D5
 70
     1
 10
0.0
 20
0.0
 30
0.0
  3
*D5
  1

  0
LINE
  5
E0
330
DF
100
AcDbEntity
  8
1
  6
Continuous
 62
     2
100
AcDbLine
 10
292.6243292098491
 20
326.3656632478
 30
0.0
 11
292.6243292098491
 21
278.3656632478
 31
0.0
  0
LINE
  5
E1
330
DF
100
AcDbEntity
  8
1
  6
Continuous
 62
     2
100
AcDbLine
 10
260.9604226891001
 20
326.3656632478
 30
0.0
 11
294.6243292098491
 21
326.3656632478
 31
0.0
  0
LINE
  5
E2
330
DF
100
AcDbEntity
  8
1
  6
Continuous
 62
     2
100
AcDbLine
 10
260.9604226891
 20
278.3656632478
 30
0.0
 11
294.6243292098491
 21
278.3656632478
 31
0.0
  0
SOLID
  5
E3
330
DF
100
AcDbEntity
  8
1
 62
     2
100
AcDbTrace
 10
293.085112951405
 20
322.8656632478
 30
0.0
 11
292.1635454682933
 21
322.8656632478
 31
0.0
 12
292.6243292098491
 22
326.3656632478
 32
0.0
 13
292.6243292098491
 23
326.3656632478
 33
0.0
  0
SOLID
  5
E4
330
DF
100
AcDbEntity
  8
1
 62
     2
100
AcDbTrace
 10
292.1635454682933
 20
281.8656632478
 30
0.0
 11
293.085112951405
 21
281.8656632478
 31
0.0
 12
292.6243292098491
 22
278.3656632478
 32
0.0
 13
292.6243292098491
 23
278.3656632478
 33
0.0
  0
MTEXT
  5
E5
330
DF
100
AcDbEntity
  8
1
 62
     3
100
AcDbMText
 10
290.6243292098491
 20
293.250248848046
 30
0.0
 40
3.5
 41
0.0
 71
     7
 72
     1
  1
\C3;%%c\C3;\C3;48\C2;\H2.45;\S^ ;\C3;
  7
CONVERTER_11
 11
0.0
 21
1.0
 31
0.0
 73
     1
 44
0.60024009603842
  0
ENDBLK
  5
E7
330
DF
100
AcDbEntity
  8
0
100
AcDbBlockEnd
  0
BLOCK
  5
F1
330
EA
100
AcDbEntity
  8
0
100
AcDbBlockBegin
  2
*D6
 70
     1
 10
0.0
 20
0.0
 30
0.0
  3
*D6
  1

  0
LINE
  5
EB
330
EA
100
AcDbEntity
  8
1
  6
Continuous
 62
     2
100
AcDbLine
 10
284.077210527013
 20
311.3656632478
 30
0.0
 11
284.077210527013
 21
293.3656632478
 31
0.0
  0
LINE
  5
EC
330
EA
100
AcDbEntity
  8
1
  6
Continuous
 62
     2
100
AcDbLine
 10
274.2283718815
 20
311.3656632478
 30
0.0
 11
286.077210527013
 21
311.3656632478
 31
0.0
  0
LINE
  5
ED
330
EA
100
AcDbEntity
  8
1
  6
Continuous
 62
     2
100
AcDbLine
 10
274.2283718815
 20
293.3656632478
 30
0.0
 11
286.077210527013
 21
293.3656632478
 31
0.0
  0
SOLID
  5
EE
330
EA
100
AcDbEntity
  8
1
 62
     2
100
AcDbTrace
 10
284.5379942685689
 20
307.8656632478
 30
0.0
 11
283.6164267854571
 21
307.8656632478
 31
0.0
 12
284.077210527013
 22
311.3656632478
 32
0.0
 13
284.077210527013
 23
311.3656632478
 33
0.0
  0
SOLID
  5
EF
330
EA
100
AcDbEntity
  8
1
 62
     2
100
AcDbTrace
 10
283.6164267854571
 20
296.8656632478
 30
0.0
 11
284.5379942685689
 21
296.8656632478
 31
0.0
 12
284.077210527013
 22
293.3656632478
 32
0.0
 13
284.077210527013
 23
293.3656632478
 33
0.0
  0
MTEXT
  5
F0
330
EA
100
AcDbEntity
  8
1
 62
     3
100
AcDbMText
 10
282.077210527013
 20
293.375520617603
 30
0.0
 40
3.5
 41
0.0
 71
     7
 72
     1
  1
\C3;%%c\C3;\C3;18\C2;\H2.45;\S^ ;\C3;
  7
CONVERTER_11
 11
0.0
 21
1.0
 31
0.0
 73
     1
 44
0.60024009603842
  0
ENDBLK
  5
F2
330
EA
100
AcDbEntity
  8
0
100
AcDbBlockEnd
  0
BLOCK
  5
F9
330
F5
100
AcDbEntity
  8
0
100
AcDbBlockBegin
  2
*D7
 70
     1
 10
0.0
 20
0.0
 30
0.0
  3
*D7
  1

  0
LINE
  5
F6
330
F5
100
AcDbEntity
  8
1
  6
Continuous
 62
     2
100
AcDbLine
 10
205.3573056290012
 20
340.0054938270434
 30
0.0
 11
197.6126717493491
 21
329.1576097089912
 31
0.0
  0
SOLID
  5
F7
330
F5
100
AcDbEntity
  8
1
 62
     2
100
AcDbTrace
 10
199.2713169410692
 20
332.273892395858
 30
0.0
 11
200.0213532859661
 21
331.7384186735685
 31
0.0
 12
197.6126717493491
 22
329.1576097089912
 32
0.0
 13
197.6126717493491
 23
329.1576097089912
 33
0.0
  0
MTEXT
  5
F8
330
F5
100
AcDbEntity
  8
1
 62
     3
100
AcDbMText
 10
198.4420404103218
 20
333.7613680311194
 30
0.0
 40
3.5
 41
0.0
 71
     7
 72
     1
  1
\C3; R\C3;\C3;15\C2;\H2.45;\S^ ;\C3;
  7
CONVERTER_11
 11
0.5810466754767284
 21
0.8138702359205928
 31
0.0
 73
     1
 44
0.60024009603842
  0
ENDBLK
  5
FA
330
F5
100
AcDbEntity
  8
0
100
AcDbBlockEnd
  0
ENDSEC
  0
SECTION
  2
ENTITIES
  0
INSERT
  5
6C
330
1F
100
AcDbEntity
  8
0
100
AcDbBlockReference
  2
Urheberrecht_DE-EN
 10
65.2298923439208
 20
315.220655102742
 30
0.0
  0
LWPOLYLINE
  5
70
330
1F
100
AcDbEntity
  8
BEZUGSACHSEN
  6
DASHED
 62
     8
100
AcDbPolyline
 90
        2
 70
     0
 43
0.35
 10
241.2283718815
 20
311.3656632478
 10
241.2283718815
 20
326.3656632478
  0
LWPOLYLINE
  5
71
330
1F
100
AcDbEntity
  8
BEZUGSACHSEN
  6
DASHED
 62
     8
100
AcDbPolyline
 90
        2
 70
     0
 43
0.35
 10
255.2283718815
 20
311.3656632478
 10
255.2283718815
 20
326.3656632478
  0
LINE
  5
72
330
1F
100
AcDbEntity
  8
RUNDUNGEN
  6
Continuous
 62
     7
100
AcDbLine
 10
272.2283718815
 20
286.4485670164
 30
0.0
 11
272.2283718815
 21
318.2827594791
 31
0.0
  0
LINE
  5
73
330
1F
100
AcDbEntity
  8
RUNDUNGEN
  6
Continuous
 62
     9
100
AcDbLine
 10
271.7283718815
 20
285.5825416126
 30
0.0
 11
271.7283718815
 21
319.1487848829
 31
0.0
  0
LINE
  5
74
330
1F
100
AcDbEntity
  8
RUNDUNGEN
  6
Continuous
 62
     9
100
AcDbLine
 10
259.4604226891
 20
278.499637844
 30
0.0
 11
259.4604226891
 21
326.2316886515
 31
0.0
  0
LINE
  5
75
330
1F
100
AcDbEntity
  8
RUNDUNGEN
  6
Continuous
 62
     9
100
AcDbLine
 10
258.9604226891
 20
278.3656632478
 30
0.0
 11
258.9604226891
 21
326.3656632478
 31
0.0
  0
LWPOLYLINE
  5
76
330
1F
100
AcDbEntity
  8
BEZUGSACHSEN
  6
DASHED
 62
     8
100
AcDbPolyline
 90
        2
 70
     0
 43
0.35
 10
254.2283718815
 20
311.3656632478
 10
254.2283718815
 20
326.3656632478
  0
LWPOLYLINE
  5
77
330
1F
100
AcDbEntity
  8
BEZUGSACHSEN
  6
DOT_CENTER
 62
     7
100
AcDbPolyline
 90
        2
 70
     0
 43
0.25
 10
248.2283718815
 20
329.3656632478
 10
248.2283718815
 20
306.0704355929
  0
LINE
  5
78
330
1F
100
AcDbEntity
  8
0
  6
Continuous
 62
     7
100
AcDbLine
 10
259.4604226891
 20
326.2316886515
 30
0.0
 11
271.7283718815
 21
319.1487848829
 31
0.0
  0
LINE
  5
79
330
1F
100
AcDbEntity
  8
RUNDUNGEN
  6
Continuous
 62
     7
100
AcDbLine
 10
271.7283718815
 20
319.1487848829
 30
0.0
 11
259.4604226891
 21
326.2316886515
 31
0.0
  0
LINE
  5
7A
330
1F
100
AcDbEntity
  8
0
  6
Continuous
 62
     7
100
AcDbLine
 10
259.4604226891
 20
278.499637844
 30
0.0
 11
271.7283718815
 21
285.5825416126
 31
0.0
  0
LWPOLYLINE
  5
7B
330
1F
100
AcDbEntity
  8
BEZUGSACHSEN
  6
DASHED
 62
     8
100
AcDbPolyline
 90
        2
 70
     0
 43
0.35
 10
242.2283718815
 20
311.3656632478
 10
242.2283718815
 20
326.3656632478
  0
LINE
  5
7C
330
1F
100
AcDbEntity
  8
0
  6
Continuous
 62
     7
100
AcDbLine
 10
186.6437502673
 20
349.3649601175
 30
0.0
 11
190.3283718815
 21
349.3649601175
 31
0.0
  0
LINE
  5
7D
330
1F
100
AcDbEntity
  8
0
  6
Continuous
 62
     7
100
AcDbLine
 10
176.4283718815
 20
349.3649601175
 30
0.0
 11
180.1629934957
 21
349.3649601175
 31
0.0
  0
LINE
  5
7E
330
1F
100
AcDbEntity
  8
0
  6
Continuous
 62
     7
100
AcDbLine
 10
182.2408718815
 20
345.9986782708
 30
0.0
 11
184.5658718815
 21
345.9986782708
 31
0.0
  0
LINE
  5
7F
330
1F
100
AcDbEntity
  8
RUNDUNGEN
  6
Continuous
 62
     9
100
AcDbLine
 10
206.3283718815
 20
326.3656632478
 30
0.0
 11
206.3283718815
 21
278.3656632478
 31
0.0
  0
LINE
  5
80
330
1F
100
AcDbEntity
  8
0
  6
Continuous
 62
     7
100
AcDbLine
 10
172.7783718815
 20
336.9406632478
 30
0.0
 11
171.7386895483
 21
337.2192452893
 31
0.0
  0
LINE
  5
81
330
1F
100
AcDbEntity
  8
0
  6
Continuous
 62
     7
100
AcDbLine
 10
175.4283718815
 20
337.6656632478
 30
0.0
 11
175.3898161076
 21
337.6656632478
 31
0.0
  0
LINE
  5
82
330
1F
100
AcDbEntity
  8
0
  6
Continuous
 62
     7
100
AcDbLine
 10
174.4283718815
 20
336.9406632478
 30
0.0
 11
172.7783718815
 21
336.9406632478
 31
0.0
  0
LINE
  5
83
330
1F
100
AcDbEntity
  8
0
  6
Continuous
 62
     7
100
AcDbLine
 10
191.3283718815
 20
348.3271569816
 30
0.0
 11
191.3283718815
 21
341.3656632478
 31
0.0
  0
LINE
  5
84
330
1F
100
AcDbEntity
  8
0
  6
Continuous
 62
     9
100
AcDbLine
 10
190.3283718815
 20
349.3649601175
 30
0.0
 11
190.3283718815
 21
255.366366378
 31
0.0
  0
LINE
  5
85
330
1F
100
AcDbEntity
  8
0
  6
Continuous
 62
     7
100
AcDbLine
 10
186.6437502673
 20
349.3649601175
 30
0.0
 11
186.6437502673
 21
255.366366378
 31
0.0
  0
LINE
  5
86
330
1F
100
AcDbEntity
  8
0
  6
Continuous
 62
     7
100
AcDbLine
 10
171.7386895483
 20
337.2192452893
 30
0.0
 11
72.40365487589997
 21
322.7535555921
 31
0.0
  0
LINE
  5
87
330
1F
100
AcDbEntity
  8
0
  6
Continuous
 62
     7
100
AcDbLine
 10
185.3158718815
 20
346.9754804085
 30
0.0
 11
185.3158718815
 21
257.755846087
 31
0.0
  0
LINE
  5
88
330
1F
100
AcDbEntity
  8
0
  6
Continuous
 62
     9
100
AcDbLine
 10
184.5658718815
 20
345.9986782708
 30
0.0
 11
184.5658718815
 21
258.7326482247
 31
0.0
  0
LINE
  5
89
330
1F
100
AcDbEntity
  8
0
  6
Continuous
 62
     9
100
AcDbLine
 10
182.2408718815
 20
345.9986782708
 30
0.0
 11
182.2408718815
 21
258.7326482247
 31
0.0
  0
LINE
  5
8A
330
1F
100
AcDbEntity
  8
0
  6
Continuous
 62
     7
100
AcDbLine
 10
181.4908718815
 20
346.9754804085
 30
0.0
 11
181.4908718815
 21
257.755846087
 31
0.0
  0
LINE
  5
8B
330
1F
100
AcDbEntity
  8
0
  6
Continuous
 62
     7
100
AcDbLine
 10
180.1629934957
 20
349.3649601175
 30
0.0
 11
180.1629934957
 21
255.366366378
 31
0.0
  0
LINE
  5
8C
330
1F
100
AcDbEntity
  8
0
  6
Continuous
 62
     7
100
AcDbLine
 10
254.2283718815
 20
326.3656632478
 30
0.0
 11
258.9604226891
 21
326.3656632478
 31
0.0
  0
LINE
  5
8D
330
1F
100
AcDbEntity
  8
0
  6
Continuous
 62
     7
100
AcDbLine
 10
206.3283718815
 20
326.3656632478
 30
0.0
 11
242.2283718815
 21
326.3656632478
 31
0.0
  0
LINE
  5
8E
330
1F
100
AcDbEntity
  8
BEZUGSACHSEN
  6
Continuous
 62
     7
100
AcDbLine
 10
242.2283718815
 20
326.3656632478
 30
0.0
 11
206.3283718815
 21
326.3656632478
 31
0.0
  0
LINE
  5
8F
330
1F
100
AcDbEntity
  8
BEZUGSACHSEN
  6
Continuous
 62
     7
100
AcDbLine
 10
258.9604226891
 20
326.3656632478
 30
0.0
 11
254.2283718815
 21
326.3656632478
 31
0.0
  0
LWPOLYLINE
  5
90
330
1F
100
AcDbEntity
  8
DEFAULT_2
  6
DASHED
 62
     8
100
AcDbPolyline
 90
        2
 70
     0
 43
0.35
 10
214.1283718815
 20
311.3656632478
 10
214.1283718815
 20
293.3656632478
  0
LINE
  5
91
330
1F
100
AcDbEntity
  8
0
  6
Continuous
 62
     9
100
AcDbLine
 10
176.4283718815
 20
349.3649601175
 30
0.0
 11
176.4283718815
 21
255.366366378
 31
0.0
  0
LINE
  5
92
330
1F
100
AcDbEntity
  8
0
  6
Continuous
 62
     7
100
AcDbLine
 10
175.4283718815
 20
348.3271569816
 30
0.0
 11
175.4283718815
 21
256.4041695139
 31
0.0
  0
LINE
  5
93
330
1F
100
AcDbEntity
  8
0
  6
Continuous
 62
     9
100
AcDbLine
 10
174.4283718815
 20
336.9406632478
 30
0.0
 11
174.4283718815
 21
267.7906632478
 31
0.0
  0
LINE
  5
94
330
1F
100
AcDbEntity
  8
0
  6
Continuous
 62
     7
100
AcDbLine
 10
172.7783718815
 20
336.9406632478
 30
0.0
 11
172.7783718815
 21
267.7906632478
 31
0.0
  0
LWPOLYLINE
  5
95
330
1F
100
AcDbEntity
  8
TEIL_STARTBEZUEGE
  6
DOT_CENTER
 62
     7
100
AcDbPolyline
 90
        2
 70
     0
 43
0.25
 10
172.2283718815
 20
261.166366378
 10
172.2283718815
 20
343.8031632478
  0
LINE
  5
96
330
1F
100
AcDbEntity
  8
0
  6
Continuous
 62
     7
100
AcDbLine
 10
171.7386895483
 20
337.2192452893
 30
0.0
 11
171.7386895483
 21
267.5120812062
 31
0.0
  0
LWPOLYLINE
  5
97
330
1F
100
AcDbEntity
  8
DEFAULT_2
  6
DASHED
 62
     8
100
AcDbPolyline
 90
        2
 70
     0
 43
0.35
 10
242.2283718815
 20
311.3656632478
 10
272.2283718815
 20
311.3656632478
  0
LWPOLYLINE
  5
98
330
1F
100
AcDbEntity
  8
DEFAULT_2
  6
DASHED
 62
     8
100
AcDbPolyline
 90
        2
 70
     0
 43
0.35
 10
214.1283718815
 20
311.3656632478
 10
242.2283718815
 20
311.3656632478
  0
LWPOLYLINE
  5
99
330
1F
100
AcDbEntity
  8
TEIL_STARTBEZUEGE
  6
DOT_CENTER
 62
     7
100
AcDbPolyline
 90
        2
 70
     0
 43
0.25
 10
275.2283718815
 20
302.3656632478
 10
67.47837188149997
 20
302.3656632478
  0
LWPOLYLINE
  5
9A
330
1F
100
AcDbEntity
  8
DEFAULT_2
  6
DASHED
 62
     8
100
AcDbPolyline
 90
        2
 70
     0
 43
0.35
 10
272.2283718815
 20
293.3656632478
 10
214.1283718815
 20
293.3656632478
  0
LINE
  5
9B
330
1F
100
AcDbEntity
  8
0
  6
Continuous
 62
     7
100
AcDbLine
 10
206.3283718815
 20
278.3656632478
 30
0.0
 11
258.9604226891
 21
278.3656632478
 31
0.0
  0
LINE
  5
9C
330
1F
100
AcDbEntity
  8
RUNDUNGEN
  6
Continuous
 62
     7
100
AcDbLine
 10
258.9604226891
 20
278.3656632478
 30
0.0
 11
206.3283718815
 21
278.3656632478
 31
0.0
  0
LINE
  5
9D
330
1F
100
AcDbEntity
  8
0
  6
Continuous
 62
     7
100
AcDbLine
 10
171.7386895483
 20
267.5120812062
 30
0.0
 11
72.40365487589996
 21
281.9777709034
 31
0.0
  0
LINE
  5
9E
330
1F
100
AcDbEntity
  8
0
  6
Continuous
 62
     7
100
AcDbLine
 10
174.4283718815
 20
267.7906632478
 30
0.0
 11
172.7783718815
 21
267.7906632478
 31
0.0
  0
LINE
  5
9F
330
1F
100
AcDbEntity
  8
0
  6
Continuous
 62
     7
100
AcDbLine
 10
172.7783718815
 20
267.7906632478
 30
0.0
 11
171.7386895483
 21
267.5120812062
 31
0.0
  0
LINE
  5
A0
330
1F
100
AcDbEntity
  8
0
  6
Continuous
 62
     7
100
AcDbLine
 10
182.2408718815
 20
258.7326482247
 30
0.0
 11
184.5658718815
 21
258.7326482247
 31
0.0
  0
LINE
  5
A1
330
1F
100
AcDbEntity
  8
0
  6
Continuous
 62
     7
100
AcDbLine
 10
186.6437502673
 20
255.366366378
 30
0.0
 11
190.3283718815
 21
255.366366378
 31
0.0
  0
LINE
  5
A2
330
1F
100
AcDbEntity
  8
0
  6
Continuous
 62
     7
100
AcDbLine
 10
176.4283718815
 20
255.366366378
 30
0.0
 11
180.1629934957
 21
255.366366378
 31
0.0
  0
LINE
  5
A3
330
1F
100
AcDbEntity
  8
0
  6
Continuous
 62
     9
100
AcDbLine
 10
72.40365487589997
 20
322.7535555921
 30
0.0
 11
72.40365487589996
 21
281.9777709034
 31
0.0
  0
LINE
  5
A4
330
1F
100
AcDbEntity
  8
0
  6
Continuous
 62
     7
100
AcDbLine
 10
70.47837188149997
 20
320.5271102489
 30
0.0
 11
70.47837188149997
 21
284.2042162466
 31
0.0
  0
LINE
  5
A5
330
1F
100
AcDbEntity
  8
0
  6
Continuous
 62
     7
100
AcDbLine
 10
191.3283718815
 20
341.3656632478
 30
0.0
 11
191.3283718815
 21
256.4041695139
 31
0.0
  0
ARC
  5
A6
330
1F
100
AcDbEntity
  8
0
  6
Continuous
 62
     7
100
AcDbCircle
 10
174.4283718815
 20
266.7906632478
 30
0.0
 40
1.0
100
AcDbArc
 50
0.0
 51
90.0
  0
ARC
  5
A7
330
1F
100
AcDbEntity
  8
0
  6
Continuous
 62
     7
100
AcDbCircle
 10
174.4283718815
 20
337.9406632478
 30
0.0
 40
1.0
100
AcDbArc
 50
270.0
 51
344.0379858363432
  0
ARC
  5
A8
330
1F
100
AcDbEntity
  8
RUNDUNGEN
  6
Continuous
 62
     7
100
AcDbCircle
 10
258.9604226891
 20
279.3656632478
 30
0.0
 40
1.0
100
AcDbArc
 50
270.0
 51
299.9999999995543
  0
ARC
  5
A9
330
1F
100
AcDbEntity
  8
RUNDUNGEN
  6
Continuous
 62
     7
100
AcDbCircle
 10
258.9604226891
 20
325.3656632478
 30
0.0
 40
0.9999999999268803
100
AcDbArc
 50
59.99999999758122
 51
90.0
  0
ARC
  5
AA
330
1F
100
AcDbEntity
  8
RUNDUNGEN
  6
Continuous
 62
     7
100
AcDbCircle
 10
271.2283718815
 20
286.4485670164
 30
0.0
 40
1.000000000013472
100
AcDbArc
 50
299.9999999995543
 51
0.0
  0
ARC
  5
AB
330
1F
100
AcDbEntity
  8
RUNDUNGEN
  6
Continuous
 62
     7
100
AcDbCircle
 10
271.2283718815
 20
318.2827594791
 30
0.0
 40
1.0
100
AcDbArc
 50
0.0
 51
60.00000000044565
  0
ARC
  5
AC
330
1F
100
AcDbEntity
  8
0
  6
Continuous
 62
     7
100
AcDbCircle
 10
72.72837188149997
 20
320.5271102489
 30
0.0
 40
2.249999999996174
100
AcDbArc
 50
98.29782682735429
 51
180.0
  0
ARC
  5
AD
330
1F
100
AcDbEntity
  8
0
  6
Continuous
 62
     7
100
AcDbCircle
 10
72.72837188149997
 20
284.2042162466
 30
0.0
 40
2.25
100
AcDbArc
 50
180.0
 51
261.7021731726453
  0
SPLINE
  5
AE
330
1F
100
AcDbEntity
  8
0
  6
Continuous
 62
     7
100
AcDbSpline
210
0.0
220
0.0
230
1.0
 70
     8
 71
     3
 72
    15
 73
    11
 74
     9
 42
0.0000000001
 43
0.0000000001
 44
0.00000001
 40
0.0
 40
0.0
 40
0.0
 40
0.0
 40
0.199411519890326
 40
0.3995306095774265
 40
0.5993950645232642
 40
0.7990503711912744
 40
0.9987117371988665
 40
1.198567718915216
 40
1.398751157662632
 40
1.598077977516717
 40
1.598077977516717
 40
1.598077977516717
 40
1.598077977516717
 10
175.4283718815
 20
256.4041695139
 30
0.0
 10
175.4319901021589
 20
256.3376112191507
 30
0.0
 10
175.439239381971
 20
256.2042584615556
 30
0.0
 10
175.4964359339066
 20
256.0109874622109
 30
0.0
 10
175.5866028907599
 20
255.8315123442585
 30
0.0
 10
175.7098352847856
 20
255.6726713460541
 30
0.0
 10
175.8616234007249
 20
255.5407448066688
 30
0.0
 10
176.0367475320406
 20
255.4421153200618
 30
0.0
 10
176.2284516545578
 20
255.3786710543557
 30
0.0
 10
176.3618271325281
 20
255.3704620696256
 30
0.0
 10
176.4283718815
 20
255.366366378
 30
0.0
 11
175.4283718815
 21
256.4041695139
 31
0.0
 11
175.4469180892582
 21
256.2056223093295
 31
0.0
 11
175.501961501289
 21
256.0132220160626
 31
0.0
 11
175.5921634098996
 21
255.8348700717676
 31
0.0
 11
175.7145919015944
 21
255.6771567054918
 31
0.0
 11
175.8654346332514
 21
255.5463471822059
 31
0.0
 11
176.0394301818618
 21
255.448021384515
 31
0.0
 11
176.2301302021042
 21
255.3871369741271
 31
0.0
 11
176.4283718815
 21
255.366366378
 31
0.0
  0
SPLINE
  5
AF
330
1F
100
AcDbEntity
  8
0
  6
Continuous
 62
     7
100
AcDbSpline
210
0.0
220
0.0
230
1.0
 70
     8
 71
     3
 72
     9
 73
     5
 74
     3
 42
0.0000000001
 43
0.0000000001
 44
0.00000001
 40
0.0
 40
0.0
 40
0.0
 40
0.0
 40
1.366828025546732
 40
2.733656073394695
 40
2.733656073394695
 40
2.733656073394695
 40
2.733656073394695
 10
181.4908718815
 20
257.755846087
 30
0.0
 10
181.2698021974834
 20
257.3574642221283
 30
0.0
 10
180.8276628258434
 20
256.5607004858851
 30
0.0
 10
180.3845499402861
 20
255.7644777494602
 30
0.0
 10
180.1629934957
 20
255.366366378
 30
0.0
 11
181.4908718815
 21
257.755846087
 31
0.0
 11
180.827419450975
 21
256.5608357423375
 31
0.0
 11
180.1629934957
 21
255.366366378
 31
0.0
  0
SPLINE
  5
B0
330
1F
100
AcDbEntity
  8
0
  6
Continuous
 62
     7
100
AcDbSpline
210
0.0
220
0.0
230
1.0
 70
     8
 71
     3
 72
     9
 73
     5
 74
     3
 42
0.0000000001
 43
0.0000000001
 44
0.00000001
 40
0.0
 40
0.0
 40
0.0
 40
0.0
 40
1.366828047847962
 40
2.733656073394695
 40
2.733656073394695
 40
2.733656073394695
 40
2.733656073394695
 10
180.1629934957
 20
349.3649601175
 30
0.0
 10
180.3845499402861
 20
348.9668487460399
 30
0.0
 10
180.8276628258433
 20
348.170626009615
 30
0.0
 10
181.2698021974834
 20
347.3738622733715
 30
0.0
 10
181.4908718815
 20
346.9754804085
 30
0.0
 11
180.1629934957
 21
349.3649601175
 31
0.0
 11
180.827419450975
 21
348.1704907531625
 31
0.0
 11
181.4908718815
 21
346.9754804085
 31
0.0
  0
SPLINE
  5
B1
330
1F
100
AcDbEntity
  8
0
  6
Continuous
 62
     7
100
AcDbSpline
210
0.0
220
0.0
230
1.0
 70
     8
 71
     3
 72
     9
 73
     5
 74
     3
 42
0.0000000001
 43
0.0000000001
 44
0.00000001
 40
0.0
 40
0.0
 40
0.0
 40
0.0
 40
1.366828025546746
 40
2.733656073394695
 40
2.733656073394695
 40
2.733656073394695
 40
2.733656073394695
 10
185.3158718815
 20
257.755846087
 30
0.0
 10
185.5369415655165
 20
257.3574642221283
 30
0.0
 10
185.9790809371566
 20
256.560700485885
 30
0.0
 10
186.4221938227139
 20
255.7644777494602
 30
0.0
 10
186.6437502673
 20
255.366366378
 30
0.0
 11
185.3158718815
 21
257.755846087
 31
0.0
 11
185.979324312025
 21
256.5608357423375
 31
0.0
 11
186.6437502673
 21
255.366366378
 31
0.0
  0
SPLINE
  5
B2
330
1F
100
AcDbEntity
  8
0
  6
Continuous
 62
     7
100
AcDbSpline
210
0.0
220
0.0
230
1.0
 70
     8
 71
     3
 72
     9
 73
     5
 74
     3
 42
0.0000000001
 43
0.0000000001
 44
0.00000001
 40
0.0
 40
0.0
 40
0.0
 40
0.0
 40
1.366828047847949
 40
2.733656073394695
 40
2.733656073394695
 40
2.733656073394695
 40
2.733656073394695
 10
186.6437502673
 20
349.3649601175
 30
0.0
 10
186.4221938227139
 20
348.9668487460398
 30
0.0
 10
185.9790809371567
 20
348.1706260096149
 30
0.0
 10
185.5369415655165
 20
347.3738622733716
 30
0.0
 10
185.3158718815
 20
346.9754804085
 30
0.0
 11
186.6437502673
 21
349.3649601175
 31
0.0
 11
185.979324312025
 21
348.1704907531625
 31
0.0
 11
185.3158718815
 21
346.9754804085
 31
0.0
  0
SPLINE
  5
B3
330
1F
100
AcDbEntity
  8
0
  6
Continuous
 62
     7
100
AcDbSpline
210
0.0
220
0.0
230
1.0
 70
     8
 71
     3
 72
    15
 73
    11
 74
     9
 42
0.0000000001
 43
0.0000000001
 44
0.00000001
 40
0.0
 40
0.0
 40
0.0
 40
0.0
 40
0.1497938277484311
 40
0.3002403875068416
 40
0.4504310444662869
 40
0.6004785770943034
 40
0.7505151709151856
 40
0.9007083294178244
 40
1.051091365234107
 40
1.200944179414839
 40
1.200944179414839
 40
1.200944179414839
 40
1.200944179414839
 10
184.5658718815
 20
258.7326482247
 30
0.0
 10
184.6158808690424
 20
258.7295432006139
 30
0.0
 10
184.7161167600952
 20
258.7233196221874
 30
0.0
 10
184.8600965827297
 20
258.6753122429009
 30
0.0
 10
184.991477925372
 20
258.6007808540025
 30
0.0
 10
185.1052091777053
 20
258.5012539113474
 30
0.0
 10
185.197466675472
 20
258.3816245751726
 30
0.0
 10
185.264926111462
 20
258.2466122081557
 30
0.0
 10
185.3077351104519
 20
258.101336628277
 30
0.0
 10
185.3131628196263
 20
258.0011268537016
 30
0.0
 10
185.3158718815
 20
257.9511104525
 30
0.0
 11
184.5658718815
 21
258.7326482247
 31
0.0
 11
184.7148373849401
 21
258.7169170576622
 31
0.0
 11
184.8580602466527
 21
258.6708586249275
 31
0.0
 11
184.9885945629349
 21
258.5965752101523
 31
0.0
 11
185.101633816392
 21
258.4979020667666
 31
0.0
 11
185.1932969148874
 21
258.3791213618537
 31
0.0
 11
185.2607950874115
 21
258.2449498985432
 31
0.0
 11
185.3019883672477
 21
258.1003187429865
 31
0.0
 11
185.3158718815
 21
257.9511104525
 31
0.0
  0
SPLINE
  5
B4
330
1F
100
AcDbEntity
  8
0
  6
Continuous
 62
     7
100
AcDbSpline
210
0.0
220
0.0
230
1.0
 70
     8
 71
     3
 72
    15
 73
    11
 74
     9
 42
0.0000000001
 43
0.0000000001
 44
0.00000001
 40
0.0
 40
0.0
 40
0.0
 40
0.0
 40
0.1498537524867748
 40
0.3002377329551162
 40
0.4504313876922396
 40
0.6004684787497286
 40
0.7505157524186943
 40
0.900706133754783
 40
1.051151518413314
 40
1.200944190607114
 40
1.200944190607114
 40
1.200944190607114
 40
1.200944190607114
 10
181.4908718815
 20
257.9511104525
 30
0.0
 10
181.4935809775675
 20
258.00112716759
 30
0.0
 10
181.4990087553054
 20
258.1013375720629
 30
0.0
 10
181.5418182463052
 20
258.246613859698
 30
0.0
 10
181.609278351907
 20
258.3816266229184
 30
0.0
 10
181.7015364153543
 20
258.5012558426429
 30
0.0
 10
181.8152679937065
 20
258.6007823836591
 30
0.0
 10
181.9466490748758
 20
258.6753130794677
 30
0.0
 10
182.0906281695525
 20
258.7233197881471
 30
0.0
 10
182.1908632806637
 20
258.7295432557535
 30
0.0
 10
182.2408718815
 20
258.7326482247
 30
0.0
 11
181.4908718815
 21
257.9511104525
 31
0.0
 11
181.5047555698703
 21
258.1003196691443
 31
0.0
 11
181.5459493639871
 21
258.2449516604456
 31
0.0
 11
181.61344813216
 21
258.379123379591
 31
0.0
 11
181.7051119391845
 21
258.4979041658098
 31
0.0
 11
181.8181513389229
 21
258.5965767478287
 31
0.0
 11
181.9486856535373
 21
258.6708596082611
 31
0.0
 11
182.0919075121376
 21
258.7169173218838
 31
0.0
 11
182.2408718815
 21
258.7326482247
 31
0.0
  0
SPLINE
  5
B5
330
1F
100
AcDbEntity
  8
0
  6
Continuous
 62
     7
100
AcDbSpline
210
0.0
220
0.0
230
1.0
 70
     8
 71
     3
 72
    15
 73
    11
 74
     9
 42
0.0000000001
 43
0.0000000001
 44
0.00000001
 40
0.0
 40
0.0
 40
0.0
 40
0.0
 40
0.1497935590536521
 40
0.3002398466904014
 40
0.4504306629975162
 40
0.6004783582190093
 40
0.7505149757375814
 40
0.900708156337126
 40
1.051091279555755
 40
1.200944180817655
 40
1.200944180817655
 40
1.200944180817655
 40
1.200944180817655
 10
182.2408718815
 20
345.9986782708
 30
0.0
 10
182.190862983854
 20
346.0017832822386
 30
0.0
 10
182.0906272737391
 20
346.0080068352686
 30
0.0
 10
181.9466475493712
 20
346.0560140840446
 30
0.0
 10
181.8152661461516
 20
346.1305454073503
 30
0.0
 10
181.701534768655
 20
346.230072385675
 30
0.0
 10
181.6092771949335
 20
346.3497017517162
 30
0.0
 10
181.5418177057659
 20
346.4847141422328
 30
0.0
 10
181.4990086625531
 20
346.6299897797325
 30
0.0
 10
181.4935809467046
 20
346.7301996126707
 30
0.0
 10
181.4908718815
 20
346.780216043
 30
0.0
 11
182.2408718815
 21
345.9986782708
 31
0.0
 11
182.0919066418303
 21
346.0144093770579
 31
0.0
 11
181.9486840127485
 21
346.0604676443135
 31
0.0
 11
181.8181495139507
 21
346.1347510605421
 31
0.0
 11
181.7051101011851
 21
346.2334242686733
 31
0.0
 11
181.6134469558852
 21
346.3522049674006
 31
0.0
 11
181.5459487405998
 21
346.4863764339347
 31
0.0
 11
181.5047554124542
 21
346.6310076666103
 31
0.0
 11
181.4908718815
 21
346.780216043
 31
0.0
  0
SPLINE
  5
B6
330
1F
100
AcDbEntity
  8
0
  6
Continuous
 62
     7
100
AcDbSpline
210
0.0
220
0.0
230
1.0
 70
     8
 71
     3
 72
    15
 73
    11
 74
     9
 42
0.0000000001
 43
0.0000000001
 44
0.00000001
 40
0.0
 40
0.0
 40
0.0
 40
0.0
 40
0.1498536492840343
 40
0.3002375261576854
 40
0.4504311697228396
 40
0.6004682482535982
 40
0.7505153760194024
 40
0.9007056144769403
 40
1.05115125968633
 40
1.200944189100213
 40
1.200944189100213
 40
1.200944189100213
 40
1.200944189100213
 10
185.3158718815
 20
346.780216043
 30
0.0
 10
185.3131627893752
 20
346.7301993624294
 30
0.0
 10
185.3077350195373
 20
346.6299890271264
 30
0.0
 10
185.2649255793989
 20
346.4847128029712
 30
0.0
 10
185.1974655302676
 20
346.3497000591942
 30
0.0
 10
185.105207537035
 20
346.2300708572057
 30
0.0
 10
184.991476072926
 20
346.1305443414634
 30
0.0
 10
184.8600950445576
 20
346.0560135785199
 30
0.0
 10
184.7161158527348
 20
346.0080067437905
 30
0.0
 10
184.6158805683944
 20
346.0017832518594
 30
0.0
 10
184.5658718815
 20
345.9986782708
 30
0.0
 11
185.3158718815
 21
346.780216043
 31
0.0
 11
185.3019882128908
 21
346.6310069281655
 31
0.0
 11
185.2607944758216
 21
346.4863750283307
 31
0.0
 11
185.1932957497937
 21
346.3522033004891
 31
0.0
 11
185.1016319850303
 21
346.2334224974802
 31
0.0
 11
184.9885927323957
 21
346.134749968808
 31
0.0
 11
184.8580585846782
 21
346.0604671039764
 31
0.0
 11
184.7148365033656
 21
346.0144092318265
 31
0.0
 11
184.5658718815
 21
345.9986782708
 31
0.0
  0
SPLINE
  5
B7
330
1F
100
AcDbEntity
  8
BEZUGSACHSEN
  6
Continuous
 62
     7
100
AcDbSpline
210
0.0
220
0.0
230
1.0
 70
     8
 71
     3
 72
    23
 73
    19
 74
    17
 42
0.0000000001
 43
0.0000000001
 44
0.00000001
 40
0.0
 40
0.0
 40
0.0
 40
0.0
 40
0.2360902608182387
 40
0.4721884313429165
 40
1.134986846705961
 40
1.797824884596326
 40
2.77772170614325
 40
3.757680471639249
 40
4.910357902025874
 40
6.063063545913479
 40
7.215775682795614
 40
8.36845959466832
 40
9.348442318539435
 40
10.32836312021802
 40
10.99122356141543
 40
11.65404436909074
 40
11.89015102426373
 40
12.12624977051282
 40
12.12624977051282
 40
12.12624977051282
 40
12.12624977051282
 10
254.2283718815
 20
326.3656632478
 30
0.0
 10
254.1519782606584
 20
326.3467613819255
 30
0.0
 10
253.9991884595679
 20
326.3089570169095
 30
0.0
 10
253.6309749023406
 20
326.2220358398785
 30
0.0
 10
253.1224328206587
 20
326.1104718218801
 30
0.0
 10
252.3677680543862
 20
325.9648509094372
 30
0.0
 10
251.5042681610736
 20
325.8267929282359
 30
0.0
 10
250.4738008972285
 20
325.7037921826342
 30
0.0
 10
249.3812413228707
 20
325.6227618146367
 30
0.0
 10
248.2284310266057
 20
325.5939957337505
 30
0.0
 10
247.0756183833025
 20
325.6227548626731
 30
0.0
 10
245.9830460841659
 20
325.7037804951007
 30
0.0
 10
244.9525603659491
 20
325.8267799471176
 30
0.0
 10
244.0890370124586
 20
325.9648397955382
 30
0.0
 10
243.3343494811503
 20
326.1104637564249
 30
0.0
 10
242.8257899263317
 20
326.2220310325822
 30
0.0
 10
242.4575635496517
 20
326.3089550162809
 30
0.0
 10
242.3047682511659
 20
326.3467607150283
 30
0.0
 10
242.2283718815
 20
326.3656632478
 30
0.0
 11
254.2283718815
 21
326.3656632478
 31
0.0
 11
253.9990915129094
 21
326.309368276158
 31
0.0
 11
253.7693306663766
 21
326.2550332089764
 31
0.0
 11
253.1218819623829
 21
326.1132167250804
 31
0.0
 11
252.4710382587933
 21
325.9876908792473
 31
0.0
 11
251.5033926204342
 21
325.8332250272205
 31
0.0
 11
250.5303139939761
 21
325.7173062245913
 31
0.0
 11
249.3807839560529
 21
325.632183075948
 31
0.0
 11
248.2284331600917
 21
325.6035833469639
 31
0.0
 11
247.0760757023336
 21
325.6321763542297
 31
0.0
 11
245.9265387697399
 21
325.71729416255
 31
0.0
 11
244.9534359483739
 21
325.8332124015612
 31
0.0
 11
243.9857662786316
 21
325.9876798344496
 31
0.0
 11
243.3349003649838
 21
326.1132088229577
 31
0.0
 11
242.6874296367736
 21
326.2550294110199
 31
0.0
 11
242.457660503722
 21
326.3093663056102
 31
0.0
 11
242.2283718815
 21
326.3656632478
 31
0.0
  0
SPLINE
  5
B8
330
1F
100
AcDbEntity
  8
0
  6
Continuous
 62
     7
100
AcDbSpline
210
0.0
220
0.0
230
1.0
 70
     8
 71
     3
 72
    15
 73
    11
 74
     9
 42
0.0000000001
 43
0.0000000001
 44
0.00000001
 40
0.0
 40
0.0
 40
0.0
 40
0.0
 40
0.1993272936063153
 40
0.3995112141018561
 40
0.5993674459994656
 40
0.7990290559300033
 40
0.9986840827135149
 40
1.198548256362646
 40
1.398666897420191
 40
1.598077972554125
 40
1.598077972554125
 40
1.598077972554125
 40
1.598077972554125
 10
176.4283718815
 20
349.3649601175
 30
0.0
 10
176.3618269739753
 20
349.3608644036685
 30
0.0
 10
176.2284511762284
 20
349.3526553743088
 30
0.0
 10
176.0367467104695
 20
349.2892108211904
 30
0.0
 10
175.8616223974103
 20
349.1905809897654
 30
0.0
 10
175.7098343906546
 20
349.0586542083758
 30
0.0
 10
175.586602267269
 20
348.8998131402542
 30
0.0
 10
175.4964356441465
 20
348.7203382359079
 30
0.0
 10
175.4392393322411
 20
348.527067586277
 30
0.0
 10
175.4319900856158
 20
348.3937151275582
 30
0.0
 10
175.4283718815
 20
348.3271569816
 30
0.0
 11
176.4283718815
 21
349.3649601175
 31
0.0
 11
176.2301297369638
 21
349.3441894144281
 31
0.0
 11
176.0394293047222
 21
349.2833047105374
 31
0.0
 11
175.8654336431077
 21
349.184978604301
 31
0.0
 11
175.7145908938109
 21
349.0541687290444
 31
0.0
 11
175.5921627743905
 21
348.8964554280989
 31
0.0
 11
175.5019611718812
 21
348.7181036442188
 31
0.0
 11
175.4469180055032
 21
348.5257037473015
 31
0.0
 11
175.4283718815
 21
348.3271569816
 31
0.0
  0
SPLINE
  5
B9
330
1F
100
AcDbEntity
  8
0
  6
Continuous
 62
     7
100
AcDbSpline
210
0.0
220
0.0
230
1.0
 70
     8
 71
     3
 72
    15
 73
    11
 74
     9
 42
0.0000000001
 43
0.0000000001
 44
0.00000001
 40
0.0
 40
0.0
 40
0.0
 40
0.0
 40
0.1993272358091116
 40
0.3995110958174966
 40
0.5993673928285791
 40
0.7990290698029698
 40
0.9986840389011115
 40
1.198548154977858
 40
1.39866684946259
 40
1.598077976762705
 40
1.598077976762705
 40
1.598077976762705
 40
1.598077976762705
 10
190.3283718815
 20
255.366366378
 30
0.0
 10
190.3949167696895
 20
255.3704620869289
 30
0.0
 10
190.5282925278679
 20
255.3786711064124
 30
0.0
 10
190.7199969866147
 20
255.4421156204028
 30
0.0
 10
190.8951213279977
 20
255.5407454552716
 30
0.0
 10
191.046909349298
 20
255.6726722592751
 30
0.0
 10
191.1701414573538
 20
255.8315133176531
 30
0.0
 10
191.260308078886
 20
256.0109881978241
 30
0.0
 10
191.3175044200571
 20
256.2042588564705
 30
0.0
 10
191.3247536738278
 20
256.337611350498
 30
0.0
 10
191.3283718815
 20
256.4041695139
 30
0.0
 11
190.3283718815
 21
255.366366378
 31
0.0
 11
190.5266139701041
 21
255.3871370602513
 31
0.0
 11
190.7173143534763
 21
255.4480217183315
 31
0.0
 11
190.8913100785443
 21
255.546347844631
 31
0.0
 11
191.0421528744732
 21
255.6771577684463
 31
0.0
 11
191.1645809539914
 21
255.8348710273406
 31
0.0
 11
191.2547825403906
 21
256.0132227548518
 31
0.0
 11
191.3098257420398
 21
256.2056226972491
 31
0.0
 11
191.3283718815
 21
256.4041695139
 31
0.0
  0
SPLINE
  5
BA
330
1F
100
AcDbEntity
  8
0
  6
Continuous
 62
     7
100
AcDbSpline
210
0.0
220
0.0
230
1.0
 70
     8
 71
     3
 72
    15
 73
    11
 74
     9
 42
0.0000000001
 43
0.0000000001
 44
0.00000001
 40
0.0
 40
0.0
 40
0.0
 40
0.0
 40
0.1994115817646823
 40
0.3995307347096244
 40
0.5993951287001484
 40
0.7990503741563225
 40
0.9987117984888219
 40
1.198567836694409
 40
1.398751217382332
 40
1.598077981839798
 40
1.598077981839798
 40
1.598077981839798
 40
1.598077981839798
 10
191.3283718815
 20
348.3271569816
 30
0.0
 10
191.324753656903
 20
348.3937152970398
 30
0.0
 10
191.3175043691797
 20
348.527068096478
 30
0.0
 10
191.2603077836128
 20
348.7203391093986
 30
0.0
 10
191.1701408251447
 20
348.8998142025761
 30
0.0
 10
191.0469084476031
 20
349.0586551852823
 30
0.0
 10
190.895120321302
 20
349.190581741267
 30
0.0
 10
190.7199961660485
 20
349.2892112286414
 30
0.0
 10
190.5282920519553
 20
349.3526554555857
 30
0.0
 10
190.3949166119393
 20
349.3608644306648
 30
0.0
 10
190.3283718815
 20
349.3649601175
 30
0.0
 11
191.3283718815
 21
348.3271569816
 31
0.0
 11
191.3098256564011
 21
348.5257042466944
 31
0.0
 11
191.2547822037657
 21
348.7181045941405
 31
0.0
 11
191.1645803099505
 21
348.8964564776107
 31
0.0
 11
191.0421518582395
 21
349.0541697974343
 31
0.0
 11
190.8913090854024
 21
349.1849793622578
 31
0.0
 11
190.7173134807936
 21
349.2833051756745
 31
0.0
 11
190.5266135073214
 21
349.3441895416591
 31
0.0
 11
190.3283718815
 21
349.3649601175
 31
0.0
  0
SPLINE
  5
BB
330
1F
100
AcDbEntity
  8
0
  6
Continuous
 62
     2
100
AcDbSpline
210
0.0
220
0.0
230
1.0
 70
     8
 71
     3
 72
    47
 73
    43
 74
    41
 42
0.0000000001
 43
0.0000000001
 44
0.00000001
 40
0.0
 40
0.0
 40
0.0
 40
0.0
 40
0.0227304069324937
 40
0.0903150601459238
 40
0.2017979435962001
 40
0.3560380612929713
 40
0.5518340629843645
 40
0.7879188918347719
 40
1.062995852431592
 40
1.375687681843159
 40
1.724437389491512
 40
2.106995188379766
 40
2.520891005975837
 40
2.963380201785963
 40
3.431436156346409
 40
3.921062352044858
 40
4.42805617308616
 40
4.948232233298587
 40
5.477717447913673
 40
6.013775932894243
 40
6.554037430605963
 40
7.096403353902853
 40
7.638835769702101
 40
8.179246603464
 40
8.71547231464989
 40
9.245117636413536
 40
9.765447215938071
 40
10.27265133555183
 40
10.76262732460606
 40
11.23126991142308
 40
11.67463976082082
 40
12.08959068465862
 40
12.473231982771
 40
12.82301815707667
 40
13.13664837786029
 40
13.41254262116162
 40
13.64931333193276
 40
13.84567702522174
 40
14.00037992541538
 40
14.11221099507455
 40
14.18001422736953
 40
14.20282034424797
 40
14.20282034424797
 40
14.20282034424797
 40
14.20282034424797
 10
241.2283718815
 20
326.365690122
 30
0.0
 10
241.2356441316529
 20
326.3635635437933
 30
0.0
 10
241.2645390701338
 20
326.3551139793307
 30
0.0
 10
241.3291565055661
 20
326.3364240245388
 30
0.0
 10
241.4359586486525
 20
326.3058114712799
 30
0.0
 10
241.5840564785863
 20
326.2641711140532
 30
0.0
 10
241.7724368538554
 20
326.212361332053
 30
0.0
 10
242.0001326788537
 20
326.1516319407956
 30
0.0
 10
242.2660979465173
 20
326.083222522777
 30
0.0
 10
242.569253023189
 20
326.0087032844994
 30
0.0
 10
242.908177577864
 20
325.9297055596976
 30
0.0
 10
243.2811113642693
 20
325.8481473211731
 30
0.0
 10
243.6858656401559
 20
325.766040193787
 30
0.0
 10
244.1199565480096
 20
325.6854810787356
 30
0.0
 10
244.5803405501529
 20
325.6086502419463
 30
0.0
 10
245.0633950647351
 20
325.5375570572465
 30
0.0
 10
245.5650589393595
 20
325.4743024491544
 30
0.0
 10
246.081175445547
 20
325.4203718542119
 30
0.0
 10
246.6080312252099
 20
325.3772384377928
 30
0.0
 10
247.1424182375034
 20
325.345713955558
 30
0.0
 10
247.6816891688456
 20
325.3265469351813
 30
0.0
 10
248.2233866187362
 20
325.3199973538209
 30
0.0
 10
248.7651366203032
 20
325.3263134395472
 30
0.0
 10
249.3045434309724
 20
325.3452520119869
 30
0.0
 10
249.8391022751851
 20
325.3765622412969
 30
0.0
 10
250.3661353961355
 20
325.4194939058243
 30
0.0
 10
250.8824470711289
 20
325.4732374184994
 30
0.0
 10
251.3843710672456
 20
325.5363307080437
 30
0.0
 10
251.867830007481
 20
325.6073015101556
 30
0.0
 10
252.3288374917216
 20
325.6840766941418
 30
0.0
 10
252.7637792316577
 20
325.7646596910432
 30
0.0
 10
253.1695419001921
 20
325.8468587520646
 30
0.0
 10
253.5435272495893
 20
325.9285630180821
 30
0.0
 10
253.883458230346
 20
326.0077342290118
 30
0.0
 10
254.1875270520977
 20
326.0824354667578
 30
0.0
 10
254.4542873338869
 20
326.1510212665355
 30
0.0
 10
254.6826545333429
 20
326.2119121304416
 30
0.0
 10
254.8715889987376
 20
326.2638647537249
 30
0.0
 10
255.0201304803695
 20
326.3056250688833
 30
0.0
 10
255.127263011996
 20
326.3363304778325
 30
0.0
 10
255.1920863278497
 20
326.3550794059119
 30
0.0
 10
255.2210754112182
 20
326.3635565320344
 30
0.0
 10
255.2283718815
 20
326.3656902007
 30
0.0
 11
241.2283718815
 21
326.365690122
 31
0.0
 11
241.2501901977677
 21
326.3593157612822
 31
0.0
 11
241.3151055911917
 21
326.3405094579084
 31
0.0
 11
241.4222794645573
 21
326.3098142763614
 31
0.0
 11
241.5707561640667
 21
326.2680448663834
 31
0.0
 11
241.7595479993396
 21
326.2161438335167
 31
0.0
 11
241.98765619025
 21
326.15529402125
 31
0.0
 11
242.2540671725021
 21
326.0867920301354
 31
0.0
 11
242.5577193348666
 21
326.0121492510333
 31
0.0
 11
242.8973697354333
 21
325.9330040428417
 31
0.0
 11
243.2710981565
 21
325.8512878463001
 31
0.0
 11
243.6767365755146
 21
325.7690247267208
 31
0.0
 11
244.1118030263167
 21
325.6883161658667
 31
0.0
 11
244.5734763255896
 21
325.6112827877895
 31
0.0
 11
245.057892365
 21
325.54004436925
 31
0.0
 11
245.5609031688833
 21
325.4766183040187
 31
0.0
 11
246.0782682172666
 21
325.4226133011999
 31
0.0
 11
246.6059878108417
 21
325.3794088679437
 31
0.0
 11
247.1411180772666
 21
325.34787638825
 31
0.0
 11
247.6810383447375
 21
325.3286776725667
 31
0.0
 11
248.2233649166333
 21
325.3221443602833
 31
0.0
 11
248.7657607538083
 21
325.3284436876333
 31
0.0
 11
249.3058384718333
 21
325.3474154492833
 31
0.0
 11
249.8411488391167
 21
325.3787335593125
 31
0.0
 11
250.3690455807
 21
325.4217358510167
 31
0.0
 11
250.8865847002146
 21
325.4755515652667
 31
0.0
 11
251.3898283590167
 21
325.5388116540167
 31
0.0
 11
251.8746165564834
 21
325.6099233509917
 31
0.0
 11
252.33689448635
 21
325.6868973059167
 31
0.0
 11
252.7728511178083
 21
325.7676353938459
 31
0.0
 11
253.1795453275166
 21
325.8500009751501
 31
0.0
 11
253.5543498914854
 21
325.9318678454063
 31
0.0
 11
253.8950232756667
 21
326.0111900557
 31
0.0
 11
254.1995966022604
 21
326.0860165491125
 31
0.0
 11
254.4668059285167
 21
326.1546955812
 31
0.0
 11
254.6955811879917
 21
326.2157058273166
 31
0.0
 11
254.8849228844167
 21
326.2677483295334
 31
0.0
 11
255.0338463204834
 21
326.3096386329271
 31
0.0
 11
255.14135542455
 21
326.3404279278834
 31
0.0
 11
255.2064808946063
 21
326.3592946037855
 31
0.0
 11
255.2283718815
 21
326.3656902007
 31
0.0
  0
ARC
  5
BC
330
1F
100
AcDbEntity
  8
1
  6
Continuous
 62
     7
100
AcDbCircle
 10
206.3283718815
 20
341.3656632478
 30
0.0
 40
15.0
100
AcDbArc
 50
180.0
 51
270.0
  0
ARC
  5
BD
330
1F
100
AcDbEntity
  8
1
  6
Continuous
 62
     7
100
AcDbCircle
 10
206.3283718815
 20
263.3656632478
 30
0.0
 40
15.0
100
AcDbArc
 50
90.0
 51
180.0
  0
DIMENSION
  5
C8
330
1F
100
AcDbEntity
  8
1
100
AcDbDimension
  2
*D2
 10
70.47837188150001
 20
369.745377734626
 30
0.0
 11
187.2276540883171
 21
373.495377734626
 31
0.0
 70
    32
  1
<>
 71
     5
 42
-1.0
 53
0.00013888888889
  3
ME10_DIM_10
100
AcDbAlignedDimension
 13
272.2283718815
 23
318.2827594791
 33
0.0
 14
70.47837188149997
 24
320.5271102489
 34
0.0
100
AcDbRotatedDimension
  0
DIMENSION
  5
D3
330
1F
100
AcDbEntity
  8
1
100
AcDbDimension
  2
*D3
 10
272.2283718815
 20
361.787715512675
 30
0.0
 11
222.0322205405921
 21
365.537715512675
 31
0.0
 70
    32
  1
<>
 71
     5
 42
-1.0
 53
0.00013888888889
  3
ME10_DIM_11
100
AcDbAlignedDimension
 13
172.2283718815
 23
343.8031632478
 33
0.0
 14
272.2283718815
 24
318.2827594791
 34
0.0
100
AcDbRotatedDimension
  0
DIMENSION
  5
DE
330
1F
100
AcDbEntity
  8
1
100
AcDbDimension
  2
*D4
 10
272.2283718815001
 20
354.41950975161
 30
0.0
 11
230.8359187241615
 21
358.16950975161
 31
0.0
 70
    32
  1
<>
 71
     5
 42
-1.0
 53
0.00013888888889
  3
ME10_DIM_12
100
AcDbAlignedDimension
 13
191.3283718815
 23
348.3271569816
 33
0.0
 14
272.2283718815
 24
318.2827594791
 34
0.0
100
AcDbRotatedDimension
  0
DIMENSION
  5
E9
330
1F
100
AcDbEntity
  8
1
100
AcDbDimension
  2
*D5
 10
292.6243292098491
 20
326.3656632478
 30
0.0
 11
288.8743292098491
 21
302.105248848046
 31
0.0
 70
    32
  1
<>
 71
     5
 42
-1.0
 53
90.0
  3
ME10_DIM_13
100
AcDbAlignedDimension
 13
258.9604226891
 23
278.3656632478
 33
0.0
 14
258.9604226891
 24
326.3656632478
 34
0.0
 50
90.0
100
AcDbRotatedDimension
  0
DIMENSION
  5
F4
330
1F
100
AcDbEntity
  8
1
100
AcDbDimension
  2
*D6
 10
284.077210527013
 20
311.3656632478
 30
0.0
 11
280.327210527013
 21
301.810520617603
 31
0.0
 70
    32
  1
<>
 71
     5
 42
-1.0
 53
90.0
  3
ME10_DIM_14
100
AcDbAlignedDimension
 13
272.2283718815
 23
293.3656632478
 33
0.0
 14
272.2283718815
 24
311.3656632478
 34
0.0
 50
90.0
100
AcDbRotatedDimension
  0
INSERT
  5
FB
330
1F
100
AcDbEntity
  8
1
100
AcDbBlockReference
  2
*D7
 10
0.0
 20
0.0
 30
0.0
  0
ENDSEC
  0
SECTION
  2
OBJECTS
  0
DICTIONARY
  5
C
330
0
100
AcDbDictionary
281
     1
  3
ACAD_GROUP
350
D
  3
ACAD_LAYOUT
350
1A
  3
ACAD_MLEADERSTYLE
350
FE
  3
ACAD_MLINESTYLE
350
17
  3
ACAD_PLOTSETTINGS
350
19
  3
ACAD_PLOTSTYLENAME
350
E
  3
ACAD_SCALELIST
350
4A
  3
ACAD_VISUALSTYLE
350
2A
  3
AcDbVariableDictionary
350
FC
  0
DICTIONARY
  5
D
102
{ACAD_REACTORS
330
C
102
}
330
C
100
AcDbDictionary
281
     1
  0
DICTIONARY
  5
1A
102
{ACAD_REACTORS
330
C
102
}
330
C
100
AcDbDictionary
281
     1
  3
Layout1
350
1E
  3
Layout2
350
26
  3
Model
350
22
  0
DICTIONARY
  5
FE
102
{ACAD_REACTORS
330
C
102
}
330
C
100
AcDbDictionary
281
     1
  0
DICTIONARY
  5
17
102
{ACAD_REACTORS
330
C
102
}
330
C
100
AcDbDictionary
281
     1
  3
Standard
350
18
  0
DICTIONARY
  5
19
102
{ACAD_REACTORS
330
C
102
}
330
C
100
AcDbDictionary
281
     1
  0
ACDBDICTIONARYWDFLT
  5
E
102
{ACAD_REACTORS
330
C
102
}
330
C
100
AcDbDictionary
281
     1
  3
Normal
350
F
100
AcDbDictionaryWithDefault
340
F
  0
DICTIONARY
  5
4A
102
{ACAD_REACTORS
330
C
102
}
330
C
100
AcDbDictionary
281
     1
  3
A0
350
4B
  3
A1
350
4C
  3
A2
350
4D
  3
A3
350
4E
  3
A4
350
4F
  3
A5
350
50
  3
A6
350
51
  3
A7
350
52
  3
A8
350
53
  3
A9
350
54
  3
B0
350
55
  3
B1
350
56
  3
B2
350
57
  3
B3
350
58
  3
B4
350
59
  3
B5
350
5A
  3
B6
350
5B
  3
B7
350
5C
  3
B8
350
5D
  3
B9
350
5E
  3
C0
350
5F
  3
C1
350
60
  3
C2
350
61
  3
C3
350
62
  3
C4
350
63
  3
C5
350
64
  3
C6
350
65
  3
C7
350
66
  3
C8
350
67
  3
C9
350
68
  3
D0
350
69
  3
D1
350
6A
  3
D2
350
6B
  0
DICTIONARY
  5
2A
102
{ACAD_REACTORS
330
C
102
}
330
C
100
AcDbDictionary
281
     1
  3
2dWireframe
350
2F
  3
3D Hidden
350
31
  3
3dWireframe
350
30
  3
Basic
350
32
  3
Brighten
350
36
  3
ColorChange
350
3A
  3
Conceptual
350
34
  3
Dim
350
35
  3
Facepattern
350
39
  3
Flat
350
2B
  3
FlatWithEdges
350
2C
  3
Gouraud
350
2D
  3
GouraudWithEdges
350
2E
  3
Linepattern
350
38
  3
Realistic
350
33
  3
Thicken
350
37
  0
DICTIONARY
  5
FC
102
{ACAD_REACTORS
330
C
102
}
330
C
100
AcDbDictionary
281
     1
  3
CANNOSCALE
350
FF
  0
LAYOUT
  5
1E
102
{ACAD_REACTORS
330
1A
102
}
330
1A
100
AcDbPlotSettings
  1

  2
none_device
  4

  6

 40
0.0
 41
0.0
 42
0.0
 43
0.0
 44
0.0
 45
0.0
 46
0.0
 47
0.0
 48
0.0
 49
0.0
140
0.0
141
0.0
142
1.0
143
1.0
 70
   688
 72
     0
 73
     0
 74
     5
  7

 75
    16
147
1.0
148
0.0
149
0.0
100
AcDbLayout
  1
Layout1
 70
     1
 71
     1
 10
0.0
 20
0.0
 11
12.0
 21
9.0
 12
0.0
 22
0.0
 32
0.0
 14
1.00000000000000E+20
 24
1.00000000000000E+20
 34
1.00000000000000E+20
 15
-1.00000000000000E+20
 25
-1.00000000000000E+20
 35
-1.00000000000000E+20
146
0.0
 13
0.0
 23
0.0
 33
0.0
 16
1.0
 26
0.0
 36
0.0
 17
0.0
 27
1.0
 37
0.0
 76
     0
330
1B
  0
LAYOUT
  5
26
102
{ACAD_REACTORS
330
1A
102
}
330
1A
100
AcDbPlotSettings
  1

  2
none_device
  4

  6

 40
0.0
 41
0.0
 42
0.0
 43
0.0
 44
0.0
 45
0.0
 46
0.0
 47
0.0
 48
0.0
 49
0.0
140
0.0
141
0.0
142
1.0
143
1.0
 70
   688
 72
     0
 73
     0
 74
     5
  7

 75
    16
147
1.0
148
0.0
149
0.0
100
AcDbLayout
  1
Layout2
 70
     1
 71
     2
 10
0.0
 20
0.0
 11
0.0
 21
0.0
 12
0.0
 22
0.0
 32
0.0
 14
0.0
 24
0.0
 34
0.0
 15
0.0
 25
0.0
 35
0.0
146
0.0
 13
0.0
 23
0.0
 33
0.0
 16
1.0
 26
0.0
 36
0.0
 17
0.0
 27
1.0
 37
0.0
 76
     0
330
23
  0
LAYOUT
  5
22
102
{ACAD_REACTORS
330
1A
102
}
330
1A
100
AcDbPlotSettings
  1

  2
none_device
  4

  6

 40
0.0
 41
0.0
 42
0.0
 43
0.0
 44
0.0
 45
0.0
 46
0.0
 47
0.0
 48
0.0
 49
0.0
140
0.0
141
0.0
142
1.0
143
1.0
 70
  1712
 72
     0
 73
     0
 74
     0
  7

 75
     0
147
1.0
148
0.0
149
0.0
100
AcDbLayout
  1
Model
 70
     1
 71
     0
 10
0.0
 20
0.0
 11
12.0
 21
9.0
 12
0.0
 22
0.0
 32
0.0
 14
51.2298923439208
 24
255.3526980987674
 34
0.0
 15
294.6243292098491
 25
375.245377734626
 35
0.0
146
0.0
 13
0.0
 23
0.0
 33
0.0
 16
1.0
 26
0.0
 36
0.0
 17
0.0
 27
1.0
 37
0.0
 76
     0
330
1F
331
29
  0
MLINESTYLE
  5
18
102
{ACAD_REACTORS
330
17
102
}
330
17
100
AcDbMlineStyle
  2
Standard
 70
     0
  3

 62
   256
 51
90.0
 52
90.0
 71
     2
 49
0.5
 62
   256
  6
BYLAYER
 49
-0.5
 62
   256
  6
BYLAYER
  0
ACDBPLACEHOLDER
  5
F
102
{ACAD_REACTORS
330
E
102
}
330
E
  0
SCALE
  5
4B
102
{ACAD_REACTORS
330
4A
102
}
330
4A
100
AcDbScale
 70
     0
300
1:1
140
1.0
141
1.0
290
     1
  0
SCALE
  5
4C
102
{ACAD_REACTORS
330
4A
102
}
330
4A
100
AcDbScale
 70
     0
300
1:2
140
1.0
141
2.0
290
     0
  0
SCALE
  5
4D
102
{ACAD_REACTORS
330
4A
102
}
330
4A
100
AcDbScale
 70
     0
300
1:4
140
1.0
141
4.0
290
     0
  0
SCALE
  5
4E
102
{ACAD_REACTORS
330
4A
102
}
330
4A
100
AcDbScale
 70
     0
300
1:5
140
1.0
141
5.0
290
     0
  0
SCALE
  5
4F
102
{ACAD_REACTORS
330
4A
102
}
330
4A
100
AcDbScale
 70
     0
300
1:8
140
1.0
141
8.0
290
     0
  0
SCALE
  5
50
102
{ACAD_REACTORS
330
4A
102
}
330
4A
100
AcDbScale
 70
     0
300
1:10
140
1.0
141
10.0
290
     0
  0
SCALE
  5
51
102
{ACAD_REACTORS
330
4A
102
}
330
4A
100
AcDbScale
 70
     0
300
1:16
140
1.0
141
16.0
290
     0
  0
SCALE
  5
52
102
{ACAD_REACTORS
330
4A
102
}
330
4A
100
AcDbScale
 70
     0
300
1:20
140
1.0
141
20.0
290
     0
  0
SCALE
  5
53
102
{ACAD_REACTORS
330
4A
102
}
330
4A
100
AcDbScale
 70
     0
300
1:30
140
1.0
141
30.0
290
     0
  0
SCALE
  5
54
102
{ACAD_REACTORS
330
4A
102
}
330
4A
100
AcDbScale
 70
     0
300
1:40
140
1.0
141
40.0
290
     0
  0
SCALE
  5
55
102
{ACAD_REACTORS
330
4A
102
}
330
4A
100
AcDbScale
 70
     0
300
1:50
140
1.0
141
50.0
290
     0
  0
SCALE
  5
56
102
{ACAD_REACTORS
330
4A
102
}
330
4A
100
AcDbScale
 70
     0
300
1:100
140
1.0
141
100.0
290
     0
  0
SCALE
  5
57
102
{ACAD_REACTORS
330
4A
102
}
330
4A
100
AcDbScale
 70
     0
300
2:1
140
2.0
141
1.0
290
     0
  0
SCALE
  5
58
102
{ACAD_REACTORS
330
4A
102
}
330
4A
100
AcDbScale
 70
     0
300
4:1
140
4.0
141
1.0
290
     0
  0
SCALE
  5
59
102
{ACAD_REACTORS
330
4A
102
}
330
4A
100
AcDbScale
 70
     0
300
8:1
140
8.0
141
1.0
290
     0
  0
SCALE
  5
5A
102
{ACAD_REACTORS
330
4A
102
}
330
4A
100
AcDbScale
 70
     0
300
10:1
140
10.0
141
1.0
290
     0
  0
SCALE
  5
5B
102
{ACAD_REACTORS
330
4A
102
}
330
4A
100
AcDbScale
 70
     0
300
100:1
140
100.0
141
1.0
290
     0
  0
SCALE
  5
5C
102
{ACAD_REACTORS
330
4A
102
}
330
4A
100
AcDbScale
 70
     0
300
1/128" = 1'-0"
140
0.0078125
141
12.0
290
     0
  0
SCALE
  5
5D
102
{ACAD_REACTORS
330
4A
102
}
330
4A
100
AcDbScale
 70
     0
300
1/64" = 1'-0"
140
0.015625
141
12.0
290
     0
  0
SCALE
  5
5E
102
{ACAD_REACTORS
330
4A
102
}
330
4A
100
AcDbScale
 70
     0
300
1/32" = 1'-0"
140
0.03125
141
12.0
290
     0
  0
SCALE
  5
5F
102
{ACAD_REACTORS
330
4A
102
}
330
4A
100
AcDbScale
 70
     0
300
1/16" = 1'-0"
140
0.0625
141
12.0
290
     0
  0
SCALE
  5
60
102
{ACAD_REACTORS
330
4A
102
}
330
4A
100
AcDbScale
 70
     0
300
3/32" = 1'-0"
140
0.09375
141
12.0
290
     0
  0
SCALE
  5
61
102
{ACAD_REACTORS
330
4A
102
}
330
4A
100
AcDbScale
 70
     0
300
1/8" = 1'-0"
140
0.125
141
12.0
290
     0
  0
SCALE
  5
62
102
{ACAD_REACTORS
330
4A
102
}
330
4A
100
AcDbScale
 70
     0
300
3/16" = 1'-0"
140
0.1875
141
12.0
290
     0
  0
SCALE
  5
63
102
{ACAD_REACTORS
330
4A
102
}
330
4A
100
AcDbScale
 70
     0
300
1/4" = 1'-0"
140
0.25
141
12.0
290
     0
  0
SCALE
  5
64
102
{ACAD_REACTORS
330
4A
102
}
330
4A
100
AcDbScale
 70
     0
300
3/8" = 1'-0"
140
0.375
141
12.0
290
     0
  0
SCALE
  5
65
102
{ACAD_REACTORS
330
4A
102
}
330
4A
100
AcDbScale
 70
     0
300
1/2" = 1'-0"
140
0.5
141
12.0
290
     0
  0
SCALE
  5
66
102
{ACAD_REACTORS
330
4A
102
}
330
4A
100
AcDbScale
 70
     0
300
3/4" = 1'-0"
140
0.75
141
12.0
290
     0
  0
SCALE
  5
67
102
{ACAD_REACTORS
330
4A
102
}
330
4A
100
AcDbScale
 70
     0
300
1" = 1'-0"
140
1.0
141
12.0
290
     0
  0
SCALE
  5
68
102
{ACAD_REACTORS
330
4A
102
}
330
4A
100
AcDbScale
 70
     0
300
1-1/2" = 1'-0"
140
1.5
141
12.0
290
     0
  0
SCALE
  5
69
102
{ACAD_REACTORS
330
4A
102
}
330
4A
100
AcDbScale
 70
     0
300
3" = 1'-0"
140
3.0
141
12.0
290
     0
  0
SCALE
  5
6A
102
{ACAD_REACTORS
330
4A
102
}
330
4A
100
AcDbScale
 70
     0
300
6" = 1'-0"
140
6.0
141
12.0
290
     0
  0
SCALE
  5
6B
102
{ACAD_REACTORS
330
4A
102
}
330
4A
100
AcDbScale
 70
     0
300
1'-0" = 1'-0"
140
12.0
141
12.0
290
     0
  0
VISUALSTYLE
  5
2F
102
{ACAD_REACTORS
330
2A
102
}
330
2A
100
AcDbVisualStyle
  2
2dWireframe
 70
     4
 71
     0
 72
     2
 73
     0
 90
        0
 40
-0.6
 41
-30.0
 62
     5
 63
     7
 74
     1
 91
        4
 64
     7
 65
   257
 75
     1
175
     1
 42
1.0
 92
        0
 66
   257
 43
1.0
 76
     1
 77
     6
 78
     2
 67
     7
 79
     5
170
     0
171
     0
290
     0
174
     0
 93
        1
 44
0.0
173
     0
291
     0
 45
0.0
1001
ACAD
1000
AcDbSavedByObjectVersion
1070
     0
  0
VISUALSTYLE
  5
31
102
{ACAD_REACTORS
330
2A
102
}
330
2A
100
AcDbVisualStyle
  2
3D Hidden
 70
     6
 71
     1
 72
     2
 73
     2
 90
        0
 40
-0.6
 41
-30.0
 62
     5
 63
     7
 74
     2
 91
        2
 64
     7
 65
   257
 75
     2
175
     1
 42
40.0
 92
        0
 66
   257
 43
1.0
 76
     1
 77
     6
 78
     2
 67
     7
 79
     3
170
     0
171
     0
290
     0
174
     0
 93
        1
 44
0.0
173
     0
291
     0
 45
0.0
1001
ACAD
1000
AcDbSavedByObjectVersion
1070
     0
  0
VISUALSTYLE
  5
30
102
{ACAD_REACTORS
330
2A
102
}
330
2A
100
AcDbVisualStyle
  2
3dWireframe
 70
     5
 71
     0
 72
     2
 73
     0
 90
        0
 40
-0.6
 41
-30.0
 62
     5
 63
     7
 74
     1
 91
        4
 64
     7
 65
   257
 75
     1
175
     1
 42
1.0
 92
        0
 66
   257
 43
1.0
 76
     1
 77
     6
 78
     2
 67
     7
 79
     5
170
     0
171
     0
290
     0
174
     0
 93
        1
 44
0.0
173
     0
291
     0
 45
0.0
1001
ACAD
1000
AcDbSavedByObjectVersion
1070
     0
  0
VISUALSTYLE
  5
32
102
{ACAD_REACTORS
330
2A
102
}
330
2A
100
AcDbVisualStyle
  2
Basic
 70
     7
 71
     1
 72
     0
 73
     1
 90
        0
 40
-0.6
 41
-30.0
 62
     5
 63
     7
 74
     0
 91
        4
 64
     7
 65
   257
 75
     1
175
     1
 42
1.0
 92
        8
 66
     7
 43
1.0
 76
     1
 77
     6
 78
     2
 67
     7
 79
     5
170
     0
171
     0
290
     0
174
     0
 93
        1
 44
0.0
173
     0
291
     1
 45
0.0
1001
ACAD
1000
AcDbSavedByObjectVersion
1070
     0
  0
VISUALSTYLE
  5
36
102
{ACAD_REACTORS
330
2A
102
}
330
2A
100
AcDbVisualStyle
  2
Brighten
 70
    12
 71
     2
 72
     2
 73
     0
 90
        0
 40
-0.6
 41
-30.0
 62
     5
 63
     7
 74
     1
 91
        4
 64
     7
 65
   257
 75
     1
175
     1
 42
1.0
 92
        8
 66
     7
 43
1.0
 76
     1
 77
     6
 78
     2
 67
     7
 79
     5
170
     0
171
     0
290
     0
174
     0
 93
        1
 44
50.0
173
     0
291
     1
 45
0.0
1001
ACAD
1000
AcDbSavedByObjectVersion
1070
     0
  0
VISUALSTYLE
  5
3A
102
{ACAD_REACTORS
330
2A
102
}
330
2A
100
AcDbVisualStyle
  2
ColorChange
 70
    16
 71
     2
 72
     2
 73
     3
 90
        0
 40
-0.6
 41
-30.0
 62
     5
 63
     8
 74
     1
 91
        4
 64
     7
 65
   257
 75
     1
175
     1
 42
1.0
 92
        8
 66
     8
 43
1.0
 76
     1
 77
     6
 78
     2
 67
     7
 79
     5
170
     0
171
     0
290
     0
174
     0
 93
        1
 44
0.0
173
     0
291
     1
 45
0.0
1001
ACAD
1000
AcDbSavedByObjectVersion
1070
     0
  0
VISUALSTYLE
  5
34
102
{ACAD_REACTORS
330
2A
102
}
330
2A
100
AcDbVisualStyle
  2
Conceptual
 70
     9
 71
     3
 72
     2
 73
     0
 90
        0
 40
-0.6
 41
-30.0
 62
     5
 63
     7
 74
     2
 91
        2
 64
     7
 65
   257
 75
     1
175
     1
 42
40.0
 92
        8
 66
     7
 43
1.0
 76
     1
 77
     6
 78
     2
 67
     7
 79
     3
170
     0
171
     0
290
     0
174
     0
 93
        1
 44
0.0
173
     0
291
     0
 45
0.0
1001
ACAD
1000
AcDbSavedByObjectVersion
1070
     0
  0
VISUALSTYLE
  5
35
102
{ACAD_REACTORS
330
2A
102
}
330
2A
100
AcDbVisualStyle
  2
Dim
 70
    11
 71
     2
 72
     2
 73
     0
 90
        0
 40
-0.6
 41
-30.0
 62
     5
 63
     7
 74
     1
 91
        4
 64
     7
 65
   257
 75
     1
175
     1
 42
1.0
 92
        8
 66
     7
 43
1.0
 76
     1
 77
     6
 78
     2
 67
     7
 79
     5
170
     0
171
     0
290
     0
174
     0
 93
        1
 44
-50.0
173
     0
291
     1
 45
0.0
1001
ACAD
1000
AcDbSavedByObjectVersion
1070
     0
  0
VISUALSTYLE
  5
39
102
{ACAD_REACTORS
330
2A
102
}
330
2A
100
AcDbVisualStyle
  2
Facepattern
 70
    15
 71
     2
 72
     2
 73
     0
 90
        0
 40
-0.6
 41
-30.0
 62
     5
 63
     7
 74
     1
 91
        4
 64
     7
 65
   257
 75
     1
175
     1
 42
1.0
 92
        8
 66
     7
 43
1.0
 76
     1
 77
     6
 78
     2
 67
     7
 79
     5
170
     0
171
     0
290
     0
174
     0
 93
        1
 44
0.0
173
     0
291
     1
 45
0.0
1001
ACAD
1000
AcDbSavedByObjectVersion
1070
     0
  0
VISUALSTYLE
  5
2B
102
{ACAD_REACTORS
330
2A
102
}
330
2A
100
AcDbVisualStyle
  2
Flat
 70
     0
 71
     2
 72
     1
 73
     1
 90
        2
 40
-0.6
 41
30.0
 62
     5
 63
     7
 74
     0
 91
        4
 64
     7
 65
   257
 75
     1
175
     1
 42
1.0
 92
        8
 66
     7
 43
1.0
 76
     1
 77
     6
 78
     2
 67
     7
 79
     5
170
     0
171
     0
290
     0
174
     0
 93
       13
 44
0.0
173
     0
291
     1
 45
0.0
1001
ACAD
1000
AcDbSavedByObjectVersion
1070
     0
  0
VISUALSTYLE
  5
2C
102
{ACAD_REACTORS
330
2A
102
}
330
2A
100
AcDbVisualStyle
  2
FlatWithEdges
 70
     1
 71
     2
 72
     1
 73
     1
 90
        2
 40
-0.6
 41
30.0
 62
     5
 63
     7
 74
     1
 91
        4
 64
     7
 65
   257
 75
     1
175
     1
 42
1.0
 92
        0
 66
   257
 43
1.0
 76
     1
 77
     6
 78
     2
 67
     7
 79
     5
170
     0
171
     0
290
     0
174
     0
 93
       13
 44
0.0
173
     0
291
     1
 45
0.0
1001
ACAD
1000
AcDbSavedByObjectVersion
1070
     0
  0
VISUALSTYLE
  5
2D
102
{ACAD_REACTORS
330
2A
102
}
330
2A
100
AcDbVisualStyle
  2
Gouraud
 70
     2
 71
     2
 72
     2
 73
     1
 90
        2
 40
-0.6
 41
30.0
 62
     5
 63
     7
 74
     0
 91
        4
 64
     7
 65
   257
 75
     1
175
     1
 42
1.0
 92
        0
 66
     7
 43
1.0
 76
     1
 77
     6
 78
     2
 67
     7
 79
     5
170
     0
171
     0
290
     0
174
     0
 93
       13
 44
0.0
173
     0
291
     1
 45
0.0
1001
ACAD
1000
AcDbSavedByObjectVersion
1070
     0
  0
VISUALSTYLE
  5
2E
102
{ACAD_REACTORS
330
2A
102
}
330
2A
100
AcDbVisualStyle
  2
GouraudWithEdges
 70
     3
 71
     2
 72
     2
 73
     1
 90
        2
 40
-0.6
 41
30.0
 62
     5
 63
     7
 74
     1
 91
        4
 64
     7
 65
   257
 75
     1
175
     1
 42
1.0
 92
        0
 66
   257
 43
1.0
 76
     1
 77
     6
 78
     2
 67
     7
 79
     5
170
     0
171
     0
290
     0
174
     0
 93
       13
 44
0.0
173
     0
291
     1
 45
0.0
1001
ACAD
1000
AcDbSavedByObjectVersion
1070
     0
  0
VISUALSTYLE
  5
38
102
{ACAD_REACTORS
330
2A
102
}
330
2A
100
AcDbVisualStyle
  2
Linepattern
 70
    14
 71
     2
 72
     2
 73
     0
 90
        0
 40
-0.6
 41
-30.0
 62
     5
 63
     7
 74
     1
 91
        4
 64
     7
 65
   257
 75
     7
175
     7
 42
1.0
 92
        8
 66
     7
 43
1.0
 76
     1
 77
     6
 78
     2
 67
     7
 79
     5
170
     0
171
     0
290
     0
174
     0
 93
        1
 44
0.0
173
     0
291
     1
 45
0.0
1001
ACAD
1000
AcDbSavedByObjectVersion
1070
     0
  0
VISUALSTYLE
  5
33
102
{ACAD_REACTORS
330
2A
102
}
330
2A
100
AcDbVisualStyle
  2
Realistic
 70
     8
 71
     2
 72
     2
 73
     0
 90
        0
 40
-0.6
 41
-30.0
 62
     5
 63
     7
 74
     1
 91
        0
 64
     7
 65
   257
 75
     1
175
     1
 42
1.0
 92
        8
 66
     8
 43
1.0
 76
     1
 77
     6
 78
     2
 67
     7
 79
     5
170
     0
171
     0
290
     0
174
     0
 93
       13
 44
0.0
173
     0
291
     0
 45
0.0
1001
ACAD
1000
AcDbSavedByObjectVersion
1070
     0
  0
VISUALSTYLE
  5
37
102
{ACAD_REACTORS
330
2A
102
}
330
2A
100
AcDbVisualStyle
  2
Thicken
 70
    13
 71
     2
 72
     2
 73
     0
 90
        0
 40
-0.6
 41
-30.0
 62
     5
 63
     7
 74
     1
 91
        4
 64
     7
 65
   257
 75
     1
175
     1
 42
1.0
 92
       12
 66
     7
 43
1.0
 76
     1
 77
     6
 78
     2
 67
     7
 79
     5
170
     0
171
     0
290
     0
174
     0
 93
        1
 44
0.0
173
     0
291
     1
 45
0.0
1001
ACAD
1000
AcDbSavedByObjectVersion
1070
     0
  0
DICTIONARYVAR
  5
FF
102
{ACAD_REACTORS
330
FC
102
}
330
FC
100
DictionaryVariables
280
     0
  1
1:1
  0
ENDSEC
  0
EOF
