  0
SECTION
  2
HEADER
  9
$ACADVER
  1
AC1015
  9
$ACADMAINTVER
 70
     6
  9
$DWGCODEPAGE
  3
ANSI_1252
  9
$INSBASE
 10
0.0
 20
0.0
 30
0.0
  9
$EXTMIN
 10
34.0376923455768
 20
249.6218638991672
 30
0.0
  9
$EXTMAX
 10
281.754242589151
 20
369.484107172453
 30
0.0
  9
$LIMMIN
 10
0.0
 20
0.0
  9
$LIMMAX
 10
12.0
 20
9.0
  9
$ORTHOMODE
 70
     0
  9
$REGENMODE
 70
     1
  9
$FILLMODE
 70
     1
  9
$QTEXTMODE
 70
     0
  9
$MIRRTEXT
 70
     1
  9
$LTSCALE
 40
1.0
  9
$ATTMODE
 70
     1
  9
$TEXTSIZE
 40
0.2
  9
$TRACEWID
 40
0.05
  9
$TEXTSTYLE
  7
Standard
  9
$CLAYER
  8
0
  9
$CELTYPE
  6
ByLayer
  9
$CECOLOR
 62
   256
  9
$CELTSCALE
 40
1.0
  9
$DISPSILH
 70
     0
  9
$DIMSCALE
 40
1.0
  9
$DIMASZ
 40
0.18
  9
$DIMEXO
 40
0.0625
  9
$DIMDLI
 40
0.38
  9
$DIMRND
 40
0.0
  9
$DIMDLE
 40
0.0
  9
$DIMEXE
 40
0.18
  9
$DIMTP
 40
0.0
  9
$DIMTM
 40
0.0
  9
$DIMTXT
 40
0.18
  9
$DIMCEN
 40
0.09
  9
$DIMTSZ
 40
0.0
  9
$DIMTOL
 70
     0
  9
$DIMLIM
 70
     0
  9
$DIMTIH
 70
     1
  9
$DIMTOH
 70
     1
  9
$DIMSE1
 70
     0
  9
$DIMSE2
 70
     0
  9
$DIMTAD
 70
     0
  9
$DIMZIN
 70
     0
  9
$DIMBLK
  1

  9
$DIMASO
 70
     1
  9
$DIMSHO
 70
     1
  9
$DIMPOST
  1

  9
$DIMAPOST
  1

  9
$DIMALT
 70
     0
  9
$DIMALTD
 70
     2
  9
$DIMALTF
 40
25.4
  9
$DIMLFAC
 40
1.0
  9
$DIMTOFL
 70
     0
  9
$DIMTVP
 40
0.0
  9
$DIMTIX
 70
     0
  9
$DIMSOXD
 70
     0
  9
$DIMSAH
 70
     0
  9
$DIMBLK1
  1

  9
$DIMBLK2
  1

  9
$DIMSTYLE
  2
Standard
  9
$DIMCLRD
 70
     0
  9
$DIMCLRE
 70
     0
  9
$DIMCLRT
 70
     0
  9
$DIMTFAC
 40
1.0
  9
$DIMGAP
 40
0.09
  9
$DIMJUST
 70
     0
  9
$DIMSD1
 70
     0
  9
$DIMSD2
 70
     0
  9
$DIMTOLJ
 70
     1
  9
$DIMTZIN
 70
     0
  9
$DIMALTZ
 70
     0
  9
$DIMALTTZ
 70
     0
  9
$DIMUPT
 70
     0
  9
$DIMDEC
 70
     4
  9
$DIMTDEC
 70
     4
  9
$DIMALTU
 70
     2
  9
$DIMALTTD
 70
     2
  9
$DIMTXSTY
  7
Standard
  9
$DIMAUNIT
 70
     0
  9
$DIMADEC
 70
     0
  9
$DIMALTRND
 40
0.0
  9
$DIMAZIN
 70
     0
  9
$DIMDSEP
 70
    46
  9
$DIMATFIT
 70
     3
  9
$DIMFRAC
 70
     0
  9
$DIMLDRBLK
  1

  9
$DIMLUNIT
 70
     2
  9
$DIMLWD
 70
    -2
  9
$DIMLWE
 70
    -2
  9
$DIMTMOVE
 70
     0
  9
$LUNITS
 70
     2
  9
$LUPREC
 70
     4
  9
$SKETCHINC
 40
0.1
  9
$FILLETRAD
 40
0.5
  9
$AUNITS
 70
     0
  9
$AUPREC
 70
     0
  9
$MENU
  1
.
  9
$ELEVATION
 40
0.0
  9
$PELEVATION
 40
0.0
  9
$THICKNESS
 40
0.0
  9
$LIMCHECK
 70
     0
  9
$CHAMFERA
 40
0.5
  9
$CHAMFERB
 40
0.5
  9
$CHAMFERC
 40
1.0
  9
$CHAMFERD
 40
0.0
  9
$SKPOLY
 70
     0
  9
$TDCREATE
 40
2456821.367863044
  9
$TDUCREATE
 40
2456821.284529711
  9
$TDUPDATE
 40
2456821.367863056
  9
$TDUUPDATE
 40
2456821.284529722
  9
$TDINDWG
 40
0.0000000116
  9
$TDUSRTIMER
 40
0.0000000116
  9
$USRTIMER
 70
     1
  9
$ANGBASE
 50
0.0
  9
$ANGDIR
 70
     0
  9
$PDMODE
 70
     0
  9
$PDSIZE
 40
0.0
  9
$PLINEWID
 40
0.0
  9
$SPLFRAME
 70
     0
  9
$SPLINETYPE
 70
     6
  9
$SPLINESEGS
 70
     8
  9
$HANDSEED
  5
100
  9
$SURFTAB1
 70
     6
  9
$SURFTAB2
 70
     6
  9
$SURFTYPE
 70
     6
  9
$SURFU
 70
     6
  9
$SURFV
 70
     6
  9
$UCSBASE
  2

  9
$UCSNAME
  2

  9
$UCSORG
 10
0.0
 20
0.0
 30
0.0
  9
$UCSXDIR
 10
1.0
 20
0.0
 30
0.0
  9
$UCSYDIR
 10
0.0
 20
1.0
 30
0.0
  9
$UCSORTHOREF
  2

  9
$UCSORTHOVIEW
 70
     0
  9
$UCSORGTOP
 10
0.0
 20
0.0
 30
0.0
  9
$UCSORGBOTTOM
 10
0.0
 20
0.0
 30
0.0
  9
$UCSORGLEFT
 10
0.0
 20
0.0
 30
0.0
  9
$UCSORGRIGHT
 10
0.0
 20
0.0
 30
0.0
  9
$UCSORGFRONT
 10
0.0
 20
0.0
 30
0.0
  9
$UCSORGBACK
 10
0.0
 20
0.0
 30
0.0
  9
$PUCSBASE
  2

  9
$PUCSNAME
  2

  9
$PUCSORG
 10
0.0
 20
0.0
 30
0.0
  9
$PUCSXDIR
 10
1.0
 20
0.0
 30
0.0
  9
$PUCSYDIR
 10
0.0
 20
1.0
 30
0.0
  9
$PUCSORTHOREF
  2

  9
$PUCSORTHOVIEW
 70
     0
  9
$PUCSORGTOP
 10
0.0
 20
0.0
 30
0.0
  9
$PUCSORGBOTTOM
 10
0.0
 20
0.0
 30
0.0
  9
$PUCSORGLEFT
 10
0.0
 20
0.0
 30
0.0
  9
$PUCSORGRIGHT
 10
0.0
 20
0.0
 30
0.0
  9
$PUCSORGFRONT
 10
0.0
 20
0.0
 30
0.0
  9
$PUCSORGBACK
 10
0.0
 20
0.0
 30
0.0
  9
$USERI1
 70
     0
  9
$USERI2
 70
     0
  9
$USERI3
 70
     0
  9
$USERI4
 70
     0
  9
$USERI5
 70
     0
  9
$USERR1
 40
16.5
  9
$USERR2
 40
0.0
  9
$USERR3
 40
0.0
  9
$USERR4
 40
0.0
  9
$USERR5
 40
0.0
  9
$WORLDVIEW
 70
     1
  9
$SHADEDGE
 70
     3
  9
$SHADEDIF
 70
    70
  9
$TILEMODE
 70
     1
  9
$MAXACTVP
 70
    64
  9
$PINSBASE
 10
0.0
 20
0.0
 30
0.0
  9
$PLIMCHECK
 70
     0
  9
$PEXTMIN
 10
1.00000000000000E+20
 20
1.00000000000000E+20
 30
1.00000000000000E+20
  9
$PEXTMAX
 10
-1.00000000000000E+20
 20
-1.00000000000000E+20
 30
-1.00000000000000E+20
  9
$PLIMMIN
 10
0.0
 20
0.0
  9
$PLIMMAX
 10
12.0
 20
9.0
  9
$UNITMODE
 70
     0
  9
$VISRETAIN
 70
     1
  9
$PLINEGEN
 70
     0
  9
$PSLTSCALE
 70
     1
  9
$TREEDEPTH
 70
  3020
  9
$CMLSTYLE
  2
Standard
  9
$CMLJUST
 70
     0
  9
$CMLSCALE
 40
1.0
  9
$PROXYGRAPHICS
 70
     1
  9
$MEASUREMENT
 70
     1
  9
$CELWEIGHT
370
    -1
  9
$ENDCAPS
280
     0
  9
$JOINSTYLE
280
     0
  9
$LWDISPLAY
290
     0
  9
$INSUNITS
 70
     1
  9
$HYPERLINKBASE
  1

  9
$STYLESHEET
  1

  9
$XEDIT
290
     1
  9
$CEPSNTYPE
380
     0
  9
$PSTYLEMODE
290
     1
  9
$FINGERPRINTGUID
  2
{F4BE0562-AD1E-410F-9DC3-E448C5E41C4F}
  9
$VERSIONGUID
  2
{FAEB1C32-E019-11D5-929B-00C0DF256EC4}
  9
$EXTNAMES
290
     1
  9
$PSVPSCALE
 40
0.0
  9
$OLESTARTUP
290
     0
  0
ENDSEC
  0
SECTION
  2
CLASSES
  0
CLASS
  1
ACDBDICTIONARYWDFLT
  2
AcDbDictionaryWithDefault
  3
ObjectDBX Classes
 90
        0
280
     0
281
     0
  0
CLASS
  1
VISUALSTYLE
  2
AcDbVisualStyle
  3
ObjectDBX Classes
 90
     4095
280
     0
281
     0
  0
CLASS
  1
SCALE
  2
AcDbScale
  3
ObjectDBX Classes
 90
     1153
280
     0
281
     0
  0
CLASS
  1

  2
exOdDbPolyline
  3

 90
        0
280
     0
281
     1
  0
CLASS
  1

  2
exOdDbSpline
  3

 90
        0
280
     0
281
     1
  0
CLASS
  1
DICTIONARYVAR
  2
AcDbDictionaryVar
  3
ObjectDBX Classes
 90
        0
280
     0
281
     0
  0
CLASS
  1
ACDBPLACEHOLDER
  2
AcDbPlaceHolder
  3
ObjectDBX Classes
 90
        0
280
     0
281
     0
  0
CLASS
  1
LAYOUT
  2
AcDbLayout
  3
ObjectDBX Classes
 90
        0
280
     0
281
     0
  0
ENDSEC
  0
SECTION
  2
TABLES
  0
TABLE
  2
VPORT
  5
8
330
0
100
AcDbSymbolTable
 70
     1
  0
VPORT
  5
29
330
8
100
AcDbSymbolTableRecord
100
AcDbViewportTableRecord
  2
*Active
 70
     0
 10
0.0
 20
0.0
 11
1.0
 21
1.0
 12
157.8959674673639
 22
309.5529855358101
 13
0.0
 23
0.0
 14
0.5
 24
0.5
 15
0.5
 25
0.5
 16
0.0
 26
0.0
 36
1.0
 17
0.0
 27
0.0
 37
0.0
 40
170.0204957660632
 41
1.60267857142857
 42
50.0
 43
0.0
 44
0.0
 50
0.0
 51
0.0
 71
     0
 72
   100
 73
     1
 74
     3
 75
     0
 76
     0
 77
     0
 78
     0
281
     0
 65
     1
110
0.0
120
0.0
130
0.0
111
1.0
121
0.0
131
0.0
112
0.0
122
1.0
132
0.0
 79
     0
146
0.0
  0
ENDTAB
  0
TABLE
  2
LTYPE
  5
5
330
0
100
AcDbSymbolTable
 70
     8
  0
LTYPE
  5
14
330
5
100
AcDbSymbolTableRecord
100
AcDbLinetypeTableRecord
  2
ByBlock
 70
     0
  3

 72
    65
 73
     0
 40
0.0
  0
LTYPE
  5
15
330
5
100
AcDbSymbolTableRecord
100
AcDbLinetypeTableRecord
  2
ByLayer
 70
     0
  3

 72
    65
 73
     0
 40
0.0
  0
LTYPE
  5
16
330
5
100
AcDbSymbolTableRecord
100
AcDbLinetypeTableRecord
  2
Continuous
 70
     0
  3
Solid line
 72
    65
 73
     0
 40
0.0
  0
LTYPE
  5
3B
330
5
100
AcDbSymbolTableRecord
100
AcDbLinetypeTableRecord
  2
DASHED
 70
     0
  3
Dashed
 72
    65
 73
     2
 40
15.0
 49
7.0
 74
     0
 49
-8.0
 74
     0
  0
LTYPE
  5
3C
330
5
100
AcDbSymbolTableRecord
100
AcDbLinetypeTableRecord
  2
DOTTED
 70
     0
  3
Dotted
 72
    65
 73
     2
 40
1.0
 49
0.0
 74
     0
 49
-1.0
 74
     0
  0
LTYPE
  5
3D
330
5
100
AcDbSymbolTableRecord
100
AcDbLinetypeTableRecord
  2
DOT_CENTER
 70
     0
  3
Dot_Center
 72
    65
 73
     4
 40
14.0
 49
12.0
 74
     0
 49
-1.0
 74
     0
 49
0.0
 74
     0
 49
-1.0
 74
     0
  0
LTYPE
  5
3E
330
5
100
AcDbSymbolTableRecord
100
AcDbLinetypeTableRecord
  2
LONG_DASHED
 70
     0
  3
Long_Dashed
 72
    65
 73
     2
 40
15.0
 49
10.0
 74
     0
 49
-5.0
 74
     0
  0
LTYPE
  5
3F
330
5
100
AcDbSymbolTableRecord
100
AcDbLinetypeTableRecord
  2
DASH_CENTER
 70
     0
  3
Dash_Center
 72
    65
 73
     4
 40
14.0
 49
11.0
 74
     0
 49
-1.0
 74
     0
 49
1.0
 74
     0
 49
-1.0
 74
     0
  0
LTYPE
  5
40
330
5
100
AcDbSymbolTableRecord
100
AcDbLinetypeTableRecord
  2
PHANTOM
 70
     0
  3
Phantom
 72
    65
 73
     6
 40
13.0
 49
10.0
 74
     0
 49
-1.0
 74
     0
 49
0.0
 74
     0
 49
-1.0
 74
     0
 49
0.0
 74
     0
 49
-1.0
 74
     0
  0
LTYPE
  5
41
330
5
100
AcDbSymbolTableRecord
100
AcDbLinetypeTableRecord
  2
CENTER_DASH_DASH
 70
     0
  3
Center_Dash_Dash
 72
    65
 73
     6
 40
14.0
 49
9.0
 74
     0
 49
-1.0
 74
     0
 49
1.0
 74
     0
 49
-1.0
 74
     0
 49
1.0
 74
     0
 49
-1.0
 74
     0
  0
ENDTAB
  0
TABLE
  2
LAYER
  5
2
330
0
100
AcDbSymbolTable
 70
     6
  0
LAYER
  5
10
330
2
100
AcDbSymbolTableRecord
100
AcDbLayerTableRecord
  2
0
 70
     0
 62
     7
  6
Continuous
370
    -3
390
F
  0
LAYER
  5
42
330
2
100
AcDbSymbolTableRecord
100
AcDbLayerTableRecord
  2
1
 70
     0
 62
     7
  6
Continuous
370
    -3
390
F
  0
LAYER
  5
43
330
2
100
AcDbSymbolTableRecord
100
AcDbLayerTableRecord
  2
BEZUGSACHSEN
 70
     0
 62
     7
  6
Continuous
370
    -3
390
F
  0
LAYER
  5
44
330
2
100
AcDbSymbolTableRecord
100
AcDbLayerTableRecord
  2
DEFAULT_2
 70
     0
 62
     7
  6
Continuous
370
    -3
390
F
  0
LAYER
  5
45
330
2
100
AcDbSymbolTableRecord
100
AcDbLayerTableRecord
  2
RUNDUNGEN
 70
     0
 62
     7
  6
Continuous
370
    -3
390
F
  0
LAYER
  5
46
330
2
100
AcDbSymbolTableRecord
100
AcDbLayerTableRecord
  2
TEIL_STARTBEZUEGE
 70
     0
 62
     7
  6
Continuous
370
    -3
390
F
  0
ENDTAB
  0
TABLE
  2
STYLE
  5
3
330
0
100
AcDbSymbolTable
 70
     2
  0
STYLE
  5
11
330
3
100
AcDbSymbolTableRecord
100
AcDbTextStyleTableRecord
  2
Standard
 70
     0
 40
0.0
 41
1.0
 50
0.0
 71
     0
 42
0.2
  3
txt
  4

  0
STYLE
  5
6D
330
3
100
AcDbSymbolTableRecord
100
AcDbTextStyleTableRecord
  2
CONVERTER_11
 70
     0
 40
0.0
 41
0.72
 50
0.0
 71
     0
 42
0.2
  3
txt.shx
  4

  0
ENDTAB
  0
TABLE
  2
VIEW
  5
6
330
0
100
AcDbSymbolTable
 70
     0
  0
ENDTAB
  0
TABLE
  2
UCS
  5
7
330
0
100
AcDbSymbolTable
 70
     0
  0
ENDTAB
  0
TABLE
  2
APPID
  5
9
330
0
100
AcDbSymbolTable
 70
     1
  0
APPID
  5
12
330
9
100
AcDbSymbolTableRecord
100
AcDbRegAppTableRecord
  2
ACAD
 70
     0
  0
ENDTAB
  0
TABLE
  2
DIMSTYLE
  5
A
330
0
100
AcDbSymbolTable
 70
     6
100
AcDbDimStyleTable
  0
DIMSTYLE
105
27
330
A
100
AcDbSymbolTableRecord
100
AcDbDimStyleTableRecord
  2
Standard
 70
     0
340
11
  0
DIMSTYLE
105
C7
102
{ACAD_REACTORS
330
C8
102
}
330
A
100
AcDbSymbolTableRecord
100
AcDbDimStyleTableRecord
  2
ME10_DIM_10
 70
     0
  3
<>
 41
3.5
 42
2.0
 44
2.0
 71
     1
 73
     0
 74
     0
 77
     1
 78
     8
140
3.5
146
0.7
147
2.0
172
     1
173
     1
176
     2
177
     2
178
     3
271
     2
272
     0
340
6D
  0
DIMSTYLE
105
D2
102
{ACAD_REACTORS
330
D3
102
}
330
A
100
AcDbSymbolTableRecord
100
AcDbDimStyleTableRecord
  2
ME10_DIM_11
 70
     0
  3
<>
 41
3.5
 42
2.0
 44
2.0
 71
     1
 73
     0
 74
     0
 77
     1
 78
     8
140
3.5
146
0.7
147
2.0
172
     1
173
     1
176
     2
177
     2
178
     3
271
     2
272
     0
340
6D
  0
DIMSTYLE
105
DD
102
{ACAD_REACTORS
330
DE
102
}
330
A
100
AcDbSymbolTableRecord
100
AcDbDimStyleTableRecord
  2
ME10_DIM_12
 70
     0
  3
<>
 41
3.5
 42
2.0
 44
2.0
 71
     1
 73
     0
 74
     0
 77
     1
 78
     8
140
3.5
146
0.7
147
2.0
172
     1
173
     1
176
     2
177
     2
178
     3
271
     2
272
     0
340
6D
  0
DIMSTYLE
105
E8
102
{ACAD_REACTORS
330
E9
102
}
330
A
100
AcDbSymbolTableRecord
100
AcDbDimStyleTableRecord
  2
ME10_DIM_13
 70
     0
  3
\U+2300<>
 41
3.5
 42
2.0
 44
2.0
 71
     1
 73
     0
 74
     0
 77
     1
 78
     8
140
3.5
146
0.7
147
2.0
172
     1
173
     1
176
     2
177
     2
178
     3
271
     2
272
     0
340
6D
  0
DIMSTYLE
105
F3
102
{ACAD_REACTORS
330
F4
102
}
330
A
100
AcDbSymbolTableRecord
100
AcDbDimStyleTableRecord
  2
ME10_DIM_14
 70
     0
  3
\U+2300<>
 41
3.5
 42
2.0
 44
2.0
 71
     1
 73
     0
 74
     0
 77
     1
 78
     8
140
3.5
146
0.7
147
2.0
172
     1
173
     1
176
     2
177
     2
178
     3
271
     2
272
     0
340
6D
  0
ENDTAB
  0
TABLE
  2
BLOCK_RECORD
  5
1
330
0
100
AcDbSymbolTable
 70
     8
  0
BLOCK_RECORD
  5
1F
330
1
100
AcDbSymbolTableRecord
100
AcDbBlockTableRecord
  2
*Model_Space
340
22
  0
BLOCK_RECORD
  5
1B
330
1
100
AcDbSymbolTableRecord
100
AcDbBlockTableRecord
  2
*Paper_Space
340
1E
  0
BLOCK_RECORD
  5
23
330
1
100
AcDbSymbolTableRecord
100
AcDbBlockTableRecord
  2
*Paper_Space0
340
26
  0
BLOCK_RECORD
  5
47
330
1
100
AcDbSymbolTableRecord
100
AcDbBlockTableRecord
  2
Urheberrecht_DE-EN
340
0
102
{BLKREFS
331
6C
102
}
  0
BLOCK_RECORD
  5
BE
330
1
100
AcDbSymbolTableRecord
100
AcDbBlockTableRecord
  2
*D2
340
0
  0
BLOCK_RECORD
  5
C9
330
1
100
AcDbSymbolTableRecord
100
AcDbBlockTableRecord
  2
*D3
340
0
  0
BLOCK_RECORD
  5
D4
330
1
100
AcDbSymbolTableRecord
100
AcDbBlockTableRecord
  2
*D4
340
0
  0
BLOCK_RECORD
  5
DF
330
1
100
AcDbSymbolTableRecord
100
AcDbBlockTableRecord
  2
*D5
340
0
  0
BLOCK_RECORD
  5
EA
330
1
100
AcDbSymbolTableRecord
100
AcDbBlockTableRecord
  2
*D6
340
0
  0
BLOCK_RECORD
  5
F5
330
1
100
AcDbSymbolTableRecord
100
AcDbBlockTableRecord
  2
*D7
340
0
102
{BLKREFS
331
FB
102
}
  0
ENDTAB
  0
ENDSEC
  0
SECTION
  2
BLOCKS
  0
BLOCK
  5
20
330
1F
100
AcDbEntity
  8
0
100
AcDbBlockBegin
  2
*Model_Space
 70
     0
 10
0.0
 20
0.0
 30
0.0
  3
*Model_Space
  1

  0
ENDBLK
  5
21
330
1F
100
AcDbEntity
  8
0
100
AcDbBlockEnd
  0
BLOCK
  5
1C
330
1B
100
AcDbEntity
 67
     1
  8
0
100
AcDbBlockBegin
  2
*Paper_Space
 70
     0
 10
0.0
 20
0.0
 30
0.0
  3
*Paper_Space
  1

  0
ENDBLK
  5
1D
330
1B
100
AcDbEntity
 67
     1
  8
0
100
AcDbBlockEnd
  0
BLOCK
  5
24
330
23
100
AcDbEntity
  8
0
100
AcDbBlockBegin
  2
*Paper_Space0
 70
     0
 10
0.0
 20
0.0
 30
0.0
  3
*Paper_Space0
  1

  0
ENDBLK
  5
25
330
23
100
AcDbEntity
  8
0
100
AcDbBlockEnd
  0
BLOCK
  5
48
330
47
100
AcDbEntity
  8
0
100
AcDbBlockBegin
  2
Urheberrecht_DE-EN
 70
     0
 10
48.0376923455768
 20
310.370321434164
 30
0.0
  3
Urheberrecht_DE-EN
  1

  0
MTEXT
  5
6E
330
47
100
AcDbEntity
  8
1
 62
     1
100
AcDbMText
 10
48.0376923455768
 20
254.0809345168578
 30
0.0
 40
2.0
 41
0.0
 71
     7
 72
     1
  1
F\U+00fcr diese Unterlage behalten wir das Ur-\Pheberrecht. Sie darf nur f\U+00fcr den von uns \Pbestimmten Zweck benutzt und ohne unsere \PZustimmung weder vervielf\U+00e4ltigt noch\PDritten zug\U+00e4nglich gemacht werden.
  7
CONVERTER_11
 11
0.0
 21
1.0
 31
0.0
 73
     1
 44
0.90036014405762
  0
MTEXT
  5
6F
330
47
100
AcDbEntity
  8
1
 62
     1
100
AcDbMText
 10
48.0376923455768
 20
310.370321434164
 30
0.0
 40
2.0
 41
0.0
 71
     7
 72
     1
  1
We own the copyright of this document. It \Pdetermined and may neither be copied or \Pmade accessible to outsiders without our\Ppermission.
  7
CONVERTER_11
 11
0.0
 21
1.0
 31
0.0
 73
     1
 44
0.90036014405762
  0
ENDBLK
  5
49
330
47
100
AcDbEntity
  8
0
100
AcDbBlockEnd
  0
BLOCK
  5
C5
330
BE
100
AcDbEntity
  8
0
100
AcDbBlockBegin
  2
*D2
 70
     1
 10
0.0
 20
0.0
 30
0.0
  3
*D2
  1

  0
LINE
  5
BF
330
BE
100
AcDbEntity
  8
1
  6
Continuous
 62
     2
100
AcDbLine
 10
259.9852260915001
 20
363.984107172453
 30
0.0
 11
58.2352260915
 21
363.984107172453
 31
0.0
  0
LINE
  5
C0
330
BE
100
AcDbEntity
  8
1
  6
Continuous
 62
     2
100
AcDbLine
 10
259.9852260915001
 20
311.5519252795
 30
0.0
 11
259.9852260915001
 21
365.984107172453
 31
0.0
  0
LINE
  5
C1
330
BE
100
AcDbEntity
  8
1
  6
Continuous
 62
     2
100
AcDbLine
 10
58.2352260915
 20
316.7962760494
 30
0.0
 11
58.2352260915
 21
365.984107172453
 31
0.0
  0
SOLID
  5
C2
330
BE
100
AcDbEntity
  8
1
 62
     2
100
AcDbTrace
 10
256.4852260915001
 20
363.5233234308971
 30
0.0
 11
256.4852260915001
 21
364.4448909140089
 31
0.0
 12
259.9852260915001
 22
363.984107172453
 32
0.0
 13
259.9852260915001
 23
363.984107172453
 33
0.0
  0
SOLID
  5
C3
330
BE
100
AcDbEntity
  8
1
 62
     2
100
AcDbTrace
 10
61.7352260915
 20
364.4448909140089
 30
0.0
 11
61.7352260915
 21
363.5233234308971
 31
0.0
 12
58.2352260915
 22
363.984107172453
 32
0.0
 13
58.2352260915
 23
363.984107172453
 33
0.0
  0
MTEXT
  5
C4
330
BE
100
AcDbEntity
  8
1
 62
     3
100
AcDbMText
 10
172.7756804685425
 20
365.984107172453
 30
0.0
 40
3.5
 41
0.0
 71
     7
 72
     1
  1
\C3;\C3;\C3;201.75\C2;\H2.45;\S^ ;\C3;
  7
CONVERTER_11
 11
0.9999999999970619
 21
2.424068405545306E-6
 31
0.0
 73
     1
 44
0.60024009603842
  0
ENDBLK
  5
C6
330
BE
100
AcDbEntity
  8
0
100
AcDbBlockEnd
  0
BLOCK
  5
D0
330
C9
100
AcDbEntity
  8
0
100
AcDbBlockBegin
  2
*D3
 70
     1
 10
0.0
 20
0.0
 30
0.0
  3
*D3
  1

  0
LINE
  5
CA
330
C9
100
AcDbEntity
  8
1
  6
Continuous
 62
     2
100
AcDbLine
 10
259.9852260915001
 20
356.552533214448
 30
0.0
 11
159.9852260915
 21
356.552533214448
 31
0.0
  0
LINE
  5
CB
330
C9
100
AcDbEntity
  8
1
  6
Continuous
 62
     2
100
AcDbLine
 10
259.9852260915001
 20
311.5519252795
 30
0.0
 11
259.9852260915001
 21
358.552533214448
 31
0.0
  0
LINE
  5
CC
330
C9
100
AcDbEntity
  8
1
  6
Continuous
 62
     2
100
AcDbLine
 10
159.9852260915
 20
339.3723290482
 30
0.0
 11
159.9852260915
 21
358.552533214448
 31
0.0
  0
SOLID
  5
CD
330
C9
100
AcDbEntity
  8
1
 62
     2
100
AcDbTrace
 10
256.4852260915001
 20
356.0917494728921
 30
0.0
 11
256.4852260915001
 21
357.0133169560038
 31
0.0
 12
259.9852260915001
 22
356.552533214448
 32
0.0
 13
259.9852260915001
 23
356.552533214448
 33
0.0
  0
SOLID
  5
CE
330
C9
100
AcDbEntity
  8
1
 62
     2
100
AcDbTrace
 10
163.4852260915
 20
357.0133169560038
 30
0.0
 11
163.4852260915
 21
356.0917494728921
 31
0.0
 12
159.9852260915
 22
356.552533214448
 32
0.0
 13
159.9852260915
 23
356.552533214448
 33
0.0
  0
MTEXT
  5
CF
330
C9
100
AcDbEntity
  8
1
 62
     3
100
AcDbMText
 10
210.5255192653238
 20
358.552533214448
 30
0.0
 40
3.5
 41
0.0
 71
     7
 72
     1
  1
\C3;\C3;\C3;100\C2;\H2.45;\S^ ;\C3;
  7
CONVERTER_11
 11
0.9999999999970619
 21
2.424068405545306E-6
 31
0.0
 73
     1
 44
0.60024009603842
  0
ENDBLK
  5
D1
330
C9
100
AcDbEntity
  8
0
100
AcDbBlockEnd
  0
BLOCK
  5
DB
330
D4
100
AcDbEntity
  8
0
100
AcDbBlockBegin
  2
*D4
 70
     1
 10
0.0
 20
0.0
 30
0.0
  3
*D4
  1

  0
LINE
  5
D5
330
D4
100
AcDbEntity
  8
1
  6
Continuous
 62
     2
100
AcDbLine
 10
259.9852260915002
 20
349.681832762708
 30
0.0
 11
179.0852260915001
 21
349.681832762708
 31
0.0
  0
LINE
  5
D6
330
D4
100
AcDbEntity
  8
1
  6
Continuous
 62
     2
100
AcDbLine
 10
259.9852260915002
 20
311.5519252795
 30
0.0
 11
259.9852260915002
 21
351.681832762708
 31
0.0
  0
LINE
  5
D7
330
D4
100
AcDbEntity
  8
1
  6
Continuous
 62
     2
100
AcDbLine
 10
179.0852260915001
 20
344.5963227821
 30
0.0
 11
179.0852260915001
 21
351.681832762708
 31
0.0
  0
SOLID
  5
D8
330
D4
100
AcDbEntity
  8
1
 62
     2
100
AcDbTrace
 10
256.4852260915002
 20
349.2210490211521
 30
0.0
 11
256.4852260915002
 21
350.1426165042639
 31
0.0
 12
259.9852260915002
 22
349.681832762708
 32
0.0
 13
259.9852260915002
 23
349.681832762708
 33
0.0
  0
SOLID
  5
D9
330
D4
100
AcDbEntity
  8
1
 62
     2
100
AcDbTrace
 10
182.5852260915001
 20
350.1426165042639
 30
0.0
 11
182.5852260915001
 21
349.2210490211521
 31
0.0
 12
179.0852260915001
 22
349.681832762708
 32
0.0
 13
179.0852260915001
 23
349.681832762708
 33
0.0
  0
MTEXT
  5
DA
330
D4
100
AcDbEntity
  8
1
 62
     3
100
AcDbMText
 10
214.3541267833697
 20
351.681832762708
 30
0.0
 40
3.5
 41
0.0
 71
     7
 72
     1
  1
\C3;\C3;\C3;80.9\C2;\H2.45;\S^ ;\C3;
  7
CONVERTER_11
 11
0.9999999999970619
 21
2.424068405545306E-6
 31
0.0
 73
     1
 44
0.60024009603842
  0
ENDBLK
  5
DC
330
D4
100
AcDbEntity
  8
0
100
AcDbBlockEnd
  0
BLOCK
  5
E6
330
DF
100
AcDbEntity
  8
0
100
AcDbBlockBegin
  2
*D5
 70
     1
 10
0.0
 20
0.0
 30
0.0
  3
*D5
  1

  0
LINE
  5
E0
330
DF
100
AcDbEntity
  8
1
  6
Continuous
 62
     2
100
AcDbLine
 10
279.754242589151
 20
317.6348290482
 30
0.0
 11
279.754242589151
 21
275.6348290482
 31
0.0
  0
LINE
  5
E1
330
DF
100
AcDbEntity
  8
1
  6
Continuous
 62
     2
100
AcDbLine
 10
248.717276899
 20
317.6348290482
 30
0.0
 11
281.754242589151
 21
317.6348290482
 31
0.0
  0
LINE
  5
E2
330
DF
100
AcDbEntity
  8
1
  6
Continuous
 62
     2
100
AcDbLine
 10
248.717276899
 20
275.6348290482
 30
0.0
 11
281.754242589151
 21
275.6348290482
 31
0.0
  0
SOLID
  5
E3
330
DF
100
AcDbEntity
  8
1
 62
     2
100
AcDbTrace
 10
280.2150263307068
 20
314.1348290482
 30
0.0
 11
279.2934588475951
 21
314.1348290482
 31
0.0
 12
279.754242589151
 22
317.6348290482
 32
0.0
 13
279.754242589151
 23
317.6348290482
 33
0.0
  0
SOLID
  5
E4
330
DF
100
AcDbEntity
  8
1
 62
     2
100
AcDbTrace
 10
279.2934588475951
 20
279.1348290482
 30
0.0
 11
280.2150263307068
 21
279.1348290482
 31
0.0
 12
279.754242589151
 22
275.6348290482
 32
0.0
 13
279.754242589151
 23
275.6348290482
 33
0.0
  0
MTEXT
  5
E5
330
DF
100
AcDbEntity
  8
1
 62
     3
100
AcDbMText
 10
277.754242589151
 20
288.385159926979
 30
0.0
 40
3.5
 41
0.0
 71
     7
 72
     1
  1
\C3;%%c\C3;\C3;42\C2;\H2.45;\S^ ;\C3;
  7
CONVERTER_11
 11
0.0
 21
1.0
 31
0.0
 73
     1
 44
0.60024009603842
  0
ENDBLK
  5
E7
330
DF
100
AcDbEntity
  8
0
100
AcDbBlockEnd
  0
BLOCK
  5
F1
330
EA
100
AcDbEntity
  8
0
100
AcDbBlockBegin
  2
*D6
 70
     1
 10
0.0
 20
0.0
 30
0.0
  3
*D6
  1

  0
LINE
  5
EB
330
EA
100
AcDbEntity
  8
1
  6
Continuous
 62
     2
100
AcDbLine
 10
270.9204848654861
 20
303.6348290482
 30
0.0
 11
270.9204848654861
 21
289.6348290482
 31
0.0
  0
LINE
  5
EC
330
EA
100
AcDbEntity
  8
1
  6
Continuous
 62
     2
100
AcDbLine
 10
261.9852260915001
 20
303.6348290482
 30
0.0
 11
272.9204848654861
 21
303.6348290482
 31
0.0
  0
LINE
  5
ED
330
EA
100
AcDbEntity
  8
1
  6
Continuous
 62
     2
100
AcDbLine
 10
261.9852260915001
 20
289.6348290482
 30
0.0
 11
272.9204848654861
 21
289.6348290482
 31
0.0
  0
SOLID
  5
EE
330
EA
100
AcDbEntity
  8
1
 62
     2
100
AcDbTrace
 10
271.381268607042
 20
300.1348290482
 30
0.0
 11
270.4597011239302
 21
300.1348290482
 31
0.0
 12
270.9204848654861
 22
303.6348290482
 32
0.0
 13
270.9204848654861
 23
303.6348290482
 33
0.0
  0
SOLID
  5
EF
330
EA
100
AcDbEntity
  8
1
 62
     2
100
AcDbTrace
 10
270.4597011239302
 20
293.1348290482
 30
0.0
 11
271.381268607042
 21
293.1348290482
 31
0.0
 12
270.9204848654861
 22
289.6348290482
 32
0.0
 13
270.9204848654861
 23
289.6348290482
 33
0.0
  0
MTEXT
  5
F0
330
EA
100
AcDbEntity
  8
1
 62
     3
100
AcDbMText
 10
268.9204848654861
 20
288.805159926979
 30
0.0
 40
3.5
 41
0.0
 71
     7
 72
     1
  1
\C3;%%c\C3;\C3;14\C2;\H2.45;\S^ ;\C3;
  7
CONVERTER_11
 11
0.0
 21
1.0
 31
0.0
 73
     1
 44
0.60024009603842
  0
ENDBLK
  5
F2
330
EA
100
AcDbEntity
  8
0
100
AcDbBlockEnd
  0
BLOCK
  5
F9
330
F5
100
AcDbEntity
  8
0
100
AcDbBlockBegin
  2
*D7
 70
     1
 10
0.0
 20
0.0
 30
0.0
  3
*D7
  1

  0
LINE
  5
F6
330
F5
100
AcDbEntity
  8
1
  6
Continuous
 62
     2
100
AcDbLine
 10
193.9364714745155
 20
332.4706991263104
 30
0.0
 11
184.0119931954233
 21
321.5204249246585
 31
0.0
  0
SOLID
  5
F7
330
F5
100
AcDbEntity
  8
1
 62
     2
100
AcDbTrace
 10
186.0209917566938
 20
324.423224683046
 30
0.0
 11
186.7038366523218
 21
323.8043470905903
 31
0.0
 12
184.0119931954233
 22
321.5204249246585
 32
0.0
 13
184.0119931954233
 23
321.5204249246585
 33
0.0
  0
MTEXT
  5
F8
330
F5
100
AcDbEntity
  8
1
 62
     3
100
AcDbMText
 10
186.34345630109
 20
327.0710583441721
 30
0.0
 40
3.5
 41
0.0
 71
     7
 72
     1
  1
\C3; R\C3;\C3;15\C2;\H2.45;\S^ ;\C3;
  7
CONVERTER_11
 11
0.6715488597384492
 21
0.7409602749027702
 31
0.0
 73
     1
 44
0.60024009603842
  0
ENDBLK
  5
FA
330
F5
100
AcDbEntity
  8
0
100
AcDbBlockEnd
  0
ENDSEC
  0
SECTION
  2
ENTITIES
  0
INSERT
  5
6C
330
1F
100
AcDbEntity
  8
0
100
AcDbBlockReference
  2
Urheberrecht_DE-EN
 10
48.0376923455768
 20
310.370321434164
 30
0.0
  0
LWPOLYLINE
  5
70
330
1F
100
AcDbEntity
  8
BEZUGSACHSEN
  6
DASHED
 62
     8
100
AcDbPolyline
 90
        2
 70
     0
 43
0.35
 10
231.4852260915
 20
303.6348290482
 10
231.4852260915
 20
317.6348290482
  0
LWPOLYLINE
  5
71
330
1F
100
AcDbEntity
  8
BEZUGSACHSEN
  6
DASHED
 62
     8
100
AcDbPolyline
 90
        2
 70
     0
 43
0.35
 10
243.4852260915
 20
303.6348290482
 10
243.4852260915
 20
317.6348290482
  0
LINE
  5
72
330
1F
100
AcDbEntity
  8
RUNDUNGEN
  6
Continuous
 62
     7
100
AcDbLine
 10
259.9852260915001
 20
309.5519252795
 30
0.0
 11
259.9852260915001
 21
283.7177328168
 31
0.0
  0
LINE
  5
73
330
1F
100
AcDbEntity
  8
RUNDUNGEN
  6
Continuous
 62
     9
100
AcDbLine
 10
259.4852260915001
 20
282.851707413
 30
0.0
 11
259.4852260915001
 21
310.4179506833
 31
0.0
  0
LINE
  5
74
330
1F
100
AcDbEntity
  8
RUNDUNGEN
  6
Continuous
 62
     9
100
AcDbLine
 10
247.217276899
 20
275.7688036444
 30
0.0
 11
247.217276899
 21
317.500854452
 31
0.0
  0
LINE
  5
75
330
1F
100
AcDbEntity
  8
RUNDUNGEN
  6
Continuous
 62
     9
100
AcDbLine
 10
246.717276899
 20
275.6348290482
 30
0.0
 11
246.717276899
 21
317.6348290482
 31
0.0
  0
LWPOLYLINE
  5
76
330
1F
100
AcDbEntity
  8
BEZUGSACHSEN
  6
DASHED
 62
     8
100
AcDbPolyline
 90
        2
 70
     0
 43
0.35
 10
242.5852260915
 20
303.6348290482
 10
242.5852260915
 20
317.6348290482
  0
LWPOLYLINE
  5
77
330
1F
100
AcDbEntity
  8
BEZUGSACHSEN
  6
DOT_CENTER
 62
     7
100
AcDbPolyline
 90
        2
 70
     0
 43
0.25
 10
237.4852260915
 20
320.6348290482
 10
237.4852260915
 20
298.4284621707
  0
LINE
  5
78
330
1F
100
AcDbEntity
  8
0
  6
Continuous
 62
     7
100
AcDbLine
 10
247.217276899
 20
317.500854452
 30
0.0
 11
259.4852260915001
 21
310.4179506833
 31
0.0
  0
LINE
  5
79
330
1F
100
AcDbEntity
  8
RUNDUNGEN
  6
Continuous
 62
     7
100
AcDbLine
 10
259.4852260915001
 20
310.4179506833
 30
0.0
 11
247.217276899
 21
317.500854452
 31
0.0
  0
LINE
  5
7A
330
1F
100
AcDbEntity
  8
0
  6
Continuous
 62
     7
100
AcDbLine
 10
247.217276899
 20
275.7688036444
 30
0.0
 11
259.4852260915001
 21
282.851707413
 31
0.0
  0
LWPOLYLINE
  5
7B
330
1F
100
AcDbEntity
  8
BEZUGSACHSEN
  6
DASHED
 62
     8
100
AcDbPolyline
 90
        2
 70
     0
 43
0.35
 10
232.3852260915
 20
303.6348290482
 10
232.3852260915
 20
317.6348290482
  0
LINE
  5
7C
330
1F
100
AcDbEntity
  8
0
  6
Continuous
 62
     7
100
AcDbLine
 10
174.4006044773
 20
343.6341259179
 30
0.0
 11
178.0852260915
 21
343.6341259179
 31
0.0
  0
LINE
  5
7D
330
1F
100
AcDbEntity
  8
0
  6
Continuous
 62
     7
100
AcDbLine
 10
164.1852260915
 20
343.6341259179
 30
0.0
 11
167.9198477056
 21
343.6341259179
 31
0.0
  0
LINE
  5
7E
330
1F
100
AcDbEntity
  8
0
  6
Continuous
 62
     7
100
AcDbLine
 10
169.9977260915
 20
340.2678440712
 30
0.0
 11
172.3227260915
 21
340.2678440712
 31
0.0
  0
LINE
  5
7F
330
1F
100
AcDbEntity
  8
RUNDUNGEN
  6
Continuous
 62
     9
100
AcDbLine
 10
194.0852260915
 20
317.6348290482
 30
0.0
 11
194.0852260915
 21
275.6348290482
 31
0.0
  0
LINE
  5
80
330
1F
100
AcDbEntity
  8
0
  6
Continuous
 62
     7
100
AcDbLine
 10
160.5352260915
 20
331.2098290482
 30
0.0
 11
159.4955437582
 21
331.4884110898
 31
0.0
  0
LINE
  5
81
330
1F
100
AcDbEntity
  8
0
  6
Continuous
 62
     7
100
AcDbLine
 10
163.1852260915
 20
331.9348290482
 30
0.0
 11
163.1466703176
 21
331.9348290482
 31
0.0
  0
LINE
  5
82
330
1F
100
AcDbEntity
  8
0
  6
Continuous
 62
     7
100
AcDbLine
 10
162.1852260915
 20
331.2098290482
 30
0.0
 11
160.5352260915
 21
331.2098290482
 31
0.0
  0
LINE
  5
83
330
1F
100
AcDbEntity
  8
0
  6
Continuous
 62
     7
100
AcDbLine
 10
179.0852260915
 20
342.5963227821
 30
0.0
 11
179.0852260915
 21
260.6348290482
 31
0.0
  0
LINE
  5
84
330
1F
100
AcDbEntity
  8
0
  6
Continuous
 62
     9
100
AcDbLine
 10
178.0852260915
 20
343.6341259179
 30
0.0
 11
178.0852260915
 21
249.6355321784
 31
0.0
  0
LINE
  5
85
330
1F
100
AcDbEntity
  8
0
  6
Continuous
 62
     7
100
AcDbLine
 10
174.4006044773
 20
343.6341259179
 30
0.0
 11
174.4006044773
 21
249.6355321784
 31
0.0
  0
LINE
  5
86
330
1F
100
AcDbEntity
  8
0
  6
Continuous
 62
     7
100
AcDbLine
 10
159.4955437582
 20
331.4884110898
 30
0.0
 11
60.16050908580001
 21
317.0227213924999
 31
0.0
  0
LINE
  5
87
330
1F
100
AcDbEntity
  8
0
  6
Continuous
 62
     7
100
AcDbLine
 10
173.0727260915
 20
341.2446462089
 30
0.0
 11
173.0727260915
 21
252.0250118874
 31
0.0
  0
LINE
  5
88
330
1F
100
AcDbEntity
  8
0
  6
Continuous
 62
     9
100
AcDbLine
 10
172.3227260915
 20
340.2678440712
 30
0.0
 11
172.3227260915
 21
253.0018140251
 31
0.0
  0
LINE
  5
89
330
1F
100
AcDbEntity
  8
0
  6
Continuous
 62
     9
100
AcDbLine
 10
169.9977260915
 20
340.2678440712
 30
0.0
 11
169.9977260915
 21
253.0018140251
 31
0.0
  0
LINE
  5
8A
330
1F
100
AcDbEntity
  8
0
  6
Continuous
 62
     7
100
AcDbLine
 10
169.2477260915
 20
341.2446462089
 30
0.0
 11
169.2477260915
 21
252.0250118874
 31
0.0
  0
LINE
  5
8B
330
1F
100
AcDbEntity
  8
0
  6
Continuous
 62
     7
100
AcDbLine
 10
167.9198477056
 20
343.6341259179
 30
0.0
 11
167.9198477056
 21
249.6355321784
 31
0.0
  0
LWPOLYLINE
  5
8C
330
1F
100
AcDbEntity
  8
DEFAULT_2
  6
DASHED
 62
     8
100
AcDbPolyline
 90
        2
 70
     0
 43
0.35
 10
204.8852260915
 20
303.6348290482
 10
204.8852260915
 20
289.6348290482
  0
LINE
  5
8D
330
1F
100
AcDbEntity
  8
0
  6
Continuous
 62
     7
100
AcDbLine
 10
242.5852260915
 20
317.6348290482
 30
0.0
 11
246.717276899
 21
317.6348290482
 31
0.0
  0
LINE
  5
8E
330
1F
100
AcDbEntity
  8
0
  6
Continuous
 62
     7
100
AcDbLine
 10
194.0852260915
 20
317.6348290482
 30
0.0
 11
232.3852260915
 21
317.6348290482
 31
0.0
  0
LINE
  5
8F
330
1F
100
AcDbEntity
  8
BEZUGSACHSEN
  6
Continuous
 62
     7
100
AcDbLine
 10
232.3852260915
 20
317.6348290482
 30
0.0
 11
194.0852260915
 21
317.6348290482
 31
0.0
  0
LINE
  5
90
330
1F
100
AcDbEntity
  8
BEZUGSACHSEN
  6
Continuous
 62
     7
100
AcDbLine
 10
246.717276899
 20
317.6348290482
 30
0.0
 11
242.5852260915
 21
317.6348290482
 31
0.0
  0
LINE
  5
91
330
1F
100
AcDbEntity
  8
0
  6
Continuous
 62
     9
100
AcDbLine
 10
164.1852260915
 20
343.6341259179
 30
0.0
 11
164.1852260915
 21
249.6355321784
 31
0.0
  0
LINE
  5
92
330
1F
100
AcDbEntity
  8
0
  6
Continuous
 62
     7
100
AcDbLine
 10
163.1852260915
 20
342.5963227821
 30
0.0
 11
163.1852260915
 21
250.6733353143
 31
0.0
  0
LINE
  5
93
330
1F
100
AcDbEntity
  8
0
  6
Continuous
 62
     9
100
AcDbLine
 10
162.1852260915
 20
331.2098290482
 30
0.0
 11
162.1852260915
 21
262.0598290482
 31
0.0
  0
LINE
  5
94
330
1F
100
AcDbEntity
  8
0
  6
Continuous
 62
     7
100
AcDbLine
 10
160.5352260915
 20
331.2098290482
 30
0.0
 11
160.5352260915
 21
262.0598290482
 31
0.0
  0
LWPOLYLINE
  5
95
330
1F
100
AcDbEntity
  8
TEIL_STARTBEZUEGE
  6
DOT_CENTER
 62
     7
100
AcDbPolyline
 90
        2
 70
     0
 43
0.25
 10
159.9852260915
 20
255.3355321784
 10
159.9852260915
 20
337.3723290482
  0
LINE
  5
96
330
1F
100
AcDbEntity
  8
0
  6
Continuous
 62
     7
100
AcDbLine
 10
159.4955437582
 20
331.4884110898
 30
0.0
 11
159.4955437582
 21
261.7812470066
 31
0.0
  0
LWPOLYLINE
  5
97
330
1F
100
AcDbEntity
  8
DEFAULT_2
  6
DASHED
 62
     8
100
AcDbPolyline
 90
        2
 70
     0
 43
0.35
 10
204.8852260915
 20
303.6348290482
 10
232.3852260915
 20
303.6348290482
  0
LWPOLYLINE
  5
98
330
1F
100
AcDbEntity
  8
BEZUGSACHSEN
  6
DASHED
 62
     8
100
AcDbPolyline
 90
        2
 70
     0
 43
0.35
 10
259.9852260915001
 20
303.6348290482
 10
232.3852260915
 20
303.6348290482
  0
LWPOLYLINE
  5
99
330
1F
100
AcDbEntity
  8
TEIL_STARTBEZUEGE
  6
DOT_CENTER
 62
     7
100
AcDbPolyline
 90
        2
 70
     0
 43
0.25
 10
262.9852260915001
 20
296.6348290482
 10
55.23522609150005
 20
296.6348290482
  0
LWPOLYLINE
  5
9A
330
1F
100
AcDbEntity
  8
DEFAULT_2
  6
DASHED
 62
     8
100
AcDbPolyline
 90
        2
 70
     0
 43
0.35
 10
259.9852260915001
 20
289.6348290482
 10
204.8852260915
 20
289.6348290482
  0
LINE
  5
9B
330
1F
100
AcDbEntity
  8
0
  6
Continuous
 62
     7
100
AcDbLine
 10
194.0852260915
 20
275.6348290482
 30
0.0
 11
246.717276899
 21
275.6348290482
 31
0.0
  0
LINE
  5
9C
330
1F
100
AcDbEntity
  8
RUNDUNGEN
  6
Continuous
 62
     7
100
AcDbLine
 10
246.717276899
 20
275.6348290482
 30
0.0
 11
194.0852260915
 21
275.6348290482
 31
0.0
  0
LINE
  5
9D
330
1F
100
AcDbEntity
  8
0
  6
Continuous
 62
     7
100
AcDbLine
 10
159.4955437582
 20
261.7812470066
 30
0.0
 11
60.16050908579999
 21
276.2469367038
 31
0.0
  0
LINE
  5
9E
330
1F
100
AcDbEntity
  8
0
  6
Continuous
 62
     7
100
AcDbLine
 10
162.1852260915
 20
262.0598290482
 30
0.0
 11
160.5352260915
 21
262.0598290482
 31
0.0
  0
LINE
  5
9F
330
1F
100
AcDbEntity
  8
0
  6
Continuous
 62
     7
100
AcDbLine
 10
160.5352260915
 20
262.0598290482
 30
0.0
 11
159.4955437582
 21
261.7812470066
 31
0.0
  0
LINE
  5
A0
330
1F
100
AcDbEntity
  8
0
  6
Continuous
 62
     7
100
AcDbLine
 10
169.9977260915
 20
253.0018140251
 30
0.0
 11
172.3227260915
 21
253.0018140251
 31
0.0
  0
LINE
  5
A1
330
1F
100
AcDbEntity
  8
0
  6
Continuous
 62
     7
100
AcDbLine
 10
174.4006044773
 20
249.6355321784
 30
0.0
 11
178.0852260915
 21
249.6355321784
 31
0.0
  0
LINE
  5
A2
330
1F
100
AcDbEntity
  8
0
  6
Continuous
 62
     7
100
AcDbLine
 10
164.1852260915
 20
249.6355321784
 30
0.0
 11
167.9198477056
 21
249.6355321784
 31
0.0
  0
LINE
  5
A3
330
1F
100
AcDbEntity
  8
0
  6
Continuous
 62
     9
100
AcDbLine
 10
60.16050908580001
 20
317.0227213924999
 30
0.0
 11
60.16050908579999
 21
276.2469367038
 31
0.0
  0
LINE
  5
A4
330
1F
100
AcDbEntity
  8
0
  6
Continuous
 62
     7
100
AcDbLine
 10
58.2352260915
 20
314.7962760494
 30
0.0
 11
58.2352260915
 21
278.473382047
 31
0.0
  0
LINE
  5
A5
330
1F
100
AcDbEntity
  8
0
  6
Continuous
 62
     7
100
AcDbLine
 10
179.0852260915
 20
260.6348290482
 30
0.0
 11
179.0852260915
 21
250.6733353143
 31
0.0
  0
ARC
  5
A6
330
1F
100
AcDbEntity
  8
RUNDUNGEN
  6
Continuous
 62
     7
100
AcDbCircle
 10
258.9852260915001
 20
309.5519252795
 30
0.0
 40
1.0
100
AcDbArc
 50
0.0
 51
60.00000000044565
  0
ARC
  5
A7
330
1F
100
AcDbEntity
  8
RUNDUNGEN
  6
Continuous
 62
     7
100
AcDbCircle
 10
258.9852260915001
 20
283.7177328168
 30
0.0
 40
1.000000000013472
100
AcDbArc
 50
299.9999999995543
 51
0.0
  0
ARC
  5
A8
330
1F
100
AcDbEntity
  8
0
  6
Continuous
 62
     7
100
AcDbCircle
 10
162.1852260915
 20
261.0598290482
 30
0.0
 40
1.0
100
AcDbArc
 50
0.0
 51
90.0
  0
ARC
  5
A9
330
1F
100
AcDbEntity
  8
0
  6
Continuous
 62
     7
100
AcDbCircle
 10
162.1852260915
 20
332.2098290482
 30
0.0
 40
1.0
100
AcDbArc
 50
270.0
 51
344.0379858363432
  0
ARC
  5
AA
330
1F
100
AcDbEntity
  8
RUNDUNGEN
  6
Continuous
 62
     7
100
AcDbCircle
 10
246.717276899
 20
276.6348290482
 30
0.0
 40
1.0
100
AcDbArc
 50
270.0
 51
299.9999999995543
  0
ARC
  5
AB
330
1F
100
AcDbEntity
  8
RUNDUNGEN
  6
Continuous
 62
     7
100
AcDbCircle
 10
246.717276899
 20
316.6348290482
 30
0.0
 40
1.000000000013472
100
AcDbArc
 50
60.00000000044565
 51
90.0
  0
ARC
  5
AC
330
1F
100
AcDbEntity
  8
0
  6
Continuous
 62
     7
100
AcDbCircle
 10
60.4852260915
 20
314.7962760494
 30
0.0
 40
2.249999999911553
100
AcDbArc
 50
98.29782683024203
 51
180.0
  0
ARC
  5
AD
330
1F
100
AcDbEntity
  8
0
  6
Continuous
 62
     7
100
AcDbCircle
 10
60.4852260915
 20
278.473382047
 30
0.0
 40
2.25
100
AcDbArc
 50
180.0
 51
261.7021731701253
  0
SPLINE
  5
AE
330
1F
100
AcDbEntity
  8
0
  6
Continuous
 62
     7
100
AcDbSpline
210
0.0
220
0.0
230
1.0
 70
     8
 71
     3
 72
    15
 73
    11
 74
     9
 42
0.0000000001
 43
0.0000000001
 44
0.00000001
 40
0.0
 40
0.0
 40
0.0
 40
0.0
 40
0.1994115198641806
 40
0.3995306095162564
 40
0.5993950644582181
 40
0.7990503711385688
 40
0.9987117371675632
 40
1.198567718893102
 40
1.398751157621665
 40
1.59807797753686
 40
1.59807797753686
 40
1.59807797753686
 40
1.59807797753686
 10
163.1852260915
 20
250.6733353143
 30
0.0
 10
163.1888443121584
 20
250.6067770195593
 30
0.0
 10
163.1960935919693
 20
250.4734242619843
 30
0.0
 10
163.2532901439006
 20
250.2801532626626
 30
0.0
 10
163.3434571007141
 20
250.1006781447028
 30
0.0
 10
163.4666894947141
 20
249.9418371464627
 30
0.0
 10
163.6184776106714
 20
249.809910607073
 30
0.0
 10
163.793601741991
 20
249.7112811204681
 30
0.0
 10
163.9853058645215
 20
249.647836854746
 30
0.0
 10
164.1186813425071
 20
249.6396278700229
 30
0.0
 10
164.1852260915
 20
249.6355321784
 30
0.0
 11
163.1852260915
 21
250.6733353143
 31
0.0
 11
163.2037722992561
 21
250.4747881097556
 31
0.0
 11
163.2588157112723
 21
250.2823878165209
 31
0.0
 11
163.3490176198517
 21
250.1040358722145
 31
0.0
 11
163.4714461115277
 21
249.9463225059085
 31
0.0
 11
163.6222888432004
 21
249.815512982608
 31
0.0
 11
163.7962843918201
 21
249.7171871849149
 31
0.0
 11
163.9869844120427
 21
249.656302774527
 31
0.0
 11
164.1852260915
 21
249.6355321784
 31
0.0
  0
SPLINE
  5
AF
330
1F
100
AcDbEntity
  8
0
  6
Continuous
 62
     7
100
AcDbSpline
210
0.0
220
0.0
230
1.0
 70
     8
 71
     3
 72
     9
 73
     5
 74
     3
 42
0.0000000001
 43
0.0000000001
 44
0.00000001
 40
0.0
 40
0.0
 40
0.0
 40
0.0
 40
1.366828025538212
 40
2.73365607344325
 40
2.73365607344325
 40
2.73365607344325
 40
2.73365607344325
 10
169.2477260915
 20
252.0250118874
 30
0.0
 10
169.0266564074641
 20
251.6266300225423
 30
0.0
 10
168.5845170357747
 20
250.8298662863078
 30
0.0
 10
168.1414041502001
 20
250.0336435498742
 30
0.0
 10
167.9198477056
 20
249.6355321784
 30
0.0
 11
169.2477260915
 21
252.0250118874
 31
0.0
 11
168.584273660925
 21
250.830001542775
 31
0.0
 11
167.9198477056
 21
249.6355321784
 31
0.0
  0
SPLINE
  5
B0
330
1F
100
AcDbEntity
  8
0
  6
Continuous
 62
     7
100
AcDbSpline
210
0.0
220
0.0
230
1.0
 70
     8
 71
     3
 72
     9
 73
     5
 74
     3
 42
0.0000000001
 43
0.0000000001
 44
0.00000001
 40
0.0
 40
0.0
 40
0.0
 40
0.0
 40
1.366828047872301
 40
2.733656073443264
 40
2.733656073443264
 40
2.733656073443264
 40
2.733656073443264
 10
167.9198477056
 20
343.6341259179
 30
0.0
 10
168.1414041502027
 20
343.2360145464398
 30
0.0
 10
168.5845170357933
 20
342.4397918100149
 30
0.0
 10
169.0266564074668
 20
341.6430280737716
 30
0.0
 10
169.2477260915
 20
341.2446462089
 30
0.0
 11
167.9198477056
 21
343.6341259179
 31
0.0
 11
168.584273660925
 21
342.4396565535625
 31
0.0
 11
169.2477260915
 21
341.2446462089
 31
0.0
  0
SPLINE
  5
B1
330
1F
100
AcDbEntity
  8
0
  6
Continuous
 62
     7
100
AcDbSpline
210
0.0
220
0.0
230
1.0
 70
     8
 71
     3
 72
     9
 73
     5
 74
     3
 42
0.0000000001
 43
0.0000000001
 44
0.00000001
 40
0.0
 40
0.0
 40
0.0
 40
0.0
 40
1.366828025495735
 40
2.733656073394707
 40
2.733656073394707
 40
2.733656073394707
 40
2.733656073394707
 10
173.0727260915
 20
252.0250118874
 30
0.0
 10
173.293795775502
 20
251.6266300225398
 30
0.0
 10
173.7359351471293
 20
250.8298662862892
 30
0.0
 10
174.1790480326993
 20
250.0336435498715
 30
0.0
 10
174.4006044773
 20
249.6355321784
 30
0.0
 11
173.0727260915
 21
252.0250118874
 31
0.0
 11
173.7361785219875
 21
250.830001542775
 31
0.0
 11
174.4006044773
 21
249.6355321784
 31
0.0
  0
SPLINE
  5
B2
330
1F
100
AcDbEntity
  8
0
  6
Continuous
 62
     7
100
AcDbSpline
210
0.0
220
0.0
230
1.0
 70
     8
 71
     3
 72
     9
 73
     5
 74
     3
 42
0.0000000001
 43
0.0000000001
 44
0.00000001
 40
0.0
 40
0.0
 40
0.0
 40
0.0
 40
1.366828047866222
 40
2.733656073394722
 40
2.733656073394722
 40
2.733656073394722
 40
2.733656073394722
 10
174.4006044773
 20
343.6341259179
 30
0.0
 10
174.1790480326966
 20
343.2360145464424
 30
0.0
 10
173.7359351471108
 20
342.4397918100335
 30
0.0
 10
173.2937957754992
 20
341.6430280737742
 30
0.0
 10
173.0727260915
 20
341.2446462089
 30
0.0
 11
174.4006044773
 21
343.6341259179
 31
0.0
 11
173.7361785219875
 21
342.4396565535625
 31
0.0
 11
173.0727260915
 21
341.2446462089
 31
0.0
  0
SPLINE
  5
B3
330
1F
100
AcDbEntity
  8
0
  6
Continuous
 62
     7
100
AcDbSpline
210
0.0
220
0.0
230
1.0
 70
     8
 71
     3
 72
    15
 73
    11
 74
     9
 42
0.0000000001
 43
0.0000000001
 44
0.00000001
 40
0.0
 40
0.0
 40
0.0
 40
0.0
 40
0.1497938276634931
 40
0.3002403874238778
 40
0.4504310444122845
 40
0.600478577065473
 40
0.7505151708927602
 40
0.9007083293768194
 40
1.051091365160047
 40
1.200944179399868
 40
1.200944179399868
 40
1.200944179399868
 40
1.200944179399868
 10
172.3227260915
 20
253.0018140251
 30
0.0
 10
172.3727350790137
 20
252.9987090010117
 30
0.0
 10
172.4729709700381
 20
252.9924854225787
 30
0.0
 10
172.6169507926531
 20
252.944478043294
 30
0.0
 10
172.7483321353199
 20
252.8699466544037
 30
0.0
 10
172.862063387686
 20
252.7704197117542
 30
0.0
 10
172.9543208854651
 20
252.6507903755829
 30
0.0
 10
173.0217803214595
 20
252.5157780085856
 30
0.0
 10
173.0645893204613
 20
252.3705024287067
 30
0.0
 10
173.0700170296288
 20
252.2702926541217
 30
0.0
 10
173.0727260915
 20
252.2202762529
 30
0.0
 11
172.3227260915
 21
253.0018140251
 31
0.0
 11
172.4716915948547
 21
252.9860828580623
 31
0.0
 11
172.6149144565694
 21
252.9400244253274
 31
0.0
 11
172.7454487728849
 21
252.8657410105523
 31
0.0
 11
172.8584880263753
 21
252.7670678671665
 31
0.0
 11
172.9501511248853
 21
252.6482871622568
 31
0.0
 11
173.0176492974115
 21
252.5141156989681
 31
0.0
 11
173.0588425772477
 21
252.3694845434458
 31
0.0
 11
173.0727260915
 21
252.2202762529
 31
0.0
  0
SPLINE
  5
B4
330
1F
100
AcDbEntity
  8
0
  6
Continuous
 62
     7
100
AcDbSpline
210
0.0
220
0.0
230
1.0
 70
     8
 71
     3
 72
    15
 73
    11
 74
     9
 42
0.0000000001
 43
0.0000000001
 44
0.00000001
 40
0.0
 40
0.0
 40
0.0
 40
0.0
 40
0.1498537524866109
 40
0.3002377329509507
 40
0.4504313876739983
 40
0.6004684787200669
 40
0.7505157524031857
 40
0.900706133766408
 40
1.051151518438855
 40
1.200944190634693
 40
1.200944190634693
 40
1.200944190634693
 40
1.200944190634693
 10
169.2477260915
 20
252.2202762529
 30
0.0
 10
169.2504351875676
 20
252.2702929679899
 30
0.0
 10
169.2558629653053
 20
252.3705033724613
 30
0.0
 10
169.2986724562906
 20
252.5157796600925
 30
0.0
 10
169.3661325618568
 20
252.6507924233193
 30
0.0
 10
169.4583906252889
 20
252.7704216430535
 30
0.0
 10
169.5721222036627
 20
252.8699481840627
 30
0.0
 10
169.7035032848561
 20
252.9444788798639
 30
0.0
 10
169.8474823795466
 20
252.9924855885465
 30
0.0
 10
169.947717490663
 20
252.9987090561534
 30
0.0
 10
169.9977260915
 20
253.0018140251
 30
0.0
 11
169.2477260915
 21
252.2202762529
 31
0.0
 11
169.2616097798682
 21
252.3694854695443
 31
0.0
 11
169.3028035739704
 21
252.5141174608456
 31
0.0
 11
169.3703023421121
 21
252.6482891799909
 31
0.0
 11
169.4619661491178
 21
252.7670699662098
 31
0.0
 11
169.575005548875
 21
252.8657425482287
 31
0.0
 11
169.7055398635207
 21
252.9400254086611
 31
0.0
 11
169.8487617221355
 21
252.9860831222838
 31
0.0
 11
169.9977260915
 21
253.0018140251
 31
0.0
  0
SPLINE
  5
B5
330
1F
100
AcDbEntity
  8
0
  6
Continuous
 62
     7
100
AcDbSpline
210
0.0
220
0.0
230
1.0
 70
     8
 71
     3
 72
    15
 73
    11
 74
     9
 42
0.0000000001
 43
0.0000000001
 44
0.00000001
 40
0.0
 40
0.0
 40
0.0
 40
0.0
 40
0.149793559081634
 40
0.3002398467629732
 40
0.4504306630872772
 40
0.6004783583001574
 40
0.750514975798379
 40
0.9007081563829029
 40
1.05109127959753
 40
1.200944180859295
 40
1.200944180859295
 40
1.200944180859295
 40
1.200944180859295
 10
169.9977260915
 20
340.2678440712
 30
0.0
 10
169.9477171938449
 20
340.2709490826394
 30
0.0
 10
169.8474814837063
 20
340.2771726356713
 30
0.0
 10
169.7035017593045
 20
340.3251798844388
 30
0.0
 10
169.5721203560619
 20
340.3997112077424
 30
0.0
 10
169.4583889785715
 20
340.4992381860703
 30
0.0
 10
169.3661314048816
 20
340.6188675521187
 30
0.0
 10
169.2986719157512
 20
340.7538799426384
 30
0.0
 10
169.255862872553
 20
340.8991555801341
 30
0.0
 10
169.2504351567047
 20
340.9993654130709
 30
0.0
 10
169.2477260915
 20
341.0493818434
 30
0.0
 11
169.9977260915
 21
340.2678440712
 31
0.0
 11
169.8487608518021
 21
340.2835751774579
 31
0.0
 11
169.7055382226735
 21
340.3296334447135
 31
0.0
 11
169.5750037238559
 21
340.403916860942
 31
0.0
 11
169.4619643111018
 21
340.5025900690733
 31
0.0
 11
169.3703011658352
 21
340.6213707678006
 31
0.0
 11
169.3028029505832
 21
340.7555422343346
 31
0.0
 11
169.2616096224521
 21
340.9001734670102
 31
0.0
 11
169.2477260915
 21
341.0493818434
 31
0.0
  0
SPLINE
  5
B6
330
1F
100
AcDbEntity
  8
0
  6
Continuous
 62
     7
100
AcDbSpline
210
0.0
220
0.0
230
1.0
 70
     8
 71
     3
 72
    15
 73
    11
 74
     9
 42
0.0000000001
 43
0.0000000001
 44
0.00000001
 40
0.0
 40
0.0
 40
0.0
 40
0.0
 40
0.1498536492842858
 40
0.3002375261618137
 40
0.4504311697410309
 40
0.6004682482832775
 40
0.7505153760348912
 40
0.9007056144653096
 40
1.051151259660819
 40
1.200944189072638
 40
1.200944189072638
 40
1.200944189072638
 40
1.200944189072638
 10
173.0727260915
 20
341.0493818434
 30
0.0
 10
173.0700169993752
 20
340.9993651628292
 30
0.0
 10
173.0645892295371
 20
340.8991548275247
 30
0.0
 10
173.0217797893844
 20
340.7538786033658
 30
0.0
 10
172.9543197402174
 20
340.6188658595951
 30
0.0
 10
172.8620617469698
 20
340.4992366576165
 30
0.0
 10
172.7483302828822
 20
340.3997101418669
 30
0.0
 10
172.616949254538
 20
340.3251793789163
 30
0.0
 10
172.4729700627287
 20
340.2771725441896
 30
0.0
 10
172.3727347783937
 20
340.2709490522593
 30
0.0
 10
172.3227260915
 20
340.2678440712
 30
0.0
 11
173.0727260915
 21
341.0493818434
 31
0.0
 11
173.0588424228887
 21
340.9001727285655
 31
0.0
 11
173.0176486858049
 21
340.7555408287308
 31
0.0
 11
172.9501499597458
 21
340.6213691008892
 31
0.0
 11
172.8584861949637
 21
340.5025882978802
 31
0.0
 11
172.7454469423478
 21
340.403915769208
 31
0.0
 11
172.6149127946615
 21
340.3296329043764
 31
0.0
 11
172.4716907133636
 21
340.2835750322265
 31
0.0
 11
172.3227260915
 21
340.2678440712
 31
0.0
  0
SPLINE
  5
B7
330
1F
100
AcDbEntity
  8
BEZUGSACHSEN
  6
Continuous
 62
     7
100
AcDbSpline
210
0.0
220
0.0
230
1.0
 70
     8
 71
     3
 72
    19
 73
    15
 74
    13
 42
0.0000000001
 43
0.0000000001
 44
0.00000001
 40
0.0
 40
0.0
 40
0.0
 40
0.0
 40
0.7630072246415861
 40
1.526106319537938
 40
2.358695943611035
 40
3.191285755597265
 40
4.17086448538682
 40
5.150488660659773
 40
6.130117759005174
 40
7.109701401765303
 40
7.942314439702828
 40
8.774927318713306
 40
9.538057622484018
 40
10.30109599548753
 40
10.30109599548753
 40
10.30109599548753
 40
10.30109599548753
 10
242.5852260915
 20
317.6348290482
 30
0.0
 10
242.3375273239234
 20
317.5770056727113
 30
0.0
 10
241.8420999644802
 20
317.4613519594822
 30
0.0
 10
241.0694745858203
 20
317.3145549678053
 30
0.0
 10
240.2695135656035
 20
317.1900666810062
 30
0.0
 10
239.3935344353082
 20
317.0887390944928
 30
0.0
 10
238.4649858597436
 20
317.0219303599496
 30
0.0
 10
237.4852837674907
 20
316.9982616062376
 30
0.0
 10
236.5055798719419
 20
317.0219239089125
 30
0.0
 10
235.577019895216
 20
317.0887280513808
 30
0.0
 10
234.7010233120407
 20
317.1900540887779
 30
0.0
 10
233.9010363722579
 20
317.314544331577
 30
0.0
 10
233.1283827178273
 20
317.4613454832107
 30
0.0
 10
232.6329350189623
 20
317.5770035154745
 30
0.0
 10
232.3852260915
 20
317.6348290482
 30
0.0
 11
242.5852260915
 21
317.6348290482
 31
0.0
 11
241.8410121478673
 21
317.4665268469133
 31
0.0
 11
241.0915545047023
 21
317.3228832959509
 31
0.0
 11
240.2687735081396
 21
317.1954591467111
 31
0.0
 11
239.4416889084007
 21
317.0998722234519
 31
0.0
 11
238.4646262726861
 21
317.0297074620228
 31
0.0
 11
237.4852853810867
 21
317.0061502376415
 31
0.0
 11
236.505939414081
 21
317.0297011874054
 31
0.0
 11
235.5288714782372
 21
317.0998607335056
 31
0.0
 11
234.701763411655
 21
317.1954469100071
 31
0.0
 11
233.8789590975342
 21
317.3228724449616
 31
0.0
 11
233.1294705739179
 21
317.4665206732857
 31
0.0
 11
232.3852260915
 21
317.6348290482
 31
0.0
  0
SPLINE
  5
B8
330
1F
100
AcDbEntity
  8
0
  6
Continuous
 62
     7
100
AcDbSpline
210
0.0
220
0.0
230
1.0
 70
     8
 71
     3
 72
    15
 73
    11
 74
     9
 42
0.0000000001
 43
0.0000000001
 44
0.00000001
 40
0.0
 40
0.0
 40
0.0
 40
0.0
 40
0.1993272936322138
 40
0.3995112141585045
 40
0.5993674460461174
 40
0.7990290559538886
 40
0.9986840827284871
 40
1.198548256376644
 40
1.398666897422213
 40
1.598077972468987
 40
1.598077972468987
 40
1.598077972468987
 40
1.598077972468987
 10
164.1852260915
 20
343.6341259179
 30
0.0
 10
164.1186811839669
 20
343.6300302040679
 30
0.0
 10
163.9853053862016
 20
343.6218211747067
 30
0.0
 10
163.7936009204225
 20
343.5583766216
 30
0.0
 10
163.6184766073645
 20
343.4597467901696
 30
0.0
 10
163.4666886006364
 20
343.3278200087698
 30
0.0
 10
163.3434564772672
 20
343.1689789406508
 30
0.0
 10
163.253289854149
 20
342.9895040363109
 30
0.0
 10
163.1960935422482
 20
342.7962333867141
 30
0.0
 10
163.1888442956176
 20
342.6628809280288
 30
0.0
 10
163.1852260915
 20
342.5963227821
 30
0.0
 11
164.1852260915
 21
343.6341259179
 31
0.0
 11
163.9869839469378
 21
343.613355214828
 31
0.0
 11
163.7962835146639
 21
343.5524705109375
 31
0.0
 11
163.6222878530608
 21
343.4541444047011
 31
0.0
 11
163.4714451037943
 21
343.3233345294444
 31
0.0
 11
163.3490169843884
 21
343.1656212284989
 31
0.0
 11
163.2588153818812
 21
342.9872694446188
 31
0.0
 11
163.2037722155032
 21
342.794869547714
 31
0.0
 11
163.1852260915
 21
342.5963227821
 31
0.0
  0
SPLINE
  5
B9
330
1F
100
AcDbEntity
  8
0
  6
Continuous
 62
     7
100
AcDbSpline
210
0.0
220
0.0
230
1.0
 70
     8
 71
     3
 72
    15
 73
    11
 74
     9
 42
0.0000000001
 43
0.0000000001
 44
0.00000001
 40
0.0
 40
0.0
 40
0.0
 40
0.0
 40
0.199327235724147
 40
0.3995110957345096
 40
0.5993673927745955
 40
0.7990290697741949
 40
0.9986840388812372
 40
1.198548154958933
 40
1.3986668494437
 40
1.598077976743787
 40
1.598077976743787
 40
1.598077976743787
 40
1.598077976743787
 10
178.0852260915
 20
249.6355321784
 30
0.0
 10
178.1517709796608
 20
249.6396278873312
 30
0.0
 10
178.2851467378108
 20
249.6478369068212
 30
0.0
 10
178.4768511965382
 20
249.7112814208094
 30
0.0
 10
178.6519755379455
 20
249.8099112556706
 30
0.0
 10
178.8037635592792
 20
249.9418380596686
 30
0.0
 10
178.9269956673519
 20
250.1006791180497
 30
0.0
 10
179.0171622888859
 20
250.2801539982238
 30
0.0
 10
179.0743586300571
 20
250.4734246568705
 30
0.0
 10
179.0816078838277
 20
250.606777150898
 30
0.0
 10
179.0852260915
 20
250.6733353143
 30
0.0
 11
178.0852260915
 21
249.6355321784
 31
0.0
 11
178.2834681800187
 21
249.6563028606514
 31
0.0
 11
178.474168563393
 21
249.7171875187315
 31
0.0
 11
178.6481642884942
 21
249.815513645031
 31
0.0
 11
178.7990070844565
 21
249.9463235688463
 31
0.0
 11
178.9214351639893
 21
250.1040368277406
 31
0.0
 11
179.0116367503906
 21
250.2823885552518
 31
0.0
 11
179.0666799520398
 21
250.4747884976491
 31
0.0
 11
179.0852260915
 21
250.6733353143
 31
0.0
  0
SPLINE
  5
BA
330
1F
100
AcDbEntity
  8
0
  6
Continuous
 62
     7
100
AcDbSpline
210
0.0
220
0.0
230
1.0
 70
     8
 71
     3
 72
    15
 73
    11
 74
     9
 42
0.0000000001
 43
0.0000000001
 44
0.00000001
 40
0.0
 40
0.0
 40
0.0
 40
0.0
 40
0.1994115816778264
 40
0.3995307346147167
 40
0.5993951286193376
 40
0.7990503740870143
 40
0.9987117984053419
 40
1.198567836583679
 40
1.398751217257702
 40
1.598077981713111
 40
1.598077981713111
 40
1.598077981713111
 40
1.598077981713111
 10
179.0852260915
 20
342.5963227821
 30
0.0
 10
179.0816078669012
 20
342.6628810975106
 30
0.0
 10
179.0743585791726
 20
342.7962338969168
 30
0.0
 10
179.0171619935955
 20
342.9895049098074
 30
0.0
 10
178.9269950350948
 20
343.1689800029752
 30
0.0
 10
178.8037626575378
 20
343.3278209856717
 30
0.0
 10
178.6519745312583
 20
343.4597475416635
 30
0.0
 10
178.4768503760287
 20
343.5583770290448
 30
0.0
 10
178.2851462619493
 20
343.6218212559866
 30
0.0
 10
178.1517708219387
 20
343.6300302310649
 30
0.0
 10
178.0852260915
 20
343.6341259179
 30
0.0
 11
179.0852260915
 21
342.5963227821
 31
0.0
 11
179.0666798663991
 21
342.794870047107
 31
0.0
 11
179.011636413749
 21
342.9872703945405
 31
0.0
 11
178.9214345199026
 21
343.1656222780107
 31
0.0
 11
178.7990060681728
 21
343.3233355978343
 31
0.0
 11
178.6481632953545
 21
343.4541451626578
 31
0.0
 11
178.4741676907769
 21
343.5524709760744
 31
0.0
 11
178.2834677173194
 21
343.6133553420591
 31
0.0
 11
178.0852260915
 21
343.6341259179
 31
0.0
  0
SPLINE
  5
BB
330
1F
100
AcDbEntity
  8
0
  6
Continuous
 62
     2
100
AcDbSpline
210
0.0
220
0.0
230
1.0
 70
     8
 71
     3
 72
    45
 73
    41
 74
    39
 42
0.0000000001
 43
0.0000000001
 44
0.00000001
 40
0.0
 40
0.0
 40
0.0
 40
0.0
 40
0.0205861582789886
 40
0.0822609945222363
 40
0.1847403869088664
 40
0.3271053421786557
 40
0.5080092160947586
 40
0.7250192934431677
 40
0.9756608336665809
 40
1.258347858001657
 40
1.571856809708663
 40
1.915476533985283
 40
2.288356364523972
 40
2.688495362851114
 40
3.113376995104745
 40
3.559444134588896
 40
4.024102139832603
 40
4.509544629013671
 40
5.017413435227975
 40
5.542187653206479
 40
6.076232249493344
 40
6.610400551809595
 40
7.135541617402356
 40
7.643997582511195
 40
8.13022062790501
 40
8.595826345138692
 40
9.042978099112702
 40
9.469033912519322
 40
9.87038451333831
 40
10.24445929193195
 40
10.58921246451653
 40
10.90378861013107
 40
11.18747437696781
 40
11.43901500078265
 40
11.65679363981302
 40
11.8383356094738
 40
11.98121247844068
 40
12.0840682287633
 40
12.1459725584864
 40
12.16663605595173
 40
12.16663605595173
 40
12.16663605595173
 40
12.16663605595173
 10
231.4852260915
 20
317.6348567183
 30
0.0
 10
231.4918226596855
 20
317.6329664594836
 30
0.0
 10
231.5181821315218
 20
317.6254131040672
 30
0.0
 10
231.5774324205623
 20
317.6086342593705
 30
0.0
 10
231.6758097618912
 20
317.5810429521311
 30
0.0
 10
231.8126602304026
 20
317.5434615489018
 30
0.0
 10
231.9866124427999
 20
317.4968286077286
 30
0.0
 10
232.1958762237216
 20
317.4425522096008
 30
0.0
 10
232.4385664846589
 20
317.3820533617775
 30
0.0
 10
232.7132167538243
 20
317.3168422488197
 30
0.0
 10
233.0189053704286
 20
317.2482885231163
 30
0.0
 10
233.3549722960129
 20
317.1779494547916
 30
0.0
 10
233.7204565531429
 20
317.1074074016978
 30
0.0
 10
234.113799764662
 20
317.0385626101641
 30
0.0
 10
234.5324941441432
 20
316.9734764300954
 30
0.0
 10
234.9737246736647
 20
316.9139045614168
 30
0.0
 10
235.4362001184107
 20
316.8615595005186
 30
0.0
 10
235.9202971026687
 20
316.8181858319183
 30
0.0
 10
236.4253023807115
 20
316.7852407355725
 30
0.0
 10
236.9471698674984
 20
316.7642660436189
 30
0.0
 10
237.4781804681174
 20
316.7571688574569
 30
0.0
 10
238.0093182508405
 20
316.7638951199409
 30
0.0
 10
238.5315590660323
 20
316.7845267946436
 30
0.0
 10
239.03716312542
 20
316.817176479457
 30
0.0
 10
239.5220557401482
 20
316.8603205940055
 30
0.0
 10
239.9854928121089
 20
316.9125082423094
 30
0.0
 10
240.4278130862571
 20
316.9719985732102
 30
0.0
 10
240.8476800864873
 20
317.037073693537
 30
0.0
 10
241.2422256650705
 20
317.1059730517189
 30
0.0
 10
241.6088917204498
 20
317.1766194120772
 30
0.0
 10
241.9460855407881
 20
317.2471000254542
 30
0.0
 10
242.2528295800576
 20
317.3158215305759
 30
0.0
 10
242.5284524162201
 20
317.3812150920579
 30
0.0
 10
242.772012828464
 20
317.4418980342818
 30
0.0
 10
242.9820255647729
 20
317.4963482738654
 30
0.0
 10
243.1565982672436
 20
317.5431365113648
 30
0.0
 10
243.2939407752353
 20
317.5808475314952
 30
0.0
 10
243.392677392072
 20
317.6085375747552
 30
0.0
 10
243.4521469630337
 20
317.6253778803352
 30
0.0
 10
243.4786047438664
 20
317.6329594502158
 30
0.0
 10
243.4852260915
 20
317.6348568206
 30
0.0
 11
231.4852260915
 21
317.6348567183
 31
0.0
 11
231.5050172634817
 21
317.6291910829183
 31
0.0
 11
231.564350791629
 21
317.6123590342248
 31
0.0
 11
231.6630292998826
 21
317.5847080329267
 31
0.0
 11
231.8003058335316
 21
317.5469862381885
 31
0.0
 11
231.9750444908303
 21
317.5001608898896
 31
0.0
 11
232.1851031620105
 21
317.4456748519277
 31
0.0
 11
232.4283057493313
 21
317.3850639353696
 31
0.0
 11
232.70334640984
 21
317.319760116229
 31
0.0
 11
233.0092626908295
 21
317.2511810244735
 31
0.0
 11
233.3455954469958
 21
317.1807907407581
 31
0.0
 11
233.7117238083991
 21
317.1101551194421
 31
0.0
 11
234.1058766979968
 21
317.0412006590789
 31
0.0
 11
234.5257148861212
 21
316.9759297067422
 31
0.0
 11
234.967776740773
 21
316.9162873594594
 31
0.0
 11
235.4294945728203
 21
316.864098228344
 31
0.0
 11
235.9129988660897
 21
316.8207622306927
 31
0.0
 11
236.4197893249454
 21
316.7876842147551
 31
0.0
 11
236.9441443637732
 21
316.7667134467483
 31
0.0
 11
237.4781400520417
 21
316.7594860174767
 31
0.0
 11
238.0122643688604
 21
316.7663408976647
 31
0.0
 11
238.5370002122796
 21
316.7869669346822
 31
0.0
 11
239.0443982464762
 21
316.819749603093
 31
0.0
 11
239.5287066298047
 21
316.8628569076919
 31
0.0
 11
239.9913957318614
 21
316.9148903465425
 31
0.0
 11
240.4345628251871
 21
316.9744522343173
 31
0.0
 11
240.8555905820353
 21
317.0397146591955
 31
0.0
 11
241.2509635314051
 21
317.1087257864462
 31
0.0
 11
241.6182882304055
 21
317.1794683159748
 31
0.0
 11
241.9557493130872
 21
317.2500003489984
 31
0.0
 11
242.2627216920922
 21
317.3187470574122
 31
0.0
 11
242.5387450313686
 21
317.3842354569987
 31
0.0
 11
242.7828277226571
 21
317.4450328684779
 31
0.0
 11
242.9936352972906
 21
317.4996927449416
 31
0.0
 11
243.1689931159678
 21
317.546672763855
 31
0.0
 11
243.3067646670997
 21
317.584525100434
 31
0.0
 11
243.4058061219297
 21
317.6122756968166
 31
0.0
 11
243.4653605702194
 21
317.629169888936
 31
0.0
 11
243.4852260915
 21
317.6348568206
 31
0.0
  0
ARC
  5
BC
330
1F
100
AcDbEntity
  8
1
  6
Continuous
 62
     7
100
AcDbCircle
 10
194.0852260915
 20
332.6348290482
 30
0.0
 40
15.0
100
AcDbArc
 50
180.0
 51
270.0
  0
ARC
  5
BD
330
1F
100
AcDbEntity
  8
1
  6
Continuous
 62
     7
100
AcDbCircle
 10
194.0852260915
 20
260.6348290482
 30
0.0
 40
15.0
100
AcDbArc
 50
90.0
 51
180.0
  0
DIMENSION
  5
C8
330
1F
100
AcDbEntity
  8
1
100
AcDbDimension
  2
*D2
 10
259.9852260915001
 20
363.984107172453
 30
0.0
 11
178.6906804685425
 21
367.734107172453
 31
0.0
 70
    32
  1
<>
 71
     5
 42
-1.0
 53
0.00013888888889
  3
ME10_DIM_10
100
AcDbAlignedDimension
 13
58.2352260915
 23
314.7962760494
 33
0.0
 14
259.9852260915001
 24
309.5519252795
 34
0.0
100
AcDbRotatedDimension
  0
DIMENSION
  5
D3
330
1F
100
AcDbEntity
  8
1
100
AcDbDimension
  2
*D3
 10
259.9852260915001
 20
356.552533214448
 30
0.0
 11
213.4655192653238
 21
360.302533214448
 31
0.0
 70
    32
  1
<>
 71
     5
 42
-1.0
 53
0.00013888888889
  3
ME10_DIM_11
100
AcDbAlignedDimension
 13
159.9852260915
 23
337.3723290482
 33
0.0
 14
259.9852260915001
 24
309.5519252795
 34
0.0
100
AcDbRotatedDimension
  0
DIMENSION
  5
DE
330
1F
100
AcDbEntity
  8
1
100
AcDbDimension
  2
*D4
 10
259.9852260915002
 20
349.681832762708
 30
0.0
 11
218.1691267833697
 21
353.431832762708
 31
0.0
 70
    32
  1
<>
 71
     5
 42
-1.0
 53
0.00013888888889
  3
ME10_DIM_12
100
AcDbAlignedDimension
 13
179.0852260915
 23
342.5963227821
 33
0.0
 14
259.9852260915001
 24
309.5519252795
 34
0.0
100
AcDbRotatedDimension
  0
DIMENSION
  5
E9
330
1F
100
AcDbEntity
  8
1
100
AcDbDimension
  2
*D5
 10
279.754242589151
 20
317.6348290482
 30
0.0
 11
276.004242589151
 21
297.240159926979
 31
0.0
 70
    32
  1
<>
 71
     5
 42
-1.0
 53
90.0
  3
ME10_DIM_13
100
AcDbAlignedDimension
 13
246.717276899
 23
275.6348290482
 33
0.0
 14
246.717276899
 24
317.6348290482
 34
0.0
 50
90.0
100
AcDbRotatedDimension
  0
DIMENSION
  5
F4
330
1F
100
AcDbEntity
  8
1
100
AcDbDimension
  2
*D6
 10
270.9204848654861
 20
303.6348290482
 30
0.0
 11
267.1704848654861
 21
297.240159926979
 31
0.0
 70
    32
  1
<>
 71
     5
 42
-1.0
 53
90.0
  3
ME10_DIM_14
100
AcDbAlignedDimension
 13
259.9852260915001
 23
289.6348290482
 33
0.0
 14
259.9852260915001
 24
303.6348290482
 34
0.0
 50
90.0
100
AcDbRotatedDimension
  0
INSERT
  5
FB
330
1F
100
AcDbEntity
  8
1
100
AcDbBlockReference
  2
*D7
 10
0.0
 20
0.0
 30
0.0
  0
ENDSEC
  0
SECTION
  2
OBJECTS
  0
DICTIONARY
  5
C
330
0
100
AcDbDictionary
281
     1
  3
ACAD_GROUP
350
D
  3
ACAD_LAYOUT
350
1A
  3
ACAD_MLEADERSTYLE
350
FE
  3
ACAD_MLINESTYLE
350
17
  3
ACAD_PLOTSETTINGS
350
19
  3
ACAD_PLOTSTYLENAME
350
E
  3
ACAD_SCALELIST
350
4A
  3
ACAD_VISUALSTYLE
350
2A
  3
AcDbVariableDictionary
350
FC
  0
DICTIONARY
  5
D
102
{ACAD_REACTORS
330
C
102
}
330
C
100
AcDbDictionary
281
     1
  0
DICTIONARY
  5
1A
102
{ACAD_REACTORS
330
C
102
}
330
C
100
AcDbDictionary
281
     1
  3
Layout1
350
1E
  3
Layout2
350
26
  3
Model
350
22
  0
DICTIONARY
  5
FE
102
{ACAD_REACTORS
330
C
102
}
330
C
100
AcDbDictionary
281
     1
  0
DICTIONARY
  5
17
102
{ACAD_REACTORS
330
C
102
}
330
C
100
AcDbDictionary
281
     1
  3
Standard
350
18
  0
DICTIONARY
  5
19
102
{ACAD_REACTORS
330
C
102
}
330
C
100
AcDbDictionary
281
     1
  0
ACDBDICTIONARYWDFLT
  5
E
102
{ACAD_REACTORS
330
C
102
}
330
C
100
AcDbDictionary
281
     1
  3
Normal
350
F
100
AcDbDictionaryWithDefault
340
F
  0
DICTIONARY
  5
4A
102
{ACAD_REACTORS
330
C
102
}
330
C
100
AcDbDictionary
281
     1
  3
A0
350
4B
  3
A1
350
4C
  3
A2
350
4D
  3
A3
350
4E
  3
A4
350
4F
  3
A5
350
50
  3
A6
350
51
  3
A7
350
52
  3
A8
350
53
  3
A9
350
54
  3
B0
350
55
  3
B1
350
56
  3
B2
350
57
  3
B3
350
58
  3
B4
350
59
  3
B5
350
5A
  3
B6
350
5B
  3
B7
350
5C
  3
B8
350
5D
  3
B9
350
5E
  3
C0
350
5F
  3
C1
350
60
  3
C2
350
61
  3
C3
350
62
  3
C4
350
63
  3
C5
350
64
  3
C6
350
65
  3
C7
350
66
  3
C8
350
67
  3
C9
350
68
  3
D0
350
69
  3
D1
350
6A
  3
D2
350
6B
  0
DICTIONARY
  5
2A
102
{ACAD_REACTORS
330
C
102
}
330
C
100
AcDbDictionary
281
     1
  3
2dWireframe
350
2F
  3
3D Hidden
350
31
  3
3dWireframe
350
30
  3
Basic
350
32
  3
Brighten
350
36
  3
ColorChange
350
3A
  3
Conceptual
350
34
  3
Dim
350
35
  3
Facepattern
350
39
  3
Flat
350
2B
  3
FlatWithEdges
350
2C
  3
Gouraud
350
2D
  3
GouraudWithEdges
350
2E
  3
Linepattern
350
38
  3
Realistic
350
33
  3
Thicken
350
37
  0
DICTIONARY
  5
FC
102
{ACAD_REACTORS
330
C
102
}
330
C
100
AcDbDictionary
281
     1
  3
CANNOSCALE
350
FF
  0
LAYOUT
  5
1E
102
{ACAD_REACTORS
330
1A
102
}
330
1A
100
AcDbPlotSettings
  1

  2
none_device
  4

  6

 40
0.0
 41
0.0
 42
0.0
 43
0.0
 44
0.0
 45
0.0
 46
0.0
 47
0.0
 48
0.0
 49
0.0
140
0.0
141
0.0
142
1.0
143
1.0
 70
   688
 72
     0
 73
     0
 74
     5
  7

 75
    16
147
1.0
148
0.0
149
0.0
100
AcDbLayout
  1
Layout1
 70
     1
 71
     1
 10
0.0
 20
0.0
 11
12.0
 21
9.0
 12
0.0
 22
0.0
 32
0.0
 14
1.00000000000000E+20
 24
1.00000000000000E+20
 34
1.00000000000000E+20
 15
-1.00000000000000E+20
 25
-1.00000000000000E+20
 35
-1.00000000000000E+20
146
0.0
 13
0.0
 23
0.0
 33
0.0
 16
1.0
 26
0.0
 36
0.0
 17
0.0
 27
1.0
 37
0.0
 76
     0
330
1B
  0
LAYOUT
  5
26
102
{ACAD_REACTORS
330
1A
102
}
330
1A
100
AcDbPlotSettings
  1

  2
none_device
  4

  6

 40
0.0
 41
0.0
 42
0.0
 43
0.0
 44
0.0
 45
0.0
 46
0.0
 47
0.0
 48
0.0
 49
0.0
140
0.0
141
0.0
142
1.0
143
1.0
 70
   688
 72
     0
 73
     0
 74
     5
  7

 75
    16
147
1.0
148
0.0
149
0.0
100
AcDbLayout
  1
Layout2
 70
     1
 71
     2
 10
0.0
 20
0.0
 11
0.0
 21
0.0
 12
0.0
 22
0.0
 32
0.0
 14
0.0
 24
0.0
 34
0.0
 15
0.0
 25
0.0
 35
0.0
146
0.0
 13
0.0
 23
0.0
 33
0.0
 16
1.0
 26
0.0
 36
0.0
 17
0.0
 27
1.0
 37
0.0
 76
     0
330
23
  0
LAYOUT
  5
22
102
{ACAD_REACTORS
330
1A
102
}
330
1A
100
AcDbPlotSettings
  1

  2
none_device
  4

  6

 40
0.0
 41
0.0
 42
0.0
 43
0.0
 44
0.0
 45
0.0
 46
0.0
 47
0.0
 48
0.0
 49
0.0
140
0.0
141
0.0
142
1.0
143
1.0
 70
  1712
 72
     0
 73
     0
 74
     0
  7

 75
     0
147
1.0
148
0.0
149
0.0
100
AcDbLayout
  1
Model
 70
     1
 71
     0
 10
0.0
 20
0.0
 11
12.0
 21
9.0
 12
0.0
 22
0.0
 32
0.0
 14
34.0376923455768
 24
249.6218638991672
 34
0.0
 15
281.754242589151
 25
369.484107172453
 35
0.0
146
0.0
 13
0.0
 23
0.0
 33
0.0
 16
1.0
 26
0.0
 36
0.0
 17
0.0
 27
1.0
 37
0.0
 76
     0
330
1F
331
29
  0
MLINESTYLE
  5
18
102
{ACAD_REACTORS
330
17
102
}
330
17
100
AcDbMlineStyle
  2
Standard
 70
     0
  3

 62
   256
 51
90.0
 52
90.0
 71
     2
 49
0.5
 62
   256
  6
BYLAYER
 49
-0.5
 62
   256
  6
BYLAYER
  0
ACDBPLACEHOLDER
  5
F
102
{ACAD_REACTORS
330
E
102
}
330
E
  0
SCALE
  5
4B
102
{ACAD_REACTORS
330
4A
102
}
330
4A
100
AcDbScale
 70
     0
300
1:1
140
1.0
141
1.0
290
     1
  0
SCALE
  5
4C
102
{ACAD_REACTORS
330
4A
102
}
330
4A
100
AcDbScale
 70
     0
300
1:2
140
1.0
141
2.0
290
     0
  0
SCALE
  5
4D
102
{ACAD_REACTORS
330
4A
102
}
330
4A
100
AcDbScale
 70
     0
300
1:4
140
1.0
141
4.0
290
     0
  0
SCALE
  5
4E
102
{ACAD_REACTORS
330
4A
102
}
330
4A
100
AcDbScale
 70
     0
300
1:5
140
1.0
141
5.0
290
     0
  0
SCALE
  5
4F
102
{ACAD_REACTORS
330
4A
102
}
330
4A
100
AcDbScale
 70
     0
300
1:8
140
1.0
141
8.0
290
     0
  0
SCALE
  5
50
102
{ACAD_REACTORS
330
4A
102
}
330
4A
100
AcDbScale
 70
     0
300
1:10
140
1.0
141
10.0
290
     0
  0
SCALE
  5
51
102
{ACAD_REACTORS
330
4A
102
}
330
4A
100
AcDbScale
 70
     0
300
1:16
140
1.0
141
16.0
290
     0
  0
SCALE
  5
52
102
{ACAD_REACTORS
330
4A
102
}
330
4A
100
AcDbScale
 70
     0
300
1:20
140
1.0
141
20.0
290
     0
  0
SCALE
  5
53
102
{ACAD_REACTORS
330
4A
102
}
330
4A
100
AcDbScale
 70
     0
300
1:30
140
1.0
141
30.0
290
     0
  0
SCALE
  5
54
102
{ACAD_REACTORS
330
4A
102
}
330
4A
100
AcDbScale
 70
     0
300
1:40
140
1.0
141
40.0
290
     0
  0
SCALE
  5
55
102
{ACAD_REACTORS
330
4A
102
}
330
4A
100
AcDbScale
 70
     0
300
1:50
140
1.0
141
50.0
290
     0
  0
SCALE
  5
56
102
{ACAD_REACTORS
330
4A
102
}
330
4A
100
AcDbScale
 70
     0
300
1:100
140
1.0
141
100.0
290
     0
  0
SCALE
  5
57
102
{ACAD_REACTORS
330
4A
102
}
330
4A
100
AcDbScale
 70
     0
300
2:1
140
2.0
141
1.0
290
     0
  0
SCALE
  5
58
102
{ACAD_REACTORS
330
4A
102
}
330
4A
100
AcDbScale
 70
     0
300
4:1
140
4.0
141
1.0
290
     0
  0
SCALE
  5
59
102
{ACAD_REACTORS
330
4A
102
}
330
4A
100
AcDbScale
 70
     0
300
8:1
140
8.0
141
1.0
290
     0
  0
SCALE
  5
5A
102
{ACAD_REACTORS
330
4A
102
}
330
4A
100
AcDbScale
 70
     0
300
10:1
140
10.0
141
1.0
290
     0
  0
SCALE
  5
5B
102
{ACAD_REACTORS
330
4A
102
}
330
4A
100
AcDbScale
 70
     0
300
100:1
140
100.0
141
1.0
290
     0
  0
SCALE
  5
5C
102
{ACAD_REACTORS
330
4A
102
}
330
4A
100
AcDbScale
 70
     0
300
1/128" = 1'-0"
140
0.0078125
141
12.0
290
     0
  0
SCALE
  5
5D
102
{ACAD_REACTORS
330
4A
102
}
330
4A
100
AcDbScale
 70
     0
300
1/64" = 1'-0"
140
0.015625
141
12.0
290
     0
  0
SCALE
  5
5E
102
{ACAD_REACTORS
330
4A
102
}
330
4A
100
AcDbScale
 70
     0
300
1/32" = 1'-0"
140
0.03125
141
12.0
290
     0
  0
SCALE
  5
5F
102
{ACAD_REACTORS
330
4A
102
}
330
4A
100
AcDbScale
 70
     0
300
1/16" = 1'-0"
140
0.0625
141
12.0
290
     0
  0
SCALE
  5
60
102
{ACAD_REACTORS
330
4A
102
}
330
4A
100
AcDbScale
 70
     0
300
3/32" = 1'-0"
140
0.09375
141
12.0
290
     0
  0
SCALE
  5
61
102
{ACAD_REACTORS
330
4A
102
}
330
4A
100
AcDbScale
 70
     0
300
1/8" = 1'-0"
140
0.125
141
12.0
290
     0
  0
SCALE
  5
62
102
{ACAD_REACTORS
330
4A
102
}
330
4A
100
AcDbScale
 70
     0
300
3/16" = 1'-0"
140
0.1875
141
12.0
290
     0
  0
SCALE
  5
63
102
{ACAD_REACTORS
330
4A
102
}
330
4A
100
AcDbScale
 70
     0
300
1/4" = 1'-0"
140
0.25
141
12.0
290
     0
  0
SCALE
  5
64
102
{ACAD_REACTORS
330
4A
102
}
330
4A
100
AcDbScale
 70
     0
300
3/8" = 1'-0"
140
0.375
141
12.0
290
     0
  0
SCALE
  5
65
102
{ACAD_REACTORS
330
4A
102
}
330
4A
100
AcDbScale
 70
     0
300
1/2" = 1'-0"
140
0.5
141
12.0
290
     0
  0
SCALE
  5
66
102
{ACAD_REACTORS
330
4A
102
}
330
4A
100
AcDbScale
 70
     0
300
3/4" = 1'-0"
140
0.75
141
12.0
290
     0
  0
SCALE
  5
67
102
{ACAD_REACTORS
330
4A
102
}
330
4A
100
AcDbScale
 70
     0
300
1" = 1'-0"
140
1.0
141
12.0
290
     0
  0
SCALE
  5
68
102
{ACAD_REACTORS
330
4A
102
}
330
4A
100
AcDbScale
 70
     0
300
1-1/2" = 1'-0"
140
1.5
141
12.0
290
     0
  0
SCALE
  5
69
102
{ACAD_REACTORS
330
4A
102
}
330
4A
100
AcDbScale
 70
     0
300
3" = 1'-0"
140
3.0
141
12.0
290
     0
  0
SCALE
  5
6A
102
{ACAD_REACTORS
330
4A
102
}
330
4A
100
AcDbScale
 70
     0
300
6" = 1'-0"
140
6.0
141
12.0
290
     0
  0
SCALE
  5
6B
102
{ACAD_REACTORS
330
4A
102
}
330
4A
100
AcDbScale
 70
     0
300
1'-0" = 1'-0"
140
12.0
141
12.0
290
     0
  0
VISUALSTYLE
  5
2F
102
{ACAD_REACTORS
330
2A
102
}
330
2A
100
AcDbVisualStyle
  2
2dWireframe
 70
     4
 71
     0
 72
     2
 73
     0
 90
        0
 40
-0.6
 41
-30.0
 62
     5
 63
     7
 74
     1
 91
        4
 64
     7
 65
   257
 75
     1
175
     1
 42
1.0
 92
        0
 66
   257
 43
1.0
 76
     1
 77
     6
 78
     2
 67
     7
 79
     5
170
     0
171
     0
290
     0
174
     0
 93
        1
 44
0.0
173
     0
291
     0
 45
0.0
1001
ACAD
1000
AcDbSavedByObjectVersion
1070
     0
  0
VISUALSTYLE
  5
31
102
{ACAD_REACTORS
330
2A
102
}
330
2A
100
AcDbVisualStyle
  2
3D Hidden
 70
     6
 71
     1
 72
     2
 73
     2
 90
        0
 40
-0.6
 41
-30.0
 62
     5
 63
     7
 74
     2
 91
        2
 64
     7
 65
   257
 75
     2
175
     1
 42
40.0
 92
        0
 66
   257
 43
1.0
 76
     1
 77
     6
 78
     2
 67
     7
 79
     3
170
     0
171
     0
290
     0
174
     0
 93
        1
 44
0.0
173
     0
291
     0
 45
0.0
1001
ACAD
1000
AcDbSavedByObjectVersion
1070
     0
  0
VISUALSTYLE
  5
30
102
{ACAD_REACTORS
330
2A
102
}
330
2A
100
AcDbVisualStyle
  2
3dWireframe
 70
     5
 71
     0
 72
     2
 73
     0
 90
        0
 40
-0.6
 41
-30.0
 62
     5
 63
     7
 74
     1
 91
        4
 64
     7
 65
   257
 75
     1
175
     1
 42
1.0
 92
        0
 66
   257
 43
1.0
 76
     1
 77
     6
 78
     2
 67
     7
 79
     5
170
     0
171
     0
290
     0
174
     0
 93
        1
 44
0.0
173
     0
291
     0
 45
0.0
1001
ACAD
1000
AcDbSavedByObjectVersion
1070
     0
  0
VISUALSTYLE
  5
32
102
{ACAD_REACTORS
330
2A
102
}
330
2A
100
AcDbVisualStyle
  2
Basic
 70
     7
 71
     1
 72
     0
 73
     1
 90
        0
 40
-0.6
 41
-30.0
 62
     5
 63
     7
 74
     0
 91
        4
 64
     7
 65
   257
 75
     1
175
     1
 42
1.0
 92
        8
 66
     7
 43
1.0
 76
     1
 77
     6
 78
     2
 67
     7
 79
     5
170
     0
171
     0
290
     0
174
     0
 93
        1
 44
0.0
173
     0
291
     1
 45
0.0
1001
ACAD
1000
AcDbSavedByObjectVersion
1070
     0
  0
VISUALSTYLE
  5
36
102
{ACAD_REACTORS
330
2A
102
}
330
2A
100
AcDbVisualStyle
  2
Brighten
 70
    12
 71
     2
 72
     2
 73
     0
 90
        0
 40
-0.6
 41
-30.0
 62
     5
 63
     7
 74
     1
 91
        4
 64
     7
 65
   257
 75
     1
175
     1
 42
1.0
 92
        8
 66
     7
 43
1.0
 76
     1
 77
     6
 78
     2
 67
     7
 79
     5
170
     0
171
     0
290
     0
174
     0
 93
        1
 44
50.0
173
     0
291
     1
 45
0.0
1001
ACAD
1000
AcDbSavedByObjectVersion
1070
     0
  0
VISUALSTYLE
  5
3A
102
{ACAD_REACTORS
330
2A
102
}
330
2A
100
AcDbVisualStyle
  2
ColorChange
 70
    16
 71
     2
 72
     2
 73
     3
 90
        0
 40
-0.6
 41
-30.0
 62
     5
 63
     8
 74
     1
 91
        4
 64
     7
 65
   257
 75
     1
175
     1
 42
1.0
 92
        8
 66
     8
 43
1.0
 76
     1
 77
     6
 78
     2
 67
     7
 79
     5
170
     0
171
     0
290
     0
174
     0
 93
        1
 44
0.0
173
     0
291
     1
 45
0.0
1001
ACAD
1000
AcDbSavedByObjectVersion
1070
     0
  0
VISUALSTYLE
  5
34
102
{ACAD_REACTORS
330
2A
102
}
330
2A
100
AcDbVisualStyle
  2
Conceptual
 70
     9
 71
     3
 72
     2
 73
     0
 90
        0
 40
-0.6
 41
-30.0
 62
     5
 63
     7
 74
     2
 91
        2
 64
     7
 65
   257
 75
     1
175
     1
 42
40.0
 92
        8
 66
     7
 43
1.0
 76
     1
 77
     6
 78
     2
 67
     7
 79
     3
170
     0
171
     0
290
     0
174
     0
 93
        1
 44
0.0
173
     0
291
     0
 45
0.0
1001
ACAD
1000
AcDbSavedByObjectVersion
1070
     0
  0
VISUALSTYLE
  5
35
102
{ACAD_REACTORS
330
2A
102
}
330
2A
100
AcDbVisualStyle
  2
Dim
 70
    11
 71
     2
 72
     2
 73
     0
 90
        0
 40
-0.6
 41
-30.0
 62
     5
 63
     7
 74
     1
 91
        4
 64
     7
 65
   257
 75
     1
175
     1
 42
1.0
 92
        8
 66
     7
 43
1.0
 76
     1
 77
     6
 78
     2
 67
     7
 79
     5
170
     0
171
     0
290
     0
174
     0
 93
        1
 44
-50.0
173
     0
291
     1
 45
0.0
1001
ACAD
1000
AcDbSavedByObjectVersion
1070
     0
  0
VISUALSTYLE
  5
39
102
{ACAD_REACTORS
330
2A
102
}
330
2A
100
AcDbVisualStyle
  2
Facepattern
 70
    15
 71
     2
 72
     2
 73
     0
 90
        0
 40
-0.6
 41
-30.0
 62
     5
 63
     7
 74
     1
 91
        4
 64
     7
 65
   257
 75
     1
175
     1
 42
1.0
 92
        8
 66
     7
 43
1.0
 76
     1
 77
     6
 78
     2
 67
     7
 79
     5
170
     0
171
     0
290
     0
174
     0
 93
        1
 44
0.0
173
     0
291
     1
 45
0.0
1001
ACAD
1000
AcDbSavedByObjectVersion
1070
     0
  0
VISUALSTYLE
  5
2B
102
{ACAD_REACTORS
330
2A
102
}
330
2A
100
AcDbVisualStyle
  2
Flat
 70
     0
 71
     2
 72
     1
 73
     1
 90
        2
 40
-0.6
 41
30.0
 62
     5
 63
     7
 74
     0
 91
        4
 64
     7
 65
   257
 75
     1
175
     1
 42
1.0
 92
        8
 66
     7
 43
1.0
 76
     1
 77
     6
 78
     2
 67
     7
 79
     5
170
     0
171
     0
290
     0
174
     0
 93
       13
 44
0.0
173
     0
291
     1
 45
0.0
1001
ACAD
1000
AcDbSavedByObjectVersion
1070
     0
  0
VISUALSTYLE
  5
2C
102
{ACAD_REACTORS
330
2A
102
}
330
2A
100
AcDbVisualStyle
  2
FlatWithEdges
 70
     1
 71
     2
 72
     1
 73
     1
 90
        2
 40
-0.6
 41
30.0
 62
     5
 63
     7
 74
     1
 91
        4
 64
     7
 65
   257
 75
     1
175
     1
 42
1.0
 92
        0
 66
   257
 43
1.0
 76
     1
 77
     6
 78
     2
 67
     7
 79
     5
170
     0
171
     0
290
     0
174
     0
 93
       13
 44
0.0
173
     0
291
     1
 45
0.0
1001
ACAD
1000
AcDbSavedByObjectVersion
1070
     0
  0
VISUALSTYLE
  5
2D
102
{ACAD_REACTORS
330
2A
102
}
330
2A
100
AcDbVisualStyle
  2
Gouraud
 70
     2
 71
     2
 72
     2
 73
     1
 90
        2
 40
-0.6
 41
30.0
 62
     5
 63
     7
 74
     0
 91
        4
 64
     7
 65
   257
 75
     1
175
     1
 42
1.0
 92
        0
 66
     7
 43
1.0
 76
     1
 77
     6
 78
     2
 67
     7
 79
     5
170
     0
171
     0
290
     0
174
     0
 93
       13
 44
0.0
173
     0
291
     1
 45
0.0
1001
ACAD
1000
AcDbSavedByObjectVersion
1070
     0
  0
VISUALSTYLE
  5
2E
102
{ACAD_REACTORS
330
2A
102
}
330
2A
100
AcDbVisualStyle
  2
GouraudWithEdges
 70
     3
 71
     2
 72
     2
 73
     1
 90
        2
 40
-0.6
 41
30.0
 62
     5
 63
     7
 74
     1
 91
        4
 64
     7
 65
   257
 75
     1
175
     1
 42
1.0
 92
        0
 66
   257
 43
1.0
 76
     1
 77
     6
 78
     2
 67
     7
 79
     5
170
     0
171
     0
290
     0
174
     0
 93
       13
 44
0.0
173
     0
291
     1
 45
0.0
1001
ACAD
1000
AcDbSavedByObjectVersion
1070
     0
  0
VISUALSTYLE
  5
38
102
{ACAD_REACTORS
330
2A
102
}
330
2A
100
AcDbVisualStyle
  2
Linepattern
 70
    14
 71
     2
 72
     2
 73
     0
 90
        0
 40
-0.6
 41
-30.0
 62
     5
 63
     7
 74
     1
 91
        4
 64
     7
 65
   257
 75
     7
175
     7
 42
1.0
 92
        8
 66
     7
 43
1.0
 76
     1
 77
     6
 78
     2
 67
     7
 79
     5
170
     0
171
     0
290
     0
174
     0
 93
        1
 44
0.0
173
     0
291
     1
 45
0.0
1001
ACAD
1000
AcDbSavedByObjectVersion
1070
     0
  0
VISUALSTYLE
  5
33
102
{ACAD_REACTORS
330
2A
102
}
330
2A
100
AcDbVisualStyle
  2
Realistic
 70
     8
 71
     2
 72
     2
 73
     0
 90
        0
 40
-0.6
 41
-30.0
 62
     5
 63
     7
 74
     1
 91
        0
 64
     7
 65
   257
 75
     1
175
     1
 42
1.0
 92
        8
 66
     8
 43
1.0
 76
     1
 77
     6
 78
     2
 67
     7
 79
     5
170
     0
171
     0
290
     0
174
     0
 93
       13
 44
0.0
173
     0
291
     0
 45
0.0
1001
ACAD
1000
AcDbSavedByObjectVersion
1070
     0
  0
VISUALSTYLE
  5
37
102
{ACAD_REACTORS
330
2A
102
}
330
2A
100
AcDbVisualStyle
  2
Thicken
 70
    13
 71
     2
 72
     2
 73
     0
 90
        0
 40
-0.6
 41
-30.0
 62
     5
 63
     7
 74
     1
 91
        4
 64
     7
 65
   257
 75
     1
175
     1
 42
1.0
 92
       12
 66
     7
 43
1.0
 76
     1
 77
     6
 78
     2
 67
     7
 79
     5
170
     0
171
     0
290
     0
174
     0
 93
        1
 44
0.0
173
     0
291
     1
 45
0.0
1001
ACAD
1000
AcDbSavedByObjectVersion
1070
     0
  0
DICTIONARYVAR
  5
FF
102
{ACAD_REACTORS
330
FC
102
}
330
FC
100
DictionaryVariables
280
     0
  1
1:1
  0
ENDSEC
  0
EOF
