  0
SECTION
  2
HEADER
  9
$ACADVER
  1
AC1015
  9
$ACADMAINTVER
 70
     6
  9
$DWGCODEPAGE
  3
ANSI_1252
  9
$INSBASE
 10
0.0
 20
0.0
 30
0.0
  9
$EXTMIN
 10
51.9689011485824
 20
253.2687583898672
 30
0.0
  9
$EXTMAX
 10
296.678204448107
 20
373.742184139528
 30
0.0
  9
$LIMMIN
 10
0.0
 20
0.0
  9
$LIMMAX
 10
12.0
 20
9.0
  9
$ORTHOMODE
 70
     0
  9
$REGENMODE
 70
     1
  9
$FILLMODE
 70
     1
  9
$QTEXTMODE
 70
     0
  9
$MIRRTEXT
 70
     1
  9
$LTSCALE
 40
1.0
  9
$ATTMODE
 70
     1
  9
$TEXTSIZE
 40
0.2
  9
$TRACEWID
 40
0.05
  9
$TEXTSTYLE
  7
Standard
  9
$CLAYER
  8
0
  9
$CELTYPE
  6
ByLayer
  9
$CECOLOR
 62
   256
  9
$CELTSCALE
 40
1.0
  9
$DISPSILH
 70
     0
  9
$DIMSCALE
 40
1.0
  9
$DIMASZ
 40
0.18
  9
$DIMEXO
 40
0.0625
  9
$DIMDLI
 40
0.38
  9
$DIMRND
 40
0.0
  9
$DIMDLE
 40
0.0
  9
$DIMEXE
 40
0.18
  9
$DIMTP
 40
0.0
  9
$DIMTM
 40
0.0
  9
$DIMTXT
 40
0.18
  9
$DIMCEN
 40
0.09
  9
$DIMTSZ
 40
0.0
  9
$DIMTOL
 70
     0
  9
$DIMLIM
 70
     0
  9
$DIMTIH
 70
     1
  9
$DIMTOH
 70
     1
  9
$DIMSE1
 70
     0
  9
$DIMSE2
 70
     0
  9
$DIMTAD
 70
     0
  9
$DIMZIN
 70
     0
  9
$DIMBLK
  1

  9
$DIMASO
 70
     1
  9
$DIMSHO
 70
     1
  9
$DIMPOST
  1

  9
$DIMAPOST
  1

  9
$DIMALT
 70
     0
  9
$DIMALTD
 70
     2
  9
$DIMALTF
 40
25.4
  9
$DIMLFAC
 40
1.0
  9
$DIMTOFL
 70
     0
  9
$DIMTVP
 40
0.0
  9
$DIMTIX
 70
     0
  9
$DIMSOXD
 70
     0
  9
$DIMSAH
 70
     0
  9
$DIMBLK1
  1

  9
$DIMBLK2
  1

  9
$DIMSTYLE
  2
Standard
  9
$DIMCLRD
 70
     0
  9
$DIMCLRE
 70
     0
  9
$DIMCLRT
 70
     0
  9
$DIMTFAC
 40
1.0
  9
$DIMGAP
 40
0.09
  9
$DIMJUST
 70
     0
  9
$DIMSD1
 70
     0
  9
$DIMSD2
 70
     0
  9
$DIMTOLJ
 70
     1
  9
$DIMTZIN
 70
     0
  9
$DIMALTZ
 70
     0
  9
$DIMALTTZ
 70
     0
  9
$DIMUPT
 70
     0
  9
$DIMDEC
 70
     4
  9
$DIMTDEC
 70
     4
  9
$DIMALTU
 70
     2
  9
$DIMALTTD
 70
     2
  9
$DIMTXSTY
  7
Standard
  9
$DIMAUNIT
 70
     0
  9
$DIMADEC
 70
     0
  9
$DIMALTRND
 40
0.0
  9
$DIMAZIN
 70
     0
  9
$DIMDSEP
 70
    46
  9
$DIMATFIT
 70
     3
  9
$DIMFRAC
 70
     0
  9
$DIMLDRBLK
  1

  9
$DIMLUNIT
 70
     2
  9
$DIMLWD
 70
    -2
  9
$DIMLWE
 70
    -2
  9
$DIMTMOVE
 70
     0
  9
$LUNITS
 70
     2
  9
$LUPREC
 70
     4
  9
$SKETCHINC
 40
0.1
  9
$FILLETRAD
 40
0.5
  9
$AUNITS
 70
     0
  9
$AUPREC
 70
     0
  9
$MENU
  1
.
  9
$ELEVATION
 40
0.0
  9
$PELEVATION
 40
0.0
  9
$THICKNESS
 40
0.0
  9
$LIMCHECK
 70
     0
  9
$CHAMFERA
 40
0.5
  9
$CHAMFERB
 40
0.5
  9
$CHAMFERC
 40
1.0
  9
$CHAMFERD
 40
0.0
  9
$SKPOLY
 70
     0
  9
$TDCREATE
 40
2456821.3680314
  9
$TDUCREATE
 40
2456821.284698067
  9
$TDUPDATE
 40
2456821.368031412
  9
$TDUUPDATE
 40
2456821.284698079
  9
$TDINDWG
 40
0.0000000116
  9
$TDUSRTIMER
 40
0.0000000116
  9
$USRTIMER
 70
     1
  9
$ANGBASE
 50
0.0
  9
$ANGDIR
 70
     0
  9
$PDMODE
 70
     0
  9
$PDSIZE
 40
0.0
  9
$PLINEWID
 40
0.0
  9
$SPLFRAME
 70
     0
  9
$SPLINETYPE
 70
     6
  9
$SPLINESEGS
 70
     8
  9
$HANDSEED
  5
FF
  9
$SURFTAB1
 70
     6
  9
$SURFTAB2
 70
     6
  9
$SURFTYPE
 70
     6
  9
$SURFU
 70
     6
  9
$SURFV
 70
     6
  9
$UCSBASE
  2

  9
$UCSNAME
  2

  9
$UCSORG
 10
0.0
 20
0.0
 30
0.0
  9
$UCSXDIR
 10
1.0
 20
0.0
 30
0.0
  9
$UCSYDIR
 10
0.0
 20
1.0
 30
0.0
  9
$UCSORTHOREF
  2

  9
$UCSORTHOVIEW
 70
     0
  9
$UCSORGTOP
 10
0.0
 20
0.0
 30
0.0
  9
$UCSORGBOTTOM
 10
0.0
 20
0.0
 30
0.0
  9
$UCSORGLEFT
 10
0.0
 20
0.0
 30
0.0
  9
$UCSORGRIGHT
 10
0.0
 20
0.0
 30
0.0
  9
$UCSORGFRONT
 10
0.0
 20
0.0
 30
0.0
  9
$UCSORGBACK
 10
0.0
 20
0.0
 30
0.0
  9
$PUCSBASE
  2

  9
$PUCSNAME
  2

  9
$PUCSORG
 10
0.0
 20
0.0
 30
0.0
  9
$PUCSXDIR
 10
1.0
 20
0.0
 30
0.0
  9
$PUCSYDIR
 10
0.0
 20
1.0
 30
0.0
  9
$PUCSORTHOREF
  2

  9
$PUCSORTHOVIEW
 70
     0
  9
$PUCSORGTOP
 10
0.0
 20
0.0
 30
0.0
  9
$PUCSORGBOTTOM
 10
0.0
 20
0.0
 30
0.0
  9
$PUCSORGLEFT
 10
0.0
 20
0.0
 30
0.0
  9
$PUCSORGRIGHT
 10
0.0
 20
0.0
 30
0.0
  9
$PUCSORGFRONT
 10
0.0
 20
0.0
 30
0.0
  9
$PUCSORGBACK
 10
0.0
 20
0.0
 30
0.0
  9
$USERI1
 70
     0
  9
$USERI2
 70
     0
  9
$USERI3
 70
     0
  9
$USERI4
 70
     0
  9
$USERI5
 70
     0
  9
$USERR1
 40
16.5
  9
$USERR2
 40
0.0
  9
$USERR3
 40
0.0
  9
$USERR4
 40
0.0
  9
$USERR5
 40
0.0
  9
$WORLDVIEW
 70
     1
  9
$SHADEDGE
 70
     3
  9
$SHADEDIF
 70
    70
  9
$TILEMODE
 70
     1
  9
$MAXACTVP
 70
    64
  9
$PINSBASE
 10
0.0
 20
0.0
 30
0.0
  9
$PLIMCHECK
 70
     0
  9
$PEXTMIN
 10
1.00000000000000E+20
 20
1.00000000000000E+20
 30
1.00000000000000E+20
  9
$PEXTMAX
 10
-1.00000000000000E+20
 20
-1.00000000000000E+20
 30
-1.00000000000000E+20
  9
$PLIMMIN
 10
0.0
 20
0.0
  9
$PLIMMAX
 10
12.0
 20
9.0
  9
$UNITMODE
 70
     0
  9
$VISRETAIN
 70
     1
  9
$PLINEGEN
 70
     0
  9
$PSLTSCALE
 70
     1
  9
$TREEDEPTH
 70
  3020
  9
$CMLSTYLE
  2
Standard
  9
$CMLJUST
 70
     0
  9
$CMLSCALE
 40
1.0
  9
$PROXYGRAPHICS
 70
     1
  9
$MEASUREMENT
 70
     1
  9
$CELWEIGHT
370
    -1
  9
$ENDCAPS
280
     0
  9
$JOINSTYLE
280
     0
  9
$LWDISPLAY
290
     0
  9
$INSUNITS
 70
     1
  9
$HYPERLINKBASE
  1

  9
$STYLESHEET
  1

  9
$XEDIT
290
     1
  9
$CEPSNTYPE
380
     0
  9
$PSTYLEMODE
290
     1
  9
$FINGERPRINTGUID
  2
{ADEA8B5E-ED6D-4CA8-A0D7-442329FED0D1}
  9
$VERSIONGUID
  2
{FAEB1C32-E019-11D5-929B-00C0DF256EC4}
  9
$EXTNAMES
290
     1
  9
$PSVPSCALE
 40
0.0
  9
$OLESTARTUP
290
     0
  0
ENDSEC
  0
SECTION
  2
CLASSES
  0
CLASS
  1
ACDBDICTIONARYWDFLT
  2
AcDbDictionaryWithDefault
  3
ObjectDBX Classes
 90
        0
280
     0
281
     0
  0
CLASS
  1
VISUALSTYLE
  2
AcDbVisualStyle
  3
ObjectDBX Classes
 90
     4095
280
     0
281
     0
  0
CLASS
  1
SCALE
  2
AcDbScale
  3
ObjectDBX Classes
 90
     1153
280
     0
281
     0
  0
CLASS
  1

  2
exOdDbPolyline
  3

 90
        0
280
     0
281
     1
  0
CLASS
  1

  2
exOdDbSpline
  3

 90
        0
280
     0
281
     1
  0
CLASS
  1
DICTIONARYVAR
  2
AcDbDictionaryVar
  3
ObjectDBX Classes
 90
        0
280
     0
281
     0
  0
CLASS
  1
ACDBPLACEHOLDER
  2
AcDbPlaceHolder
  3
ObjectDBX Classes
 90
        0
280
     0
281
     0
  0
CLASS
  1
LAYOUT
  2
AcDbLayout
  3
ObjectDBX Classes
 90
        0
280
     0
281
     0
  0
ENDSEC
  0
SECTION
  2
TABLES
  0
TABLE
  2
VPORT
  5
8
330
0
100
AcDbSymbolTable
 70
     1
  0
VPORT
  5
29
330
8
100
AcDbSymbolTableRecord
100
AcDbViewportTableRecord
  2
*Active
 70
     0
 10
0.0
 20
0.0
 11
1.0
 21
1.0
 12
174.3235527983447
 22
313.5054712646976
 13
0.0
 23
0.0
 14
0.5
 24
0.5
 15
0.5
 25
0.5
 16
0.0
 26
0.0
 36
1.0
 17
0.0
 27
0.0
 37
0.0
 40
167.9564688941584
 41
1.60267857142857
 42
50.0
 43
0.0
 44
0.0
 50
0.0
 51
0.0
 71
     0
 72
   100
 73
     1
 74
     3
 75
     0
 76
     0
 77
     0
 78
     0
281
     0
 65
     1
110
0.0
120
0.0
130
0.0
111
1.0
121
0.0
131
0.0
112
0.0
122
1.0
132
0.0
 79
     0
146
0.0
  0
ENDTAB
  0
TABLE
  2
LTYPE
  5
5
330
0
100
AcDbSymbolTable
 70
     8
  0
LTYPE
  5
14
330
5
100
AcDbSymbolTableRecord
100
AcDbLinetypeTableRecord
  2
ByBlock
 70
     0
  3

 72
    65
 73
     0
 40
0.0
  0
LTYPE
  5
15
330
5
100
AcDbSymbolTableRecord
100
AcDbLinetypeTableRecord
  2
ByLayer
 70
     0
  3

 72
    65
 73
     0
 40
0.0
  0
LTYPE
  5
16
330
5
100
AcDbSymbolTableRecord
100
AcDbLinetypeTableRecord
  2
Continuous
 70
     0
  3
Solid line
 72
    65
 73
     0
 40
0.0
  0
LTYPE
  5
3B
330
5
100
AcDbSymbolTableRecord
100
AcDbLinetypeTableRecord
  2
DASHED
 70
     0
  3
Dashed
 72
    65
 73
     2
 40
15.0
 49
7.0
 74
     0
 49
-8.0
 74
     0
  0
LTYPE
  5
3C
330
5
100
AcDbSymbolTableRecord
100
AcDbLinetypeTableRecord
  2
DOTTED
 70
     0
  3
Dotted
 72
    65
 73
     2
 40
1.0
 49
0.0
 74
     0
 49
-1.0
 74
     0
  0
LTYPE
  5
3D
330
5
100
AcDbSymbolTableRecord
100
AcDbLinetypeTableRecord
  2
DOT_CENTER
 70
     0
  3
Dot_Center
 72
    65
 73
     4
 40
14.0
 49
12.0
 74
     0
 49
-1.0
 74
     0
 49
0.0
 74
     0
 49
-1.0
 74
     0
  0
LTYPE
  5
3E
330
5
100
AcDbSymbolTableRecord
100
AcDbLinetypeTableRecord
  2
LONG_DASHED
 70
     0
  3
Long_Dashed
 72
    65
 73
     2
 40
15.0
 49
10.0
 74
     0
 49
-5.0
 74
     0
  0
LTYPE
  5
3F
330
5
100
AcDbSymbolTableRecord
100
AcDbLinetypeTableRecord
  2
DASH_CENTER
 70
     0
  3
Dash_Center
 72
    65
 73
     4
 40
14.0
 49
11.0
 74
     0
 49
-1.0
 74
     0
 49
1.0
 74
     0
 49
-1.0
 74
     0
  0
LTYPE
  5
40
330
5
100
AcDbSymbolTableRecord
100
AcDbLinetypeTableRecord
  2
PHANTOM
 70
     0
  3
Phantom
 72
    65
 73
     6
 40
13.0
 49
10.0
 74
     0
 49
-1.0
 74
     0
 49
0.0
 74
     0
 49
-1.0
 74
     0
 49
0.0
 74
     0
 49
-1.0
 74
     0
  0
LTYPE
  5
41
330
5
100
AcDbSymbolTableRecord
100
AcDbLinetypeTableRecord
  2
CENTER_DASH_DASH
 70
     0
  3
Center_Dash_Dash
 72
    65
 73
     6
 40
14.0
 49
9.0
 74
     0
 49
-1.0
 74
     0
 49
1.0
 74
     0
 49
-1.0
 74
     0
 49
1.0
 74
     0
 49
-1.0
 74
     0
  0
ENDTAB
  0
TABLE
  2
LAYER
  5
2
330
0
100
AcDbSymbolTable
 70
     6
  0
LAYER
  5
10
330
2
100
AcDbSymbolTableRecord
100
AcDbLayerTableRecord
  2
0
 70
     0
 62
     7
  6
Continuous
370
    -3
390
F
  0
LAYER
  5
42
330
2
100
AcDbSymbolTableRecord
100
AcDbLayerTableRecord
  2
1
 70
     0
 62
     7
  6
Continuous
370
    -3
390
F
  0
LAYER
  5
43
330
2
100
AcDbSymbolTableRecord
100
AcDbLayerTableRecord
  2
BEZUGSACHSEN
 70
     0
 62
     7
  6
Continuous
370
    -3
390
F
  0
LAYER
  5
44
330
2
100
AcDbSymbolTableRecord
100
AcDbLayerTableRecord
  2
DEFAULT_2
 70
     0
 62
     7
  6
Continuous
370
    -3
390
F
  0
LAYER
  5
45
330
2
100
AcDbSymbolTableRecord
100
AcDbLayerTableRecord
  2
RUNDUNGEN
 70
     0
 62
     7
  6
Continuous
370
    -3
390
F
  0
LAYER
  5
46
330
2
100
AcDbSymbolTableRecord
100
AcDbLayerTableRecord
  2
TEIL_STARTBEZUEGE
 70
     0
 62
     7
  6
Continuous
370
    -3
390
F
  0
ENDTAB
  0
TABLE
  2
STYLE
  5
3
330
0
100
AcDbSymbolTable
 70
     2
  0
STYLE
  5
11
330
3
100
AcDbSymbolTableRecord
100
AcDbTextStyleTableRecord
  2
Standard
 70
     0
 40
0.0
 41
1.0
 50
0.0
 71
     0
 42
0.2
  3
txt
  4

  0
STYLE
  5
6D
330
3
100
AcDbSymbolTableRecord
100
AcDbTextStyleTableRecord
  2
CONVERTER_11
 70
     0
 40
0.0
 41
0.72
 50
0.0
 71
     0
 42
0.2
  3
txt.shx
  4

  0
ENDTAB
  0
TABLE
  2
VIEW
  5
6
330
0
100
AcDbSymbolTable
 70
     0
  0
ENDTAB
  0
TABLE
  2
UCS
  5
7
330
0
100
AcDbSymbolTable
 70
     0
  0
ENDTAB
  0
TABLE
  2
APPID
  5
9
330
0
100
AcDbSymbolTable
 70
     1
  0
APPID
  5
12
330
9
100
AcDbSymbolTableRecord
100
AcDbRegAppTableRecord
  2
ACAD
 70
     0
  0
ENDTAB
  0
TABLE
  2
DIMSTYLE
  5
A
330
0
100
AcDbSymbolTable
 70
     6
100
AcDbDimStyleTable
  0
DIMSTYLE
105
27
330
A
100
AcDbSymbolTableRecord
100
AcDbDimStyleTableRecord
  2
Standard
 70
     0
340
11
  0
DIMSTYLE
105
C6
102
{ACAD_REACTORS
330
C7
102
}
330
A
100
AcDbSymbolTableRecord
100
AcDbDimStyleTableRecord
  2
ME10_DIM_10
 70
     0
  3
<>
 41
3.5
 42
2.0
 44
2.0
 71
     1
 73
     0
 74
     0
 77
     1
 78
     8
140
3.5
146
0.7
147
2.0
172
     1
173
     1
176
     2
177
     2
178
     3
271
     2
272
     0
340
6D
  0
DIMSTYLE
105
D1
102
{ACAD_REACTORS
330
D2
102
}
330
A
100
AcDbSymbolTableRecord
100
AcDbDimStyleTableRecord
  2
ME10_DIM_11
 70
     0
  3
<>
 41
3.5
 42
2.0
 44
2.0
 71
     1
 73
     0
 74
     0
 77
     1
 78
     8
140
3.5
146
0.7
147
2.0
172
     1
173
     1
176
     2
177
     2
178
     3
271
     2
272
     0
340
6D
  0
DIMSTYLE
105
DC
102
{ACAD_REACTORS
330
DD
102
}
330
A
100
AcDbSymbolTableRecord
100
AcDbDimStyleTableRecord
  2
ME10_DIM_12
 70
     0
  3
<>
 41
3.5
 42
2.0
 44
2.0
 71
     1
 73
     0
 74
     0
 77
     1
 78
     8
140
3.5
146
0.7
147
2.0
172
     1
173
     1
176
     2
177
     2
178
     3
271
     2
272
     0
340
6D
  0
DIMSTYLE
105
E7
102
{ACAD_REACTORS
330
E8
102
}
330
A
100
AcDbSymbolTableRecord
100
AcDbDimStyleTableRecord
  2
ME10_DIM_13
 70
     0
  3
\U+2300<>
 41
3.5
 42
2.0
 44
2.0
 71
     1
 73
     0
 74
     0
 77
     1
 78
     8
140
3.5
146
0.7
147
2.0
172
     1
173
     1
176
     2
177
     2
178
     3
271
     2
272
     0
340
6D
  0
DIMSTYLE
105
F2
102
{ACAD_REACTORS
330
F3
102
}
330
A
100
AcDbSymbolTableRecord
100
AcDbDimStyleTableRecord
  2
ME10_DIM_14
 70
     0
  3
\U+2300<>
 41
3.5
 42
2.0
 44
2.0
 71
     1
 73
     0
 74
     0
 77
     1
 78
     8
140
3.5
146
0.7
147
2.0
172
     1
173
     1
176
     2
177
     2
178
     3
271
     2
272
     0
340
6D
  0
ENDTAB
  0
TABLE
  2
BLOCK_RECORD
  5
1
330
0
100
AcDbSymbolTable
 70
     8
  0
BLOCK_RECORD
  5
1F
330
1
100
AcDbSymbolTableRecord
100
AcDbBlockTableRecord
  2
*Model_Space
340
22
  0
BLOCK_RECORD
  5
1B
330
1
100
AcDbSymbolTableRecord
100
AcDbBlockTableRecord
  2
*Paper_Space
340
1E
  0
BLOCK_RECORD
  5
23
330
1
100
AcDbSymbolTableRecord
100
AcDbBlockTableRecord
  2
*Paper_Space0
340
26
  0
BLOCK_RECORD
  5
47
330
1
100
AcDbSymbolTableRecord
100
AcDbBlockTableRecord
  2
Urheberrecht_DE-EN
340
0
102
{BLKREFS
331
6C
102
}
  0
BLOCK_RECORD
  5
BD
330
1
100
AcDbSymbolTableRecord
100
AcDbBlockTableRecord
  2
*D2
340
0
  0
BLOCK_RECORD
  5
C8
330
1
100
AcDbSymbolTableRecord
100
AcDbBlockTableRecord
  2
*D3
340
0
  0
BLOCK_RECORD
  5
D3
330
1
100
AcDbSymbolTableRecord
100
AcDbBlockTableRecord
  2
*D4
340
0
  0
BLOCK_RECORD
  5
DE
330
1
100
AcDbSymbolTableRecord
100
AcDbBlockTableRecord
  2
*D5
340
0
  0
BLOCK_RECORD
  5
E9
330
1
100
AcDbSymbolTableRecord
100
AcDbBlockTableRecord
  2
*D6
340
0
  0
BLOCK_RECORD
  5
F4
330
1
100
AcDbSymbolTableRecord
100
AcDbBlockTableRecord
  2
*D7
340
0
102
{BLKREFS
331
FA
102
}
  0
ENDTAB
  0
ENDSEC
  0
SECTION
  2
BLOCKS
  0
BLOCK
  5
20
330
1F
100
AcDbEntity
  8
0
100
AcDbBlockBegin
  2
*Model_Space
 70
     0
 10
0.0
 20
0.0
 30
0.0
  3
*Model_Space
  1

  0
ENDBLK
  5
21
330
1F
100
AcDbEntity
  8
0
100
AcDbBlockEnd
  0
BLOCK
  5
1C
330
1B
100
AcDbEntity
 67
     1
  8
0
100
AcDbBlockBegin
  2
*Paper_Space
 70
     0
 10
0.0
 20
0.0
 30
0.0
  3
*Paper_Space
  1

  0
ENDBLK
  5
1D
330
1B
100
AcDbEntity
 67
     1
  8
0
100
AcDbBlockEnd
  0
BLOCK
  5
24
330
23
100
AcDbEntity
  8
0
100
AcDbBlockBegin
  2
*Paper_Space0
 70
     0
 10
0.0
 20
0.0
 30
0.0
  3
*Paper_Space0
  1

  0
ENDBLK
  5
25
330
23
100
AcDbEntity
  8
0
100
AcDbBlockEnd
  0
BLOCK
  5
48
330
47
100
AcDbEntity
  8
0
100
AcDbBlockBegin
  2
Urheberrecht_DE-EN
 70
     0
 10
65.9689011485824
 20
312.919271870336
 30
0.0
  3
Urheberrecht_DE-EN
  1

  0
MTEXT
  5
6E
330
47
100
AcDbEntity
  8
1
 62
     1
100
AcDbMText
 10
65.9689011485824
 20
256.6298849530298
 30
0.0
 40
2.0
 41
0.0
 71
     7
 72
     1
  1
F\U+00fcr diese Unterlage behalten wir das Ur-\Pheberrecht. Sie darf nur f\U+00fcr den von uns \Pbestimmten Zweck benutzt und ohne unsere \PZustimmung weder vervielf\U+00e4ltigt noch\PDritten zug\U+00e4nglich gemacht werden.
  7
CONVERTER_11
 11
0.0
 21
1.0
 31
0.0
 73
     1
 44
0.90036014405762
  0
MTEXT
  5
6F
330
47
100
AcDbEntity
  8
1
 62
     1
100
AcDbMText
 10
65.9689011485824
 20
312.919271870336
 30
0.0
 40
2.0
 41
0.0
 71
     7
 72
     1
  1
We own the copyright of this document. It \Pdetermined and may neither be copied or \Pmade accessible to outsiders without our\Ppermission.
  7
CONVERTER_11
 11
0.0
 21
1.0
 31
0.0
 73
     1
 44
0.90036014405762
  0
ENDBLK
  5
49
330
47
100
AcDbEntity
  8
0
100
AcDbBlockEnd
  0
BLOCK
  5
C4
330
BD
100
AcDbEntity
  8
0
100
AcDbBlockBegin
  2
*D2
 70
     1
 10
0.0
 20
0.0
 30
0.0
  3
*D2
  1

  0
LINE
  5
BE
330
BD
100
AcDbEntity
  8
1
  6
Continuous
 62
     2
100
AcDbLine
 10
274.5728040541001
 20
368.242184139528
 30
0.0
 11
72.8228040541001
 21
368.242184139528
 31
0.0
  0
LINE
  5
BF
330
BD
100
AcDbEntity
  8
1
  6
Continuous
 62
     2
100
AcDbLine
 10
274.5728040541001
 20
311.6988197702
 30
0.0
 11
274.5728040541001
 21
370.242184139528
 31
0.0
  0
LINE
  5
C0
330
BD
100
AcDbEntity
  8
1
  6
Continuous
 62
     2
100
AcDbLine
 10
72.8228040541
 20
320.44317054
 30
0.0
 11
72.8228040541
 21
370.242184139528
 31
0.0
  0
SOLID
  5
C1
330
BD
100
AcDbEntity
  8
1
 62
     2
100
AcDbTrace
 10
271.0728040541001
 20
367.7814003979721
 30
0.0
 11
271.0728040541001
 21
368.7029678810839
 31
0.0
 12
274.5728040541001
 22
368.242184139528
 32
0.0
 13
274.5728040541001
 23
368.242184139528
 33
0.0
  0
SOLID
  5
C2
330
BD
100
AcDbEntity
  8
1
 62
     2
100
AcDbTrace
 10
76.3228040541001
 20
368.7029678810839
 30
0.0
 11
76.3228040541001
 21
367.7814003979721
 31
0.0
 12
72.8228040541001
 22
368.242184139528
 32
0.0
 13
72.8228040541001
 23
368.242184139528
 33
0.0
  0
MTEXT
  5
C3
330
BD
100
AcDbEntity
  8
1
 62
     3
100
AcDbMText
 10
182.8042434864269
 20
370.242184139528
 30
0.0
 40
3.5
 41
0.0
 71
     7
 72
     1
  1
\C3;\C3;\C3;201.75\C2;\H2.45;\S^ ;\C3;
  7
CONVERTER_11
 11
0.9999999999970619
 21
2.424068405545306E-6
 31
0.0
 73
     1
 44
0.60024009603842
  0
ENDBLK
  5
C5
330
BD
100
AcDbEntity
  8
0
100
AcDbBlockEnd
  0
BLOCK
  5
CF
330
C8
100
AcDbEntity
  8
0
100
AcDbBlockBegin
  2
*D3
 70
     1
 10
0.0
 20
0.0
 30
0.0
  3
*D3
  1

  0
LINE
  5
C9
330
C8
100
AcDbEntity
  8
1
  6
Continuous
 62
     2
100
AcDbLine
 10
274.5728040541001
 20
360.466088461094
 30
0.0
 11
174.5728040541
 21
360.466088461094
 31
0.0
  0
LINE
  5
CA
330
C8
100
AcDbEntity
  8
1
  6
Continuous
 62
     2
100
AcDbLine
 10
274.5728040541001
 20
311.6988197702
 30
0.0
 11
274.5728040541001
 21
362.466088461094
 31
0.0
  0
LINE
  5
CB
330
C8
100
AcDbEntity
  8
1
  6
Continuous
 62
     2
100
AcDbLine
 10
174.5728040541
 20
343.7192235388001
 30
0.0
 11
174.5728040541
 21
362.466088461094
 31
0.0
  0
SOLID
  5
CC
330
C8
100
AcDbEntity
  8
1
 62
     2
100
AcDbTrace
 10
271.0728040541001
 20
360.0053047195381
 30
0.0
 11
271.0728040541001
 21
360.9268722026499
 31
0.0
 12
274.5728040541001
 22
360.466088461094
 32
0.0
 13
274.5728040541001
 23
360.466088461094
 33
0.0
  0
SOLID
  5
CD
330
C8
100
AcDbEntity
  8
1
 62
     2
100
AcDbTrace
 10
178.0728040541
 20
360.9268722026499
 30
0.0
 11
178.0728040541
 21
360.0053047195381
 31
0.0
 12
174.5728040541
 22
360.466088461094
 32
0.0
 13
174.5728040541
 23
360.466088461094
 33
0.0
  0
MTEXT
  5
CE
330
C8
100
AcDbEntity
  8
1
 62
     3
100
AcDbMText
 10
221.9567563989254
 20
362.466088461094
 30
0.0
 40
3.5
 41
0.0
 71
     7
 72
     1
  1
\C3;\C3;\C3;100\C2;\H2.45;\S^ ;\C3;
  7
CONVERTER_11
 11
0.9999999999970619
 21
2.424068405545306E-6
 31
0.0
 73
     1
 44
0.60024009603842
  0
ENDBLK
  5
D0
330
C8
100
AcDbEntity
  8
0
100
AcDbBlockEnd
  0
BLOCK
  5
DA
330
D3
100
AcDbEntity
  8
0
100
AcDbBlockBegin
  2
*D4
 70
     1
 10
0.0
 20
0.0
 30
0.0
  3
*D4
  1

  0
LINE
  5
D4
330
D3
100
AcDbEntity
  8
1
  6
Continuous
 62
     2
100
AcDbLine
 10
274.5728040541001
 20
353.348983941849
 30
0.0
 11
193.6728040541001
 21
353.348983941849
 31
0.0
  0
LINE
  5
D5
330
D3
100
AcDbEntity
  8
1
  6
Continuous
 62
     2
100
AcDbLine
 10
274.5728040541001
 20
311.6988197702
 30
0.0
 11
274.5728040541001
 21
355.348983941849
 31
0.0
  0
LINE
  5
D6
330
D3
100
AcDbEntity
  8
1
  6
Continuous
 62
     2
100
AcDbLine
 10
193.6728040541001
 20
348.2432172727
 30
0.0
 11
193.6728040541001
 21
355.348983941849
 31
0.0
  0
SOLID
  5
D7
330
D3
100
AcDbEntity
  8
1
 62
     2
100
AcDbTrace
 10
271.0728040541001
 20
352.8882002002931
 30
0.0
 11
271.0728040541001
 21
353.8097676834049
 31
0.0
 12
274.5728040541001
 22
353.348983941849
 32
0.0
 13
274.5728040541001
 23
353.348983941849
 33
0.0
  0
SOLID
  5
D8
330
D3
100
AcDbEntity
  8
1
 62
     2
100
AcDbTrace
 10
197.1728040541001
 20
353.8097676834049
 30
0.0
 11
197.1728040541001
 21
352.8882002002931
 31
0.0
 12
193.6728040541001
 22
353.348983941849
 32
0.0
 13
193.6728040541001
 23
353.348983941849
 33
0.0
  0
MTEXT
  5
D9
330
D3
100
AcDbEntity
  8
1
 62
     3
100
AcDbMText
 10
227.7068255899299
 20
355.348983941849
 30
0.0
 40
3.5
 41
0.0
 71
     7
 72
     1
  1
\C3;\C3;\C3;80.9\C2;\H2.45;\S^ ;\C3;
  7
CONVERTER_11
 11
0.9999999999970619
 21
2.424068405545306E-6
 31
0.0
 73
     1
 44
0.60024009603842
  0
ENDBLK
  5
DB
330
D3
100
AcDbEntity
  8
0
100
AcDbBlockEnd
  0
BLOCK
  5
E5
330
DE
100
AcDbEntity
  8
0
100
AcDbBlockBegin
  2
*D5
 70
     1
 10
0.0
 20
0.0
 30
0.0
  3
*D5
  1

  0
LINE
  5
DF
330
DE
100
AcDbEntity
  8
1
  6
Continuous
 62
     2
100
AcDbLine
 10
294.678204448107
 20
317.7817235388
 30
0.0
 11
294.678204448107
 21
282.7817235388
 31
0.0
  0
LINE
  5
E0
330
DE
100
AcDbEntity
  8
1
  6
Continuous
 62
     2
100
AcDbLine
 10
263.3048548616
 20
317.7817235388
 30
0.0
 11
296.678204448107
 21
317.7817235388
 31
0.0
  0
LINE
  5
E1
330
DE
100
AcDbEntity
  8
1
  6
Continuous
 62
     2
100
AcDbLine
 10
263.3048548616
 20
282.7817235388
 30
0.0
 11
296.678204448107
 21
282.7817235388
 31
0.0
  0
SOLID
  5
E2
330
DE
100
AcDbEntity
  8
1
 62
     2
100
AcDbTrace
 10
295.1389881896629
 20
314.2817235388
 30
0.0
 11
294.2174207065511
 21
314.2817235388
 31
0.0
 12
294.678204448107
 22
317.7817235388
 32
0.0
 13
294.678204448107
 23
317.7817235388
 33
0.0
  0
SOLID
  5
E3
330
DE
100
AcDbEntity
  8
1
 62
     2
100
AcDbTrace
 10
294.2174207065511
 20
286.2817235388
 30
0.0
 11
295.1389881896629
 21
286.2817235388
 31
0.0
 12
294.678204448107
 22
282.7817235388
 32
0.0
 13
294.678204448107
 23
282.7817235388
 33
0.0
  0
MTEXT
  5
E4
330
DE
100
AcDbEntity
  8
1
 62
     3
100
AcDbMText
 10
292.678204448107
 20
291.90648943854
 30
0.0
 40
3.5
 41
0.0
 71
     7
 72
     1
  1
\C3;%%c\C3;\C3;35\C2;\H2.45;\S^ ;\C3;
  7
CONVERTER_11
 11
0.0
 21
1.0
 31
0.0
 73
     1
 44
0.60024009603842
  0
ENDBLK
  5
E6
330
DE
100
AcDbEntity
  8
0
100
AcDbBlockEnd
  0
BLOCK
  5
F0
330
E9
100
AcDbEntity
  8
0
100
AcDbBlockBegin
  2
*D6
 70
     1
 10
0.0
 20
0.0
 30
0.0
  3
*D6
  1

  0
LINE
  5
EA
330
E9
100
AcDbEntity
  8
1
  6
Continuous
 62
     2
100
AcDbLine
 10
285.056933523943
 20
305.2817235388
 30
0.0
 11
285.056933523943
 21
295.2817235388
 31
0.0
  0
LINE
  5
EB
330
E9
100
AcDbEntity
  8
1
  6
Continuous
 62
     2
100
AcDbLine
 10
276.5728040541
 20
305.2817235388
 30
0.0
 11
287.056933523943
 21
305.2817235388
 31
0.0
  0
LINE
  5
EC
330
E9
100
AcDbEntity
  8
1
  6
Continuous
 62
     2
100
AcDbLine
 10
276.5728040541
 20
295.2817235388
 30
0.0
 11
287.056933523943
 21
295.2817235388
 31
0.0
  0
SOLID
  5
ED
330
E9
100
AcDbEntity
  8
1
 62
     2
100
AcDbTrace
 10
285.5177172654988
 20
301.7817235388
 30
0.0
 11
284.5961497823871
 21
301.7817235388
 31
0.0
 12
285.056933523943
 22
305.2817235388
 32
0.0
 13
285.056933523943
 23
305.2817235388
 33
0.0
  0
SOLID
  5
EE
330
E9
100
AcDbEntity
  8
1
 62
     2
100
AcDbTrace
 10
284.5961497823871
 20
298.7817235388
 30
0.0
 11
285.5177172654988
 21
298.7817235388
 31
0.0
 12
285.056933523943
 22
295.2817235388
 32
0.0
 13
285.056933523943
 23
295.2817235388
 33
0.0
  0
MTEXT
  5
EF
330
E9
100
AcDbEntity
  8
1
 62
     3
100
AcDbMText
 10
283.056933523943
 20
291.931094743027
 30
0.0
 40
3.5
 41
0.0
 71
     7
 72
     1
  1
\C3;%%c\C3;\C3;10\C2;\H2.45;\S^ ;\C3;
  7
CONVERTER_11
 11
0.0
 21
1.0
 31
0.0
 73
     1
 44
0.60024009603842
  0
ENDBLK
  5
F1
330
E9
100
AcDbEntity
  8
0
100
AcDbBlockEnd
  0
BLOCK
  5
F8
330
F4
100
AcDbEntity
  8
0
100
AcDbBlockBegin
  2
*D7
 70
     1
 10
0.0
 20
0.0
 30
0.0
  3
*D7
  1

  0
LINE
  5
F5
330
F4
100
AcDbEntity
  8
1
  6
Continuous
 62
     2
100
AcDbLine
 10
208.5507810336426
 20
332.6348349379359
 30
0.0
 11
199.0878576410035
 21
321.2435780093803
 31
0.0
  0
SOLID
  5
F6
330
F4
100
AcDbEntity
  8
1
 62
     2
100
AcDbTrace
 10
200.9699058128818
 20
324.2302511309675
 30
0.0
 11
201.6787844619035
 21
323.6413728015223
 31
0.0
 12
199.0878576410035
 22
321.2435780093803
 32
0.0
 13
199.0878576410035
 23
321.2435780093803
 33
0.0
  0
MTEXT
  5
F7
330
F4
100
AcDbEntity
  8
1
 62
     3
100
AcDbMText
 10
201.197494139108
 20
326.9130195051675
 30
0.0
 40
3.5
 41
0.0
 71
     7
 72
     1
  1
\C3; R\C3;\C3;15\C2;\H2.45;\S^ ;\C3;
  7
CONVERTER_11
 11
0.638996427539766
 21
0.769209701961316
 31
0.0
 73
     1
 44
0.60024009603842
  0
ENDBLK
  5
F9
330
F4
100
AcDbEntity
  8
0
100
AcDbBlockEnd
  0
ENDSEC
  0
SECTION
  2
ENTITIES
  0
INSERT
  5
6C
330
1F
100
AcDbEntity
  8
0
100
AcDbBlockReference
  2
Urheberrecht_DE-EN
 10
65.9689011485824
 20
312.919271870336
 30
0.0
  0
LWPOLYLINE
  5
70
330
1F
100
AcDbEntity
  8
BEZUGSACHSEN
  6
DASHED
 62
     8
100
AcDbPolyline
 90
        2
 70
     0
 43
0.35
 10
249.5728040541
 20
305.2817235388
 10
249.5728040541
 20
317.7817235388
  0
LWPOLYLINE
  5
71
330
1F
100
AcDbEntity
  8
BEZUGSACHSEN
  6
DASHED
 62
     8
100
AcDbPolyline
 90
        2
 70
     0
 43
0.35
 10
259.5728040541001
 20
305.2817235388
 10
259.5728040541001
 20
317.7817235388
  0
LINE
  5
72
330
1F
100
AcDbEntity
  8
RUNDUNGEN
  6
Continuous
 62
     7
100
AcDbLine
 10
274.5728040541001
 20
309.6988197702
 30
0.0
 11
274.5728040541001
 21
290.8646273075
 31
0.0
  0
LINE
  5
73
330
1F
100
AcDbEntity
  8
RUNDUNGEN
  6
Continuous
 62
     9
100
AcDbLine
 10
274.0728040541001
 20
289.9986019037
 30
0.0
 11
274.0728040541001
 21
310.564845174
 31
0.0
  0
LINE
  5
74
330
1F
100
AcDbEntity
  8
RUNDUNGEN
  6
Continuous
 62
     9
100
AcDbLine
 10
261.8048548616
 20
282.915698135
 30
0.0
 11
261.8048548616
 21
317.6477489426
 31
0.0
  0
LINE
  5
75
330
1F
100
AcDbEntity
  8
RUNDUNGEN
  6
Continuous
 62
     9
100
AcDbLine
 10
261.3048548616
 20
282.7817235388
 30
0.0
 11
261.3048548616
 21
317.7817235388
 31
0.0
  0
LWPOLYLINE
  5
76
330
1F
100
AcDbEntity
  8
BEZUGSACHSEN
  6
DASHED
 62
     8
100
AcDbPolyline
 90
        2
 70
     0
 43
0.35
 10
258.8228040541001
 20
305.2817235388
 10
258.8228040541001
 20
317.7817235388
  0
LWPOLYLINE
  5
77
330
1F
100
AcDbEntity
  8
BEZUGSACHSEN
  6
DOT_CENTER
 62
     7
100
AcDbPolyline
 90
        2
 70
     0
 43
0.25
 10
254.5728040541
 20
320.7817235388
 10
254.5728040541
 20
299.9156285868
  0
LWPOLYLINE
  5
78
330
1F
100
AcDbEntity
  8
BEZUGSACHSEN
  6
DASHED
 62
     8
100
AcDbPolyline
 90
        2
 70
     0
 43
0.35
 10
250.3228040541
 20
305.2817235388
 10
250.3228040541
 20
317.7817235388
  0
LINE
  5
79
330
1F
100
AcDbEntity
  8
0
  6
Continuous
 62
     7
100
AcDbLine
 10
261.8048548616
 20
317.6477489426
 30
0.0
 11
274.0728040541001
 21
310.564845174
 31
0.0
  0
LINE
  5
7A
330
1F
100
AcDbEntity
  8
RUNDUNGEN
  6
Continuous
 62
     7
100
AcDbLine
 10
274.0728040541001
 20
310.564845174
 30
0.0
 11
261.8048548616
 21
317.6477489426
 31
0.0
  0
LINE
  5
7B
330
1F
100
AcDbEntity
  8
0
  6
Continuous
 62
     7
100
AcDbLine
 10
188.9881824399
 20
347.2810204086
 30
0.0
 11
192.6728040541
 21
347.2810204086
 31
0.0
  0
LINE
  5
7C
330
1F
100
AcDbEntity
  8
0
  6
Continuous
 62
     7
100
AcDbLine
 10
178.7728040541
 20
347.2810204086
 30
0.0
 11
182.5074256682
 21
347.2810204086
 31
0.0
  0
LINE
  5
7D
330
1F
100
AcDbEntity
  8
0
  6
Continuous
 62
     7
100
AcDbLine
 10
261.8048548616
 20
282.915698135
 30
0.0
 11
274.0728040541001
 21
289.9986019037
 31
0.0
  0
LINE
  5
7E
330
1F
100
AcDbEntity
  8
0
  6
Continuous
 62
     7
100
AcDbLine
 10
184.5853040541
 20
343.9147385619
 30
0.0
 11
186.9103040541
 21
343.9147385619
 31
0.0
  0
LINE
  5
7F
330
1F
100
AcDbEntity
  8
RUNDUNGEN
  6
Continuous
 62
     9
100
AcDbLine
 10
208.6728040541
 20
317.7817235388
 30
0.0
 11
208.6728040541
 21
282.7817235388
 31
0.0
  0
LWPOLYLINE
  5
80
330
1F
100
AcDbEntity
  8
DEFAULT_2
  6
DASHED
 62
     8
100
AcDbPolyline
 90
        2
 70
     0
 43
0.35
 10
235.5728040541001
 20
305.2817235388001
 10
235.5728040541001
 20
295.2817235388
  0
LINE
  5
81
330
1F
100
AcDbEntity
  8
0
  6
Continuous
 62
     7
100
AcDbLine
 10
175.1228040541
 20
334.8567235388
 30
0.0
 11
174.0831217208
 21
335.1353055804
 31
0.0
  0
LINE
  5
82
330
1F
100
AcDbEntity
  8
0
  6
Continuous
 62
     7
100
AcDbLine
 10
177.7728040541
 20
335.5817235388
 30
0.0
 11
177.7342482802
 21
335.5817235388
 31
0.0
  0
LINE
  5
83
330
1F
100
AcDbEntity
  8
0
  6
Continuous
 62
     7
100
AcDbLine
 10
176.7728040541
 20
334.8567235388
 30
0.0
 11
175.1228040541
 21
334.8567235388
 31
0.0
  0
LINE
  5
84
330
1F
100
AcDbEntity
  8
0
  6
Continuous
 62
     7
100
AcDbLine
 10
193.6728040541
 20
346.2432172727
 30
0.0
 11
193.6728040541
 21
267.7817235388
 31
0.0
  0
LINE
  5
85
330
1F
100
AcDbEntity
  8
0
  6
Continuous
 62
     9
100
AcDbLine
 10
192.6728040541
 20
347.2810204086
 30
0.0
 11
192.6728040541
 21
253.2824266691
 31
0.0
  0
LINE
  5
86
330
1F
100
AcDbEntity
  8
0
  6
Continuous
 62
     7
100
AcDbLine
 10
188.9881824399
 20
347.2810204086
 30
0.0
 11
188.9881824399
 21
253.2824266691
 31
0.0
  0
LINE
  5
87
330
1F
100
AcDbEntity
  8
0
  6
Continuous
 62
     7
100
AcDbLine
 10
174.0831217208
 20
335.1353055804
 30
0.0
 11
74.74808704839998
 21
320.6696158832
 31
0.0
  0
LINE
  5
88
330
1F
100
AcDbEntity
  8
0
  6
Continuous
 62
     7
100
AcDbLine
 10
187.6603040541
 20
344.8915406996
 30
0.0
 11
187.6603040541
 21
255.6719063781
 31
0.0
  0
LINE
  5
89
330
1F
100
AcDbEntity
  8
0
  6
Continuous
 62
     9
100
AcDbLine
 10
186.9103040541
 20
343.9147385619
 30
0.0
 11
186.9103040541
 21
256.6487085158
 31
0.0
  0
LINE
  5
8A
330
1F
100
AcDbEntity
  8
0
  6
Continuous
 62
     9
100
AcDbLine
 10
184.5853040541
 20
343.9147385619
 30
0.0
 11
184.5853040541
 21
256.6487085158
 31
0.0
  0
LINE
  5
8B
330
1F
100
AcDbEntity
  8
0
  6
Continuous
 62
     7
100
AcDbLine
 10
183.8353040541
 20
344.8915406996
 30
0.0
 11
183.8353040541
 21
255.6719063781
 31
0.0
  0
LINE
  5
8C
330
1F
100
AcDbEntity
  8
0
  6
Continuous
 62
     7
100
AcDbLine
 10
182.5074256682
 20
347.2810204086
 30
0.0
 11
182.5074256682
 21
253.2824266691
 31
0.0
  0
LINE
  5
8D
330
1F
100
AcDbEntity
  8
0
  6
Continuous
 62
     9
100
AcDbLine
 10
178.7728040541
 20
347.2810204086
 30
0.0
 11
178.7728040541
 21
253.2824266691
 31
0.0
  0
LINE
  5
8E
330
1F
100
AcDbEntity
  8
0
  6
Continuous
 62
     7
100
AcDbLine
 10
177.7728040541
 20
346.2432172727
 30
0.0
 11
177.7728040541
 21
254.3202298049
 31
0.0
  0
LINE
  5
8F
330
1F
100
AcDbEntity
  8
0
  6
Continuous
 62
     9
100
AcDbLine
 10
176.7728040541
 20
334.8567235388
 30
0.0
 11
176.7728040541
 21
265.7067235388
 31
0.0
  0
LINE
  5
90
330
1F
100
AcDbEntity
  8
0
  6
Continuous
 62
     7
100
AcDbLine
 10
258.8228040541001
 20
317.7817235388
 30
0.0
 11
261.3048548616
 21
317.7817235388
 31
0.0
  0
LINE
  5
91
330
1F
100
AcDbEntity
  8
BEZUGSACHSEN
  6
Continuous
 62
     7
100
AcDbLine
 10
250.3228040541
 20
317.7817235388
 30
0.0
 11
208.6728040541
 21
317.7817235388
 31
0.0
  0
LINE
  5
92
330
1F
100
AcDbEntity
  8
BEZUGSACHSEN
  6
Continuous
 62
     7
100
AcDbLine
 10
261.3048548616
 20
317.7817235388
 30
0.0
 11
258.8228040541001
 21
317.7817235388
 31
0.0
  0
LINE
  5
93
330
1F
100
AcDbEntity
  8
0
  6
Continuous
 62
     7
100
AcDbLine
 10
175.1228040541
 20
334.8567235388
 30
0.0
 11
175.1228040541
 21
265.7067235388
 31
0.0
  0
LWPOLYLINE
  5
94
330
1F
100
AcDbEntity
  8
TEIL_STARTBEZUEGE
  6
DOT_CENTER
 62
     7
100
AcDbPolyline
 90
        2
 70
     0
 43
0.25
 10
174.5728040541
 20
259.0824266691
 10
174.5728040541
 20
341.7192235388001
  0
LINE
  5
95
330
1F
100
AcDbEntity
  8
0
  6
Continuous
 62
     7
100
AcDbLine
 10
174.0831217208
 20
335.1353055804
 30
0.0
 11
174.0831217208
 21
265.4281414972
 31
0.0
  0
LWPOLYLINE
  5
96
330
1F
100
AcDbEntity
  8
DEFAULT_2
  6
DASHED
 62
     8
100
AcDbPolyline
 90
        2
 70
     0
 43
0.35
 10
250.3228040541
 20
305.2817235388
 10
274.5728040541001
 20
305.2817235388
  0
LWPOLYLINE
  5
97
330
1F
100
AcDbEntity
  8
DEFAULT_2
  6
DASHED
 62
     8
100
AcDbPolyline
 90
        2
 70
     0
 43
0.35
 10
235.5728040541001
 20
305.2817235388001
 10
250.3228040541
 20
305.2817235388
  0
LWPOLYLINE
  5
98
330
1F
100
AcDbEntity
  8
TEIL_STARTBEZUEGE
  6
DOT_CENTER
 62
     7
100
AcDbPolyline
 90
        2
 70
     0
 43
0.25
 10
277.5728040541001
 20
300.2817235388
 10
69.82280405410005
 20
300.2817235388
  0
LWPOLYLINE
  5
99
330
1F
100
AcDbEntity
  8
DEFAULT_2
  6
DASHED
 62
     8
100
AcDbPolyline
 90
        2
 70
     0
 43
0.35
 10
274.5728040541001
 20
295.2817235388
 10
235.5728040541001
 20
295.2817235388
  0
LINE
  5
9A
330
1F
100
AcDbEntity
  8
0
  6
Continuous
 62
     7
100
AcDbLine
 10
208.6728040541
 20
282.7817235388
 30
0.0
 11
261.3048548616
 21
282.7817235388
 31
0.0
  0
LINE
  5
9B
330
1F
100
AcDbEntity
  8
RUNDUNGEN
  6
Continuous
 62
     7
100
AcDbLine
 10
261.3048548616
 20
282.7817235388
 30
0.0
 11
208.6728040541
 21
282.7817235388
 31
0.0
  0
LINE
  5
9C
330
1F
100
AcDbEntity
  8
0
  6
Continuous
 62
     7
100
AcDbLine
 10
174.0831217208
 20
265.4281414972
 30
0.0
 11
74.74808704839998
 21
279.8938311943999
 31
0.0
  0
LINE
  5
9D
330
1F
100
AcDbEntity
  8
0
  6
Continuous
 62
     7
100
AcDbLine
 10
176.7728040541
 20
265.7067235388
 30
0.0
 11
175.1228040541
 21
265.7067235388
 31
0.0
  0
LINE
  5
9E
330
1F
100
AcDbEntity
  8
0
  6
Continuous
 62
     7
100
AcDbLine
 10
175.1228040541
 20
265.7067235388
 30
0.0
 11
174.0831217208
 21
265.4281414972
 31
0.0
  0
LINE
  5
9F
330
1F
100
AcDbEntity
  8
0
  6
Continuous
 62
     7
100
AcDbLine
 10
184.5853040541
 20
256.6487085158
 30
0.0
 11
186.9103040541
 21
256.6487085158
 31
0.0
  0
LINE
  5
A0
330
1F
100
AcDbEntity
  8
0
  6
Continuous
 62
     7
100
AcDbLine
 10
188.9881824399
 20
253.2824266691
 30
0.0
 11
192.6728040541
 21
253.2824266691
 31
0.0
  0
LINE
  5
A1
330
1F
100
AcDbEntity
  8
0
  6
Continuous
 62
     7
100
AcDbLine
 10
178.7728040541
 20
253.2824266691
 30
0.0
 11
182.5074256682
 21
253.2824266691
 31
0.0
  0
LINE
  5
A2
330
1F
100
AcDbEntity
  8
0
  6
Continuous
 62
     9
100
AcDbLine
 10
74.74808704839998
 20
320.6696158832
 30
0.0
 11
74.74808704839998
 21
279.8938311943999
 31
0.0
  0
LINE
  5
A3
330
1F
100
AcDbEntity
  8
0
  6
Continuous
 62
     7
100
AcDbLine
 10
72.82280405409999
 20
318.44317054
 30
0.0
 11
72.82280405409999
 21
282.1202765376
 31
0.0
  0
LINE
  5
A4
330
1F
100
AcDbEntity
  8
0
  6
Continuous
 62
     7
100
AcDbLine
 10
193.6728040541
 20
267.7817235388
 30
0.0
 11
193.6728040541
 21
254.3202298049
 31
0.0
  0
ARC
  5
A5
330
1F
100
AcDbEntity
  8
RUNDUNGEN
  6
Continuous
 62
     7
100
AcDbCircle
 10
273.5728040541001
 20
309.6988197702
 30
0.0
 40
1.0
100
AcDbArc
 50
0.0
 51
60.00000000044728
  0
ARC
  5
A6
330
1F
100
AcDbEntity
  8
RUNDUNGEN
  6
Continuous
 62
     7
100
AcDbCircle
 10
273.5728040541001
 20
290.8646273075
 30
0.0
 40
1.000000000013472
100
AcDbArc
 50
299.9999999995543
 51
0.0
  0
ARC
  5
A7
330
1F
100
AcDbEntity
  8
0
  6
Continuous
 62
     7
100
AcDbCircle
 10
176.7728040541
 20
264.7067235388
 30
0.0
 40
1.0
100
AcDbArc
 50
0.0
 51
90.0
  0
ARC
  5
A8
330
1F
100
AcDbEntity
  8
0
  6
Continuous
 62
     7
100
AcDbCircle
 10
176.7728040541
 20
335.8567235388
 30
0.0
 40
1.0
100
AcDbArc
 50
270.0
 51
344.0379858363432
  0
ARC
  5
A9
330
1F
100
AcDbEntity
  8
RUNDUNGEN
  6
Continuous
 62
     7
100
AcDbCircle
 10
261.3048548616
 20
283.7817235388
 30
0.0
 40
1.0
100
AcDbArc
 50
270.0
 51
299.9999999995543
  0
ARC
  5
AA
330
1F
100
AcDbEntity
  8
RUNDUNGEN
  6
Continuous
 62
     7
100
AcDbCircle
 10
261.3048548616
 20
316.7817235388
 30
0.0
 40
1.000000000013472
100
AcDbArc
 50
60.00000000044565
 51
90.0
  0
ARC
  5
AB
330
1F
100
AcDbEntity
  8
0
  6
Continuous
 62
     7
100
AcDbCircle
 10
75.07280405409999
 20
318.44317054
 30
0.0
 40
2.250000000010608
100
AcDbArc
 50
98.29782682987452
 51
180.0
  0
ARC
  5
AC
330
1F
100
AcDbEntity
  8
0
  6
Continuous
 62
     7
100
AcDbCircle
 10
75.07280405409999
 20
282.1202765376
 30
0.0
 40
2.25
100
AcDbArc
 50
180.0
 51
261.7021731701257
  0
SPLINE
  5
AD
330
1F
100
AcDbEntity
  8
0
  6
Continuous
 62
     7
100
AcDbSpline
210
0.0
220
0.0
230
1.0
 70
     8
 71
     3
 72
    15
 73
    11
 74
     9
 42
0.0000000001
 43
0.0000000001
 44
0.00000001
 40
0.0
 40
0.0
 40
0.0
 40
0.0
 40
0.1994115198642115
 40
0.3995306095162522
 40
0.5993950644582393
 40
0.7990503711386074
 40
0.9987117371654949
 40
1.198567718880267
 40
1.398751157594603
 40
1.598077977506843
 40
1.598077977506843
 40
1.598077977506843
 40
1.598077977506843
 10
177.7728040541
 20
254.3202298049
 30
0.0
 10
177.7764222747584
 20
254.2536715101593
 30
0.0
 10
177.7836715545692
 20
254.1203187525843
 30
0.0
 10
177.8408681065005
 20
253.9270477532625
 30
0.0
 10
177.9310350633141
 20
253.7475726353028
 30
0.0
 10
178.0542674573137
 20
253.5887316370633
 30
0.0
 10
178.2060555732676
 20
253.4568050976762
 30
0.0
 10
178.3811797045888
 20
253.3581756110865
 30
0.0
 10
178.5728838271283
 20
253.294731345423
 30
0.0
 10
178.7062593051081
 20
253.2865223607153
 30
0.0
 10
178.7728040541
 20
253.2824266691
 30
0.0
 11
177.7728040541
 21
254.3202298049
 31
0.0
 11
177.7913502618561
 21
254.1216826003555
 31
0.0
 11
177.8463936738723
 21
253.9292823071209
 31
0.0
 11
177.9365955824517
 21
253.7509303628144
 31
0.0
 11
178.0590240741277
 21
253.5932169965085
 31
0.0
 11
178.2098668058003
 21
253.4624074732112
 31
0.0
 11
178.3838623544201
 21
253.3640816755399
 31
0.0
 11
178.5745623746428
 21
253.3031972651989
 31
0.0
 11
178.7728040541
 21
253.2824266691
 31
0.0
  0
SPLINE
  5
AE
330
1F
100
AcDbEntity
  8
0
  6
Continuous
 62
     7
100
AcDbSpline
210
0.0
220
0.0
230
1.0
 70
     8
 71
     3
 72
     9
 73
     5
 74
     3
 42
0.0000000001
 43
0.0000000001
 44
0.00000001
 40
0.0
 40
0.0
 40
0.0
 40
0.0
 40
1.366828025570974
 40
2.733656073443264
 40
2.733656073443264
 40
2.733656073443264
 40
2.733656073443264
 10
183.8353040541
 20
255.6719063781
 30
0.0
 10
183.6142343700668
 20
255.2735245132283
 30
0.0
 10
183.1720949983933
 20
254.476760776985
 30
0.0
 10
182.7289821128028
 20
253.6805380405602
 30
0.0
 10
182.5074256682
 20
253.2824266691
 30
0.0
 11
183.8353040541
 21
255.6719063781
 31
0.0
 11
183.171851623525
 21
254.4768960334375
 31
0.0
 11
182.5074256682
 21
253.2824266691
 31
0.0
  0
SPLINE
  5
AF
330
1F
100
AcDbEntity
  8
0
  6
Continuous
 62
     7
100
AcDbSpline
210
0.0
220
0.0
230
1.0
 70
     8
 71
     3
 72
     9
 73
     5
 74
     3
 42
0.0000000001
 43
0.0000000001
 44
0.00000001
 40
0.0
 40
0.0
 40
0.0
 40
0.0
 40
1.3668280479051
 40
2.733656073443249
 40
2.733656073443249
 40
2.733656073443249
 40
2.733656073443249
 10
182.5074256682
 20
347.2810204086
 30
0.0
 10
182.7289821128001
 20
346.8829090371258
 30
0.0
 10
183.1720949983748
 20
346.0866863006922
 30
0.0
 10
183.6142343700641
 20
345.2899225644576
 30
0.0
 10
183.8353040541
 20
344.8915406996
 30
0.0
 11
182.5074256682
 21
347.2810204086
 31
0.0
 11
183.171851623525
 21
346.086551044225
 31
0.0
 11
183.8353040541
 21
344.8915406996
 31
0.0
  0
SPLINE
  5
B0
330
1F
100
AcDbEntity
  8
0
  6
Continuous
 62
     7
100
AcDbSpline
210
0.0
220
0.0
230
1.0
 70
     8
 71
     3
 72
     9
 73
     5
 74
     3
 42
0.0000000001
 43
0.0000000001
 44
0.00000001
 40
0.0
 40
0.0
 40
0.0
 40
0.0
 40
1.366828025528497
 40
2.733656073394708
 40
2.733656073394708
 40
2.733656073394708
 40
2.733656073394708
 10
187.6603040541
 20
255.6719063781
 30
0.0
 10
187.8813737380993
 20
255.2735245132257
 30
0.0
 10
188.3235131097107
 20
254.4767607769665
 30
0.0
 10
188.7666259952966
 20
253.6805380405576
 30
0.0
 10
188.9881824399
 20
253.2824266691
 30
0.0
 11
187.6603040541
 21
255.6719063781
 31
0.0
 11
188.3237564845875
 21
254.4768960334375
 31
0.0
 11
188.9881824399
 21
253.2824266691
 31
0.0
  0
SPLINE
  5
B1
330
1F
100
AcDbEntity
  8
0
  6
Continuous
 62
     7
100
AcDbSpline
210
0.0
220
0.0
230
1.0
 70
     8
 71
     3
 72
     9
 73
     5
 74
     3
 42
0.0000000001
 43
0.0000000001
 44
0.00000001
 40
0.0
 40
0.0
 40
0.0
 40
0.0
 40
1.366828047899021
 40
2.733656073394693
 40
2.733656073394693
 40
2.733656073394693
 40
2.733656073394693
 10
188.9881824399
 20
347.2810204086
 30
0.0
 10
188.7666259952993
 20
346.8829090371285
 30
0.0
 10
188.3235131097293
 20
346.0866863007107
 30
0.0
 10
187.8813737381019
 20
345.2899225644602
 30
0.0
 10
187.6603040541
 20
344.8915406996
 30
0.0
 11
188.9881824399
 21
347.2810204086
 31
0.0
 11
188.3237564845875
 21
346.086551044225
 31
0.0
 11
187.6603040541
 21
344.8915406996
 31
0.0
  0
SPLINE
  5
B2
330
1F
100
AcDbEntity
  8
0
  6
Continuous
 62
     7
100
AcDbSpline
210
0.0
220
0.0
230
1.0
 70
     8
 71
     3
 72
    15
 73
    11
 74
     9
 42
0.0000000001
 43
0.0000000001
 44
0.00000001
 40
0.0
 40
0.0
 40
0.0
 40
0.0
 40
0.1497938276636545
 40
0.3002403874285299
 40
0.4504310444316472
 40
0.6004785770956952
 40
0.750515170916135
 40
0.9007083293969002
 40
1.051091365176925
 40
1.200944179332055
 40
1.200944179332055
 40
1.200944179332055
 40
1.200944179332055
 10
186.9103040541
 20
256.6487085158
 30
0.0
 10
186.9603130416139
 20
256.6456034917117
 30
0.0
 10
187.0605489326399
 20
256.6393799132787
 30
0.0
 10
187.2045287552585
 20
256.5913725339791
 30
0.0
 10
187.3359100979184
 20
256.5168411450543
 30
0.0
 10
187.4496413502661
 20
256.4173142023747
 30
0.0
 10
187.5418988480174
 20
256.2976848661813
 30
0.0
 10
187.6093582839895
 20
256.1626724991818
 30
0.0
 10
187.6521672830316
 20
256.0173969193482
 30
0.0
 10
187.6575949922195
 20
255.9171871447932
 30
0.0
 10
187.6603040541
 20
255.8671707436
 30
0.0
 11
186.9103040541
 21
256.6487085158
 31
0.0
 11
187.0592695574546
 21
256.6329773487602
 31
0.0
 11
187.2024924191693
 21
256.5869189160108
 31
0.0
 11
187.3330267354828
 21
256.5126355012023
 31
0.0
 11
187.4460659889586
 21
256.4139623577832
 31
0.0
 11
187.5377290874384
 21
256.2951816528589
 31
0.0
 11
187.6052272599532
 21
256.1610101895681
 31
0.0
 11
187.6464205398216
 21
256.0163790340583
 31
0.0
 11
187.6603040541
 21
255.8671707436
 31
0.0
  0
SPLINE
  5
B3
330
1F
100
AcDbEntity
  8
0
  6
Continuous
 62
     7
100
AcDbSpline
210
0.0
220
0.0
230
1.0
 70
     8
 71
     3
 72
    15
 73
    11
 74
     9
 42
0.0000000001
 43
0.0000000001
 44
0.00000001
 40
0.0
 40
0.0
 40
0.0
 40
0.0
 40
0.1498537524274933
 40
0.3002377329249002
 40
0.4504313876674854
 40
0.6004684787159617
 40
0.7505157523991178
 40
0.9007061337623787
 40
1.05115151843479
 40
1.200944190630631
 40
1.200944190630631
 40
1.200944190630631
 40
1.200944190630631
 10
183.8353040541
 20
255.8671707436
 30
0.0
 10
183.8380131501702
 20
255.9171874586697
 30
0.0
 10
183.8434409279147
 20
256.0173978631315
 30
0.0
 10
183.8862504188882
 20
256.1626741507631
 30
0.0
 10
183.9537105244515
 20
256.2976869140125
 30
0.0
 10
184.0459685878884
 20
256.4173161337529
 30
0.0
 10
184.1597001662626
 20
256.5168426747625
 30
0.0
 10
184.2910812474562
 20
256.5913733705641
 30
0.0
 10
184.4350603421465
 20
256.6393800792464
 30
0.0
 10
184.5352954532631
 20
256.6456035468534
 30
0.0
 10
184.5853040541
 20
256.6487085158
 30
0.0
 11
183.8353040541
 21
255.8671707436
 31
0.0
 11
183.8491877424682
 21
256.016379960185
 31
0.0
 11
183.8903815365704
 21
256.1610119515206
 31
0.0
 11
183.9578803047121
 21
256.2951836706878
 31
0.0
 11
184.0495441117178
 21
256.4139644569098
 31
0.0
 11
184.162583511475
 21
256.5126370389287
 31
0.0
 11
184.2931178261207
 21
256.5869198993611
 31
0.0
 11
184.4363396847355
 21
256.6329776129838
 31
0.0
 11
184.5853040541
 21
256.6487085158
 31
0.0
  0
SPLINE
  5
B4
330
1F
100
AcDbEntity
  8
0
  6
Continuous
 62
     7
100
AcDbSpline
210
0.0
220
0.0
230
1.0
 70
     8
 71
     3
 72
    15
 73
    11
 74
     9
 42
0.0000000001
 43
0.0000000001
 44
0.00000001
 40
0.0
 40
0.0
 40
0.0
 40
0.0
 40
0.1497935590788999
 40
0.3002398467503546
 40
0.4504306630821129
 40
0.6004783583258639
 40
0.7505149758516512
 40
0.9007081564236384
 40
1.051091279584265
 40
1.200944180815657
 40
1.200944180815657
 40
1.200944180815657
 40
1.200944180815657
 10
184.5853040541
 20
343.9147385619
 30
0.0
 10
184.5352951564458
 20
343.9178435733318
 30
0.0
 10
184.4350594463112
 20
343.9240671263482
 30
0.0
 10
184.2910797218955
 20
343.9720743750725
 30
0.0
 10
184.1596983186516
 20
344.0466056984003
 30
0.0
 10
184.0459669411604
 20
344.1461326767574
 30
0.0
 10
183.9537093674437
 20
344.2657620428014
 30
0.0
 10
183.8862498782892
 20
344.4007744332971
 30
0.0
 10
183.843440835128
 20
344.5460500707718
 30
0.0
 10
183.8380131192965
 20
344.6462599036807
 30
0.0
 10
183.8353040541
 20
344.696276334
 30
0.0
 11
184.5853040541
 21
343.9147385619
 31
0.0
 11
184.4363388144021
 21
343.9304696681319
 31
0.0
 11
184.2931161852735
 21
343.9765279353551
 31
0.0
 11
184.1625816864538
 21
344.0508113515951
 31
0.0
 11
184.0495422736852
 21
344.1494845597567
 31
0.0
 11
183.9578791283883
 21
344.2682652584954
 31
0.0
 11
183.8903809131248
 21
344.4024367250096
 31
0.0
 11
183.8491875850261
 21
344.5470679576383
 31
0.0
 11
183.8353040541
 21
344.696276334
 31
0.0
  0
SPLINE
  5
B5
330
1F
100
AcDbEntity
  8
0
  6
Continuous
 62
     7
100
AcDbSpline
210
0.0
220
0.0
230
1.0
 70
     8
 71
     3
 72
    15
 73
    11
 74
     9
 42
0.0000000001
 43
0.0000000001
 44
0.00000001
 40
0.0
 40
0.0
 40
0.0
 40
0.0
 40
0.149853649282189
 40
0.3002375261457996
 40
0.4504311696979442
 40
0.6004682482343277
 40
0.7505153760189444
 40
0.90070561446396
 40
1.051151259618875
 40
1.200944189002008
 40
1.200944189002008
 40
1.200944189002008
 40
1.200944189002008
 10
187.6603040541
 20
344.696276334
 30
0.0
 10
187.6575949619753
 20
344.64625965343
 30
0.0
 10
187.6521671921378
 20
344.5460493181308
 30
0.0
 10
187.6093577519878
 20
344.4007730939858
 30
0.0
 10
187.5418977028125
 20
344.2657603502352
 30
0.0
 10
187.4496397095413
 20
344.1461311482751
 30
0.0
 10
187.335908245439
 20
344.0466046325245
 30
0.0
 10
187.2045272170991
 20
343.9720738695591
 30
0.0
 10
187.060548025297
 20
343.9240670348648
 30
0.0
 10
186.9603127409845
 20
343.9178435429511
 30
0.0
 10
186.9103040541
 20
343.9147385619
 30
0.0
 11
187.6603040541
 21
344.696276334
 31
0.0
 11
187.6464203854887
 21
344.5470672191676
 31
0.0
 11
187.6052266484049
 21
344.4024353193474
 31
0.0
 11
187.5377279223437
 21
344.2682635915371
 31
0.0
 11
187.446064157547
 21
344.1494827885468
 31
0.0
 11
187.3330249049009
 21
344.0508102598591
 31
0.0
 11
187.2024907572032
 21
343.976527395018
 31
0.0
 11
187.0592686759375
 21
343.9304695229004
 31
0.0
 11
186.9103040541
 21
343.9147385619
 31
0.0
  0
SPLINE
  5
B6
330
1F
100
AcDbEntity
  8
BEZUGSACHSEN
  6
Continuous
 62
     7
100
AcDbSpline
210
0.0
220
0.0
230
1.0
 70
     8
 71
     3
 72
    19
 73
    15
 74
    13
 42
0.0000000001
 43
0.0000000001
 44
0.00000001
 40
0.0
 40
0.0
 40
0.0
 40
0.0
 40
0.6359338650122222
 40
1.271944122582608
 40
1.965830770498584
 40
2.659717680431313
 40
3.475900876637389
 40
4.292121642611326
 40
5.108342493936129
 40
5.924525775156236
 40
6.618412835541014
 40
7.31229963453498
 40
7.948310960998135
 40
8.584245893492568
 40
8.584245893492568
 40
8.584245893492568
 40
8.584245893492568
 10
258.8228040541001
 20
317.7817235388
 30
0.0
 10
258.616357676432
 20
317.733530431703
 30
0.0
 10
258.2034401213993
 20
317.6371384282363
 30
0.0
 10
257.5595020986881
 20
317.5147988410635
 30
0.0
 10
256.8927944348103
 20
317.4110572421391
 30
0.0
 10
256.162813184652
 20
317.3266300501344
 30
0.0
 10
255.3890898209853
 20
317.2709688475818
 30
0.0
 10
254.5728053285383
 20
317.2512510992821
 30
0.0
 10
253.7565208039604
 20
317.2709686987723
 30
0.0
 10
252.9827973242403
 20
317.3266297850603
 30
0.0
 10
252.2528159355863
 20
317.4110569044885
 30
0.0
 10
251.5861078102144
 20
317.5147985095813
 30
0.0
 10
250.9421690296839
 20
317.6371381969527
 30
0.0
 10
250.5292507792431
 20
317.733530354644
 30
0.0
 10
250.3228040541
 20
317.7817235388
 30
0.0
 11
258.8228040541001
 21
317.7817235388
 31
0.0
 11
258.2025332198609
 21
317.6414524695747
 31
0.0
 11
257.5778913442036
 21
317.5217379136092
 31
0.0
 11
256.8921777407577
 21
317.4155515952564
 31
0.0
 11
256.2028776248899
 21
317.3358998906878
 31
0.0
 11
255.3887901815429
 21
317.2774478218287
 31
0.0
 11
254.5728053563596
 21
317.2578237580917
 31
0.0
 11
253.7568204423145
 21
317.2774476768711
 31
0.0
 11
252.9427329049855
 21
317.3358996238771
 31
0.0
 11
252.2534326299084
 21
317.4155512613246
 31
0.0
 11
251.5677188666702
 21
317.5217375350319
 31
0.0
 11
250.9430759332403
 21
317.6414522505244
 31
0.0
 11
250.3228040541
 21
317.7817235388
 31
0.0
  0
SPLINE
  5
B7
330
1F
100
AcDbEntity
  8
0
  6
Continuous
 62
     7
100
AcDbSpline
210
0.0
220
0.0
230
1.0
 70
     8
 71
     3
 72
    15
 73
    11
 74
     9
 42
0.0000000001
 43
0.0000000001
 44
0.00000001
 40
0.0
 40
0.0
 40
0.0
 40
0.0
 40
0.1993272936941614
 40
0.3995112142020256
 40
0.5993674460832084
 40
0.7990290560015796
 40
0.9986840827922968
 40
1.198548256426043
 40
1.398666897429667
 40
1.598077972533164
 40
1.598077972533164
 40
1.598077972533164
 40
1.598077972533164
 10
178.7728040541
 20
347.2810204086
 30
0.0
 10
178.7062591465456
 20
347.2769246947632
 30
0.0
 10
178.5728833487646
 20
347.2687156653943
 30
0.0
 10
178.3811788829946
 20
347.2052711122155
 30
0.0
 10
178.206054569958
 20
347.1066412807647
 30
0.0
 10
178.0542665632214
 20
346.9747144993665
 30
0.0
 10
177.931034439827
 20
346.8158734312639
 30
0.0
 10
177.8408678166843
 20
346.6363985269481
 30
0.0
 10
177.7836715048161
 20
346.4431278773394
 30
0.0
 10
177.7764222582075
 20
346.3097754186481
 30
0.0
 10
177.7728040541
 20
346.2432172727
 30
0.0
 11
178.7728040541
 21
347.2810204086
 31
0.0
 11
178.5745619094784
 21
347.2602497054999
 31
0.0
 11
178.3838614772389
 21
347.1993650015625
 31
0.0
 11
178.2098658156555
 21
347.1010388953042
 31
0.0
 11
178.0590230663776
 21
346.9702290200444
 31
0.0
 11
177.9365949469416
 21
346.812515719102
 31
0.0
 11
177.8463933444229
 21
346.6341639352439
 31
0.0
 11
177.7913501780772
 21
346.4417640383734
 31
0.0
 11
177.7728040541
 21
346.2432172727
 31
0.0
  0
SPLINE
  5
B8
330
1F
100
AcDbEntity
  8
0
  6
Continuous
 62
     7
100
AcDbSpline
210
0.0
220
0.0
230
1.0
 70
     8
 71
     3
 72
    15
 73
    11
 74
     9
 42
0.0000000001
 43
0.0000000001
 44
0.00000001
 40
0.0
 40
0.0
 40
0.0
 40
0.0
 40
0.1993272357191485
 40
0.3995110957013844
 40
0.5993673927035096
 40
0.7990290696868487
 40
0.9986840388079032
 40
1.198548154919174
 40
1.398666849441043
 40
1.598077976682208
 40
1.598077976682208
 40
1.598077976682208
 40
1.598077976682208
 10
192.6728040541
 20
253.2824266691
 30
0.0
 10
192.7393489422591
 20
253.2865223780234
 30
0.0
 10
192.8727247003979
 20
253.2947313974972
 30
0.0
 10
193.0644291591209
 20
253.3581759114243
 30
0.0
 10
193.2395535005056
 20
253.4568057462772
 30
0.0
 10
193.391341521815
 20
253.5887325502804
 30
0.0
 10
193.514573629907
 20
253.7475736086575
 30
0.0
 10
193.6047402514737
 20
253.9270484888478
 30
0.0
 10
193.6619365926476
 20
254.1203191474987
 30
0.0
 10
193.6691858464251
 20
254.2536716415181
 30
0.0
 10
193.6728040541
 20
254.3202298049
 30
0.0
 11
192.6728040541
 21
253.2824266691
 31
0.0
 11
192.8710461426166
 21
253.3031973513232
 31
0.0
 11
193.0617465259763
 21
253.3640820093565
 31
0.0
 11
193.2357422510463
 21
253.4624081356341
 31
0.0
 11
193.3865850469899
 21
253.5932180594463
 31
0.0
 11
193.5090131265414
 21
253.7509313183438
 31
0.0
 11
193.5992147129739
 21
253.9292830458767
 31
0.0
 11
193.6542579146377
 21
254.1216829883085
 31
0.0
 11
193.6728040541
 21
254.3202298049
 31
0.0
  0
SPLINE
  5
B9
330
1F
100
AcDbEntity
  8
0
  6
Continuous
 62
     7
100
AcDbSpline
210
0.0
220
0.0
230
1.0
 70
     8
 71
     3
 72
    15
 73
    11
 74
     9
 42
0.0000000001
 43
0.0000000001
 44
0.00000001
 40
0.0
 40
0.0
 40
0.0
 40
0.0
 40
0.1994115817413752
 40
0.3995307346681666
 40
0.599395128678814
 40
0.799050374160793
 40
0.998711798500427
 40
1.198567836687968
 40
1.398751217331261
 40
1.598077981760771
 40
1.598077981760771
 40
1.598077981760771
 40
1.598077981760771
 10
193.6728040541
 20
346.2432172727
 30
0.0
 10
193.6691858294961
 20
346.3097755881323
 30
0.0
 10
193.6619365417586
 20
346.4431283875571
 30
0.0
 10
193.6047399561225
 20
346.6363994004503
 30
0.0
 10
193.514572997643
 20
346.8158744936271
 30
0.0
 10
193.3913406201099
 20
346.9747154763626
 30
0.0
 10
193.2395524938119
 20
347.1066420323595
 30
0.0
 10
193.0644283385815
 20
347.2052715197357
 30
0.0
 10
192.8727242245225
 20
347.2687157466883
 30
0.0
 10
192.7393487845303
 20
347.2769247217655
 30
0.0
 10
192.6728040541
 20
347.2810204086
 30
0.0
 11
193.6728040541
 21
346.2432172727
 31
0.0
 11
193.654257828973
 21
346.4417645377684
 31
0.0
 11
193.5992143762907
 21
346.6341648851822
 31
0.0
 11
193.5090124824537
 21
346.8125167686638
 31
0.0
 11
193.3865840307395
 21
346.9702300885177
 31
0.0
 11
193.2357412579055
 21
347.1010396533557
 31
0.0
 11
193.0617456533186
 21
347.1993654667745
 31
0.0
 11
192.8710456798933
 21
347.2602498327591
 31
0.0
 11
192.6728040541
 21
347.2810204086
 31
0.0
  0
SPLINE
  5
BA
330
1F
100
AcDbEntity
  8
0
  6
Continuous
 62
     2
100
AcDbSpline
210
0.0
220
0.0
230
1.0
 70
     8
 71
     3
 72
    45
 73
    41
 74
    39
 42
0.0000000001
 43
0.0000000001
 44
0.00000001
 40
0.0
 40
0.0
 40
0.0
 40
0.0
 40
0.0169433892665262
 40
0.067812673956915
 40
0.1524994676429555
 40
0.2702269647081492
 40
0.4198166520356544
 40
0.5991431660816642
 40
0.8060075967539866
 40
1.038839668172765
 40
1.296458224887188
 40
1.578571841818322
 40
1.884915752683423
 40
2.214380688078175
 40
2.565466722777647
 40
2.935851868344932
 40
3.323974451828878
 40
3.732045657557382
 40
4.161582806007858
 40
4.607392426559727
 40
5.062239165061365
 40
5.517214977225404
 40
5.963406614147432
 40
6.393551042421319
 40
6.802422882296361
 40
7.191511523627934
 40
7.562997261597256
 40
7.915271547913736
 40
8.245961074016158
 40
8.553513114386542
 40
8.836774558605695
 40
9.095475341532746
 40
9.329320723325264
 40
9.537096433617196
 40
9.717199786843352
 40
9.86743260593299
 40
9.985674942471514
 40
10.07073963648127
 40
10.12183913337097
 40
10.13886005083426
 40
10.13886005083426
 40
10.13886005083426
 40
10.13886005083426
 10
249.5728040541
 20
317.7817463018
 30
0.0
 10
249.5782333358698
 20
317.7801905001596
 30
0.0
 10
249.5999629974316
 20
317.773963701747
 30
0.0
 10
249.6488726303039
 20
317.7601120939436
 30
0.0
 10
249.7301628871485
 20
317.7373088289238
 30
0.0
 10
249.8433064584249
 20
317.706226413372
 30
0.0
 10
249.987105667535
 20
317.6676548948947
 30
0.0
 10
250.1599719000507
 20
317.6227800724607
 30
0.0
 10
250.3601752668255
 20
317.5728130725898
 30
0.0
 10
250.5863079728874
 20
317.519016761739
 30
0.0
 10
250.8375615666536
 20
317.4625121266996
 30
0.0
 10
251.1135692353189
 20
317.4045135704958
 30
0.0
 10
251.4139493485537
 20
317.3462025112199
 30
0.0
 10
251.7379328799079
 20
317.2890674459201
 30
0.0
 10
252.0840255225743
 20
317.2347185613017
 30
0.0
 10
252.4505080243114
 20
317.1846226323266
 30
0.0
 10
252.8368561994785
 20
317.1402113581317
 30
0.0
 10
253.2437841145404
 20
317.1030989995304
 30
0.0
 10
253.6706886983707
 20
317.0746790920393
 30
0.0
 10
254.1137646884835
 20
317.0564550668332
 30
0.0
 10
254.5656550918752
 20
317.050272292997
 30
0.0
 10
255.0176780090299
 20
317.0560707073516
 30
0.0
 10
255.4611416527177
 20
317.0739408717275
 30
0.0
 10
255.8886644377126
 20
317.1020579528471
 30
0.0
 10
256.2964083421098
 20
317.1389375526188
 30
0.0
 10
256.6837368387997
 20
317.1831915283607
 30
0.0
 10
257.0513254202337
 20
317.2332082182243
 30
0.0
 10
257.3986049291912
 20
317.2875496431885
 30
0.0
 10
257.7238039331847
 20
317.3447432820292
 30
0.0
 10
258.0253789182025
 20
317.4031628804954
 30
0.0
 10
258.3025271852607
 20
317.4613071403904
 30
0.0
 10
258.5548503571682
 20
317.5179835976699
 30
0.0
 10
258.7819690742209
 20
317.5719661255515
 30
0.0
 10
258.9830538622818
 20
317.6221203333951
 30
0.0
 10
259.1566772385094
 20
317.6671713114985
 30
0.0
 10
259.3011021339768
 20
317.7058996531259
 30
0.0
 10
259.4147407835092
 20
317.737112584863
 30
0.0
 10
259.4963919736572
 20
317.7600150777295
 30
0.0
 10
259.5455216716842
 20
317.7739283780348
 30
0.0
 10
259.5673499324721
 20
317.7801834764934
 30
0.0
 10
259.5728040541001
 20
317.7817464076
 30
0.0
 11
249.5728040541
 21
317.7817463018
 31
0.0
 11
249.5890930993259
 21
317.7770831005965
 31
0.0
 11
249.6380309847193
 21
317.7631990270538
 31
0.0
 11
249.7195756722861
 21
317.7403447724292
 31
0.0
 11
249.8330924727697
 21
317.7091406128795
 31
0.0
 11
249.9775785918569
 21
317.6703999889058
 31
0.0
 11
250.1511514674855
 21
317.6253394131671
 31
0.0
 11
250.3518617512381
 21
317.5752567347906
 31
0.0
 11
250.5783727159189
 21
317.5213720768581
 31
0.0
 11
250.8297183047456
 21
317.4648679554067
 31
0.0
 11
251.1058025223455
 21
317.406854184195
 31
0.0
 11
251.4065377349896
 21
317.3485024609982
 31
0.0
 11
251.7309996931713
 21
317.2913047219908
 31
0.0
 11
252.077835153678
 21
317.2368385205801
 31
0.0
 11
252.4448115151529
 21
317.1867036407501
 31
0.0
 11
252.8304023792659
 21
317.1424450221227
 31
0.0
 11
253.2367855171743
 21
317.1053659961317
 31
0.0
 11
253.6653730102726
 21
317.076819145891
 31
0.0
 11
254.1108100122067
 21
317.0585956696964
 31
0.0
 11
254.5656129332625
 21
317.0522823088907
 31
0.0
 11
255.0205501373935
 21
317.0582093614294
 31
0.0
 11
255.4663838792314
 21
317.0760769717326
 31
0.0
 11
255.8956000224582
 21
317.1043211139321
 31
0.0
 11
256.3028081576446
 21
317.1411683130228
 31
0.0
 11
256.6893891744983
 21
317.1852714673499
 31
0.0
 11
257.0574869393783
 21
317.2353283250718
 31
0.0
 11
257.4055259253275
 21
317.2897896605241
 31
0.0
 11
257.7312206116958
 21
317.3470481441336
 31
0.0
 11
258.0331648971392
 21
317.4055110043451
 31
0.0
 11
258.3103913146296
 21
317.4636707776129
 31
0.0
 11
258.5628075141966
 21
317.520346674458
 31
0.0
 11
258.790315226016
 21
317.5744198068656
 31
0.0
 11
258.9919173847321
 21
317.6246922186673
 31
0.0
 11
259.1662471341389
 21
317.6699288886933
 31
0.0
 11
259.3113572491797
 21
317.7088256037794
 31
0.0
 11
259.4253718720795
 21
317.7401611413541
 31
0.0
 11
259.5072809841561
 21
317.7631154334539
 31
0.0
 11
259.5564404783898
 21
317.777061856259
 31
0.0
 11
259.5728040541001
 21
317.7817464076
 31
0.0
  0
ARC
  5
BB
330
1F
100
AcDbEntity
  8
1
  6
Continuous
 62
     7
100
AcDbCircle
 10
208.6728040541
 20
332.7817235388
 30
0.0
 40
15.0
100
AcDbArc
 50
180.0
 51
270.0
  0
ARC
  5
BC
330
1F
100
AcDbEntity
  8
1
  6
Continuous
 62
     7
100
AcDbCircle
 10
208.6728040541
 20
267.7817235388
 30
0.0
 40
15.0
100
AcDbArc
 50
90.0
 51
180.0
  0
DIMENSION
  5
C7
330
1F
100
AcDbEntity
  8
1
100
AcDbDimension
  2
*D2
 10
274.5728040541001
 20
368.242184139528
 30
0.0
 11
188.7192434864269
 21
371.992184139528
 31
0.0
 70
    32
  1
<>
 71
     5
 42
-1.0
 53
0.00013888888889
  3
ME10_DIM_10
100
AcDbAlignedDimension
 13
72.82280405409999
 23
318.44317054
 33
0.0
 14
274.5728040541001
 24
309.6988197702
 34
0.0
100
AcDbRotatedDimension
  0
DIMENSION
  5
D2
330
1F
100
AcDbEntity
  8
1
100
AcDbDimension
  2
*D3
 10
274.5728040541001
 20
360.466088461094
 30
0.0
 11
224.8967563989254
 21
364.216088461094
 31
0.0
 70
    32
  1
<>
 71
     5
 42
-1.0
 53
0.00013888888889
  3
ME10_DIM_11
100
AcDbAlignedDimension
 13
174.5728040541
 23
341.7192235388001
 33
0.0
 14
274.5728040541001
 24
309.6988197702
 34
0.0
100
AcDbRotatedDimension
  0
DIMENSION
  5
DD
330
1F
100
AcDbEntity
  8
1
100
AcDbDimension
  2
*D4
 10
274.5728040541001
 20
353.348983941849
 30
0.0
 11
231.5218255899299
 21
357.098983941849
 31
0.0
 70
    32
  1
<>
 71
     5
 42
-1.0
 53
0.00013888888889
  3
ME10_DIM_12
100
AcDbAlignedDimension
 13
193.6728040541
 23
346.2432172727
 33
0.0
 14
274.5728040541001
 24
309.6988197702
 34
0.0
100
AcDbRotatedDimension
  0
DIMENSION
  5
E8
330
1F
100
AcDbEntity
  8
1
100
AcDbDimension
  2
*D5
 10
294.678204448107
 20
317.7817235388
 30
0.0
 11
290.928204448107
 21
300.76148943854
 31
0.0
 70
    32
  1
<>
 71
     5
 42
-1.0
 53
90.0
  3
ME10_DIM_13
100
AcDbAlignedDimension
 13
261.3048548616
 23
282.7817235388
 33
0.0
 14
261.3048548616
 24
317.7817235388
 34
0.0
 50
90.0
100
AcDbRotatedDimension
  0
DIMENSION
  5
F3
330
1F
100
AcDbEntity
  8
1
100
AcDbDimension
  2
*D6
 10
285.056933523943
 20
305.2817235388
 30
0.0
 11
281.306933523943
 21
300.366094743027
 31
0.0
 70
    32
  1
<>
 71
     5
 42
-1.0
 53
90.0
  3
ME10_DIM_14
100
AcDbAlignedDimension
 13
274.5728040541001
 23
295.2817235388
 33
0.0
 14
274.5728040541001
 24
305.2817235388
 34
0.0
 50
90.0
100
AcDbRotatedDimension
  0
INSERT
  5
FA
330
1F
100
AcDbEntity
  8
1
100
AcDbBlockReference
  2
*D7
 10
0.0
 20
0.0
 30
0.0
  0
ENDSEC
  0
SECTION
  2
OBJECTS
  0
DICTIONARY
  5
C
330
0
100
AcDbDictionary
281
     1
  3
ACAD_GROUP
350
D
  3
ACAD_LAYOUT
350
1A
  3
ACAD_MLEADERSTYLE
350
FD
  3
ACAD_MLINESTYLE
350
17
  3
ACAD_PLOTSETTINGS
350
19
  3
ACAD_PLOTSTYLENAME
350
E
  3
ACAD_SCALELIST
350
4A
  3
ACAD_VISUALSTYLE
350
2A
  3
AcDbVariableDictionary
350
FB
  0
DICTIONARY
  5
D
102
{ACAD_REACTORS
330
C
102
}
330
C
100
AcDbDictionary
281
     1
  0
DICTIONARY
  5
1A
102
{ACAD_REACTORS
330
C
102
}
330
C
100
AcDbDictionary
281
     1
  3
Layout1
350
1E
  3
Layout2
350
26
  3
Model
350
22
  0
DICTIONARY
  5
FD
102
{ACAD_REACTORS
330
C
102
}
330
C
100
AcDbDictionary
281
     1
  0
DICTIONARY
  5
17
102
{ACAD_REACTORS
330
C
102
}
330
C
100
AcDbDictionary
281
     1
  3
Standard
350
18
  0
DICTIONARY
  5
19
102
{ACAD_REACTORS
330
C
102
}
330
C
100
AcDbDictionary
281
     1
  0
ACDBDICTIONARYWDFLT
  5
E
102
{ACAD_REACTORS
330
C
102
}
330
C
100
AcDbDictionary
281
     1
  3
Normal
350
F
100
AcDbDictionaryWithDefault
340
F
  0
DICTIONARY
  5
4A
102
{ACAD_REACTORS
330
C
102
}
330
C
100
AcDbDictionary
281
     1
  3
A0
350
4B
  3
A1
350
4C
  3
A2
350
4D
  3
A3
350
4E
  3
A4
350
4F
  3
A5
350
50
  3
A6
350
51
  3
A7
350
52
  3
A8
350
53
  3
A9
350
54
  3
B0
350
55
  3
B1
350
56
  3
B2
350
57
  3
B3
350
58
  3
B4
350
59
  3
B5
350
5A
  3
B6
350
5B
  3
B7
350
5C
  3
B8
350
5D
  3
B9
350
5E
  3
C0
350
5F
  3
C1
350
60
  3
C2
350
61
  3
C3
350
62
  3
C4
350
63
  3
C5
350
64
  3
C6
350
65
  3
C7
350
66
  3
C8
350
67
  3
C9
350
68
  3
D0
350
69
  3
D1
350
6A
  3
D2
350
6B
  0
DICTIONARY
  5
2A
102
{ACAD_REACTORS
330
C
102
}
330
C
100
AcDbDictionary
281
     1
  3
2dWireframe
350
2F
  3
3D Hidden
350
31
  3
3dWireframe
350
30
  3
Basic
350
32
  3
Brighten
350
36
  3
ColorChange
350
3A
  3
Conceptual
350
34
  3
Dim
350
35
  3
Facepattern
350
39
  3
Flat
350
2B
  3
FlatWithEdges
350
2C
  3
Gouraud
350
2D
  3
GouraudWithEdges
350
2E
  3
Linepattern
350
38
  3
Realistic
350
33
  3
Thicken
350
37
  0
DICTIONARY
  5
FB
102
{ACAD_REACTORS
330
C
102
}
330
C
100
AcDbDictionary
281
     1
  3
CANNOSCALE
350
FE
  0
LAYOUT
  5
1E
102
{ACAD_REACTORS
330
1A
102
}
330
1A
100
AcDbPlotSettings
  1

  2
none_device
  4

  6

 40
0.0
 41
0.0
 42
0.0
 43
0.0
 44
0.0
 45
0.0
 46
0.0
 47
0.0
 48
0.0
 49
0.0
140
0.0
141
0.0
142
1.0
143
1.0
 70
   688
 72
     0
 73
     0
 74
     5
  7

 75
    16
147
1.0
148
0.0
149
0.0
100
AcDbLayout
  1
Layout1
 70
     1
 71
     1
 10
0.0
 20
0.0
 11
12.0
 21
9.0
 12
0.0
 22
0.0
 32
0.0
 14
1.00000000000000E+20
 24
1.00000000000000E+20
 34
1.00000000000000E+20
 15
-1.00000000000000E+20
 25
-1.00000000000000E+20
 35
-1.00000000000000E+20
146
0.0
 13
0.0
 23
0.0
 33
0.0
 16
1.0
 26
0.0
 36
0.0
 17
0.0
 27
1.0
 37
0.0
 76
     0
330
1B
  0
LAYOUT
  5
26
102
{ACAD_REACTORS
330
1A
102
}
330
1A
100
AcDbPlotSettings
  1

  2
none_device
  4

  6

 40
0.0
 41
0.0
 42
0.0
 43
0.0
 44
0.0
 45
0.0
 46
0.0
 47
0.0
 48
0.0
 49
0.0
140
0.0
141
0.0
142
1.0
143
1.0
 70
   688
 72
     0
 73
     0
 74
     5
  7

 75
    16
147
1.0
148
0.0
149
0.0
100
AcDbLayout
  1
Layout2
 70
     1
 71
     2
 10
0.0
 20
0.0
 11
0.0
 21
0.0
 12
0.0
 22
0.0
 32
0.0
 14
0.0
 24
0.0
 34
0.0
 15
0.0
 25
0.0
 35
0.0
146
0.0
 13
0.0
 23
0.0
 33
0.0
 16
1.0
 26
0.0
 36
0.0
 17
0.0
 27
1.0
 37
0.0
 76
     0
330
23
  0
LAYOUT
  5
22
102
{ACAD_REACTORS
330
1A
102
}
330
1A
100
AcDbPlotSettings
  1

  2
none_device
  4

  6

 40
0.0
 41
0.0
 42
0.0
 43
0.0
 44
0.0
 45
0.0
 46
0.0
 47
0.0
 48
0.0
 49
0.0
140
0.0
141
0.0
142
1.0
143
1.0
 70
  1712
 72
     0
 73
     0
 74
     0
  7

 75
     0
147
1.0
148
0.0
149
0.0
100
AcDbLayout
  1
Model
 70
     1
 71
     0
 10
0.0
 20
0.0
 11
12.0
 21
9.0
 12
0.0
 22
0.0
 32
0.0
 14
51.9689011485824
 24
253.2687583898672
 34
0.0
 15
296.678204448107
 25
373.742184139528
 35
0.0
146
0.0
 13
0.0
 23
0.0
 33
0.0
 16
1.0
 26
0.0
 36
0.0
 17
0.0
 27
1.0
 37
0.0
 76
     0
330
1F
331
29
  0
MLINESTYLE
  5
18
102
{ACAD_REACTORS
330
17
102
}
330
17
100
AcDbMlineStyle
  2
Standard
 70
     0
  3

 62
   256
 51
90.0
 52
90.0
 71
     2
 49
0.5
 62
   256
  6
BYLAYER
 49
-0.5
 62
   256
  6
BYLAYER
  0
ACDBPLACEHOLDER
  5
F
102
{ACAD_REACTORS
330
E
102
}
330
E
  0
SCALE
  5
4B
102
{ACAD_REACTORS
330
4A
102
}
330
4A
100
AcDbScale
 70
     0
300
1:1
140
1.0
141
1.0
290
     1
  0
SCALE
  5
4C
102
{ACAD_REACTORS
330
4A
102
}
330
4A
100
AcDbScale
 70
     0
300
1:2
140
1.0
141
2.0
290
     0
  0
SCALE
  5
4D
102
{ACAD_REACTORS
330
4A
102
}
330
4A
100
AcDbScale
 70
     0
300
1:4
140
1.0
141
4.0
290
     0
  0
SCALE
  5
4E
102
{ACAD_REACTORS
330
4A
102
}
330
4A
100
AcDbScale
 70
     0
300
1:5
140
1.0
141
5.0
290
     0
  0
SCALE
  5
4F
102
{ACAD_REACTORS
330
4A
102
}
330
4A
100
AcDbScale
 70
     0
300
1:8
140
1.0
141
8.0
290
     0
  0
SCALE
  5
50
102
{ACAD_REACTORS
330
4A
102
}
330
4A
100
AcDbScale
 70
     0
300
1:10
140
1.0
141
10.0
290
     0
  0
SCALE
  5
51
102
{ACAD_REACTORS
330
4A
102
}
330
4A
100
AcDbScale
 70
     0
300
1:16
140
1.0
141
16.0
290
     0
  0
SCALE
  5
52
102
{ACAD_REACTORS
330
4A
102
}
330
4A
100
AcDbScale
 70
     0
300
1:20
140
1.0
141
20.0
290
     0
  0
SCALE
  5
53
102
{ACAD_REACTORS
330
4A
102
}
330
4A
100
AcDbScale
 70
     0
300
1:30
140
1.0
141
30.0
290
     0
  0
SCALE
  5
54
102
{ACAD_REACTORS
330
4A
102
}
330
4A
100
AcDbScale
 70
     0
300
1:40
140
1.0
141
40.0
290
     0
  0
SCALE
  5
55
102
{ACAD_REACTORS
330
4A
102
}
330
4A
100
AcDbScale
 70
     0
300
1:50
140
1.0
141
50.0
290
     0
  0
SCALE
  5
56
102
{ACAD_REACTORS
330
4A
102
}
330
4A
100
AcDbScale
 70
     0
300
1:100
140
1.0
141
100.0
290
     0
  0
SCALE
  5
57
102
{ACAD_REACTORS
330
4A
102
}
330
4A
100
AcDbScale
 70
     0
300
2:1
140
2.0
141
1.0
290
     0
  0
SCALE
  5
58
102
{ACAD_REACTORS
330
4A
102
}
330
4A
100
AcDbScale
 70
     0
300
4:1
140
4.0
141
1.0
290
     0
  0
SCALE
  5
59
102
{ACAD_REACTORS
330
4A
102
}
330
4A
100
AcDbScale
 70
     0
300
8:1
140
8.0
141
1.0
290
     0
  0
SCALE
  5
5A
102
{ACAD_REACTORS
330
4A
102
}
330
4A
100
AcDbScale
 70
     0
300
10:1
140
10.0
141
1.0
290
     0
  0
SCALE
  5
5B
102
{ACAD_REACTORS
330
4A
102
}
330
4A
100
AcDbScale
 70
     0
300
100:1
140
100.0
141
1.0
290
     0
  0
SCALE
  5
5C
102
{ACAD_REACTORS
330
4A
102
}
330
4A
100
AcDbScale
 70
     0
300
1/128" = 1'-0"
140
0.0078125
141
12.0
290
     0
  0
SCALE
  5
5D
102
{ACAD_REACTORS
330
4A
102
}
330
4A
100
AcDbScale
 70
     0
300
1/64" = 1'-0"
140
0.015625
141
12.0
290
     0
  0
SCALE
  5
5E
102
{ACAD_REACTORS
330
4A
102
}
330
4A
100
AcDbScale
 70
     0
300
1/32" = 1'-0"
140
0.03125
141
12.0
290
     0
  0
SCALE
  5
5F
102
{ACAD_REACTORS
330
4A
102
}
330
4A
100
AcDbScale
 70
     0
300
1/16" = 1'-0"
140
0.0625
141
12.0
290
     0
  0
SCALE
  5
60
102
{ACAD_REACTORS
330
4A
102
}
330
4A
100
AcDbScale
 70
     0
300
3/32" = 1'-0"
140
0.09375
141
12.0
290
     0
  0
SCALE
  5
61
102
{ACAD_REACTORS
330
4A
102
}
330
4A
100
AcDbScale
 70
     0
300
1/8" = 1'-0"
140
0.125
141
12.0
290
     0
  0
SCALE
  5
62
102
{ACAD_REACTORS
330
4A
102
}
330
4A
100
AcDbScale
 70
     0
300
3/16" = 1'-0"
140
0.1875
141
12.0
290
     0
  0
SCALE
  5
63
102
{ACAD_REACTORS
330
4A
102
}
330
4A
100
AcDbScale
 70
     0
300
1/4" = 1'-0"
140
0.25
141
12.0
290
     0
  0
SCALE
  5
64
102
{ACAD_REACTORS
330
4A
102
}
330
4A
100
AcDbScale
 70
     0
300
3/8" = 1'-0"
140
0.375
141
12.0
290
     0
  0
SCALE
  5
65
102
{ACAD_REACTORS
330
4A
102
}
330
4A
100
AcDbScale
 70
     0
300
1/2" = 1'-0"
140
0.5
141
12.0
290
     0
  0
SCALE
  5
66
102
{ACAD_REACTORS
330
4A
102
}
330
4A
100
AcDbScale
 70
     0
300
3/4" = 1'-0"
140
0.75
141
12.0
290
     0
  0
SCALE
  5
67
102
{ACAD_REACTORS
330
4A
102
}
330
4A
100
AcDbScale
 70
     0
300
1" = 1'-0"
140
1.0
141
12.0
290
     0
  0
SCALE
  5
68
102
{ACAD_REACTORS
330
4A
102
}
330
4A
100
AcDbScale
 70
     0
300
1-1/2" = 1'-0"
140
1.5
141
12.0
290
     0
  0
SCALE
  5
69
102
{ACAD_REACTORS
330
4A
102
}
330
4A
100
AcDbScale
 70
     0
300
3" = 1'-0"
140
3.0
141
12.0
290
     0
  0
SCALE
  5
6A
102
{ACAD_REACTORS
330
4A
102
}
330
4A
100
AcDbScale
 70
     0
300
6" = 1'-0"
140
6.0
141
12.0
290
     0
  0
SCALE
  5
6B
102
{ACAD_REACTORS
330
4A
102
}
330
4A
100
AcDbScale
 70
     0
300
1'-0" = 1'-0"
140
12.0
141
12.0
290
     0
  0
VISUALSTYLE
  5
2F
102
{ACAD_REACTORS
330
2A
102
}
330
2A
100
AcDbVisualStyle
  2
2dWireframe
 70
     4
 71
     0
 72
     2
 73
     0
 90
        0
 40
-0.6
 41
-30.0
 62
     5
 63
     7
 74
     1
 91
        4
 64
     7
 65
   257
 75
     1
175
     1
 42
1.0
 92
        0
 66
   257
 43
1.0
 76
     1
 77
     6
 78
     2
 67
     7
 79
     5
170
     0
171
     0
290
     0
174
     0
 93
        1
 44
0.0
173
     0
291
     0
 45
0.0
1001
ACAD
1000
AcDbSavedByObjectVersion
1070
     0
  0
VISUALSTYLE
  5
31
102
{ACAD_REACTORS
330
2A
102
}
330
2A
100
AcDbVisualStyle
  2
3D Hidden
 70
     6
 71
     1
 72
     2
 73
     2
 90
        0
 40
-0.6
 41
-30.0
 62
     5
 63
     7
 74
     2
 91
        2
 64
     7
 65
   257
 75
     2
175
     1
 42
40.0
 92
        0
 66
   257
 43
1.0
 76
     1
 77
     6
 78
     2
 67
     7
 79
     3
170
     0
171
     0
290
     0
174
     0
 93
        1
 44
0.0
173
     0
291
     0
 45
0.0
1001
ACAD
1000
AcDbSavedByObjectVersion
1070
     0
  0
VISUALSTYLE
  5
30
102
{ACAD_REACTORS
330
2A
102
}
330
2A
100
AcDbVisualStyle
  2
3dWireframe
 70
     5
 71
     0
 72
     2
 73
     0
 90
        0
 40
-0.6
 41
-30.0
 62
     5
 63
     7
 74
     1
 91
        4
 64
     7
 65
   257
 75
     1
175
     1
 42
1.0
 92
        0
 66
   257
 43
1.0
 76
     1
 77
     6
 78
     2
 67
     7
 79
     5
170
     0
171
     0
290
     0
174
     0
 93
        1
 44
0.0
173
     0
291
     0
 45
0.0
1001
ACAD
1000
AcDbSavedByObjectVersion
1070
     0
  0
VISUALSTYLE
  5
32
102
{ACAD_REACTORS
330
2A
102
}
330
2A
100
AcDbVisualStyle
  2
Basic
 70
     7
 71
     1
 72
     0
 73
     1
 90
        0
 40
-0.6
 41
-30.0
 62
     5
 63
     7
 74
     0
 91
        4
 64
     7
 65
   257
 75
     1
175
     1
 42
1.0
 92
        8
 66
     7
 43
1.0
 76
     1
 77
     6
 78
     2
 67
     7
 79
     5
170
     0
171
     0
290
     0
174
     0
 93
        1
 44
0.0
173
     0
291
     1
 45
0.0
1001
ACAD
1000
AcDbSavedByObjectVersion
1070
     0
  0
VISUALSTYLE
  5
36
102
{ACAD_REACTORS
330
2A
102
}
330
2A
100
AcDbVisualStyle
  2
Brighten
 70
    12
 71
     2
 72
     2
 73
     0
 90
        0
 40
-0.6
 41
-30.0
 62
     5
 63
     7
 74
     1
 91
        4
 64
     7
 65
   257
 75
     1
175
     1
 42
1.0
 92
        8
 66
     7
 43
1.0
 76
     1
 77
     6
 78
     2
 67
     7
 79
     5
170
     0
171
     0
290
     0
174
     0
 93
        1
 44
50.0
173
     0
291
     1
 45
0.0
1001
ACAD
1000
AcDbSavedByObjectVersion
1070
     0
  0
VISUALSTYLE
  5
3A
102
{ACAD_REACTORS
330
2A
102
}
330
2A
100
AcDbVisualStyle
  2
ColorChange
 70
    16
 71
     2
 72
     2
 73
     3
 90
        0
 40
-0.6
 41
-30.0
 62
     5
 63
     8
 74
     1
 91
        4
 64
     7
 65
   257
 75
     1
175
     1
 42
1.0
 92
        8
 66
     8
 43
1.0
 76
     1
 77
     6
 78
     2
 67
     7
 79
     5
170
     0
171
     0
290
     0
174
     0
 93
        1
 44
0.0
173
     0
291
     1
 45
0.0
1001
ACAD
1000
AcDbSavedByObjectVersion
1070
     0
  0
VISUALSTYLE
  5
34
102
{ACAD_REACTORS
330
2A
102
}
330
2A
100
AcDbVisualStyle
  2
Conceptual
 70
     9
 71
     3
 72
     2
 73
     0
 90
        0
 40
-0.6
 41
-30.0
 62
     5
 63
     7
 74
     2
 91
        2
 64
     7
 65
   257
 75
     1
175
     1
 42
40.0
 92
        8
 66
     7
 43
1.0
 76
     1
 77
     6
 78
     2
 67
     7
 79
     3
170
     0
171
     0
290
     0
174
     0
 93
        1
 44
0.0
173
     0
291
     0
 45
0.0
1001
ACAD
1000
AcDbSavedByObjectVersion
1070
     0
  0
VISUALSTYLE
  5
35
102
{ACAD_REACTORS
330
2A
102
}
330
2A
100
AcDbVisualStyle
  2
Dim
 70
    11
 71
     2
 72
     2
 73
     0
 90
        0
 40
-0.6
 41
-30.0
 62
     5
 63
     7
 74
     1
 91
        4
 64
     7
 65
   257
 75
     1
175
     1
 42
1.0
 92
        8
 66
     7
 43
1.0
 76
     1
 77
     6
 78
     2
 67
     7
 79
     5
170
     0
171
     0
290
     0
174
     0
 93
        1
 44
-50.0
173
     0
291
     1
 45
0.0
1001
ACAD
1000
AcDbSavedByObjectVersion
1070
     0
  0
VISUALSTYLE
  5
39
102
{ACAD_REACTORS
330
2A
102
}
330
2A
100
AcDbVisualStyle
  2
Facepattern
 70
    15
 71
     2
 72
     2
 73
     0
 90
        0
 40
-0.6
 41
-30.0
 62
     5
 63
     7
 74
     1
 91
        4
 64
     7
 65
   257
 75
     1
175
     1
 42
1.0
 92
        8
 66
     7
 43
1.0
 76
     1
 77
     6
 78
     2
 67
     7
 79
     5
170
     0
171
     0
290
     0
174
     0
 93
        1
 44
0.0
173
     0
291
     1
 45
0.0
1001
ACAD
1000
AcDbSavedByObjectVersion
1070
     0
  0
VISUALSTYLE
  5
2B
102
{ACAD_REACTORS
330
2A
102
}
330
2A
100
AcDbVisualStyle
  2
Flat
 70
     0
 71
     2
 72
     1
 73
     1
 90
        2
 40
-0.6
 41
30.0
 62
     5
 63
     7
 74
     0
 91
        4
 64
     7
 65
   257
 75
     1
175
     1
 42
1.0
 92
        8
 66
     7
 43
1.0
 76
     1
 77
     6
 78
     2
 67
     7
 79
     5
170
     0
171
     0
290
     0
174
     0
 93
       13
 44
0.0
173
     0
291
     1
 45
0.0
1001
ACAD
1000
AcDbSavedByObjectVersion
1070
     0
  0
VISUALSTYLE
  5
2C
102
{ACAD_REACTORS
330
2A
102
}
330
2A
100
AcDbVisualStyle
  2
FlatWithEdges
 70
     1
 71
     2
 72
     1
 73
     1
 90
        2
 40
-0.6
 41
30.0
 62
     5
 63
     7
 74
     1
 91
        4
 64
     7
 65
   257
 75
     1
175
     1
 42
1.0
 92
        0
 66
   257
 43
1.0
 76
     1
 77
     6
 78
     2
 67
     7
 79
     5
170
     0
171
     0
290
     0
174
     0
 93
       13
 44
0.0
173
     0
291
     1
 45
0.0
1001
ACAD
1000
AcDbSavedByObjectVersion
1070
     0
  0
VISUALSTYLE
  5
2D
102
{ACAD_REACTORS
330
2A
102
}
330
2A
100
AcDbVisualStyle
  2
Gouraud
 70
     2
 71
     2
 72
     2
 73
     1
 90
        2
 40
-0.6
 41
30.0
 62
     5
 63
     7
 74
     0
 91
        4
 64
     7
 65
   257
 75
     1
175
     1
 42
1.0
 92
        0
 66
     7
 43
1.0
 76
     1
 77
     6
 78
     2
 67
     7
 79
     5
170
     0
171
     0
290
     0
174
     0
 93
       13
 44
0.0
173
     0
291
     1
 45
0.0
1001
ACAD
1000
AcDbSavedByObjectVersion
1070
     0
  0
VISUALSTYLE
  5
2E
102
{ACAD_REACTORS
330
2A
102
}
330
2A
100
AcDbVisualStyle
  2
GouraudWithEdges
 70
     3
 71
     2
 72
     2
 73
     1
 90
        2
 40
-0.6
 41
30.0
 62
     5
 63
     7
 74
     1
 91
        4
 64
     7
 65
   257
 75
     1
175
     1
 42
1.0
 92
        0
 66
   257
 43
1.0
 76
     1
 77
     6
 78
     2
 67
     7
 79
     5
170
     0
171
     0
290
     0
174
     0
 93
       13
 44
0.0
173
     0
291
     1
 45
0.0
1001
ACAD
1000
AcDbSavedByObjectVersion
1070
     0
  0
VISUALSTYLE
  5
38
102
{ACAD_REACTORS
330
2A
102
}
330
2A
100
AcDbVisualStyle
  2
Linepattern
 70
    14
 71
     2
 72
     2
 73
     0
 90
        0
 40
-0.6
 41
-30.0
 62
     5
 63
     7
 74
     1
 91
        4
 64
     7
 65
   257
 75
     7
175
     7
 42
1.0
 92
        8
 66
     7
 43
1.0
 76
     1
 77
     6
 78
     2
 67
     7
 79
     5
170
     0
171
     0
290
     0
174
     0
 93
        1
 44
0.0
173
     0
291
     1
 45
0.0
1001
ACAD
1000
AcDbSavedByObjectVersion
1070
     0
  0
VISUALSTYLE
  5
33
102
{ACAD_REACTORS
330
2A
102
}
330
2A
100
AcDbVisualStyle
  2
Realistic
 70
     8
 71
     2
 72
     2
 73
     0
 90
        0
 40
-0.6
 41
-30.0
 62
     5
 63
     7
 74
     1
 91
        0
 64
     7
 65
   257
 75
     1
175
     1
 42
1.0
 92
        8
 66
     8
 43
1.0
 76
     1
 77
     6
 78
     2
 67
     7
 79
     5
170
     0
171
     0
290
     0
174
     0
 93
       13
 44
0.0
173
     0
291
     0
 45
0.0
1001
ACAD
1000
AcDbSavedByObjectVersion
1070
     0
  0
VISUALSTYLE
  5
37
102
{ACAD_REACTORS
330
2A
102
}
330
2A
100
AcDbVisualStyle
  2
Thicken
 70
    13
 71
     2
 72
     2
 73
     0
 90
        0
 40
-0.6
 41
-30.0
 62
     5
 63
     7
 74
     1
 91
        4
 64
     7
 65
   257
 75
     1
175
     1
 42
1.0
 92
       12
 66
     7
 43
1.0
 76
     1
 77
     6
 78
     2
 67
     7
 79
     5
170
     0
171
     0
290
     0
174
     0
 93
        1
 44
0.0
173
     0
291
     1
 45
0.0
1001
ACAD
1000
AcDbSavedByObjectVersion
1070
     0
  0
DICTIONARYVAR
  5
FE
102
{ACAD_REACTORS
330
FB
102
}
330
FB
100
DictionaryVariables
280
     0
  1
1:1
  0
ENDSEC
  0
EOF
