  0
SECTION
  2
HEADER
  9
$ACADVER
  1
AC1015
  9
$ACADMAINTVER
 70
     6
  9
$DWGCODEPAGE
  3
ANSI_1252
  9
$INSBASE
 10
0.0
 20
0.0
 30
0.0
  9
$EXTMIN
 10
40.54492997952011
 20
239.4626578181676
 30
0.0
  9
$EXTMAX
 10
287.094144713238
 20
358.493631616648
 30
0.0
  9
$LIMMIN
 10
0.0
 20
0.0
  9
$LIMMAX
 10
12.0
 20
9.0
  9
$ORTHOMODE
 70
     0
  9
$REGENMODE
 70
     1
  9
$FILLMODE
 70
     1
  9
$QTEXTMODE
 70
     0
  9
$MIRRTEXT
 70
     1
  9
$LTSCALE
 40
1.0
  9
$ATTMODE
 70
     1
  9
$TEXTSIZE
 40
0.2
  9
$TRACEWID
 40
0.05
  9
$TEXTSTYLE
  7
Standard
  9
$CLAYER
  8
0
  9
$CELTYPE
  6
ByLayer
  9
$CECOLOR
 62
   256
  9
$CELTSCALE
 40
1.0
  9
$DISPSILH
 70
     0
  9
$DIMSCALE
 40
1.0
  9
$DIMASZ
 40
0.18
  9
$DIMEXO
 40
0.0625
  9
$DIMDLI
 40
0.38
  9
$DIMRND
 40
0.0
  9
$DIMDLE
 40
0.0
  9
$DIMEXE
 40
0.18
  9
$DIMTP
 40
0.0
  9
$DIMTM
 40
0.0
  9
$DIMTXT
 40
0.18
  9
$DIMCEN
 40
0.09
  9
$DIMTSZ
 40
0.0
  9
$DIMTOL
 70
     0
  9
$DIMLIM
 70
     0
  9
$DIMTIH
 70
     1
  9
$DIMTOH
 70
     1
  9
$DIMSE1
 70
     0
  9
$DIMSE2
 70
     0
  9
$DIMTAD
 70
     0
  9
$DIMZIN
 70
     0
  9
$DIMBLK
  1

  9
$DIMASO
 70
     1
  9
$DIMSHO
 70
     1
  9
$DIMPOST
  1

  9
$DIMAPOST
  1

  9
$DIMALT
 70
     0
  9
$DIMALTD
 70
     2
  9
$DIMALTF
 40
25.4
  9
$DIMLFAC
 40
1.0
  9
$DIMTOFL
 70
     0
  9
$DIMTVP
 40
0.0
  9
$DIMTIX
 70
     0
  9
$DIMSOXD
 70
     0
  9
$DIMSAH
 70
     0
  9
$DIMBLK1
  1

  9
$DIMBLK2
  1

  9
$DIMSTYLE
  2
Standard
  9
$DIMCLRD
 70
     0
  9
$DIMCLRE
 70
     0
  9
$DIMCLRT
 70
     0
  9
$DIMTFAC
 40
1.0
  9
$DIMGAP
 40
0.09
  9
$DIMJUST
 70
     0
  9
$DIMSD1
 70
     0
  9
$DIMSD2
 70
     0
  9
$DIMTOLJ
 70
     1
  9
$DIMTZIN
 70
     0
  9
$DIMALTZ
 70
     0
  9
$DIMALTTZ
 70
     0
  9
$DIMUPT
 70
     0
  9
$DIMDEC
 70
     4
  9
$DIMTDEC
 70
     4
  9
$DIMALTU
 70
     2
  9
$DIMALTTD
 70
     2
  9
$DIMTXSTY
  7
Standard
  9
$DIMAUNIT
 70
     0
  9
$DIMADEC
 70
     0
  9
$DIMALTRND
 40
0.0
  9
$DIMAZIN
 70
     0
  9
$DIMDSEP
 70
    46
  9
$DIMATFIT
 70
     3
  9
$DIMFRAC
 70
     0
  9
$DIMLDRBLK
  1

  9
$DIMLUNIT
 70
     2
  9
$DIMLWD
 70
    -2
  9
$DIMLWE
 70
    -2
  9
$DIMTMOVE
 70
     0
  9
$LUNITS
 70
     2
  9
$LUPREC
 70
     4
  9
$SKETCHINC
 40
0.1
  9
$FILLETRAD
 40
0.5
  9
$AUNITS
 70
     0
  9
$AUPREC
 70
     0
  9
$MENU
  1
.
  9
$ELEVATION
 40
0.0
  9
$PELEVATION
 40
0.0
  9
$THICKNESS
 40
0.0
  9
$LIMCHECK
 70
     0
  9
$CHAMFERA
 40
0.5
  9
$CHAMFERB
 40
0.5
  9
$CHAMFERC
 40
1.0
  9
$CHAMFERD
 40
0.0
  9
$SKPOLY
 70
     0
  9
$TDCREATE
 40
2456821.368187384
  9
$TDUCREATE
 40
2456821.284854051
  9
$TDUPDATE
 40
2456821.368187396
  9
$TDUUPDATE
 40
2456821.284854062
  9
$TDINDWG
 40
0.0000000116
  9
$TDUSRTIMER
 40
0.0000000116
  9
$USRTIMER
 70
     1
  9
$ANGBASE
 50
0.0
  9
$ANGDIR
 70
     0
  9
$PDMODE
 70
     0
  9
$PDSIZE
 40
0.0
  9
$PLINEWID
 40
0.0
  9
$SPLFRAME
 70
     0
  9
$SPLINETYPE
 70
     6
  9
$SPLINESEGS
 70
     8
  9
$HANDSEED
  5
101
  9
$SURFTAB1
 70
     6
  9
$SURFTAB2
 70
     6
  9
$SURFTYPE
 70
     6
  9
$SURFU
 70
     6
  9
$SURFV
 70
     6
  9
$UCSBASE
  2

  9
$UCSNAME
  2

  9
$UCSORG
 10
0.0
 20
0.0
 30
0.0
  9
$UCSXDIR
 10
1.0
 20
0.0
 30
0.0
  9
$UCSYDIR
 10
0.0
 20
1.0
 30
0.0
  9
$UCSORTHOREF
  2

  9
$UCSORTHOVIEW
 70
     0
  9
$UCSORGTOP
 10
0.0
 20
0.0
 30
0.0
  9
$UCSORGBOTTOM
 10
0.0
 20
0.0
 30
0.0
  9
$UCSORGLEFT
 10
0.0
 20
0.0
 30
0.0
  9
$UCSORGRIGHT
 10
0.0
 20
0.0
 30
0.0
  9
$UCSORGFRONT
 10
0.0
 20
0.0
 30
0.0
  9
$UCSORGBACK
 10
0.0
 20
0.0
 30
0.0
  9
$PUCSBASE
  2

  9
$PUCSNAME
  2

  9
$PUCSORG
 10
0.0
 20
0.0
 30
0.0
  9
$PUCSXDIR
 10
1.0
 20
0.0
 30
0.0
  9
$PUCSYDIR
 10
0.0
 20
1.0
 30
0.0
  9
$PUCSORTHOREF
  2

  9
$PUCSORTHOVIEW
 70
     0
  9
$PUCSORGTOP
 10
0.0
 20
0.0
 30
0.0
  9
$PUCSORGBOTTOM
 10
0.0
 20
0.0
 30
0.0
  9
$PUCSORGLEFT
 10
0.0
 20
0.0
 30
0.0
  9
$PUCSORGRIGHT
 10
0.0
 20
0.0
 30
0.0
  9
$PUCSORGFRONT
 10
0.0
 20
0.0
 30
0.0
  9
$PUCSORGBACK
 10
0.0
 20
0.0
 30
0.0
  9
$USERI1
 70
     0
  9
$USERI2
 70
     0
  9
$USERI3
 70
     0
  9
$USERI4
 70
     0
  9
$USERI5
 70
     0
  9
$USERR1
 40
16.5
  9
$USERR2
 40
0.0
  9
$USERR3
 40
0.0
  9
$USERR4
 40
0.0
  9
$USERR5
 40
0.0
  9
$WORLDVIEW
 70
     1
  9
$SHADEDGE
 70
     3
  9
$SHADEDIF
 70
    70
  9
$TILEMODE
 70
     1
  9
$MAXACTVP
 70
    64
  9
$PINSBASE
 10
0.0
 20
0.0
 30
0.0
  9
$PLIMCHECK
 70
     0
  9
$PEXTMIN
 10
1.00000000000000E+20
 20
1.00000000000000E+20
 30
1.00000000000000E+20
  9
$PEXTMAX
 10
-1.00000000000000E+20
 20
-1.00000000000000E+20
 30
-1.00000000000000E+20
  9
$PLIMMIN
 10
0.0
 20
0.0
  9
$PLIMMAX
 10
12.0
 20
9.0
  9
$UNITMODE
 70
     0
  9
$VISRETAIN
 70
     1
  9
$PLINEGEN
 70
     0
  9
$PSLTSCALE
 70
     1
  9
$TREEDEPTH
 70
  3020
  9
$CMLSTYLE
  2
Standard
  9
$CMLJUST
 70
     0
  9
$CMLSCALE
 40
1.0
  9
$PROXYGRAPHICS
 70
     1
  9
$MEASUREMENT
 70
     1
  9
$CELWEIGHT
370
    -1
  9
$ENDCAPS
280
     0
  9
$JOINSTYLE
280
     0
  9
$LWDISPLAY
290
     0
  9
$INSUNITS
 70
     1
  9
$HYPERLINKBASE
  1

  9
$STYLESHEET
  1

  9
$XEDIT
290
     1
  9
$CEPSNTYPE
380
     0
  9
$PSTYLEMODE
290
     1
  9
$FINGERPRINTGUID
  2
{7AEDBD61-D70D-4970-9B19-5C586032DA39}
  9
$VERSIONGUID
  2
{FAEB1C32-E019-11D5-929B-00C0DF256EC4}
  9
$EXTNAMES
290
     1
  9
$PSVPSCALE
 40
0.0
  9
$OLESTARTUP
290
     0
  0
ENDSEC
  0
SECTION
  2
CLASSES
  0
CLASS
  1
ACDBDICTIONARYWDFLT
  2
AcDbDictionaryWithDefault
  3
ObjectDBX Classes
 90
        0
280
     0
281
     0
  0
CLASS
  1
VISUALSTYLE
  2
AcDbVisualStyle
  3
ObjectDBX Classes
 90
     4095
280
     0
281
     0
  0
CLASS
  1
SCALE
  2
AcDbScale
  3
ObjectDBX Classes
 90
     1153
280
     0
281
     0
  0
CLASS
  1

  2
exOdDbPolyline
  3

 90
        0
280
     0
281
     1
  0
CLASS
  1

  2
exOdDbSpline
  3

 90
        0
280
     0
281
     1
  0
CLASS
  1
DICTIONARYVAR
  2
AcDbDictionaryVar
  3
ObjectDBX Classes
 90
        0
280
     0
281
     0
  0
CLASS
  1
ACDBPLACEHOLDER
  2
AcDbPlaceHolder
  3
ObjectDBX Classes
 90
        0
280
     0
281
     0
  0
CLASS
  1
LAYOUT
  2
AcDbLayout
  3
ObjectDBX Classes
 90
        0
280
     0
281
     0
  0
ENDSEC
  0
SECTION
  2
TABLES
  0
TABLE
  2
VPORT
  5
8
330
0
100
AcDbSymbolTable
 70
     1
  0
VPORT
  5
29
330
8
100
AcDbSymbolTableRecord
100
AcDbViewportTableRecord
  2
*Active
 70
     0
 10
0.0
 20
0.0
 11
1.0
 21
1.0
 12
163.8195373463791
 22
298.9781447174078
 13
0.0
 23
0.0
 14
0.5
 24
0.5
 15
0.5
 25
0.5
 16
0.0
 26
0.0
 36
1.0
 17
0.0
 27
0.0
 37
0.0
 40
169.2192939008025
 41
1.60267857142857
 42
50.0
 43
0.0
 44
0.0
 50
0.0
 51
0.0
 71
     0
 72
   100
 73
     1
 74
     3
 75
     0
 76
     0
 77
     0
 78
     0
281
     0
 65
     1
110
0.0
120
0.0
130
0.0
111
1.0
121
0.0
131
0.0
112
0.0
122
1.0
132
0.0
 79
     0
146
0.0
  0
ENDTAB
  0
TABLE
  2
LTYPE
  5
5
330
0
100
AcDbSymbolTable
 70
     8
  0
LTYPE
  5
14
330
5
100
AcDbSymbolTableRecord
100
AcDbLinetypeTableRecord
  2
ByBlock
 70
     0
  3

 72
    65
 73
     0
 40
0.0
  0
LTYPE
  5
15
330
5
100
AcDbSymbolTableRecord
100
AcDbLinetypeTableRecord
  2
ByLayer
 70
     0
  3

 72
    65
 73
     0
 40
0.0
  0
LTYPE
  5
16
330
5
100
AcDbSymbolTableRecord
100
AcDbLinetypeTableRecord
  2
Continuous
 70
     0
  3
Solid line
 72
    65
 73
     0
 40
0.0
  0
LTYPE
  5
3B
330
5
100
AcDbSymbolTableRecord
100
AcDbLinetypeTableRecord
  2
DASHED
 70
     0
  3
Dashed
 72
    65
 73
     2
 40
15.0
 49
7.0
 74
     0
 49
-8.0
 74
     0
  0
LTYPE
  5
3C
330
5
100
AcDbSymbolTableRecord
100
AcDbLinetypeTableRecord
  2
DOTTED
 70
     0
  3
Dotted
 72
    65
 73
     2
 40
1.0
 49
0.0
 74
     0
 49
-1.0
 74
     0
  0
LTYPE
  5
3D
330
5
100
AcDbSymbolTableRecord
100
AcDbLinetypeTableRecord
  2
DOT_CENTER
 70
     0
  3
Dot_Center
 72
    65
 73
     4
 40
14.0
 49
12.0
 74
     0
 49
-1.0
 74
     0
 49
0.0
 74
     0
 49
-1.0
 74
     0
  0
LTYPE
  5
3E
330
5
100
AcDbSymbolTableRecord
100
AcDbLinetypeTableRecord
  2
LONG_DASHED
 70
     0
  3
Long_Dashed
 72
    65
 73
     2
 40
15.0
 49
10.0
 74
     0
 49
-5.0
 74
     0
  0
LTYPE
  5
3F
330
5
100
AcDbSymbolTableRecord
100
AcDbLinetypeTableRecord
  2
DASH_CENTER
 70
     0
  3
Dash_Center
 72
    65
 73
     4
 40
14.0
 49
11.0
 74
     0
 49
-1.0
 74
     0
 49
1.0
 74
     0
 49
-1.0
 74
     0
  0
LTYPE
  5
40
330
5
100
AcDbSymbolTableRecord
100
AcDbLinetypeTableRecord
  2
PHANTOM
 70
     0
  3
Phantom
 72
    65
 73
     6
 40
13.0
 49
10.0
 74
     0
 49
-1.0
 74
     0
 49
0.0
 74
     0
 49
-1.0
 74
     0
 49
0.0
 74
     0
 49
-1.0
 74
     0
  0
LTYPE
  5
41
330
5
100
AcDbSymbolTableRecord
100
AcDbLinetypeTableRecord
  2
CENTER_DASH_DASH
 70
     0
  3
Center_Dash_Dash
 72
    65
 73
     6
 40
14.0
 49
9.0
 74
     0
 49
-1.0
 74
     0
 49
1.0
 74
     0
 49
-1.0
 74
     0
 49
1.0
 74
     0
 49
-1.0
 74
     0
  0
ENDTAB
  0
TABLE
  2
LAYER
  5
2
330
0
100
AcDbSymbolTable
 70
     6
  0
LAYER
  5
10
330
2
100
AcDbSymbolTableRecord
100
AcDbLayerTableRecord
  2
0
 70
     0
 62
     7
  6
Continuous
370
    -3
390
F
  0
LAYER
  5
42
330
2
100
AcDbSymbolTableRecord
100
AcDbLayerTableRecord
  2
1
 70
     0
 62
     7
  6
Continuous
370
    -3
390
F
  0
LAYER
  5
43
330
2
100
AcDbSymbolTableRecord
100
AcDbLayerTableRecord
  2
BEZUGSACHSEN
 70
     0
 62
     7
  6
Continuous
370
    -3
390
F
  0
LAYER
  5
44
330
2
100
AcDbSymbolTableRecord
100
AcDbLayerTableRecord
  2
DEFAULT_2
 70
     0
 62
     7
  6
Continuous
370
    -3
390
F
  0
LAYER
  5
45
330
2
100
AcDbSymbolTableRecord
100
AcDbLayerTableRecord
  2
RUNDUNGEN
 70
     0
 62
     7
  6
Continuous
370
    -3
390
F
  0
LAYER
  5
46
330
2
100
AcDbSymbolTableRecord
100
AcDbLayerTableRecord
  2
TEIL_STARTBEZUEGE
 70
     0
 62
     7
  6
Continuous
370
    -3
390
F
  0
ENDTAB
  0
TABLE
  2
STYLE
  5
3
330
0
100
AcDbSymbolTable
 70
     2
  0
STYLE
  5
11
330
3
100
AcDbSymbolTableRecord
100
AcDbTextStyleTableRecord
  2
Standard
 70
     0
 40
0.0
 41
1.0
 50
0.0
 71
     0
 42
0.2
  3
txt
  4

  0
STYLE
  5
6D
330
3
100
AcDbSymbolTableRecord
100
AcDbTextStyleTableRecord
  2
CONVERTER_11
 70
     0
 40
0.0
 41
0.72
 50
0.0
 71
     0
 42
0.2
  3
txt.shx
  4

  0
ENDTAB
  0
TABLE
  2
VIEW
  5
6
330
0
100
AcDbSymbolTable
 70
     0
  0
ENDTAB
  0
TABLE
  2
UCS
  5
7
330
0
100
AcDbSymbolTable
 70
     0
  0
ENDTAB
  0
TABLE
  2
APPID
  5
9
330
0
100
AcDbSymbolTable
 70
     1
  0
APPID
  5
12
330
9
100
AcDbSymbolTableRecord
100
AcDbRegAppTableRecord
  2
ACAD
 70
     0
  0
ENDTAB
  0
TABLE
  2
DIMSTYLE
  5
A
330
0
100
AcDbSymbolTable
 70
     6
100
AcDbDimStyleTable
  0
DIMSTYLE
105
27
330
A
100
AcDbSymbolTableRecord
100
AcDbDimStyleTableRecord
  2
Standard
 70
     0
340
11
  0
DIMSTYLE
105
C8
102
{ACAD_REACTORS
330
C9
102
}
330
A
100
AcDbSymbolTableRecord
100
AcDbDimStyleTableRecord
  2
ME10_DIM_10
 70
     0
  3
\U+2300<>
 41
3.5
 42
2.0
 44
2.0
 71
     1
 73
     0
 74
     0
 77
     1
 78
     8
140
3.5
146
0.7
147
2.0
172
     1
173
     1
176
     2
177
     2
178
     3
271
     2
272
     0
340
6D
  0
DIMSTYLE
105
D3
102
{ACAD_REACTORS
330
D4
102
}
330
A
100
AcDbSymbolTableRecord
100
AcDbDimStyleTableRecord
  2
ME10_DIM_11
 70
     0
  3
\U+2300<>
 41
3.5
 42
2.0
 44
2.0
 71
     1
 73
     0
 74
     0
 77
     1
 78
     8
140
3.5
146
0.7
147
2.0
172
     1
173
     1
176
     2
177
     2
178
     3
271
     2
272
     0
340
6D
  0
DIMSTYLE
105
DE
102
{ACAD_REACTORS
330
DF
102
}
330
A
100
AcDbSymbolTableRecord
100
AcDbDimStyleTableRecord
  2
ME10_DIM_12
 70
     0
  3
<>
 41
3.5
 42
2.0
 44
2.0
 71
     1
 73
     0
 74
     0
 77
     1
 78
     8
140
3.5
146
0.7
147
2.0
172
     1
173
     1
176
     2
177
     2
178
     3
271
     2
272
     0
340
6D
  0
DIMSTYLE
105
E9
102
{ACAD_REACTORS
330
EA
102
}
330
A
100
AcDbSymbolTableRecord
100
AcDbDimStyleTableRecord
  2
ME10_DIM_13
 70
     0
  3
<>
 41
3.5
 42
2.0
 44
2.0
 71
     1
 73
     0
 74
     0
 77
     1
 78
     8
140
3.5
146
0.7
147
2.0
172
     1
173
     1
176
     2
177
     2
178
     3
271
     2
272
     0
340
6D
  0
DIMSTYLE
105
F4
102
{ACAD_REACTORS
330
F5
102
}
330
A
100
AcDbSymbolTableRecord
100
AcDbDimStyleTableRecord
  2
ME10_DIM_14
 70
     0
  3
<>
 41
3.5
 42
2.0
 44
2.0
 71
     1
 73
     0
 74
     0
 77
     1
 78
     8
140
3.5
146
0.7
147
2.0
172
     1
173
     1
176
     2
177
     2
178
     3
271
     2
272
     0
340
6D
  0
ENDTAB
  0
TABLE
  2
BLOCK_RECORD
  5
1
330
0
100
AcDbSymbolTable
 70
     8
  0
BLOCK_RECORD
  5
1F
330
1
100
AcDbSymbolTableRecord
100
AcDbBlockTableRecord
  2
*Model_Space
340
22
  0
BLOCK_RECORD
  5
1B
330
1
100
AcDbSymbolTableRecord
100
AcDbBlockTableRecord
  2
*Paper_Space
340
1E
  0
BLOCK_RECORD
  5
23
330
1
100
AcDbSymbolTableRecord
100
AcDbBlockTableRecord
  2
*Paper_Space0
340
26
  0
BLOCK_RECORD
  5
47
330
1
100
AcDbSymbolTableRecord
100
AcDbBlockTableRecord
  2
Urheberrecht_DE-EN
340
0
102
{BLKREFS
331
6C
102
}
  0
BLOCK_RECORD
  5
BD
330
1
100
AcDbSymbolTableRecord
100
AcDbBlockTableRecord
  2
*D2
340
0
  0
BLOCK_RECORD
  5
CA
330
1
100
AcDbSymbolTableRecord
100
AcDbBlockTableRecord
  2
*D3
340
0
  0
BLOCK_RECORD
  5
D5
330
1
100
AcDbSymbolTableRecord
100
AcDbBlockTableRecord
  2
*D4
340
0
  0
BLOCK_RECORD
  5
E0
330
1
100
AcDbSymbolTableRecord
100
AcDbBlockTableRecord
  2
*D5
340
0
  0
BLOCK_RECORD
  5
EB
330
1
100
AcDbSymbolTableRecord
100
AcDbBlockTableRecord
  2
*D6
340
0
  0
BLOCK_RECORD
  5
F6
330
1
100
AcDbSymbolTableRecord
100
AcDbBlockTableRecord
  2
*D7
340
0
102
{BLKREFS
331
FC
102
}
  0
ENDTAB
  0
ENDSEC
  0
SECTION
  2
BLOCKS
  0
BLOCK
  5
20
330
1F
100
AcDbEntity
  8
0
100
AcDbBlockBegin
  2
*Model_Space
 70
     0
 10
0.0
 20
0.0
 30
0.0
  3
*Model_Space
  1

  0
ENDBLK
  5
21
330
1F
100
AcDbEntity
  8
0
100
AcDbBlockEnd
  0
BLOCK
  5
1C
330
1B
100
AcDbEntity
 67
     1
  8
0
100
AcDbBlockBegin
  2
*Paper_Space
 70
     0
 10
0.0
 20
0.0
 30
0.0
  3
*Paper_Space
  1

  0
ENDBLK
  5
1D
330
1B
100
AcDbEntity
 67
     1
  8
0
100
AcDbBlockEnd
  0
BLOCK
  5
24
330
23
100
AcDbEntity
  8
0
100
AcDbBlockBegin
  2
*Paper_Space0
 70
     0
 10
0.0
 20
0.0
 30
0.0
  3
*Paper_Space0
  1

  0
ENDBLK
  5
25
330
23
100
AcDbEntity
  8
0
100
AcDbBlockEnd
  0
BLOCK
  5
48
330
47
100
AcDbEntity
  8
0
100
AcDbBlockBegin
  2
Urheberrecht_DE-EN
 70
     0
 10
54.54492997952011
 20
300.216322572345
 30
0.0
  3
Urheberrecht_DE-EN
  1

  0
MTEXT
  5
6E
330
47
100
AcDbEntity
  8
1
 62
     1
100
AcDbMText
 10
54.54492997952011
 20
300.216322572345
 30
0.0
 40
2.0
 41
0.0
 71
     7
 72
     1
  1
We own the copyright of this document. It \Pdetermined and may neither be copied or \Pmade accessible to outsiders without our\Ppermission.
  7
CONVERTER_11
 11
0.0
 21
1.0
 31
0.0
 73
     1
 44
0.90036014405762
  0
MTEXT
  5
6F
330
47
100
AcDbEntity
  8
1
 62
     1
100
AcDbMText
 10
54.54492997952011
 20
243.9269356550388
 30
0.0
 40
2.0
 41
0.0
 71
     7
 72
     1
  1
F\U+00fcr diese Unterlage behalten wir das Ur-\Pheberrecht. Sie darf nur f\U+00fcr den von uns \Pbestimmten Zweck benutzt und ohne unsere \PZustimmung weder vervielf\U+00e4ltigt noch\PDritten zug\U+00e4nglich gemacht werden.
  7
CONVERTER_11
 11
0.0
 21
1.0
 31
0.0
 73
     1
 44
0.90036014405762
  0
ENDBLK
  5
49
330
47
100
AcDbEntity
  8
0
100
AcDbBlockEnd
  0
BLOCK
  5
C6
330
BD
100
AcDbEntity
  8
0
100
AcDbBlockBegin
  2
*D2
 70
     1
 10
0.0
 20
0.0
 30
0.0
  3
*D2
  1

  0
LINE
  5
BE
330
BD
100
AcDbEntity
  8
1
  6
Continuous
 62
     2
100
AcDbLine
 10
275.053855544841
 20
296.4756229671
 30
0.0
 11
275.053855544841
 21
289.4756229671
 31
0.0
  0
LINE
  5
BF
330
BD
100
AcDbEntity
  8
1
  6
Continuous
 62
     2
100
AcDbLine
 10
275.053855544841
 20
289.4756229671
 30
0.0
 11
275.053855544841
 21
283.4756229671
 31
0.0
  0
LINE
  5
C0
330
BD
100
AcDbEntity
  8
1
  6
Continuous
 62
     2
100
AcDbLine
 10
275.053855544841
 20
283.4756229671
 30
0.0
 11
275.053855544841
 21
276.4756229671
 31
0.0
  0
LINE
  5
C1
330
BD
100
AcDbEntity
  8
1
  6
Continuous
 62
     2
100
AcDbLine
 10
267.1950753638
 20
289.4756229671
 30
0.0
 11
277.053855544841
 21
289.4756229671
 31
0.0
  0
LINE
  5
C2
330
BD
100
AcDbEntity
  8
1
  6
Continuous
 62
     2
100
AcDbLine
 10
267.1950753638
 20
283.4756229671
 30
0.0
 11
277.053855544841
 21
283.4756229671
 31
0.0
  0
SOLID
  5
C3
330
BD
100
AcDbEntity
  8
1
 62
     2
100
AcDbTrace
 10
274.5930718032851
 20
292.9756229671
 30
0.0
 11
275.5146392863969
 21
292.9756229671
 31
0.0
 12
275.053855544841
 22
289.4756229671
 32
0.0
 13
275.053855544841
 23
289.4756229671
 33
0.0
  0
SOLID
  5
C4
330
BD
100
AcDbEntity
  8
1
 62
     2
100
AcDbTrace
 10
275.5146392863969
 20
279.9756229671
 30
0.0
 11
274.5930718032851
 21
279.9756229671
 31
0.0
 12
275.053855544841
 22
283.4756229671
 32
0.0
 13
275.053855544841
 23
283.4756229671
 33
0.0
  0
MTEXT
  5
C5
330
BD
100
AcDbEntity
  8
1
 62
     3
100
AcDbMText
 10
273.053855544841
 20
278.751693908838
 30
0.0
 40
3.5
 41
0.0
 71
     7
 72
     1
  1
\C3;%%c\C3;\C3;6\C2;\H2.45;\S^ ;\C3;
  7
CONVERTER_11
 11
0.0
 21
1.0
 31
0.0
 73
     1
 44
0.60024009603842
  0
ENDBLK
  5
C7
330
BD
100
AcDbEntity
  8
0
100
AcDbBlockEnd
  0
BLOCK
  5
D1
330
CA
100
AcDbEntity
  8
0
100
AcDbBlockBegin
  2
*D3
 70
     1
 10
0.0
 20
0.0
 30
0.0
  3
*D3
  1

  0
LINE
  5
CB
330
CA
100
AcDbEntity
  8
1
  6
Continuous
 62
     2
100
AcDbLine
 10
285.094144713238
 20
298.9756229671
 30
0.0
 11
285.094144713238
 21
273.9756229671
 31
0.0
  0
LINE
  5
CC
330
CA
100
AcDbEntity
  8
1
  6
Continuous
 62
     2
100
AcDbLine
 10
255.9271261714
 20
298.9756229671
 30
0.0
 11
287.094144713238
 21
298.9756229671
 31
0.0
  0
LINE
  5
CD
330
CA
100
AcDbEntity
  8
1
  6
Continuous
 62
     2
100
AcDbLine
 10
255.9271261714
 20
273.9756229671
 30
0.0
 11
287.094144713238
 21
273.9756229671
 31
0.0
  0
SOLID
  5
CE
330
CA
100
AcDbEntity
  8
1
 62
     2
100
AcDbTrace
 10
285.5549284547939
 20
295.4756229671
 30
0.0
 11
284.6333609716821
 21
295.4756229671
 31
0.0
 12
285.094144713238
 22
298.9756229671
 32
0.0
 13
285.094144713238
 23
298.9756229671
 33
0.0
  0
SOLID
  5
CF
330
CA
100
AcDbEntity
  8
1
 62
     2
100
AcDbTrace
 10
284.6333609716821
 20
277.4756229671
 30
0.0
 11
285.5549284547939
 21
277.4756229671
 31
0.0
 12
285.094144713238
 22
273.9756229671
 32
0.0
 13
285.094144713238
 23
273.9756229671
 33
0.0
  0
MTEXT
  5
D0
330
CA
100
AcDbEntity
  8
1
 62
     3
100
AcDbMText
 10
283.094144713238
 20
277.552544146223
 30
0.0
 40
3.5
 41
0.0
 71
     7
 72
     1
  1
\C3;%%c\C3;\C3;25\C2;\H2.45;\S^ ;\C3;
  7
CONVERTER_11
 11
0.0
 21
1.0
 31
0.0
 73
     1
 44
0.60024009603842
  0
ENDBLK
  5
D2
330
CA
100
AcDbEntity
  8
0
100
AcDbBlockEnd
  0
BLOCK
  5
DC
330
D5
100
AcDbEntity
  8
0
100
AcDbBlockBegin
  2
*D4
 70
     1
 10
0.0
 20
0.0
 30
0.0
  3
*D4
  1

  0
LINE
  5
D6
330
D5
100
AcDbEntity
  8
1
  6
Continuous
 62
     2
100
AcDbLine
 10
265.1950753638
 20
338.431710522226
 30
0.0
 11
184.2950753638
 21
338.431710522226
 31
0.0
  0
LINE
  5
D7
330
D5
100
AcDbEntity
  8
1
  6
Continuous
 62
     2
100
AcDbLine
 10
265.1950753638
 20
294.0474197368
 30
0.0
 11
265.1950753638
 21
340.431710522226
 31
0.0
  0
LINE
  5
D8
330
D5
100
AcDbEntity
  8
1
  6
Continuous
 62
     2
100
AcDbLine
 10
184.2950753638
 20
334.437116701
 30
0.0
 11
184.2950753638
 21
340.431710522226
 31
0.0
  0
SOLID
  5
D9
330
D5
100
AcDbEntity
  8
1
 62
     2
100
AcDbTrace
 10
261.6950753638
 20
337.9709267806701
 30
0.0
 11
261.6950753638
 21
338.8924942637819
 31
0.0
 12
265.1950753638
 22
338.431710522226
 32
0.0
 13
265.1950753638
 23
338.431710522226
 33
0.0
  0
SOLID
  5
DA
330
D5
100
AcDbEntity
  8
1
 62
     2
100
AcDbTrace
 10
187.7950753638
 20
338.8924942637819
 30
0.0
 11
187.7950753638
 21
337.9709267806701
 31
0.0
 12
184.2950753638
 22
338.431710522226
 32
0.0
 13
184.2950753638
 23
338.431710522226
 33
0.0
  0
MTEXT
  5
DB
330
D5
100
AcDbEntity
  8
1
 62
     3
100
AcDbMText
 10
219.9084656089883
 20
340.431710522226
 30
0.0
 40
3.5
 41
0.0
 71
     7
 72
     1
  1
\C3;\C3;\C3;80.9\C2;\H2.45;\S^ ;\C3;
  7
CONVERTER_11
 11
0.9999999999970619
 21
2.424068405545306E-6
 31
0.0
 73
     1
 44
0.60024009603842
  0
ENDBLK
  5
DD
330
D5
100
AcDbEntity
  8
0
100
AcDbBlockEnd
  0
BLOCK
  5
E7
330
E0
100
AcDbEntity
  8
0
100
AcDbBlockBegin
  2
*D5
 70
     1
 10
0.0
 20
0.0
 30
0.0
  3
*D5
  1

  0
LINE
  5
E1
330
E0
100
AcDbEntity
  8
1
  6
Continuous
 62
     2
100
AcDbLine
 10
265.1950753638
 20
345.924077581246
 30
0.0
 11
165.1950753638
 21
345.924077581246
 31
0.0
  0
LINE
  5
E2
330
E0
100
AcDbEntity
  8
1
  6
Continuous
 62
     2
100
AcDbLine
 10
265.1950753638
 20
294.0474197368
 30
0.0
 11
265.1950753638
 21
347.924077581246
 31
0.0
  0
LINE
  5
E3
330
E0
100
AcDbEntity
  8
1
  6
Continuous
 62
     2
100
AcDbLine
 10
165.1950753638
 20
329.6131229670999
 30
0.0
 11
165.1950753638
 21
347.924077581246
 31
0.0
  0
SOLID
  5
E4
330
E0
100
AcDbEntity
  8
1
 62
     2
100
AcDbTrace
 10
261.6950753638
 20
345.4632938396902
 30
0.0
 11
261.6950753638
 21
346.3848613228019
 31
0.0
 12
265.1950753638
 22
345.924077581246
 32
0.0
 13
265.1950753638
 23
345.924077581246
 33
0.0
  0
SOLID
  5
E5
330
E0
100
AcDbEntity
  8
1
 62
     2
100
AcDbTrace
 10
168.6950753638
 20
346.3848613228019
 30
0.0
 11
168.6950753638
 21
345.4632938396902
 31
0.0
 12
165.1950753638
 22
345.924077581246
 32
0.0
 13
165.1950753638
 23
345.924077581246
 33
0.0
  0
MTEXT
  5
E6
330
E0
100
AcDbEntity
  8
1
 62
     3
100
AcDbMText
 10
213.7803371049603
 20
347.924077581246
 30
0.0
 40
3.5
 41
0.0
 71
     7
 72
     1
  1
\C3;\C3;\C3;100\C2;\H2.45;\S^ ;\C3;
  7
CONVERTER_11
 11
0.9999999999970619
 21
2.424068405545306E-6
 31
0.0
 73
     1
 44
0.60024009603842
  0
ENDBLK
  5
E8
330
E0
100
AcDbEntity
  8
0
100
AcDbBlockEnd
  0
BLOCK
  5
F2
330
EB
100
AcDbEntity
  8
0
100
AcDbBlockBegin
  2
*D6
 70
     1
 10
0.0
 20
0.0
 30
0.0
  3
*D6
  1

  0
LINE
  5
EC
330
EB
100
AcDbEntity
  8
1
  6
Continuous
 62
     2
100
AcDbLine
 10
265.1950753638
 20
352.993631616648
 30
0.0
 11
63.4450753638
 21
352.993631616648
 31
0.0
  0
LINE
  5
ED
330
EB
100
AcDbEntity
  8
1
  6
Continuous
 62
     2
100
AcDbLine
 10
265.1950753638
 20
294.0474197368
 30
0.0
 11
265.1950753638
 21
354.993631616648
 31
0.0
  0
LINE
  5
EE
330
EB
100
AcDbEntity
  8
1
  6
Continuous
 62
     2
100
AcDbLine
 10
63.4450753638
 20
306.6370699683
 30
0.0
 11
63.4450753638
 21
354.993631616648
 31
0.0
  0
SOLID
  5
EF
330
EB
100
AcDbEntity
  8
1
 62
     2
100
AcDbTrace
 10
261.6950753638
 20
352.5328478750921
 30
0.0
 11
261.6950753638
 21
353.4544153582038
 31
0.0
 12
265.1950753638
 22
352.993631616648
 32
0.0
 13
265.1950753638
 23
352.993631616648
 33
0.0
  0
SOLID
  5
F0
330
EB
100
AcDbEntity
  8
1
 62
     2
100
AcDbTrace
 10
66.9450753638
 20
353.4544153582038
 30
0.0
 11
66.9450753638
 21
352.5328478750921
 31
0.0
 12
63.4450753638
 22
352.993631616648
 32
0.0
 13
63.4450753638
 23
352.993631616648
 33
0.0
  0
MTEXT
  5
F1
330
EB
100
AcDbEntity
  8
1
 62
     3
100
AcDbMText
 10
171.0589034833307
 20
354.993631616648
 30
0.0
 40
3.5
 41
0.0
 71
     7
 72
     1
  1
\C3;\C3;\C3;201.75\C2;\H2.45;\S^ ;\C3;
  7
CONVERTER_11
 11
0.9999999999970619
 21
2.424068405545306E-6
 31
0.0
 73
     1
 44
0.60024009603842
  0
ENDBLK
  5
F3
330
EB
100
AcDbEntity
  8
0
100
AcDbBlockEnd
  0
BLOCK
  5
FA
330
F6
100
AcDbEntity
  8
0
100
AcDbBlockBegin
  2
*D7
 70
     1
 10
0.0
 20
0.0
 30
0.0
  3
*D7
  1

  0
LINE
  5
F7
330
F6
100
AcDbEntity
  8
1
  6
Continuous
 62
     2
100
AcDbLine
 10
198.6241581482078
 20
313.0553501831693
 30
0.0
 11
190.4584821088617
 21
301.8547888519585
 31
0.0
  0
SOLID
  5
F8
330
F6
100
AcDbEntity
  8
1
 62
     2
100
AcDbTrace
 10
192.148014982057
 20
304.9544340456661
 30
0.0
 11
192.8926927546375
 21
304.4115329119837
 31
0.0
 12
190.4584821088617
 22
301.8547888519585
 32
0.0
 13
190.4584821088617
 23
301.8547888519585
 33
0.0
  0
MTEXT
  5
F9
330
F6
100
AcDbEntity
  8
1
 62
     3
100
AcDbMText
 10
191.6471803581931
 20
306.8802565873086
 30
0.0
 40
3.5
 41
0.0
 71
     7
 72
     1
  1
\C3; R\C3;\C3;15\C2;\H2.45;\S^ ;\C3;
  7
CONVERTER_11
 11
0.5891062169958859
 21
0.8080556076761032
 31
0.0
 73
     1
 44
0.60024009603842
  0
ENDBLK
  5
FB
330
F6
100
AcDbEntity
  8
0
100
AcDbBlockEnd
  0
ENDSEC
  0
SECTION
  2
ENTITIES
  0
INSERT
  5
6C
330
1F
100
AcDbEntity
  8
0
100
AcDbBlockReference
  2
Urheberrecht_DE-EN
 10
54.54492997952011
 20
300.216322572345
 30
0.0
  0
LINE
  5
70
330
1F
100
AcDbEntity
  8
0
  6
Continuous
 62
     7
100
AcDbLine
 10
63.44507536379997
 20
304.6370699683
 30
0.0
 11
63.44507536379997
 21
268.3141759659
 31
0.0
  0
LINE
  5
71
330
1F
100
AcDbEntity
  8
0
  6
Continuous
 62
     9
100
AcDbLine
 10
65.37035835820001
 20
306.8635153115001
 30
0.0
 11
65.3703583582
 21
266.0877306227001
 31
0.0
  0
LINE
  5
72
330
1F
100
AcDbEntity
  8
0
  6
Continuous
 62
     7
100
AcDbLine
 10
169.3950753638
 20
239.4763260974
 30
0.0
 11
173.129696978
 21
239.4763260974
 31
0.0
  0
LINE
  5
73
330
1F
100
AcDbEntity
  8
0
  6
Continuous
 62
     7
100
AcDbLine
 10
179.6104537497
 20
239.4763260974
 30
0.0
 11
183.2950753638
 21
239.4763260974
 31
0.0
  0
LINE
  5
74
330
1F
100
AcDbEntity
  8
0
  6
Continuous
 62
     7
100
AcDbLine
 10
175.2075753638
 20
242.8426079441
 30
0.0
 11
177.5325753638
 21
242.8426079441
 31
0.0
  0
LINE
  5
75
330
1F
100
AcDbEntity
  8
0
  6
Continuous
 62
     7
100
AcDbLine
 10
165.7450753638
 20
251.9006229671
 30
0.0
 11
164.7053930306
 21
251.6220409255
 31
0.0
  0
LINE
  5
76
330
1F
100
AcDbEntity
  8
0
  6
Continuous
 62
     7
100
AcDbLine
 10
167.3950753638
 20
251.9006229671
 30
0.0
 11
165.7450753638
 21
251.9006229671
 31
0.0
  0
LINE
  5
77
330
1F
100
AcDbEntity
  8
0
  6
Continuous
 62
     7
100
AcDbLine
 10
164.7053930306
 20
251.6220409255
 30
0.0
 11
65.3703583582
 21
266.0877306227001
 31
0.0
  0
LINE
  5
78
330
1F
100
AcDbEntity
  8
0
  6
Continuous
 62
     7
100
AcDbLine
 10
199.2950753638
 20
273.9756229671
 30
0.0
 11
253.9271261714
 21
273.9756229671
 31
0.0
  0
LWPOLYLINE
  5
79
330
1F
100
AcDbEntity
  8
DEFAULT_2
  6
DASHED
 62
     8
100
AcDbPolyline
 90
        2
 70
     0
 43
0.35
 10
265.1950753638
 20
283.4756229671
 10
232.1950753638
 20
283.4756229671
  0
LWPOLYLINE
  5
7A
330
1F
100
AcDbEntity
  8
TEIL_STARTBEZUEGE
  6
DOT_CENTER
 62
     7
100
AcDbPolyline
 90
        2
 70
     0
 43
0.25
 10
268.1950753638
 20
286.4756229671
 10
60.44507536379999
 20
286.4756229671
  0
LWPOLYLINE
  5
7B
330
1F
100
AcDbEntity
  8
DEFAULT_2
  6
DASHED
 62
     8
100
AcDbPolyline
 90
        2
 70
     0
 43
0.35
 10
232.1950753638
 20
289.4756229671
 10
244.6950753638
 20
289.4756229671
  0
LWPOLYLINE
  5
7C
330
1F
100
AcDbEntity
  8
DEFAULT_2
  6
DASHED
 62
     8
100
AcDbPolyline
 90
        2
 70
     0
 43
0.35
 10
244.6950753638
 20
289.4756229671
 10
265.1950753638
 20
289.4756229671
  0
LINE
  5
7D
330
1F
100
AcDbEntity
  8
BEZUGSACHSEN
  6
Continuous
 62
     7
100
AcDbLine
 10
253.9271261714
 20
298.9756229671
 30
0.0
 11
249.6950753638
 21
298.9756229671
 31
0.0
  0
LINE
  5
7E
330
1F
100
AcDbEntity
  8
BEZUGSACHSEN
  6
Continuous
 62
     7
100
AcDbLine
 10
244.6950753638
 20
298.9756229671
 30
0.0
 11
199.2950753638
 21
298.9756229671
 31
0.0
  0
LINE
  5
7F
330
1F
100
AcDbEntity
  8
0
  6
Continuous
 62
     7
100
AcDbLine
 10
199.2950753638
 20
298.9756229671
 30
0.0
 11
244.6950753638
 21
298.9756229671
 31
0.0
  0
LINE
  5
80
330
1F
100
AcDbEntity
  8
0
  6
Continuous
 62
     7
100
AcDbLine
 10
249.6950753638
 20
298.9756229671
 30
0.0
 11
253.9271261714
 21
298.9756229671
 31
0.0
  0
LINE
  5
81
330
1F
100
AcDbEntity
  8
0
  6
Continuous
 62
     7
100
AcDbLine
 10
164.7053930306
 20
321.3292050087
 30
0.0
 11
164.7053930306
 21
251.6220409255
 31
0.0
  0
LWPOLYLINE
  5
82
330
1F
100
AcDbEntity
  8
TEIL_STARTBEZUEGE
  6
DOT_CENTER
 62
     7
100
AcDbPolyline
 90
        2
 70
     0
 43
0.25
 10
165.1950753638
 20
245.1763260974
 10
165.1950753638
 20
327.6131229670999
  0
LINE
  5
83
330
1F
100
AcDbEntity
  8
0
  6
Continuous
 62
     7
100
AcDbLine
 10
165.7450753638
 20
321.0506229671
 30
0.0
 11
165.7450753638
 21
251.9006229671
 31
0.0
  0
LINE
  5
84
330
1F
100
AcDbEntity
  8
0
  6
Continuous
 62
     9
100
AcDbLine
 10
167.3950753638
 20
321.0506229671
 30
0.0
 11
167.3950753638
 21
251.9006229671
 31
0.0
  0
LINE
  5
85
330
1F
100
AcDbEntity
  8
0
  6
Continuous
 62
     7
100
AcDbLine
 10
168.3950753638
 20
332.437116701
 30
0.0
 11
168.3950753638
 21
240.5141292332
 31
0.0
  0
LINE
  5
86
330
1F
100
AcDbEntity
  8
0
  6
Continuous
 62
     9
100
AcDbLine
 10
169.3950753638
 20
333.4749198368
 30
0.0
 11
169.3950753638
 21
239.4763260974
 31
0.0
  0
LINE
  5
87
330
1F
100
AcDbEntity
  8
0
  6
Continuous
 62
     7
100
AcDbLine
 10
173.129696978
 20
333.4749198368
 30
0.0
 11
173.129696978
 21
239.4763260974
 31
0.0
  0
LINE
  5
88
330
1F
100
AcDbEntity
  8
0
  6
Continuous
 62
     7
100
AcDbLine
 10
174.4575753638
 20
331.0854401279
 30
0.0
 11
174.4575753638
 21
241.8658058063
 31
0.0
  0
LINE
  5
89
330
1F
100
AcDbEntity
  8
0
  6
Continuous
 62
     9
100
AcDbLine
 10
175.2075753638
 20
330.1086379901
 30
0.0
 11
175.2075753638
 21
242.8426079441
 31
0.0
  0
LINE
  5
8A
330
1F
100
AcDbEntity
  8
0
  6
Continuous
 62
     9
100
AcDbLine
 10
177.5325753638
 20
330.1086379901
 30
0.0
 11
177.5325753638
 21
242.8426079441
 31
0.0
  0
LINE
  5
8B
330
1F
100
AcDbEntity
  8
0
  6
Continuous
 62
     7
100
AcDbLine
 10
178.2825753638
 20
331.0854401279
 30
0.0
 11
178.2825753638
 21
241.8658058063
 31
0.0
  0
LINE
  5
8C
330
1F
100
AcDbEntity
  8
0
  6
Continuous
 62
     7
100
AcDbLine
 10
164.7053930306
 20
321.3292050087
 30
0.0
 11
65.37035835820001
 21
306.8635153115001
 31
0.0
  0
LINE
  5
8D
330
1F
100
AcDbEntity
  8
0
  6
Continuous
 62
     7
100
AcDbLine
 10
179.6104537497
 20
333.4749198368
 30
0.0
 11
179.6104537497
 21
239.4763260974
 31
0.0
  0
LINE
  5
8E
330
1F
100
AcDbEntity
  8
0
  6
Continuous
 62
     9
100
AcDbLine
 10
183.2950753638
 20
333.4749198368
 30
0.0
 11
183.2950753638
 21
239.4763260974
 31
0.0
  0
LINE
  5
8F
330
1F
100
AcDbEntity
  8
0
  6
Continuous
 62
     7
100
AcDbLine
 10
184.2950753638
 20
332.437116701
 30
0.0
 11
184.2950753638
 21
258.9756229671
 31
0.0
  0
LINE
  5
90
330
1F
100
AcDbEntity
  8
0
  6
Continuous
 62
     7
100
AcDbLine
 10
167.3950753638
 20
321.0506229671
 30
0.0
 11
165.7450753638
 21
321.0506229671
 31
0.0
  0
LINE
  5
91
330
1F
100
AcDbEntity
  8
0
  6
Continuous
 62
     7
100
AcDbLine
 10
168.3950753638
 20
321.7756229671
 30
0.0
 11
168.35651959
 21
321.7756229671
 31
0.0
  0
LINE
  5
92
330
1F
100
AcDbEntity
  8
0
  6
Continuous
 62
     7
100
AcDbLine
 10
165.7450753638
 20
321.0506229671
 30
0.0
 11
164.7053930306
 21
321.3292050087
 31
0.0
  0
LINE
  5
93
330
1F
100
AcDbEntity
  8
RUNDUNGEN
  6
Continuous
 62
     9
100
AcDbLine
 10
199.2950753638
 20
298.9756229671
 30
0.0
 11
199.2950753638
 21
273.9756229671
 31
0.0
  0
LINE
  5
94
330
1F
100
AcDbEntity
  8
0
  6
Continuous
 62
     7
100
AcDbLine
 10
175.2075753638
 20
330.1086379901
 30
0.0
 11
177.5325753638
 21
330.1086379901
 31
0.0
  0
LWPOLYLINE
  5
95
330
1F
100
AcDbEntity
  8
DEFAULT_2
  6
DASHED
 62
     8
100
AcDbPolyline
 90
        2
 70
     0
 43
0.35
 10
232.1950753638
 20
289.4756229671
 10
232.1950753638
 20
283.4756229671
  0
LINE
  5
96
330
1F
100
AcDbEntity
  8
0
  6
Continuous
 62
     7
100
AcDbLine
 10
254.4271261714
 20
274.1095975633
 30
0.0
 11
264.6950753638
 21
280.0378007936
 31
0.0
  0
LINE
  5
97
330
1F
100
AcDbEntity
  8
0
  6
Continuous
 62
     7
100
AcDbLine
 10
169.3950753638
 20
333.4749198368
 30
0.0
 11
173.129696978
 21
333.4749198368
 31
0.0
  0
LINE
  5
98
330
1F
100
AcDbEntity
  8
0
  6
Continuous
 62
     7
100
AcDbLine
 10
179.6104537497
 20
333.4749198368
 30
0.0
 11
183.2950753638
 21
333.4749198368
 31
0.0
  0
LINE
  5
99
330
1F
100
AcDbEntity
  8
RUNDUNGEN
  6
Continuous
 62
     7
100
AcDbLine
 10
264.6950753638
 20
292.9134451406
 30
0.0
 11
254.4271261714
 21
298.8416483709
 31
0.0
  0
LINE
  5
9A
330
1F
100
AcDbEntity
  8
0
  6
Continuous
 62
     7
100
AcDbLine
 10
254.4271261714
 20
298.8416483709
 30
0.0
 11
264.6950753638
 21
292.9134451406
 31
0.0
  0
LWPOLYLINE
  5
9B
330
1F
100
AcDbEntity
  8
BEZUGSACHSEN
  6
DASHED
 62
     8
100
AcDbPolyline
 90
        2
 70
     0
 43
0.35
 10
244.6950753638
 20
289.4756229671
 10
244.6950753638
 20
298.9756229671
  0
LWPOLYLINE
  5
9C
330
1F
100
AcDbEntity
  8
BEZUGSACHSEN
  6
DOT_CENTER
 62
     7
100
AcDbPolyline
 90
        2
 70
     0
 43
0.25
 10
247.1950753638
 20
301.9756229671
 10
247.1950753638
 20
285.132200865
  0
LWPOLYLINE
  5
9D
330
1F
100
AcDbEntity
  8
BEZUGSACHSEN
  6
DASHED
 62
     8
100
AcDbPolyline
 90
        2
 70
     0
 43
0.35
 10
249.6950753638
 20
289.4756229671
 10
249.6950753638
 20
298.9756229671
  0
LINE
  5
9E
330
1F
100
AcDbEntity
  8
RUNDUNGEN
  6
Continuous
 62
     9
100
AcDbLine
 10
253.9271261714
 20
273.9756229671
 30
0.0
 11
253.9271261714
 21
298.9756229671
 31
0.0
  0
LINE
  5
9F
330
1F
100
AcDbEntity
  8
RUNDUNGEN
  6
Continuous
 62
     9
100
AcDbLine
 10
254.4271261714
 20
274.1095975633
 30
0.0
 11
254.4271261714
 21
298.8416483709
 31
0.0
  0
LINE
  5
A0
330
1F
100
AcDbEntity
  8
RUNDUNGEN
  6
Continuous
 62
     9
100
AcDbLine
 10
264.6950753638
 20
280.0378007936
 30
0.0
 11
264.6950753638
 21
292.9134451406
 31
0.0
  0
LINE
  5
A1
330
1F
100
AcDbEntity
  8
RUNDUNGEN
  6
Continuous
 62
     7
100
AcDbLine
 10
265.1950753638
 20
292.0474197368
 30
0.0
 11
265.1950753638
 21
280.9038261974
 31
0.0
  0
LWPOLYLINE
  5
A2
330
1F
100
AcDbEntity
  8
BEZUGSACHSEN
  6
DASHED
 62
     8
100
AcDbPolyline
 90
        2
 70
     0
 43
0.35
 10
250.1950753638
 20
289.4756229671
 10
250.1950753638
 20
298.9756229671
  0
LWPOLYLINE
  5
A3
330
1F
100
AcDbEntity
  8
BEZUGSACHSEN
  6
DASHED
 62
     8
100
AcDbPolyline
 90
        2
 70
     0
 43
0.35
 10
244.1950753638
 20
289.4756229671
 10
244.1950753638
 20
298.9756229671
  0
LINE
  5
A4
330
1F
100
AcDbEntity
  8
0
  6
Continuous
 62
     7
100
AcDbLine
 10
184.2950753638
 20
258.9756229671
 30
0.0
 11
184.2950753638
 21
240.5141292332
 31
0.0
  0
ARC
  5
A5
330
1F
100
AcDbEntity
  8
0
  6
Continuous
 62
     7
100
AcDbCircle
 10
65.69507536379997
 20
268.3141759659
 30
0.0
 40
2.25
100
AcDbArc
 50
180.0
 51
261.7021731726456
  0
ARC
  5
A6
330
1F
100
AcDbEntity
  8
0
  6
Continuous
 62
     7
100
AcDbCircle
 10
65.69507536379997
 20
304.6370699683
 30
0.0
 40
2.249999999996283
100
AcDbArc
 50
98.29782682735316
 51
180.0
  0
ARC
  5
A7
330
1F
100
AcDbEntity
  8
0
  6
Continuous
 62
     7
100
AcDbCircle
 10
167.3950753638
 20
250.9006229671
 30
0.0
 40
1.0
100
AcDbArc
 50
0.0
 51
90.0
  0
ARC
  5
A8
330
1F
100
AcDbEntity
  8
RUNDUNGEN
  6
Continuous
 62
     7
100
AcDbCircle
 10
264.1950753638
 20
280.9038261974
 30
0.0
 40
1.000000000013472
100
AcDbArc
 50
299.9999999995543
 51
0.0
  0
ARC
  5
A9
330
1F
100
AcDbEntity
  8
RUNDUNGEN
  6
Continuous
 62
     7
100
AcDbCircle
 10
253.9271261714
 20
274.9756229671
 30
0.0
 40
1.0
100
AcDbArc
 50
270.0
 51
299.9999999995543
  0
ARC
  5
AA
330
1F
100
AcDbEntity
  8
0
  6
Continuous
 62
     7
100
AcDbCircle
 10
167.3950753638
 20
322.0506229671
 30
0.0
 40
1.0
100
AcDbArc
 50
270.0
 51
344.0379858379156
  0
ARC
  5
AB
330
1F
100
AcDbEntity
  8
RUNDUNGEN
  6
Continuous
 62
     7
100
AcDbCircle
 10
264.1950753638
 20
292.0474197368
 30
0.0
 40
1.0
100
AcDbArc
 50
0.0
 51
60.00000000044565
  0
ARC
  5
AC
330
1F
100
AcDbEntity
  8
RUNDUNGEN
  6
Continuous
 62
     7
100
AcDbCircle
 10
253.9271261714
 20
297.9756229671
 30
0.0
 40
1.000000000013472
100
AcDbArc
 50
60.00000000044565
 51
90.0
  0
SPLINE
  5
AD
330
1F
100
AcDbEntity
  8
0
  6
Continuous
 62
     2
100
AcDbSpline
210
0.0
220
0.0
230
1.0
 70
     8
 71
     3
 72
    39
 73
    35
 74
    33
 42
0.0000000001
 43
0.0000000001
 44
0.00000001
 40
0.0
 40
0.0
 40
0.0
 40
0.0
 40
0.0149625204186721
 40
0.0595094539788305
 40
0.1330330561227629
 40
0.2345375314403487
 40
0.3628533601669833
 40
0.5164929559494846
 40
0.6938529824054079
 40
0.8931516976793935
 40
1.112526107100961
 40
1.349909456117102
 40
1.603188488529788
 40
1.870190700028171
 40
2.148632061145546
 40
2.435755288858488
 40
2.728690120602659
 40
3.024516248393181
 40
3.320322596856409
 40
3.613259446959097
 40
3.900510931655952
 40
4.179361666701393
 40
4.447161176976316
 40
4.701486471546254
 40
4.939989501076777
 40
5.160479713022887
 40
5.360837141015178
 40
5.539145296974411
 40
5.693582222326899
 40
5.822558729340614
 40
5.924606267804706
 40
5.998540133806509
 40
6.043342819297716
 40
6.058393123168978
 40
6.058393123168978
 40
6.058393123168978
 40
6.058393123168978
 10
244.1950753638
 20
298.9756647333
 30
0.0
 10
244.1999234566179
 20
298.974493732743
 30
0.0
 10
244.2192054591385
 20
298.9698363888061
 30
0.0
 10
244.262354904158
 20
298.9596108654185
 30
0.0
 10
244.3336320773816
 20
298.9429788229574
 30
0.0
 10
244.4322579117089
 20
298.9206784009205
 30
0.0
 10
244.5571456523942
 20
298.8934493272017
 30
0.0
 10
244.7070692247129
 20
298.8623831810311
 30
0.0
 10
244.8805797455229
 20
298.8285881850567
 30
0.0
 10
245.07611383671
 20
298.7933431836848
 30
0.0
 10
245.2919261745803
 20
298.7579486886149
 30
0.0
 10
245.5261309272484
 20
298.7237233782948
 30
0.0
 10
245.7767029122066
 20
298.6920056739156
 30
0.0
 10
246.0414857698536
 20
298.6639871983947
 30
0.0
 10
246.3180671898779
 20
298.6408742903086
 30
0.0
 10
246.6037334143939
 20
298.6235224357599
 30
0.0
 10
246.8955266878919
 20
298.6128184938781
 30
0.0
 10
247.1903878574909
 20
298.6090693965537
 30
0.0
 10
247.4852525412245
 20
298.6125900780661
 30
0.0
 10
247.7770907126063
 20
298.6230721944072
 30
0.0
 10
248.0629498595702
 20
298.6402142396405
 30
0.0
 10
248.3399915215228
 20
298.6631643043902
 30
0.0
 10
248.6055397720741
 20
298.6910870807623
 30
0.0
 10
248.8571111860383
 20
298.7227760163179
 30
0.0
 10
249.0924156547021
 20
298.7570425011818
 30
0.0
 10
249.3093260006613
 20
298.7925276716286
 30
0.0
 10
249.505895668558
 20
298.8278957906347
 30
0.0
 10
249.680331906526
 20
298.8618275926912
 30
0.0
 10
249.8310463295591
 20
298.893030252529
 30
0.0
 10
249.9565888720329
 20
298.9203873817934
 30
0.0
 10
250.055741076444
 20
298.9427993756771
 30
0.0
 10
250.1274113924559
 20
298.9595201907921
 30
0.0
 10
250.1708055403917
 20
298.9698027886744
 30
0.0
 10
250.1901988329903
 20
298.974487105042
 30
0.0
 10
250.1950753638
 20
298.9756649975
 30
0.0
 11
244.1950753638
 21
298.9756647333
 31
0.0
 11
244.2096209044792
 21
298.9721569899187
 31
0.0
 11
244.2529607030333
 21
298.9618569340499
 31
0.0
 11
244.3245649795875
 21
298.9451671871562
 31
0.0
 11
244.4235657756667
 21
298.9227618109
 31
0.0
 11
244.5489400850354
 21
298.8954445187188
 31
0.0
 11
244.6993828890167
 21
298.86426619095
 31
0.0
 11
244.8734737684979
 21
298.8303701046583
 31
0.0
 11
245.0696127150667
 21
298.7950219569166
 31
0.0
 11
245.2860963475708
 21
298.7595259238021
 31
0.0
 11
245.5209873832
 21
298.7252176774
 31
0.0
 11
245.7722620457895
 21
298.6934165421937
 31
0.0
 11
246.0377844874167
 21
298.66534495625
 31
0.0
 11
246.31525807855
 21
298.6421501765687
 31
0.0
 11
246.6018551349834
 21
298.6247756223
 31
0.0
 11
246.8945923430417
 21
298.6140172456938
 31
0.0
 11
247.19039492585
 21
298.6102849692501
 31
0.0
 11
247.4861805269959
 21
298.6137883884292
 31
0.0
 11
247.7789279351167
 21
298.6243218202834
 31
0.0
 11
248.0656662302896
 21
298.6414847320958
 31
0.0
 11
248.3435645133
 21
298.6645124704834
 31
0.0
 11
248.6098984861437
 21
298.6924909016896
 31
0.0
 11
248.86223023495
 21
298.7242720911333
 31
0.0
 11
249.0982464012334
 21
298.7586241558187
 31
0.0
 11
249.3158454639167
 21
298.7942132199167
 31
0.0
 11
249.5130375080979
 21
298.8296871069792
 31
0.0
 11
249.6880672061667
 21
298.8637224309167
 31
0.0
 11
249.8392961636896
 21
298.8950364264916
 31
0.0
 11
249.96531913165
 21
298.9224800215167
 31
0.0
 11
250.0648512044521
 21
298.9449981606563
 31
0.0
 11
250.1368557047667
 21
298.9617781629333
 31
0.0
 11
250.1804444944458
 21
298.9721366397292
 31
0.0
 11
250.1950753638
 21
298.9756649975
 31
0.0
  0
SPLINE
  5
AE
330
1F
100
AcDbEntity
  8
0
  6
Continuous
 62
     7
100
AcDbSpline
210
0.0
220
0.0
230
1.0
 70
     8
 71
     3
 72
    15
 73
    11
 74
     9
 42
0.0000000001
 43
0.0000000001
 44
0.00000001
 40
0.0
 40
0.0
 40
0.0
 40
0.0
 40
0.1994115816775821
 40
0.3995307346105401
 40
0.5993951286029409
 40
0.7990503740706273
 40
0.998711798422939
 40
1.198567836634091
 40
1.398751217312211
 40
1.598077981766965
 40
1.598077981766965
 40
1.598077981766965
 40
1.598077981766965
 10
184.2950753638
 20
332.437116701
 30
0.0
 10
184.2914571392011
 20
332.5036750164105
 30
0.0
 10
184.2842078514725
 20
332.6370278158149
 30
0.0
 10
184.2270112659102
 20
332.8302988287028
 30
0.0
 10
184.1368443074424
 20
333.0097739218805
 30
0.0
 10
184.0136119298991
 20
333.1686149045983
 30
0.0
 10
183.8618238036084
 20
333.3005414606119
 30
0.0
 10
183.6866996483568
 20
333.3991709480077
 30
0.0
 10
183.4949955342505
 20
333.4626151749086
 30
0.0
 10
183.3616200942385
 20
333.4708241499724
 30
0.0
 10
183.2950753638
 20
333.4749198368
 30
0.0
 11
184.2950753638
 21
332.437116701
 31
0.0
 11
184.2765291387011
 21
332.6356639660069
 31
0.0
 11
184.2214856860658
 21
332.8280643134406
 31
0.0
 11
184.1312837922506
 21
333.0064161969128
 31
0.0
 11
184.0088553405395
 21
333.164129516751
 31
0.0
 11
183.8580125677024
 21
333.2949390816048
 31
0.0
 11
183.6840169630936
 21
333.3932648950328
 31
0.0
 11
183.4933169896214
 21
333.4541492609852
 31
0.0
 11
183.2950753638
 21
333.4749198368
 31
0.0
  0
SPLINE
  5
AF
330
1F
100
AcDbEntity
  8
0
  6
Continuous
 62
     7
100
AcDbSpline
210
0.0
220
0.0
230
1.0
 70
     8
 71
     3
 72
    15
 73
    11
 74
     9
 42
0.0000000001
 43
0.0000000001
 44
0.00000001
 40
0.0
 40
0.0
 40
0.0
 40
0.0
 40
0.1993272358061855
 40
0.3995110958002988
 40
0.5993673928005896
 40
0.7990290697729507
 40
0.9986840388735619
 40
1.198548154969812
 40
1.398666849487608
 40
1.59807797672861
 40
1.59807797672861
 40
1.59807797672861
 40
1.59807797672861
 10
183.2950753638
 20
239.4763260974
 30
0.0
 10
183.3616202519885
 20
239.4804218063213
 30
0.0
 10
183.4949960101612
 20
239.4886308257895
 30
0.0
 10
183.686700468917
 20
239.5520753397211
 30
0.0
 10
183.8618248103015
 20
239.6507051745748
 30
0.0
 10
184.0136128315989
 20
239.7826319785762
 30
0.0
 10
184.1368449396589
 20
239.9414730369599
 30
0.0
 10
184.2270115611884
 20
240.1209479171536
 30
0.0
 10
184.2842079023476
 20
240.3142185758003
 30
0.0
 10
184.2914571561251
 20
240.4475710698183
 30
0.0
 10
184.2950753638
 20
240.5141292332
 30
0.0
 11
183.2950753638
 21
239.4763260974
 31
0.0
 11
183.4933174524041
 21
239.4970967796232
 31
0.0
 11
183.6840178357763
 21
239.5579814376565
 31
0.0
 11
183.8580135608443
 21
239.6563075639341
 31
0.0
 11
184.0088563567732
 21
239.7871174877463
 31
0.0
 11
184.1312844362914
 21
239.9448307466438
 31
0.0
 11
184.2214860226906
 21
240.1231824741768
 31
0.0
 11
184.2765292243398
 21
240.3155824166084
 31
0.0
 11
184.2950753638
 21
240.5141292332
 31
0.0
  0
SPLINE
  5
B0
330
1F
100
AcDbEntity
  8
0
  6
Continuous
 62
     7
100
AcDbSpline
210
0.0
220
0.0
230
1.0
 70
     8
 71
     3
 72
    15
 73
    11
 74
     9
 42
0.0000000001
 43
0.0000000001
 44
0.00000001
 40
0.0
 40
0.0
 40
0.0
 40
0.0
 40
0.1993272936042236
 40
0.3995112140859289
 40
0.59936744595632
 40
0.7990290558726859
 40
0.9986840826652579
 40
1.198548256308932
 40
1.398666897325439
 40
1.598077972431553
 40
1.598077972431553
 40
1.598077972431553
 40
1.598077972431553
 10
169.3950753638
 20
333.4749198368
 30
0.0
 10
169.328530456276
 20
333.4708241229687
 30
0.0
 10
169.1951546585344
 20
333.4626150936094
 30
0.0
 10
169.0034501927892
 20
333.3991705404941
 30
0.0
 10
168.828325879754
 20
333.3005407090617
 30
0.0
 10
168.6765378730204
 20
333.1686139276654
 30
0.0
 10
168.5533057496243
 20
333.0097728595603
 30
0.0
 10
168.463139126466
 20
332.830297955246
 30
0.0
 10
168.4059428145389
 20
332.6370273056456
 30
0.0
 10
168.3986935679151
 20
332.5036748469491
 30
0.0
 10
168.3950753638
 20
332.437116701
 30
0.0
 11
169.3950753638
 21
333.4749198368
 31
0.0
 11
169.1968332192659
 21
333.454149133728
 31
0.0
 11
169.0061327870389
 21
333.3932644298374
 31
0.0
 11
168.8321371254555
 21
333.294938323601
 31
0.0
 11
168.6812943761776
 21
333.1641284483443
 31
0.0
 11
168.5588662567384
 21
333.006415147402
 31
0.0
 11
168.4686646541979
 21
332.8280633635438
 31
0.0
 11
168.4136214878053
 21
332.6356634666733
 31
0.0
 11
168.3950753638
 21
332.437116701
 31
0.0
  0
SPLINE
  5
B1
330
1F
100
AcDbEntity
  8
BEZUGSACHSEN
  6
Continuous
 62
     7
100
AcDbSpline
210
0.0
220
0.0
230
1.0
 70
     8
 71
     3
 72
    15
 73
    11
 74
     9
 42
0.0000000001
 43
0.0000000001
 44
0.00000001
 40
0.0
 40
0.0
 40
0.0
 40
0.0
 40
0.3714057709974808
 40
0.7429877846538594
 40
1.629632323183569
 40
2.5163674539301
 40
3.403134352363685
 40
4.289810684850274
 40
4.66142649517129
 40
5.032866025567029
 40
5.032866025567029
 40
5.032866025567029
 40
5.032866025567029
 10
249.6950753638
 20
298.9756229671
 30
0.0
 10
249.5734914130612
 20
298.9522455099335
 30
0.0
 10
249.3302658165222
 20
298.9054795023287
 30
0.0
 10
248.7934364310171
 20
298.8218981506464
 30
0.0
 10
248.0820336891199
 20
298.7447162275229
 30
0.0
 10
247.195130401047
 20
298.7122512415957
 30
0.0
 10
246.3082161254046
 20
298.7447080254407
 30
0.0
 10
245.5967805317906
 20
298.8218886963236
 30
0.0
 10
245.0599180820207
 20
298.90547311787
 30
0.0
 10
244.816670367453
 20
298.9522433825629
 30
0.0
 10
244.6950753638
 20
298.9756229671
 30
0.0
 11
249.6950753638
 21
298.9756229671
 31
0.0
 11
249.3299417995511
 21
298.9076543935595
 31
0.0
 11
248.9628607057265
 21
298.8499944990967
 31
0.0
 11
248.0812916386651
 21
298.7552605679786
 31
0.0
 11
247.1951409279622
 21
298.7230719050543
 31
0.0
 11
246.3089581607233
 21
298.7552531916405
 31
0.0
 11
245.4273568484541
 21
298.8499846267449
 31
0.0
 11
245.060242159136
 21
298.9076484400725
 31
0.0
 11
244.6950753638
 21
298.9756229671
 31
0.0
  0
SPLINE
  5
B2
330
1F
100
AcDbEntity
  8
0
  6
Continuous
 62
     7
100
AcDbSpline
210
0.0
220
0.0
230
1.0
 70
     8
 71
     3
 72
    15
 73
    11
 74
     9
 42
0.0000000001
 43
0.0000000001
 44
0.00000001
 40
0.0
 40
0.0
 40
0.0
 40
0.0
 40
0.1498536492816223
 40
0.3002375261464292
 40
0.4504311697167437
 40
0.6004682482659429
 40
0.7505153760426726
 40
0.9007056145020665
 40
1.051151259711483
 40
1.200944189125332
 40
1.200944189125332
 40
1.200944189125332
 40
1.200944189125332
 10
178.2825753638
 20
330.8901757623
 30
0.0
 10
178.2798662716827
 20
330.8401590817302
 30
0.0
 10
178.2744385018598
 20
330.7399487464307
 30
0.0
 10
178.2316290617662
 20
330.5946725222637
 30
0.0
 10
178.1641690126129
 20
330.4596597784879
 30
0.0
 10
178.0719110193506
 20
330.3400305765095
 30
0.0
 10
177.9581795552301
 20
330.2405040607661
 30
0.0
 10
177.8267985268582
 20
330.1659732978199
 30
0.0
 10
177.6828193350347
 20
330.1179664630904
 30
0.0
 10
177.5825840506944
 20
330.1117429711595
 30
0.0
 10
177.5325753638
 20
330.1086379901
 30
0.0
 11
178.2825753638
 21
330.8901757623
 31
0.0
 11
178.2686916952168
 21
330.7409666474655
 31
0.0
 11
178.2274979581799
 21
330.5963347476307
 31
0.0
 11
178.1599992321406
 21
330.4621630197891
 31
0.0
 11
178.068335467347
 21
330.3433822167802
 31
0.0
 11
177.9552962146978
 21
330.244709688108
 31
0.0
 11
177.8247620669782
 21
330.1704268232764
 31
0.0
 11
177.6815399856656
 21
330.1243689511265
 31
0.0
 11
177.5325753638
 21
330.1086379901
 31
0.0
  0
SPLINE
  5
B3
330
1F
100
AcDbEntity
  8
0
  6
Continuous
 62
     7
100
AcDbSpline
210
0.0
220
0.0
230
1.0
 70
     8
 71
     3
 72
    15
 73
    11
 74
     9
 42
0.0000000001
 43
0.0000000001
 44
0.00000001
 40
0.0
 40
0.0
 40
0.0
 40
0.0
 40
0.1497935590536461
 40
0.3002398466904128
 40
0.4504306629985116
 40
0.600478358229649
 40
0.750514975772117
 40
0.9007081563819064
 40
1.051091279569428
 40
1.200944180805409
 40
1.200944180805409
 40
1.200944180805409
 40
1.200944180805409
 10
175.2075753638
 20
330.1086379901
 30
0.0
 10
175.157566466154
 20
330.1117430015387
 30
0.0
 10
175.0573307560391
 20
330.1179665545686
 30
0.0
 10
174.9133510316709
 20
330.1659738033446
 30
0.0
 10
174.781969628448
 20
330.2405051266526
 30
0.0
 10
174.6682382509493
 20
330.340032104994
 30
0.0
 10
174.5759806772378
 20
330.4596614710613
 30
0.0
 10
174.5085211880745
 20
330.5946738615792
 30
0.0
 10
174.4657121448514
 20
330.7399494990595
 30
0.0
 10
174.4602844290042
 20
330.8401593319792
 30
0.0
 10
174.4575753638
 20
330.8901757623
 30
0.0
 11
175.2075753638
 21
330.1086379901
 31
0.0
 11
175.0586101241303
 21
330.1243690963579
 31
0.0
 11
174.9153874950485
 21
330.1704273636135
 31
0.0
 11
174.7848529962507
 21
330.2447107798441
 31
0.0
 11
174.6718135834851
 21
330.34338398799
 31
0.0
 11
174.5801504381852
 21
330.4621646867475
 31
0.0
 11
174.5126522228999
 21
330.596336153293
 31
0.0
 11
174.4714588947542
 21
330.7409673859363
 31
0.0
 11
174.4575753638
 21
330.8901757623
 31
0.0
  0
SPLINE
  5
B4
330
1F
100
AcDbEntity
  8
0
  6
Continuous
 62
     7
100
AcDbSpline
210
0.0
220
0.0
230
1.0
 70
     8
 71
     3
 72
    15
 73
    11
 74
     9
 42
0.0000000001
 43
0.0000000001
 44
0.00000001
 40
0.0
 40
0.0
 40
0.0
 40
0.0
 40
0.149853752425594
 40
0.3002377329129721
 40
0.4504313876398254
 40
0.6004684786734013
 40
0.7505157523372114
 40
0.9007061337021185
 40
1.051151518407728
 40
1.200944190545413
 40
1.200944190545413
 40
1.200944190545413
 40
1.200944190545413
 10
174.4575753638
 20
242.0610701719
 30
0.0
 10
174.46028445987
 20
242.1110868869691
 30
0.0
 10
174.4657122376142
 20
242.211297291427
 30
0.0
 10
174.5085217285992
 20
242.3565735790477
 30
0.0
 10
174.5759818342024
 20
242.4915863422635
 30
0.0
 10
174.6682398976609
 20
242.6112155619628
 30
0.0
 10
174.7819714760202
 20
242.7107421029699
 30
0.0
 10
174.913352557208
 20
242.7852727987889
 30
0.0
 10
175.0573316518761
 20
242.8332795075136
 30
0.0
 10
175.1575667629831
 20
242.839502975143
 30
0.0
 10
175.2075753638
 20
242.8426079441
 30
0.0
 11
174.4575753638
 21
242.0610701719
 31
0.0
 11
174.4714590521703
 21
242.2102793884829
 31
0.0
 11
174.5126528462871
 21
242.3549113798039
 31
0.0
 11
174.58015161446
 21
242.4890830989378
 31
0.0
 11
174.6718154214845
 21
242.6078638851265
 31
0.0
 11
174.784854821226
 21
242.7065364671339
 31
0.0
 11
174.9153891358623
 21
242.7808193275862
 31
0.0
 11
175.058610994497
 21
242.8268770412556
 31
0.0
 11
175.2075753638
 21
242.8426079441
 31
0.0
  0
SPLINE
  5
B5
330
1F
100
AcDbEntity
  8
0
  6
Continuous
 62
     7
100
AcDbSpline
210
0.0
220
0.0
230
1.0
 70
     8
 71
     3
 72
    15
 73
    11
 74
     9
 42
0.0000000001
 43
0.0000000001
 44
0.00000001
 40
0.0
 40
0.0
 40
0.0
 40
0.0
 40
0.1497938277534434
 40
0.3002403875400901
 40
0.4504310445375282
 40
0.6004785771817485
 40
0.7505151709886903
 40
0.9007083294577667
 40
1.051091365224938
 40
1.200944179377463
 40
1.200944179377463
 40
1.200944179377463
 40
1.200944179377463
 10
177.5325753638
 20
242.8426079441
 30
0.0
 10
177.5825843513441
 20
242.8395029200063
 30
0.0
 10
177.682820242408
 20
242.8332793415638
 30
0.0
 10
177.8268000650469
 20
242.7852719622153
 30
0.0
 10
177.9581814077119
 20
242.7107405733093
 30
0.0
 10
178.0719126600695
 20
242.611213630659
 30
0.0
 10
178.1641701578172
 20
242.4915842944804
 30
0.0
 10
178.2316295937715
 20
242.3565719274832
 30
0.0
 10
178.2744385927543
 20
242.2112963476421
 30
0.0
 10
178.279866301927
 20
242.1110865730923
 30
0.0
 10
178.2825753638
 20
242.0610701719
 30
0.0
 11
177.5325753638
 21
242.8426079441
 31
0.0
 11
177.6815408672421
 21
242.8268767770342
 31
0.0
 11
177.8247637289693
 21
242.7808183442524
 31
0.0
 11
177.9552980452828
 21
242.7065349294554
 31
0.0
 11
178.0683372987586
 21
242.6078617860665
 31
0.0
 11
178.1600003972353
 21
242.4890810811568
 31
0.0
 11
178.2274985697282
 21
242.3549096178681
 31
0.0
 11
178.2686918495497
 21
242.2102784623583
 31
0.0
 11
178.2825753638
 21
242.0610701719
 31
0.0
  0
SPLINE
  5
B6
330
1F
100
AcDbEntity
  8
0
  6
Continuous
 62
     7
100
AcDbSpline
210
0.0
220
0.0
230
1.0
 70
     8
 71
     3
 72
     9
 73
     5
 74
     3
 42
0.0000000001
 43
0.0000000001
 44
0.00000001
 40
0.0
 40
0.0
 40
0.0
 40
0.0
 40
1.3668280478614
 40
2.733656073355864
 40
2.733656073355864
 40
2.733656073355864
 40
2.733656073355864
 10
179.6104537497
 20
333.4749198368
 30
0.0
 10
179.3888973050999
 20
333.0768084653424
 30
0.0
 10
178.9457844195253
 20
332.2805857289421
 30
0.0
 10
178.5036450478359
 20
331.483821992741
 30
0.0
 10
178.2825753638
 20
331.0854401279
 30
0.0
 11
179.6104537497
 21
333.4749198368
 31
0.0
 11
178.946027794375
 21
332.280450472475
 31
0.0
 11
178.2825753638
 21
331.0854401279
 31
0.0
  0
SPLINE
  5
B7
330
1F
100
AcDbEntity
  8
0
  6
Continuous
 62
     7
100
AcDbSpline
210
0.0
220
0.0
230
1.0
 70
     8
 71
     3
 72
     9
 73
     5
 74
     3
 42
0.0000000001
 43
0.0000000001
 44
0.00000001
 40
0.0
 40
0.0
 40
0.0
 40
0.0
 40
1.366828025494464
 40
2.733656073355839
 40
2.733656073355839
 40
2.733656073355839
 40
2.733656073355839
 10
178.2825753638
 20
241.8658058063
 30
0.0
 10
178.5036450478358
 20
241.467423941459
 30
0.0
 10
178.9457844195252
 20
240.6706602052578
 30
0.0
 10
179.3888973050999
 20
239.8744374688575
 30
0.0
 10
179.6104537497
 20
239.4763260974
 30
0.0
 11
178.2825753638
 21
241.8658058063
 31
0.0
 11
178.946027794375
 21
240.670795461725
 31
0.0
 11
179.6104537497
 21
239.4763260974
 31
0.0
  0
SPLINE
  5
B8
330
1F
100
AcDbEntity
  8
0
  6
Continuous
 62
     7
100
AcDbSpline
210
0.0
220
0.0
230
1.0
 70
     8
 71
     3
 72
     9
 73
     5
 74
     3
 42
0.0000000001
 43
0.0000000001
 44
0.00000001
 40
0.0
 40
0.0
 40
0.0
 40
0.0
 40
1.366828047855307
 40
2.733656073307308
 40
2.733656073307308
 40
2.733656073307308
 40
2.733656073307308
 10
173.129696978
 20
333.4749198368
 30
0.0
 10
173.3512534226007
 20
333.0768084653451
 30
0.0
 10
173.7943663081707
 20
332.2805857289605
 30
0.0
 10
174.236505679798
 20
331.4838219927436
 30
0.0
 10
174.4575753638
 20
331.0854401279
 30
0.0
 11
173.129696978
 21
333.4749198368
 31
0.0
 11
173.7941229333125
 21
332.280450472475
 31
0.0
 11
174.4575753638
 21
331.0854401279
 31
0.0
  0
SPLINE
  5
B9
330
1F
100
AcDbEntity
  8
0
  6
Continuous
 62
     7
100
AcDbSpline
210
0.0
220
0.0
230
1.0
 70
     8
 71
     3
 72
     9
 73
     5
 74
     3
 42
0.0000000001
 43
0.0000000001
 44
0.00000001
 40
0.0
 40
0.0
 40
0.0
 40
0.0
 40
1.366828025452001
 40
2.733656073307283
 40
2.733656073307283
 40
2.733656073307283
 40
2.733656073307283
 10
174.4575753638
 20
241.8658058063
 30
0.0
 10
174.236505679798
 20
241.4674239414563
 30
0.0
 10
173.7943663081707
 20
240.6706602052393
 30
0.0
 10
173.3512534226007
 20
239.8744374688549
 30
0.0
 10
173.129696978
 20
239.4763260974
 30
0.0
 11
174.4575753638
 21
241.8658058063
 31
0.0
 11
173.7941229333125
 21
240.670795461725
 31
0.0
 11
173.129696978
 21
239.4763260974
 31
0.0
  0
SPLINE
  5
BA
330
1F
100
AcDbEntity
  8
0
  6
Continuous
 62
     7
100
AcDbSpline
210
0.0
220
0.0
230
1.0
 70
     8
 71
     3
 72
    15
 73
    11
 74
     9
 42
0.0000000001
 43
0.0000000001
 44
0.00000001
 40
0.0
 40
0.0
 40
0.0
 40
0.0
 40
0.1994115198643762
 40
0.3995306095204624
 40
0.5993950644765464
 40
0.7990503711683997
 40
0.9987117371835146
 40
1.198567718890146
 40
1.39875115762329
 40
1.598077977474443
 40
1.598077977474443
 40
1.598077977474443
 40
1.598077977474443
 10
168.3950753638
 20
240.5141292332
 30
0.0
 10
168.3986935844584
 20
240.4475709384592
 30
0.0
 10
168.4059428642693
 20
240.3142181808826
 30
0.0
 10
168.4631394162152
 20
240.1209471815572
 30
0.0
 10
168.5533063730644
 20
239.9414720636038
 30
0.0
 10
168.6765387670794
 20
239.7826310653734
 30
0.0
 10
168.8283268830176
 20
239.6507045259741
 30
0.0
 10
169.0034510143379
 20
239.5520750393801
 30
0.0
 10
169.1951551368646
 20
239.4886307737327
 30
0.0
 10
169.3285306148291
 20
239.480421789018
 30
0.0
 10
169.3950753638
 20
239.4763260974
 30
0.0
 11
168.3950753638
 21
240.5141292332
 31
0.0
 11
168.4136215715582
 21
240.3155820286556
 31
0.0
 11
168.468664983589
 21
240.1231817354209
 31
0.0
 11
168.5588668921996
 21
239.9448297911144
 31
0.0
 11
168.6812953838944
 21
239.7871164248085
 31
0.0
 11
168.8321381155514
 21
239.6563069015111
 31
0.0
 11
169.0061336641618
 21
239.5579811038399
 31
0.0
 11
169.1968336844042
 21
239.4970966934989
 31
0.0
 11
169.3950753638
 21
239.4763260974
 31
0.0
  0
ARC
  5
BB
330
1F
100
AcDbEntity
  8
1
  6
Continuous
 62
     7
100
AcDbCircle
 10
199.2950753638
 20
313.9756229671
 30
0.0
 40
15.0
100
AcDbArc
 50
180.0
 51
270.0
  0
ARC
  5
BC
330
1F
100
AcDbEntity
  8
1
  6
Continuous
 62
     7
100
AcDbCircle
 10
199.2950753638
 20
258.9756229671
 30
0.0
 40
15.0
100
AcDbArc
 50
90.0
 51
180.0
  0
DIMENSION
  5
C9
330
1F
100
AcDbEntity
  8
1
100
AcDbDimension
  2
*D2
 10
275.053855544841
 20
289.4756229671
 30
0.0
 11
271.303855544841
 21
286.346693908838
 31
0.0
 70
    32
  1
<>
 71
     5
 42
-1.0
 53
90.0
  3
ME10_DIM_10
100
AcDbAlignedDimension
 13
265.1950753638
 23
283.4756229671
 33
0.0
 14
265.1950753638
 24
289.4756229671
 34
0.0
 50
90.0
100
AcDbRotatedDimension
  0
DIMENSION
  5
D4
330
1F
100
AcDbEntity
  8
1
100
AcDbDimension
  2
*D3
 10
285.094144713238
 20
298.9756229671
 30
0.0
 11
281.344144713238
 21
286.407544146223
 31
0.0
 70
    32
  1
<>
 71
     5
 42
-1.0
 53
90.0
  3
ME10_DIM_11
100
AcDbAlignedDimension
 13
253.9271261714
 23
273.9756229671
 33
0.0
 14
253.9271261714
 24
298.9756229671
 34
0.0
 50
90.0
100
AcDbRotatedDimension
  0
DIMENSION
  5
DF
330
1F
100
AcDbEntity
  8
1
100
AcDbDimension
  2
*D4
 10
265.1950753638
 20
338.431710522226
 30
0.0
 11
223.7234656089883
 21
342.181710522226
 31
0.0
 70
    32
  1
<>
 71
     5
 42
-1.0
 53
0.00013888888889
  3
ME10_DIM_12
100
AcDbAlignedDimension
 13
184.2950753638
 23
332.437116701
 33
0.0
 14
265.1950753638
 24
292.0474197368
 34
0.0
100
AcDbRotatedDimension
  0
DIMENSION
  5
EA
330
1F
100
AcDbEntity
  8
1
100
AcDbDimension
  2
*D5
 10
265.1950753638
 20
345.924077581246
 30
0.0
 11
216.7203371049603
 21
349.674077581246
 31
0.0
 70
    32
  1
<>
 71
     5
 42
-1.0
 53
0.00013888888889
  3
ME10_DIM_13
100
AcDbAlignedDimension
 13
165.1950753638
 23
327.6131229670999
 33
0.0
 14
265.1950753638
 24
292.0474197368
 34
0.0
100
AcDbRotatedDimension
  0
DIMENSION
  5
F5
330
1F
100
AcDbEntity
  8
1
100
AcDbDimension
  2
*D6
 10
265.1950753638
 20
352.993631616648
 30
0.0
 11
176.9739034833307
 21
356.743631616648
 31
0.0
 70
    32
  1
<>
 71
     5
 42
-1.0
 53
0.00013888888889
  3
ME10_DIM_14
100
AcDbAlignedDimension
 13
63.44507536379997
 23
304.6370699683
 33
0.0
 14
265.1950753638
 24
292.0474197368
 34
0.0
100
AcDbRotatedDimension
  0
INSERT
  5
FC
330
1F
100
AcDbEntity
  8
1
100
AcDbBlockReference
  2
*D7
 10
0.0
 20
0.0
 30
0.0
  0
ENDSEC
  0
SECTION
  2
OBJECTS
  0
DICTIONARY
  5
C
330
0
100
AcDbDictionary
281
     1
  3
ACAD_GROUP
350
D
  3
ACAD_LAYOUT
350
1A
  3
ACAD_MLEADERSTYLE
350
FF
  3
ACAD_MLINESTYLE
350
17
  3
ACAD_PLOTSETTINGS
350
19
  3
ACAD_PLOTSTYLENAME
350
E
  3
ACAD_SCALELIST
350
4A
  3
ACAD_VISUALSTYLE
350
2A
  3
AcDbVariableDictionary
350
FD
  0
DICTIONARY
  5
D
102
{ACAD_REACTORS
330
C
102
}
330
C
100
AcDbDictionary
281
     1
  0
DICTIONARY
  5
1A
102
{ACAD_REACTORS
330
C
102
}
330
C
100
AcDbDictionary
281
     1
  3
Layout1
350
1E
  3
Layout2
350
26
  3
Model
350
22
  0
DICTIONARY
  5
FF
102
{ACAD_REACTORS
330
C
102
}
330
C
100
AcDbDictionary
281
     1
  0
DICTIONARY
  5
17
102
{ACAD_REACTORS
330
C
102
}
330
C
100
AcDbDictionary
281
     1
  3
Standard
350
18
  0
DICTIONARY
  5
19
102
{ACAD_REACTORS
330
C
102
}
330
C
100
AcDbDictionary
281
     1
  0
ACDBDICTIONARYWDFLT
  5
E
102
{ACAD_REACTORS
330
C
102
}
330
C
100
AcDbDictionary
281
     1
  3
Normal
350
F
100
AcDbDictionaryWithDefault
340
F
  0
DICTIONARY
  5
4A
102
{ACAD_REACTORS
330
C
102
}
330
C
100
AcDbDictionary
281
     1
  3
A0
350
4B
  3
A1
350
4C
  3
A2
350
4D
  3
A3
350
4E
  3
A4
350
4F
  3
A5
350
50
  3
A6
350
51
  3
A7
350
52
  3
A8
350
53
  3
A9
350
54
  3
B0
350
55
  3
B1
350
56
  3
B2
350
57
  3
B3
350
58
  3
B4
350
59
  3
B5
350
5A
  3
B6
350
5B
  3
B7
350
5C
  3
B8
350
5D
  3
B9
350
5E
  3
C0
350
5F
  3
C1
350
60
  3
C2
350
61
  3
C3
350
62
  3
C4
350
63
  3
C5
350
64
  3
C6
350
65
  3
C7
350
66
  3
C8
350
67
  3
C9
350
68
  3
D0
350
69
  3
D1
350
6A
  3
D2
350
6B
  0
DICTIONARY
  5
2A
102
{ACAD_REACTORS
330
C
102
}
330
C
100
AcDbDictionary
281
     1
  3
2dWireframe
350
2F
  3
3D Hidden
350
31
  3
3dWireframe
350
30
  3
Basic
350
32
  3
Brighten
350
36
  3
ColorChange
350
3A
  3
Conceptual
350
34
  3
Dim
350
35
  3
Facepattern
350
39
  3
Flat
350
2B
  3
FlatWithEdges
350
2C
  3
Gouraud
350
2D
  3
GouraudWithEdges
350
2E
  3
Linepattern
350
38
  3
Realistic
350
33
  3
Thicken
350
37
  0
DICTIONARY
  5
FD
102
{ACAD_REACTORS
330
C
102
}
330
C
100
AcDbDictionary
281
     1
  3
CANNOSCALE
350
100
  0
LAYOUT
  5
1E
102
{ACAD_REACTORS
330
1A
102
}
330
1A
100
AcDbPlotSettings
  1

  2
none_device
  4

  6

 40
0.0
 41
0.0
 42
0.0
 43
0.0
 44
0.0
 45
0.0
 46
0.0
 47
0.0
 48
0.0
 49
0.0
140
0.0
141
0.0
142
1.0
143
1.0
 70
   688
 72
     0
 73
     0
 74
     5
  7

 75
    16
147
1.0
148
0.0
149
0.0
100
AcDbLayout
  1
Layout1
 70
     1
 71
     1
 10
0.0
 20
0.0
 11
12.0
 21
9.0
 12
0.0
 22
0.0
 32
0.0
 14
1.00000000000000E+20
 24
1.00000000000000E+20
 34
1.00000000000000E+20
 15
-1.00000000000000E+20
 25
-1.00000000000000E+20
 35
-1.00000000000000E+20
146
0.0
 13
0.0
 23
0.0
 33
0.0
 16
1.0
 26
0.0
 36
0.0
 17
0.0
 27
1.0
 37
0.0
 76
     0
330
1B
  0
LAYOUT
  5
26
102
{ACAD_REACTORS
330
1A
102
}
330
1A
100
AcDbPlotSettings
  1

  2
none_device
  4

  6

 40
0.0
 41
0.0
 42
0.0
 43
0.0
 44
0.0
 45
0.0
 46
0.0
 47
0.0
 48
0.0
 49
0.0
140
0.0
141
0.0
142
1.0
143
1.0
 70
   688
 72
     0
 73
     0
 74
     5
  7

 75
    16
147
1.0
148
0.0
149
0.0
100
AcDbLayout
  1
Layout2
 70
     1
 71
     2
 10
0.0
 20
0.0
 11
0.0
 21
0.0
 12
0.0
 22
0.0
 32
0.0
 14
0.0
 24
0.0
 34
0.0
 15
0.0
 25
0.0
 35
0.0
146
0.0
 13
0.0
 23
0.0
 33
0.0
 16
1.0
 26
0.0
 36
0.0
 17
0.0
 27
1.0
 37
0.0
 76
     0
330
23
  0
LAYOUT
  5
22
102
{ACAD_REACTORS
330
1A
102
}
330
1A
100
AcDbPlotSettings
  1

  2
none_device
  4

  6

 40
0.0
 41
0.0
 42
0.0
 43
0.0
 44
0.0
 45
0.0
 46
0.0
 47
0.0
 48
0.0
 49
0.0
140
0.0
141
0.0
142
1.0
143
1.0
 70
  1712
 72
     0
 73
     0
 74
     0
  7

 75
     0
147
1.0
148
0.0
149
0.0
100
AcDbLayout
  1
Model
 70
     1
 71
     0
 10
0.0
 20
0.0
 11
12.0
 21
9.0
 12
0.0
 22
0.0
 32
0.0
 14
40.54492997952011
 24
239.4626578181676
 34
0.0
 15
287.094144713238
 25
358.493631616648
 35
0.0
146
0.0
 13
0.0
 23
0.0
 33
0.0
 16
1.0
 26
0.0
 36
0.0
 17
0.0
 27
1.0
 37
0.0
 76
     0
330
1F
331
29
  0
MLINESTYLE
  5
18
102
{ACAD_REACTORS
330
17
102
}
330
17
100
AcDbMlineStyle
  2
Standard
 70
     0
  3

 62
   256
 51
90.0
 52
90.0
 71
     2
 49
0.5
 62
   256
  6
BYLAYER
 49
-0.5
 62
   256
  6
BYLAYER
  0
ACDBPLACEHOLDER
  5
F
102
{ACAD_REACTORS
330
E
102
}
330
E
  0
SCALE
  5
4B
102
{ACAD_REACTORS
330
4A
102
}
330
4A
100
AcDbScale
 70
     0
300
1:1
140
1.0
141
1.0
290
     1
  0
SCALE
  5
4C
102
{ACAD_REACTORS
330
4A
102
}
330
4A
100
AcDbScale
 70
     0
300
1:2
140
1.0
141
2.0
290
     0
  0
SCALE
  5
4D
102
{ACAD_REACTORS
330
4A
102
}
330
4A
100
AcDbScale
 70
     0
300
1:4
140
1.0
141
4.0
290
     0
  0
SCALE
  5
4E
102
{ACAD_REACTORS
330
4A
102
}
330
4A
100
AcDbScale
 70
     0
300
1:5
140
1.0
141
5.0
290
     0
  0
SCALE
  5
4F
102
{ACAD_REACTORS
330
4A
102
}
330
4A
100
AcDbScale
 70
     0
300
1:8
140
1.0
141
8.0
290
     0
  0
SCALE
  5
50
102
{ACAD_REACTORS
330
4A
102
}
330
4A
100
AcDbScale
 70
     0
300
1:10
140
1.0
141
10.0
290
     0
  0
SCALE
  5
51
102
{ACAD_REACTORS
330
4A
102
}
330
4A
100
AcDbScale
 70
     0
300
1:16
140
1.0
141
16.0
290
     0
  0
SCALE
  5
52
102
{ACAD_REACTORS
330
4A
102
}
330
4A
100
AcDbScale
 70
     0
300
1:20
140
1.0
141
20.0
290
     0
  0
SCALE
  5
53
102
{ACAD_REACTORS
330
4A
102
}
330
4A
100
AcDbScale
 70
     0
300
1:30
140
1.0
141
30.0
290
     0
  0
SCALE
  5
54
102
{ACAD_REACTORS
330
4A
102
}
330
4A
100
AcDbScale
 70
     0
300
1:40
140
1.0
141
40.0
290
     0
  0
SCALE
  5
55
102
{ACAD_REACTORS
330
4A
102
}
330
4A
100
AcDbScale
 70
     0
300
1:50
140
1.0
141
50.0
290
     0
  0
SCALE
  5
56
102
{ACAD_REACTORS
330
4A
102
}
330
4A
100
AcDbScale
 70
     0
300
1:100
140
1.0
141
100.0
290
     0
  0
SCALE
  5
57
102
{ACAD_REACTORS
330
4A
102
}
330
4A
100
AcDbScale
 70
     0
300
2:1
140
2.0
141
1.0
290
     0
  0
SCALE
  5
58
102
{ACAD_REACTORS
330
4A
102
}
330
4A
100
AcDbScale
 70
     0
300
4:1
140
4.0
141
1.0
290
     0
  0
SCALE
  5
59
102
{ACAD_REACTORS
330
4A
102
}
330
4A
100
AcDbScale
 70
     0
300
8:1
140
8.0
141
1.0
290
     0
  0
SCALE
  5
5A
102
{ACAD_REACTORS
330
4A
102
}
330
4A
100
AcDbScale
 70
     0
300
10:1
140
10.0
141
1.0
290
     0
  0
SCALE
  5
5B
102
{ACAD_REACTORS
330
4A
102
}
330
4A
100
AcDbScale
 70
     0
300
100:1
140
100.0
141
1.0
290
     0
  0
SCALE
  5
5C
102
{ACAD_REACTORS
330
4A
102
}
330
4A
100
AcDbScale
 70
     0
300
1/128" = 1'-0"
140
0.0078125
141
12.0
290
     0
  0
SCALE
  5
5D
102
{ACAD_REACTORS
330
4A
102
}
330
4A
100
AcDbScale
 70
     0
300
1/64" = 1'-0"
140
0.015625
141
12.0
290
     0
  0
SCALE
  5
5E
102
{ACAD_REACTORS
330
4A
102
}
330
4A
100
AcDbScale
 70
     0
300
1/32" = 1'-0"
140
0.03125
141
12.0
290
     0
  0
SCALE
  5
5F
102
{ACAD_REACTORS
330
4A
102
}
330
4A
100
AcDbScale
 70
     0
300
1/16" = 1'-0"
140
0.0625
141
12.0
290
     0
  0
SCALE
  5
60
102
{ACAD_REACTORS
330
4A
102
}
330
4A
100
AcDbScale
 70
     0
300
3/32" = 1'-0"
140
0.09375
141
12.0
290
     0
  0
SCALE
  5
61
102
{ACAD_REACTORS
330
4A
102
}
330
4A
100
AcDbScale
 70
     0
300
1/8" = 1'-0"
140
0.125
141
12.0
290
     0
  0
SCALE
  5
62
102
{ACAD_REACTORS
330
4A
102
}
330
4A
100
AcDbScale
 70
     0
300
3/16" = 1'-0"
140
0.1875
141
12.0
290
     0
  0
SCALE
  5
63
102
{ACAD_REACTORS
330
4A
102
}
330
4A
100
AcDbScale
 70
     0
300
1/4" = 1'-0"
140
0.25
141
12.0
290
     0
  0
SCALE
  5
64
102
{ACAD_REACTORS
330
4A
102
}
330
4A
100
AcDbScale
 70
     0
300
3/8" = 1'-0"
140
0.375
141
12.0
290
     0
  0
SCALE
  5
65
102
{ACAD_REACTORS
330
4A
102
}
330
4A
100
AcDbScale
 70
     0
300
1/2" = 1'-0"
140
0.5
141
12.0
290
     0
  0
SCALE
  5
66
102
{ACAD_REACTORS
330
4A
102
}
330
4A
100
AcDbScale
 70
     0
300
3/4" = 1'-0"
140
0.75
141
12.0
290
     0
  0
SCALE
  5
67
102
{ACAD_REACTORS
330
4A
102
}
330
4A
100
AcDbScale
 70
     0
300
1" = 1'-0"
140
1.0
141
12.0
290
     0
  0
SCALE
  5
68
102
{ACAD_REACTORS
330
4A
102
}
330
4A
100
AcDbScale
 70
     0
300
1-1/2" = 1'-0"
140
1.5
141
12.0
290
     0
  0
SCALE
  5
69
102
{ACAD_REACTORS
330
4A
102
}
330
4A
100
AcDbScale
 70
     0
300
3" = 1'-0"
140
3.0
141
12.0
290
     0
  0
SCALE
  5
6A
102
{ACAD_REACTORS
330
4A
102
}
330
4A
100
AcDbScale
 70
     0
300
6" = 1'-0"
140
6.0
141
12.0
290
     0
  0
SCALE
  5
6B
102
{ACAD_REACTORS
330
4A
102
}
330
4A
100
AcDbScale
 70
     0
300
1'-0" = 1'-0"
140
12.0
141
12.0
290
     0
  0
VISUALSTYLE
  5
2F
102
{ACAD_REACTORS
330
2A
102
}
330
2A
100
AcDbVisualStyle
  2
2dWireframe
 70
     4
 71
     0
 72
     2
 73
     0
 90
        0
 40
-0.6
 41
-30.0
 62
     5
 63
     7
 74
     1
 91
        4
 64
     7
 65
   257
 75
     1
175
     1
 42
1.0
 92
        0
 66
   257
 43
1.0
 76
     1
 77
     6
 78
     2
 67
     7
 79
     5
170
     0
171
     0
290
     0
174
     0
 93
        1
 44
0.0
173
     0
291
     0
 45
0.0
1001
ACAD
1000
AcDbSavedByObjectVersion
1070
     0
  0
VISUALSTYLE
  5
31
102
{ACAD_REACTORS
330
2A
102
}
330
2A
100
AcDbVisualStyle
  2
3D Hidden
 70
     6
 71
     1
 72
     2
 73
     2
 90
        0
 40
-0.6
 41
-30.0
 62
     5
 63
     7
 74
     2
 91
        2
 64
     7
 65
   257
 75
     2
175
     1
 42
40.0
 92
        0
 66
   257
 43
1.0
 76
     1
 77
     6
 78
     2
 67
     7
 79
     3
170
     0
171
     0
290
     0
174
     0
 93
        1
 44
0.0
173
     0
291
     0
 45
0.0
1001
ACAD
1000
AcDbSavedByObjectVersion
1070
     0
  0
VISUALSTYLE
  5
30
102
{ACAD_REACTORS
330
2A
102
}
330
2A
100
AcDbVisualStyle
  2
3dWireframe
 70
     5
 71
     0
 72
     2
 73
     0
 90
        0
 40
-0.6
 41
-30.0
 62
     5
 63
     7
 74
     1
 91
        4
 64
     7
 65
   257
 75
     1
175
     1
 42
1.0
 92
        0
 66
   257
 43
1.0
 76
     1
 77
     6
 78
     2
 67
     7
 79
     5
170
     0
171
     0
290
     0
174
     0
 93
        1
 44
0.0
173
     0
291
     0
 45
0.0
1001
ACAD
1000
AcDbSavedByObjectVersion
1070
     0
  0
VISUALSTYLE
  5
32
102
{ACAD_REACTORS
330
2A
102
}
330
2A
100
AcDbVisualStyle
  2
Basic
 70
     7
 71
     1
 72
     0
 73
     1
 90
        0
 40
-0.6
 41
-30.0
 62
     5
 63
     7
 74
     0
 91
        4
 64
     7
 65
   257
 75
     1
175
     1
 42
1.0
 92
        8
 66
     7
 43
1.0
 76
     1
 77
     6
 78
     2
 67
     7
 79
     5
170
     0
171
     0
290
     0
174
     0
 93
        1
 44
0.0
173
     0
291
     1
 45
0.0
1001
ACAD
1000
AcDbSavedByObjectVersion
1070
     0
  0
VISUALSTYLE
  5
36
102
{ACAD_REACTORS
330
2A
102
}
330
2A
100
AcDbVisualStyle
  2
Brighten
 70
    12
 71
     2
 72
     2
 73
     0
 90
        0
 40
-0.6
 41
-30.0
 62
     5
 63
     7
 74
     1
 91
        4
 64
     7
 65
   257
 75
     1
175
     1
 42
1.0
 92
        8
 66
     7
 43
1.0
 76
     1
 77
     6
 78
     2
 67
     7
 79
     5
170
     0
171
     0
290
     0
174
     0
 93
        1
 44
50.0
173
     0
291
     1
 45
0.0
1001
ACAD
1000
AcDbSavedByObjectVersion
1070
     0
  0
VISUALSTYLE
  5
3A
102
{ACAD_REACTORS
330
2A
102
}
330
2A
100
AcDbVisualStyle
  2
ColorChange
 70
    16
 71
     2
 72
     2
 73
     3
 90
        0
 40
-0.6
 41
-30.0
 62
     5
 63
     8
 74
     1
 91
        4
 64
     7
 65
   257
 75
     1
175
     1
 42
1.0
 92
        8
 66
     8
 43
1.0
 76
     1
 77
     6
 78
     2
 67
     7
 79
     5
170
     0
171
     0
290
     0
174
     0
 93
        1
 44
0.0
173
     0
291
     1
 45
0.0
1001
ACAD
1000
AcDbSavedByObjectVersion
1070
     0
  0
VISUALSTYLE
  5
34
102
{ACAD_REACTORS
330
2A
102
}
330
2A
100
AcDbVisualStyle
  2
Conceptual
 70
     9
 71
     3
 72
     2
 73
     0
 90
        0
 40
-0.6
 41
-30.0
 62
     5
 63
     7
 74
     2
 91
        2
 64
     7
 65
   257
 75
     1
175
     1
 42
40.0
 92
        8
 66
     7
 43
1.0
 76
     1
 77
     6
 78
     2
 67
     7
 79
     3
170
     0
171
     0
290
     0
174
     0
 93
        1
 44
0.0
173
     0
291
     0
 45
0.0
1001
ACAD
1000
AcDbSavedByObjectVersion
1070
     0
  0
VISUALSTYLE
  5
35
102
{ACAD_REACTORS
330
2A
102
}
330
2A
100
AcDbVisualStyle
  2
Dim
 70
    11
 71
     2
 72
     2
 73
     0
 90
        0
 40
-0.6
 41
-30.0
 62
     5
 63
     7
 74
     1
 91
        4
 64
     7
 65
   257
 75
     1
175
     1
 42
1.0
 92
        8
 66
     7
 43
1.0
 76
     1
 77
     6
 78
     2
 67
     7
 79
     5
170
     0
171
     0
290
     0
174
     0
 93
        1
 44
-50.0
173
     0
291
     1
 45
0.0
1001
ACAD
1000
AcDbSavedByObjectVersion
1070
     0
  0
VISUALSTYLE
  5
39
102
{ACAD_REACTORS
330
2A
102
}
330
2A
100
AcDbVisualStyle
  2
Facepattern
 70
    15
 71
     2
 72
     2
 73
     0
 90
        0
 40
-0.6
 41
-30.0
 62
     5
 63
     7
 74
     1
 91
        4
 64
     7
 65
   257
 75
     1
175
     1
 42
1.0
 92
        8
 66
     7
 43
1.0
 76
     1
 77
     6
 78
     2
 67
     7
 79
     5
170
     0
171
     0
290
     0
174
     0
 93
        1
 44
0.0
173
     0
291
     1
 45
0.0
1001
ACAD
1000
AcDbSavedByObjectVersion
1070
     0
  0
VISUALSTYLE
  5
2B
102
{ACAD_REACTORS
330
2A
102
}
330
2A
100
AcDbVisualStyle
  2
Flat
 70
     0
 71
     2
 72
     1
 73
     1
 90
        2
 40
-0.6
 41
30.0
 62
     5
 63
     7
 74
     0
 91
        4
 64
     7
 65
   257
 75
     1
175
     1
 42
1.0
 92
        8
 66
     7
 43
1.0
 76
     1
 77
     6
 78
     2
 67
     7
 79
     5
170
     0
171
     0
290
     0
174
     0
 93
       13
 44
0.0
173
     0
291
     1
 45
0.0
1001
ACAD
1000
AcDbSavedByObjectVersion
1070
     0
  0
VISUALSTYLE
  5
2C
102
{ACAD_REACTORS
330
2A
102
}
330
2A
100
AcDbVisualStyle
  2
FlatWithEdges
 70
     1
 71
     2
 72
     1
 73
     1
 90
        2
 40
-0.6
 41
30.0
 62
     5
 63
     7
 74
     1
 91
        4
 64
     7
 65
   257
 75
     1
175
     1
 42
1.0
 92
        0
 66
   257
 43
1.0
 76
     1
 77
     6
 78
     2
 67
     7
 79
     5
170
     0
171
     0
290
     0
174
     0
 93
       13
 44
0.0
173
     0
291
     1
 45
0.0
1001
ACAD
1000
AcDbSavedByObjectVersion
1070
     0
  0
VISUALSTYLE
  5
2D
102
{ACAD_REACTORS
330
2A
102
}
330
2A
100
AcDbVisualStyle
  2
Gouraud
 70
     2
 71
     2
 72
     2
 73
     1
 90
        2
 40
-0.6
 41
30.0
 62
     5
 63
     7
 74
     0
 91
        4
 64
     7
 65
   257
 75
     1
175
     1
 42
1.0
 92
        0
 66
     7
 43
1.0
 76
     1
 77
     6
 78
     2
 67
     7
 79
     5
170
     0
171
     0
290
     0
174
     0
 93
       13
 44
0.0
173
     0
291
     1
 45
0.0
1001
ACAD
1000
AcDbSavedByObjectVersion
1070
     0
  0
VISUALSTYLE
  5
2E
102
{ACAD_REACTORS
330
2A
102
}
330
2A
100
AcDbVisualStyle
  2
GouraudWithEdges
 70
     3
 71
     2
 72
     2
 73
     1
 90
        2
 40
-0.6
 41
30.0
 62
     5
 63
     7
 74
     1
 91
        4
 64
     7
 65
   257
 75
     1
175
     1
 42
1.0
 92
        0
 66
   257
 43
1.0
 76
     1
 77
     6
 78
     2
 67
     7
 79
     5
170
     0
171
     0
290
     0
174
     0
 93
       13
 44
0.0
173
     0
291
     1
 45
0.0
1001
ACAD
1000
AcDbSavedByObjectVersion
1070
     0
  0
VISUALSTYLE
  5
38
102
{ACAD_REACTORS
330
2A
102
}
330
2A
100
AcDbVisualStyle
  2
Linepattern
 70
    14
 71
     2
 72
     2
 73
     0
 90
        0
 40
-0.6
 41
-30.0
 62
     5
 63
     7
 74
     1
 91
        4
 64
     7
 65
   257
 75
     7
175
     7
 42
1.0
 92
        8
 66
     7
 43
1.0
 76
     1
 77
     6
 78
     2
 67
     7
 79
     5
170
     0
171
     0
290
     0
174
     0
 93
        1
 44
0.0
173
     0
291
     1
 45
0.0
1001
ACAD
1000
AcDbSavedByObjectVersion
1070
     0
  0
VISUALSTYLE
  5
33
102
{ACAD_REACTORS
330
2A
102
}
330
2A
100
AcDbVisualStyle
  2
Realistic
 70
     8
 71
     2
 72
     2
 73
     0
 90
        0
 40
-0.6
 41
-30.0
 62
     5
 63
     7
 74
     1
 91
        0
 64
     7
 65
   257
 75
     1
175
     1
 42
1.0
 92
        8
 66
     8
 43
1.0
 76
     1
 77
     6
 78
     2
 67
     7
 79
     5
170
     0
171
     0
290
     0
174
     0
 93
       13
 44
0.0
173
     0
291
     0
 45
0.0
1001
ACAD
1000
AcDbSavedByObjectVersion
1070
     0
  0
VISUALSTYLE
  5
37
102
{ACAD_REACTORS
330
2A
102
}
330
2A
100
AcDbVisualStyle
  2
Thicken
 70
    13
 71
     2
 72
     2
 73
     0
 90
        0
 40
-0.6
 41
-30.0
 62
     5
 63
     7
 74
     1
 91
        4
 64
     7
 65
   257
 75
     1
175
     1
 42
1.0
 92
       12
 66
     7
 43
1.0
 76
     1
 77
     6
 78
     2
 67
     7
 79
     5
170
     0
171
     0
290
     0
174
     0
 93
        1
 44
0.0
173
     0
291
     1
 45
0.0
1001
ACAD
1000
AcDbSavedByObjectVersion
1070
     0
  0
DICTIONARYVAR
  5
100
102
{ACAD_REACTORS
330
FD
102
}
330
FD
100
DictionaryVariables
280
     0
  1
1:1
  0
ENDSEC
  0
EOF
