  0
SECTION
  2
HEADER
  9
$ACADVER
  1
AC1015
  9
$ACADMAINTVER
 70
     6
  9
$DWGCODEPAGE
  3
ANSI_1252
  9
$INSBASE
 10
0.0
 20
0.0
 30
0.0
  9
$EXTMIN
 10
70.75885974300002
 20
235.4196124174857
 30
0.0
  9
$EXTMAX
 10
264.783410682253
 20
348.287413755676
 30
0.0
  9
$LIMMIN
 10
0.0
 20
0.0
  9
$LIMMAX
 10
12.0
 20
9.0
  9
$ORTHOMODE
 70
     0
  9
$REGENMODE
 70
     1
  9
$FILLMODE
 70
     1
  9
$QTEXTMODE
 70
     0
  9
$MIRRTEXT
 70
     1
  9
$LTSCALE
 40
1.0
  9
$ATTMODE
 70
     1
  9
$TEXTSIZE
 40
0.2
  9
$TRACEWID
 40
0.05
  9
$TEXTSTYLE
  7
Standard
  9
$CLAYER
  8
0
  9
$CELTYPE
  6
ByLayer
  9
$CECOLOR
 62
   256
  9
$CELTSCALE
 40
1.0
  9
$DISPSILH
 70
     0
  9
$DIMSCALE
 40
1.0
  9
$DIMASZ
 40
0.18
  9
$DIMEXO
 40
0.0625
  9
$DIMDLI
 40
0.38
  9
$DIMRND
 40
0.0
  9
$DIMDLE
 40
0.0
  9
$DIMEXE
 40
0.18
  9
$DIMTP
 40
0.0
  9
$DIMTM
 40
0.0
  9
$DIMTXT
 40
0.18
  9
$DIMCEN
 40
0.09
  9
$DIMTSZ
 40
0.0
  9
$DIMTOL
 70
     0
  9
$DIMLIM
 70
     0
  9
$DIMTIH
 70
     1
  9
$DIMTOH
 70
     1
  9
$DIMSE1
 70
     0
  9
$DIMSE2
 70
     0
  9
$DIMTAD
 70
     0
  9
$DIMZIN
 70
     0
  9
$DIMBLK
  1

  9
$DIMASO
 70
     1
  9
$DIMSHO
 70
     1
  9
$DIMPOST
  1

  9
$DIMAPOST
  1

  9
$DIMALT
 70
     0
  9
$DIMALTD
 70
     2
  9
$DIMALTF
 40
25.4
  9
$DIMLFAC
 40
1.0
  9
$DIMTOFL
 70
     0
  9
$DIMTVP
 40
0.0
  9
$DIMTIX
 70
     0
  9
$DIMSOXD
 70
     0
  9
$DIMSAH
 70
     0
  9
$DIMBLK1
  1

  9
$DIMBLK2
  1

  9
$DIMSTYLE
  2
Standard
  9
$DIMCLRD
 70
     0
  9
$DIMCLRE
 70
     0
  9
$DIMCLRT
 70
     0
  9
$DIMTFAC
 40
1.0
  9
$DIMGAP
 40
0.09
  9
$DIMJUST
 70
     0
  9
$DIMSD1
 70
     0
  9
$DIMSD2
 70
     0
  9
$DIMTOLJ
 70
     1
  9
$DIMTZIN
 70
     0
  9
$DIMALTZ
 70
     0
  9
$DIMALTTZ
 70
     0
  9
$DIMUPT
 70
     0
  9
$DIMDEC
 70
     4
  9
$DIMTDEC
 70
     4
  9
$DIMALTU
 70
     2
  9
$DIMALTTD
 70
     2
  9
$DIMTXSTY
  7
Standard
  9
$DIMAUNIT
 70
     0
  9
$DIMADEC
 70
     0
  9
$DIMALTRND
 40
0.0
  9
$DIMAZIN
 70
     0
  9
$DIMDSEP
 70
    46
  9
$DIMATFIT
 70
     3
  9
$DIMFRAC
 70
     0
  9
$DIMLDRBLK
  1

  9
$DIMLUNIT
 70
     2
  9
$DIMLWD
 70
    -2
  9
$DIMLWE
 70
    -2
  9
$DIMTMOVE
 70
     0
  9
$LUNITS
 70
     2
  9
$LUPREC
 70
     4
  9
$SKETCHINC
 40
0.1
  9
$FILLETRAD
 40
0.5
  9
$AUNITS
 70
     0
  9
$AUPREC
 70
     0
  9
$MENU
  1
.
  9
$ELEVATION
 40
0.0
  9
$PELEVATION
 40
0.0
  9
$THICKNESS
 40
0.0
  9
$LIMCHECK
 70
     0
  9
$CHAMFERA
 40
0.5
  9
$CHAMFERB
 40
0.5
  9
$CHAMFERC
 40
1.0
  9
$CHAMFERD
 40
0.0
  9
$SKPOLY
 70
     0
  9
$TDCREATE
 40
2456821.356128518
  9
$TDUCREATE
 40
2456821.272795185
  9
$TDUPDATE
 40
2456821.35612853
  9
$TDUUPDATE
 40
2456821.272795197
  9
$TDINDWG
 40
0.0000000116
  9
$TDUSRTIMER
 40
0.0000000116
  9
$USRTIMER
 70
     1
  9
$ANGBASE
 50
0.0
  9
$ANGDIR
 70
     0
  9
$PDMODE
 70
     0
  9
$PDSIZE
 40
0.0
  9
$PLINEWID
 40
0.0
  9
$SPLFRAME
 70
     0
  9
$SPLINETYPE
 70
     6
  9
$SPLINESEGS
 70
     8
  9
$HANDSEED
  5
10A
  9
$SURFTAB1
 70
     6
  9
$SURFTAB2
 70
     6
  9
$SURFTYPE
 70
     6
  9
$SURFU
 70
     6
  9
$SURFV
 70
     6
  9
$UCSBASE
  2

  9
$UCSNAME
  2

  9
$UCSORG
 10
0.0
 20
0.0
 30
0.0
  9
$UCSXDIR
 10
1.0
 20
0.0
 30
0.0
  9
$UCSYDIR
 10
0.0
 20
1.0
 30
0.0
  9
$UCSORTHOREF
  2

  9
$UCSORTHOVIEW
 70
     0
  9
$UCSORGTOP
 10
0.0
 20
0.0
 30
0.0
  9
$UCSORGBOTTOM
 10
0.0
 20
0.0
 30
0.0
  9
$UCSORGLEFT
 10
0.0
 20
0.0
 30
0.0
  9
$UCSORGRIGHT
 10
0.0
 20
0.0
 30
0.0
  9
$UCSORGFRONT
 10
0.0
 20
0.0
 30
0.0
  9
$UCSORGBACK
 10
0.0
 20
0.0
 30
0.0
  9
$PUCSBASE
  2

  9
$PUCSNAME
  2

  9
$PUCSORG
 10
0.0
 20
0.0
 30
0.0
  9
$PUCSXDIR
 10
1.0
 20
0.0
 30
0.0
  9
$PUCSYDIR
 10
0.0
 20
1.0
 30
0.0
  9
$PUCSORTHOREF
  2

  9
$PUCSORTHOVIEW
 70
     0
  9
$PUCSORGTOP
 10
0.0
 20
0.0
 30
0.0
  9
$PUCSORGBOTTOM
 10
0.0
 20
0.0
 30
0.0
  9
$PUCSORGLEFT
 10
0.0
 20
0.0
 30
0.0
  9
$PUCSORGRIGHT
 10
0.0
 20
0.0
 30
0.0
  9
$PUCSORGFRONT
 10
0.0
 20
0.0
 30
0.0
  9
$PUCSORGBACK
 10
0.0
 20
0.0
 30
0.0
  9
$USERI1
 70
     0
  9
$USERI2
 70
     0
  9
$USERI3
 70
     0
  9
$USERI4
 70
     0
  9
$USERI5
 70
     0
  9
$USERR1
 40
16.5
  9
$USERR2
 40
0.0
  9
$USERR3
 40
0.0
  9
$USERR4
 40
0.0
  9
$USERR5
 40
0.0
  9
$WORLDVIEW
 70
     1
  9
$SHADEDGE
 70
     3
  9
$SHADEDIF
 70
    70
  9
$TILEMODE
 70
     1
  9
$MAXACTVP
 70
    64
  9
$PINSBASE
 10
0.0
 20
0.0
 30
0.0
  9
$PLIMCHECK
 70
     0
  9
$PEXTMIN
 10
1.00000000000000E+20
 20
1.00000000000000E+20
 30
1.00000000000000E+20
  9
$PEXTMAX
 10
-1.00000000000000E+20
 20
-1.00000000000000E+20
 30
-1.00000000000000E+20
  9
$PLIMMIN
 10
0.0
 20
0.0
  9
$PLIMMAX
 10
12.0
 20
9.0
  9
$UNITMODE
 70
     0
  9
$VISRETAIN
 70
     1
  9
$PLINEGEN
 70
     0
  9
$PSLTSCALE
 70
     1
  9
$TREEDEPTH
 70
  3020
  9
$CMLSTYLE
  2
Standard
  9
$CMLJUST
 70
     0
  9
$CMLSCALE
 40
1.0
  9
$PROXYGRAPHICS
 70
     1
  9
$MEASUREMENT
 70
     1
  9
$CELWEIGHT
370
    -1
  9
$ENDCAPS
280
     0
  9
$JOINSTYLE
280
     0
  9
$LWDISPLAY
290
     0
  9
$INSUNITS
 70
     1
  9
$HYPERLINKBASE
  1

  9
$STYLESHEET
  1

  9
$XEDIT
290
     1
  9
$CEPSNTYPE
380
     0
  9
$PSTYLEMODE
290
     1
  9
$FINGERPRINTGUID
  2
{A5E7099D-1B19-48D1-A0FF-7DAFAE9A0829}
  9
$VERSIONGUID
  2
{FAEB1C32-E019-11D5-929B-00C0DF256EC4}
  9
$EXTNAMES
290
     1
  9
$PSVPSCALE
 40
0.0
  9
$OLESTARTUP
290
     0
  0
ENDSEC
  0
SECTION
  2
CLASSES
  0
CLASS
  1
ACDBDICTIONARYWDFLT
  2
AcDbDictionaryWithDefault
  3
ObjectDBX Classes
 90
        0
280
     0
281
     0
  0
CLASS
  1
VISUALSTYLE
  2
AcDbVisualStyle
  3
ObjectDBX Classes
 90
     4095
280
     0
281
     0
  0
CLASS
  1
SCALE
  2
AcDbScale
  3
ObjectDBX Classes
 90
     1153
280
     0
281
     0
  0
CLASS
  1

  2
exOdDbPolyline
  3

 90
        0
280
     0
281
     1
  0
CLASS
  1

  2
exOdDbSpline
  3

 90
        0
280
     0
281
     1
  0
CLASS
  1
DICTIONARYVAR
  2
AcDbDictionaryVar
  3
ObjectDBX Classes
 90
        0
280
     0
281
     0
  0
CLASS
  1
ACDBPLACEHOLDER
  2
AcDbPlaceHolder
  3
ObjectDBX Classes
 90
        0
280
     0
281
     0
  0
CLASS
  1
LAYOUT
  2
AcDbLayout
  3
ObjectDBX Classes
 90
        0
280
     0
281
     0
  0
ENDSEC
  0
SECTION
  2
TABLES
  0
TABLE
  2
VPORT
  5
8
330
0
100
AcDbSymbolTable
 70
     1
  0
VPORT
  5
29
330
8
100
AcDbSymbolTableRecord
100
AcDbViewportTableRecord
  2
*Active
 70
     0
 10
0.0
 20
0.0
 11
1.0
 21
1.0
 12
167.7711352126265
 22
291.8535130865808
 13
0.0
 23
0.0
 14
0.5
 24
0.5
 15
0.5
 25
0.5
 16
0.0
 26
0.0
 36
1.0
 17
0.0
 27
0.0
 37
0.0
 40
133.1689396975821
 41
1.60267857142857
 42
50.0
 43
0.0
 44
0.0
 50
0.0
 51
0.0
 71
     0
 72
   100
 73
     1
 74
     3
 75
     0
 76
     0
 77
     0
 78
     0
281
     0
 65
     1
110
0.0
120
0.0
130
0.0
111
1.0
121
0.0
131
0.0
112
0.0
122
1.0
132
0.0
 79
     0
146
0.0
  0
ENDTAB
  0
TABLE
  2
LTYPE
  5
5
330
0
100
AcDbSymbolTable
 70
     8
  0
LTYPE
  5
14
330
5
100
AcDbSymbolTableRecord
100
AcDbLinetypeTableRecord
  2
ByBlock
 70
     0
  3

 72
    65
 73
     0
 40
0.0
  0
LTYPE
  5
15
330
5
100
AcDbSymbolTableRecord
100
AcDbLinetypeTableRecord
  2
ByLayer
 70
     0
  3

 72
    65
 73
     0
 40
0.0
  0
LTYPE
  5
16
330
5
100
AcDbSymbolTableRecord
100
AcDbLinetypeTableRecord
  2
Continuous
 70
     0
  3
Solid line
 72
    65
 73
     0
 40
0.0
  0
LTYPE
  5
3B
330
5
100
AcDbSymbolTableRecord
100
AcDbLinetypeTableRecord
  2
DASHED
 70
     0
  3
Dashed
 72
    65
 73
     2
 40
15.0
 49
7.0
 74
     0
 49
-8.0
 74
     0
  0
LTYPE
  5
3C
330
5
100
AcDbSymbolTableRecord
100
AcDbLinetypeTableRecord
  2
DOTTED
 70
     0
  3
Dotted
 72
    65
 73
     2
 40
1.0
 49
0.0
 74
     0
 49
-1.0
 74
     0
  0
LTYPE
  5
3D
330
5
100
AcDbSymbolTableRecord
100
AcDbLinetypeTableRecord
  2
DOT_CENTER
 70
     0
  3
Dot_Center
 72
    65
 73
     4
 40
14.0
 49
12.0
 74
     0
 49
-1.0
 74
     0
 49
0.0
 74
     0
 49
-1.0
 74
     0
  0
LTYPE
  5
3E
330
5
100
AcDbSymbolTableRecord
100
AcDbLinetypeTableRecord
  2
LONG_DASHED
 70
     0
  3
Long_Dashed
 72
    65
 73
     2
 40
15.0
 49
10.0
 74
     0
 49
-5.0
 74
     0
  0
LTYPE
  5
3F
330
5
100
AcDbSymbolTableRecord
100
AcDbLinetypeTableRecord
  2
DASH_CENTER
 70
     0
  3
Dash_Center
 72
    65
 73
     4
 40
14.0
 49
11.0
 74
     0
 49
-1.0
 74
     0
 49
1.0
 74
     0
 49
-1.0
 74
     0
  0
LTYPE
  5
40
330
5
100
AcDbSymbolTableRecord
100
AcDbLinetypeTableRecord
  2
PHANTOM
 70
     0
  3
Phantom
 72
    65
 73
     6
 40
13.0
 49
10.0
 74
     0
 49
-1.0
 74
     0
 49
0.0
 74
     0
 49
-1.0
 74
     0
 49
0.0
 74
     0
 49
-1.0
 74
     0
  0
LTYPE
  5
41
330
5
100
AcDbSymbolTableRecord
100
AcDbLinetypeTableRecord
  2
CENTER_DASH_DASH
 70
     0
  3
Center_Dash_Dash
 72
    65
 73
     6
 40
14.0
 49
9.0
 74
     0
 49
-1.0
 74
     0
 49
1.0
 74
     0
 49
-1.0
 74
     0
 49
1.0
 74
     0
 49
-1.0
 74
     0
  0
ENDTAB
  0
TABLE
  2
LAYER
  5
2
330
0
100
AcDbSymbolTable
 70
     6
  0
LAYER
  5
10
330
2
100
AcDbSymbolTableRecord
100
AcDbLayerTableRecord
  2
0
 70
     0
 62
     7
  6
Continuous
370
    -3
390
F
  0
LAYER
  5
42
330
2
100
AcDbSymbolTableRecord
100
AcDbLayerTableRecord
  2
1
 70
     0
 62
     7
  6
Continuous
370
    -3
390
F
  0
LAYER
  5
43
330
2
100
AcDbSymbolTableRecord
100
AcDbLayerTableRecord
  2
BEZUGSACHSEN
 70
     0
 62
     7
  6
Continuous
370
    -3
390
F
  0
LAYER
  5
44
330
2
100
AcDbSymbolTableRecord
100
AcDbLayerTableRecord
  2
DEFAULT_2
 70
     0
 62
     7
  6
Continuous
370
    -3
390
F
  0
LAYER
  5
45
330
2
100
AcDbSymbolTableRecord
100
AcDbLayerTableRecord
  2
RUNDUNGEN
 70
     0
 62
     7
  6
Continuous
370
    -3
390
F
  0
LAYER
  5
46
330
2
100
AcDbSymbolTableRecord
100
AcDbLayerTableRecord
  2
TEIL_STARTBEZUEGE
 70
     0
 62
     7
  6
Continuous
370
    -3
390
F
  0
ENDTAB
  0
TABLE
  2
STYLE
  5
3
330
0
100
AcDbSymbolTable
 70
     2
  0
STYLE
  5
11
330
3
100
AcDbSymbolTableRecord
100
AcDbTextStyleTableRecord
  2
Standard
 70
     0
 40
0.0
 41
1.0
 50
0.0
 71
     0
 42
0.2
  3
txt
  4

  0
STYLE
  5
6D
330
3
100
AcDbSymbolTableRecord
100
AcDbTextStyleTableRecord
  2
CONVERTER_11
 70
     0
 40
0.0
 41
0.72
 50
0.0
 71
     0
 42
0.2
  3
txt.shx
  4

  0
ENDTAB
  0
TABLE
  2
VIEW
  5
6
330
0
100
AcDbSymbolTable
 70
     0
  0
ENDTAB
  0
TABLE
  2
UCS
  5
7
330
0
100
AcDbSymbolTable
 70
     0
  0
ENDTAB
  0
TABLE
  2
APPID
  5
9
330
0
100
AcDbSymbolTable
 70
     1
  0
APPID
  5
12
330
9
100
AcDbSymbolTableRecord
100
AcDbRegAppTableRecord
  2
ACAD
 70
     0
  0
ENDTAB
  0
TABLE
  2
DIMSTYLE
  5
A
330
0
100
AcDbSymbolTable
 70
     6
100
AcDbDimStyleTable
  0
DIMSTYLE
105
27
330
A
100
AcDbSymbolTableRecord
100
AcDbDimStyleTableRecord
  2
Standard
 70
     0
340
11
  0
DIMSTYLE
105
D1
102
{ACAD_REACTORS
330
D2
102
}
330
A
100
AcDbSymbolTableRecord
100
AcDbDimStyleTableRecord
  2
ME10_DIM_10
 70
     0
  3
<>
 41
3.5
 42
2.0
 44
2.0
 71
     1
 73
     0
 74
     0
 77
     1
 78
     8
140
3.5
146
0.7
147
2.0
172
     1
173
     1
176
     2
177
     2
178
     3
271
     2
272
     0
340
6D
  0
DIMSTYLE
105
DC
102
{ACAD_REACTORS
330
DD
102
}
330
A
100
AcDbSymbolTableRecord
100
AcDbDimStyleTableRecord
  2
ME10_DIM_11
 70
     0
  3
<>
 41
3.5
 42
2.0
 44
2.0
 71
     1
 73
     0
 74
     0
 77
     1
 78
     8
140
3.5
146
0.7
147
2.0
172
     1
173
     1
176
     2
177
     2
178
     3
271
     2
272
     0
340
6D
  0
DIMSTYLE
105
E7
102
{ACAD_REACTORS
330
E8
102
}
330
A
100
AcDbSymbolTableRecord
100
AcDbDimStyleTableRecord
  2
ME10_DIM_12
 70
     0
  3
<>
 41
3.5
 42
2.0
 44
2.0
 71
     1
 73
     0
 74
     0
 77
     1
 78
     8
140
3.5
146
0.7
147
2.0
172
     1
173
     1
176
     2
177
     2
178
     3
271
     2
272
     0
340
6D
  0
DIMSTYLE
105
F2
102
{ACAD_REACTORS
330
F3
102
}
330
A
100
AcDbSymbolTableRecord
100
AcDbDimStyleTableRecord
  2
ME10_DIM_13
 70
     0
  3
\U+2300<>
 41
3.5
 42
2.0
 44
2.0
 71
     1
 73
     0
 74
     0
 77
     1
 78
     8
140
3.5
146
0.7
147
2.0
172
     1
173
     1
176
     2
177
     2
178
     3
271
     2
272
     0
340
6D
  0
DIMSTYLE
105
FD
102
{ACAD_REACTORS
330
FE
102
}
330
A
100
AcDbSymbolTableRecord
100
AcDbDimStyleTableRecord
  2
ME10_DIM_14
 70
     0
  3
\U+2300<>
 41
3.5
 42
2.0
 44
2.0
 71
     1
 73
     0
 74
     0
 77
     1
 78
     8
140
3.5
146
0.7
147
2.0
172
     1
173
     1
176
     2
177
     2
178
     3
271
     2
272
     0
340
6D
  0
ENDTAB
  0
TABLE
  2
BLOCK_RECORD
  5
1
330
0
100
AcDbSymbolTable
 70
     8
  0
BLOCK_RECORD
  5
1F
330
1
100
AcDbSymbolTableRecord
100
AcDbBlockTableRecord
  2
*Model_Space
340
22
  0
BLOCK_RECORD
  5
1B
330
1
100
AcDbSymbolTableRecord
100
AcDbBlockTableRecord
  2
*Paper_Space
340
1E
  0
BLOCK_RECORD
  5
23
330
1
100
AcDbSymbolTableRecord
100
AcDbBlockTableRecord
  2
*Paper_Space0
340
26
  0
BLOCK_RECORD
  5
47
330
1
100
AcDbSymbolTableRecord
100
AcDbBlockTableRecord
  2
Urheberrecht_DE-EN_horizontal
340
0
102
{BLKREFS
331
6C
102
}
  0
BLOCK_RECORD
  5
C8
330
1
100
AcDbSymbolTableRecord
100
AcDbBlockTableRecord
  2
*D2
340
0
  0
BLOCK_RECORD
  5
D3
330
1
100
AcDbSymbolTableRecord
100
AcDbBlockTableRecord
  2
*D3
340
0
  0
BLOCK_RECORD
  5
DE
330
1
100
AcDbSymbolTableRecord
100
AcDbBlockTableRecord
  2
*D4
340
0
  0
BLOCK_RECORD
  5
E9
330
1
100
AcDbSymbolTableRecord
100
AcDbBlockTableRecord
  2
*D5
340
0
  0
BLOCK_RECORD
  5
F4
330
1
100
AcDbSymbolTableRecord
100
AcDbBlockTableRecord
  2
*D6
340
0
  0
BLOCK_RECORD
  5
FF
330
1
100
AcDbSymbolTableRecord
100
AcDbBlockTableRecord
  2
*D7
340
0
102
{BLKREFS
331
105
102
}
  0
ENDTAB
  0
ENDSEC
  0
SECTION
  2
BLOCKS
  0
BLOCK
  5
20
330
1F
100
AcDbEntity
  8
0
100
AcDbBlockBegin
  2
*Model_Space
 70
     0
 10
0.0
 20
0.0
 30
0.0
  3
*Model_Space
  1

  0
ENDBLK
  5
21
330
1F
100
AcDbEntity
  8
0
100
AcDbBlockEnd
  0
BLOCK
  5
1C
330
1B
100
AcDbEntity
 67
     1
  8
0
100
AcDbBlockBegin
  2
*Paper_Space
 70
     0
 10
0.0
 20
0.0
 30
0.0
  3
*Paper_Space
  1

  0
ENDBLK
  5
1D
330
1B
100
AcDbEntity
 67
     1
  8
0
100
AcDbBlockEnd
  0
BLOCK
  5
24
330
23
100
AcDbEntity
  8
0
100
AcDbBlockBegin
  2
*Paper_Space0
 70
     0
 10
0.0
 20
0.0
 30
0.0
  3
*Paper_Space0
  1

  0
ENDBLK
  5
25
330
23
100
AcDbEntity
  8
0
100
AcDbBlockEnd
  0
BLOCK
  5
48
330
47
100
AcDbEntity
  8
0
100
AcDbBlockBegin
  2
Urheberrecht_DE-EN_horizontal
 70
     0
 10
157.952849444974
 20
242.81762042739
 30
0.0
  3
Urheberrecht_DE-EN_horizontal
  1

  0
MTEXT
  5
6E
330
47
100
AcDbEntity
  8
1
 62
     1
100
AcDbMText
 10
160.7884539729209
 20
236.0196124174857
 30
0.0
 40
2.0
 41
0.0
 71
     7
 72
     1
  1
We own the copyright of this document. It \Pdetermined and may neither be copied or \Pmade accessible to outsiders without our\Ppermission.
  7
CONVERTER_11
 73
     1
 44
0.90036014405762
  0
MTEXT
  5
6F
330
47
100
AcDbEntity
  8
1
 62
     1
100
AcDbMText
 10
104.4990670556148
 20
236.0196124174857
 30
0.0
 40
2.0
 41
0.0
 71
     7
 72
     1
  1
F\U+00fcr diese Unterlage behalten wir das Ur-\Pheberrecht. Sie darf nur f\U+00fcr den von uns \Pbestimmten Zweck benutzt und ohne unsere \PZustimmung weder vervielf\U+00e4ltigt noch\PDritten zug\U+00e4nglich gemacht werden.
  7
CONVERTER_11
 73
     1
 44
0.90036014405762
  0
ENDBLK
  5
49
330
47
100
AcDbEntity
  8
0
100
AcDbBlockEnd
  0
BLOCK
  5
CF
330
C8
100
AcDbEntity
  8
0
100
AcDbBlockBegin
  2
*D2
 70
     1
 10
0.0
 20
0.0
 30
0.0
  3
*D2
  1

  0
LINE
  5
C9
330
C8
100
AcDbEntity
  8
1
  6
Continuous
 62
     2
100
AcDbLine
 10
242.283859743
 20
342.787413755676
 30
0.0
 11
73.88385974299999
 21
342.787413755676
 31
0.0
  0
LINE
  5
CA
330
C8
100
AcDbEntity
  8
1
  6
Continuous
 62
     2
100
AcDbLine
 10
73.88385974299999
 20
300.9061884242
 30
0.0
 11
73.88385974299999
 21
344.787413755676
 31
0.0
  0
LINE
  5
CB
330
C8
100
AcDbEntity
  8
1
  6
Continuous
 62
     2
100
AcDbLine
 10
242.283859743
 20
307.3737364547
 30
0.0
 11
242.283859743
 21
344.787413755676
 31
0.0
  0
SOLID
  5
CC
330
C8
100
AcDbEntity
  8
1
 62
     2
100
AcDbTrace
 10
238.783859743
 20
342.3266300141202
 30
0.0
 11
238.783859743
 21
343.2481974972319
 31
0.0
 12
242.283859743
 22
342.787413755676
 32
0.0
 13
242.283859743
 23
342.787413755676
 33
0.0
  0
SOLID
  5
CD
330
C8
100
AcDbEntity
  8
1
 62
     2
100
AcDbTrace
 10
77.38385974299999
 20
343.2481974972319
 30
0.0
 11
77.38385974299999
 21
342.3266300141202
 31
0.0
 12
73.88385974299999
 22
342.787413755676
 32
0.0
 13
73.88385974299999
 23
342.787413755676
 33
0.0
  0
MTEXT
  5
CE
330
C8
100
AcDbEntity
  8
1
 62
     3
100
AcDbMText
 10
168.6288203140633
 20
344.787413755676
 30
0.0
 40
3.5
 41
0.0
 71
     7
 72
     1
  1
\C3;\C3;\C3;168.4\C2;\H2.45;\S^ ;\C3;
  7
CONVERTER_11
 11
0.9999999999970619
 21
2.424068405545306E-6
 31
0.0
 73
     1
 44
0.60024009603842
  0
ENDBLK
  5
D0
330
C8
100
AcDbEntity
  8
0
100
AcDbBlockEnd
  0
BLOCK
  5
DA
330
D3
100
AcDbEntity
  8
0
100
AcDbBlockBegin
  2
*D3
 70
     1
 10
0.0
 20
0.0
 30
0.0
  3
*D3
  1

  0
LINE
  5
D4
330
D3
100
AcDbEntity
  8
1
  6
Continuous
 62
     2
100
AcDbLine
 10
242.283859743
 20
335.172210698254
 30
0.0
 11
142.283859743
 21
335.172210698254
 31
0.0
  0
LINE
  5
D5
330
D3
100
AcDbEntity
  8
1
  6
Continuous
 62
     2
100
AcDbLine
 10
142.283859743
 20
316.2594385847
 30
0.0
 11
142.283859743
 21
337.172210698254
 31
0.0
  0
LINE
  5
D6
330
D3
100
AcDbEntity
  8
1
  6
Continuous
 62
     2
100
AcDbLine
 10
242.283859743
 20
307.3737364547
 30
0.0
 11
242.283859743
 21
337.172210698254
 31
0.0
  0
SOLID
  5
D7
330
D3
100
AcDbEntity
  8
1
 62
     2
100
AcDbTrace
 10
238.783859743
 20
334.7114269566981
 30
0.0
 11
238.783859743
 21
335.6329944398099
 31
0.0
 12
242.283859743
 22
335.172210698254
 32
0.0
 13
242.283859743
 23
335.172210698254
 33
0.0
  0
SOLID
  5
D8
330
D3
100
AcDbEntity
  8
1
 62
     2
100
AcDbTrace
 10
145.783859743
 20
335.6329944398099
 30
0.0
 11
145.783859743
 21
334.7114269566981
 31
0.0
 12
142.283859743
 22
335.172210698254
 32
0.0
 13
142.283859743
 23
335.172210698254
 33
0.0
  0
MTEXT
  5
D9
330
D3
100
AcDbEntity
  8
1
 62
     3
100
AcDbMText
 10
190.820506374554
 20
337.172210698254
 30
0.0
 40
3.5
 41
0.0
 71
     7
 72
     1
  1
\C3;\C3;\C3;100\C2;\H2.45;\S^ ;\C3;
  7
CONVERTER_11
 11
0.9999999999970619
 21
2.424068405545306E-6
 31
0.0
 73
     1
 44
0.60024009603842
  0
ENDBLK
  5
DB
330
D3
100
AcDbEntity
  8
0
100
AcDbBlockEnd
  0
BLOCK
  5
E5
330
DE
100
AcDbEntity
  8
0
100
AcDbBlockBegin
  2
*D4
 70
     1
 10
0.0
 20
0.0
 30
0.0
  3
*D4
  1

  0
LINE
  5
DF
330
DE
100
AcDbEntity
  8
1
  6
Continuous
 62
     2
100
AcDbLine
 10
242.283859743
 20
327.881058834765
 30
0.0
 11
161.383859743
 21
327.881058834765
 31
0.0
  0
LINE
  5
E0
330
DE
100
AcDbEntity
  8
1
  6
Continuous
 62
     2
100
AcDbLine
 10
161.383859743
 20
319.1335909806
 30
0.0
 11
161.383859743
 21
329.881058834765
 31
0.0
  0
LINE
  5
E1
330
DE
100
AcDbEntity
  8
1
  6
Continuous
 62
     2
100
AcDbLine
 10
242.283859743
 20
307.3737364547
 30
0.0
 11
242.283859743
 21
329.881058834765
 31
0.0
  0
SOLID
  5
E2
330
DE
100
AcDbEntity
  8
1
 62
     2
100
AcDbTrace
 10
238.783859743
 20
327.4202750932091
 30
0.0
 11
238.783859743
 21
328.3418425763209
 31
0.0
 12
242.283859743
 22
327.881058834765
 32
0.0
 13
242.283859743
 23
327.881058834765
 33
0.0
  0
SOLID
  5
E3
330
DE
100
AcDbEntity
  8
1
 62
     2
100
AcDbTrace
 10
164.883859743
 20
328.3418425763209
 30
0.0
 11
164.883859743
 21
327.4202750932091
 31
0.0
 12
161.383859743
 22
327.881058834765
 32
0.0
 13
161.383859743
 23
327.881058834765
 33
0.0
  0
MTEXT
  5
E4
330
DE
100
AcDbEntity
  8
1
 62
     3
100
AcDbMText
 10
198.8813811289775
 20
329.881058834765
 30
0.0
 40
3.5
 41
0.0
 71
     7
 72
     1
  1
\C3;\C3;\C3;80.9\C2;\H2.45;\S^ ;\C3;
  7
CONVERTER_11
 11
0.9999999999970619
 21
2.424068405545306E-6
 31
0.0
 73
     1
 44
0.60024009603842
  0
ENDBLK
  5
E6
330
DE
100
AcDbEntity
  8
0
100
AcDbBlockEnd
  0
BLOCK
  5
F0
330
E9
100
AcDbEntity
  8
0
100
AcDbBlockBegin
  2
*D5
 70
     1
 10
0.0
 20
0.0
 30
0.0
  3
*D5
  1

  0
LINE
  5
EA
330
E9
100
AcDbEntity
  8
1
  6
Continuous
 62
     2
100
AcDbLine
 10
262.783410682253
 20
313.4566402234
 30
0.0
 11
262.783410682253
 21
261.4566402234
 31
0.0
  0
LINE
  5
EB
330
E9
100
AcDbEntity
  8
1
  6
Continuous
 62
     2
100
AcDbLine
 10
231.0159105506
 20
261.4566402234
 30
0.0
 11
264.783410682253
 21
261.4566402234
 31
0.0
  0
LINE
  5
EC
330
E9
100
AcDbEntity
  8
1
  6
Continuous
 62
     2
100
AcDbLine
 10
231.0159105506
 20
313.4566402234
 30
0.0
 11
264.783410682253
 21
313.4566402234
 31
0.0
  0
SOLID
  5
ED
330
E9
100
AcDbEntity
  8
1
 62
     2
100
AcDbTrace
 10
263.2441944238089
 20
309.9566402234
 30
0.0
 11
262.3226269406971
 21
309.9566402234
 31
0.0
 12
262.783410682253
 22
313.4566402234
 32
0.0
 13
262.783410682253
 23
313.4566402234
 33
0.0
  0
SOLID
  5
EE
330
E9
100
AcDbEntity
  8
1
 62
     2
100
AcDbTrace
 10
262.3226269406971
 20
264.9566402234
 30
0.0
 11
263.2441944238089
 21
264.9566402234
 31
0.0
 12
262.783410682253
 22
261.4566402234
 32
0.0
 13
262.783410682253
 23
261.4566402234
 33
0.0
  0
MTEXT
  5
EF
330
E9
100
AcDbEntity
  8
1
 62
     3
100
AcDbMText
 10
260.783410682253
 20
279.005736384057
 30
0.0
 40
3.5
 41
0.0
 71
     7
 72
     1
  1
\C3;%%c\C3;\C3;52\C2;\H2.45;\S^ ;\C3;
  7
CONVERTER_11
 11
0.0
 21
1.0
 31
0.0
 73
     1
 44
0.60024009603842
  0
ENDBLK
  5
F1
330
E9
100
AcDbEntity
  8
0
100
AcDbBlockEnd
  0
BLOCK
  5
FB
330
F4
100
AcDbEntity
  8
0
100
AcDbBlockBegin
  2
*D6
 70
     1
 10
0.0
 20
0.0
 30
0.0
  3
*D6
  1

  0
LINE
  5
F5
330
F4
100
AcDbEntity
  8
1
  6
Continuous
 62
     2
100
AcDbLine
 10
254.034028446066
 20
297.4566402234
 30
0.0
 11
254.034028446066
 21
277.4566402234
 31
0.0
  0
LINE
  5
F6
330
F4
100
AcDbEntity
  8
1
  6
Continuous
 62
     2
100
AcDbLine
 10
244.283859743
 20
277.4566402234
 30
0.0
 11
256.034028446066
 21
277.4566402234
 31
0.0
  0
LINE
  5
F7
330
F4
100
AcDbEntity
  8
1
  6
Continuous
 62
     2
100
AcDbLine
 10
244.283859743
 20
297.4566402234
 30
0.0
 11
256.034028446066
 21
297.4566402234
 31
0.0
  0
SOLID
  5
F8
330
F4
100
AcDbEntity
  8
1
 62
     2
100
AcDbTrace
 10
254.4948121876219
 20
293.9566402234
 30
0.0
 11
253.5732447045101
 21
293.9566402234
 31
0.0
 12
254.034028446066
 22
297.4566402234
 32
0.0
 13
254.034028446066
 23
297.4566402234
 33
0.0
  0
SOLID
  5
F9
330
F4
100
AcDbEntity
  8
1
 62
     2
100
AcDbTrace
 10
253.5732447045101
 20
280.9566402234
 30
0.0
 11
254.4948121876219
 21
280.9566402234
 31
0.0
 12
254.034028446066
 22
277.4566402234
 32
0.0
 13
254.034028446066
 23
277.4566402234
 33
0.0
  0
MTEXT
  5
FA
330
F4
100
AcDbEntity
  8
1
 62
     3
100
AcDbMText
 10
252.034028446066
 20
278.195608399225
 30
0.0
 40
3.5
 41
0.0
 71
     7
 72
     1
  1
\C3;%%c\C3;\C3;20\C2;\H2.45;\S^ ;\C3;
  7
CONVERTER_11
 11
0.0
 21
1.0
 31
0.0
 73
     1
 44
0.60024009603842
  0
ENDBLK
  5
FC
330
F4
100
AcDbEntity
  8
0
100
AcDbBlockEnd
  0
BLOCK
  5
103
330
FF
100
AcDbEntity
  8
0
100
AcDbBlockBegin
  2
*D7
 70
     1
 10
0.0
 20
0.0
 30
0.0
  3
*D7
  1

  0
LINE
  5
100
330
FF
100
AcDbEntity
  8
1
  6
Continuous
 62
     2
100
AcDbLine
 10
170.819268265847
 20
318.4238690238814
 30
0.0
 11
161.5674769716485
 21
311.879129036807
 31
0.0
  0
SOLID
  5
101
330
FF
100
AcDbEntity
  8
1
 62
     2
100
AcDbTrace
 10
164.1587089060307
 20
314.276594097808
 30
0.0
 11
164.6909244367282
 21
313.5242422819576
 31
0.0
 12
161.5674769716485
 22
311.879129036807
 32
0.0
 13
161.5674769716485
 23
311.879129036807
 33
0.0
  0
MTEXT
  5
102
330
FF
100
AcDbEntity
  8
1
 62
     3
100
AcDbMText
 10
164.2924472571667
 20
316.2566109588024
 30
0.0
 40
3.5
 41
0.0
 71
     7
 72
     1
  1
\C3; R\C3;\C3;1\C2;\H2.45;\S^ ;\C3;
  7
CONVERTER_11
 11
0.8163827713516866
 21
0.5775111865930735
 31
0.0
 73
     1
 44
0.60024009603842
  0
ENDBLK
  5
104
330
FF
100
AcDbEntity
  8
0
100
AcDbBlockEnd
  0
ENDSEC
  0
SECTION
  2
ENTITIES
  0
INSERT
  5
6C
330
1F
100
AcDbEntity
  8
0
100
AcDbBlockReference
  2
Urheberrecht_DE-EN_horizontal
 10
157.952849444974
 20
242.81762042739
 30
0.0
  0
LWPOLYLINE
  5
70
330
1F
100
AcDbEntity
  8
BEZUGSACHSEN
  6
DASHED
 62
     8
100
AcDbPolyline
 90
        2
 70
     0
 43
0.35
 10
209.283859743
 20
297.4566402234
 10
209.283859743
 20
313.4566402234
  0
LWPOLYLINE
  5
71
330
1F
100
AcDbEntity
  8
BEZUGSACHSEN
  6
DASHED
 62
     8
100
AcDbPolyline
 90
        2
 70
     0
 43
0.35
 10
225.283859743
 20
297.4566402234
 10
225.283859743
 20
313.4566402234
  0
LINE
  5
72
330
1F
100
AcDbEntity
  8
RUNDUNGEN
  6
Continuous
 62
     7
100
AcDbLine
 10
242.283859743
 20
269.539543992
 30
0.0
 11
242.283859743
 21
305.3737364547
 31
0.0
  0
LINE
  5
73
330
1F
100
AcDbEntity
  8
RUNDUNGEN
  6
Continuous
 62
     9
100
AcDbLine
 10
241.783859743
 20
268.6735185882
 30
0.0
 11
241.783859743
 21
306.2397618585
 31
0.0
  0
LINE
  5
74
330
1F
100
AcDbEntity
  8
RUNDUNGEN
  6
Continuous
 62
     9
100
AcDbLine
 10
229.5159105506
 20
261.5906148196
 30
0.0
 11
229.5159105506
 21
313.3226656271
 31
0.0
  0
LINE
  5
75
330
1F
100
AcDbEntity
  8
RUNDUNGEN
  6
Continuous
 62
     9
100
AcDbLine
 10
229.0159105506
 20
261.4566402234
 30
0.0
 11
229.0159105506
 21
313.4566402234
 31
0.0
  0
LWPOLYLINE
  5
76
330
1F
100
AcDbEntity
  8
BEZUGSACHSEN
  6
DASHED
 62
     8
100
AcDbPolyline
 90
        2
 70
     0
 43
0.35
 10
224.283859743
 20
297.4566402234
 10
224.283859743
 20
313.4566402234
  0
LINE
  5
77
330
1F
100
AcDbEntity
  8
0
  6
Continuous
 62
     7
100
AcDbLine
 10
229.5159105506
 20
313.3226656271
 30
0.0
 11
241.783859743
 21
306.2397618585
 31
0.0
  0
LINE
  5
78
330
1F
100
AcDbEntity
  8
RUNDUNGEN
  6
Continuous
 62
     7
100
AcDbLine
 10
241.783859743
 20
306.2397618585
 30
0.0
 11
229.5159105506
 21
313.3226656271
 31
0.0
  0
LINE
  5
79
330
1F
100
AcDbEntity
  8
0
  6
Continuous
 62
     7
100
AcDbLine
 10
229.5159105506
 20
261.5906148196
 30
0.0
 11
241.783859743
 21
268.6735185882
 31
0.0
  0
LWPOLYLINE
  5
7A
330
1F
100
AcDbEntity
  8
BEZUGSACHSEN
  6
DOT_CENTER
 62
     7
100
AcDbPolyline
 90
        2
 70
     0
 43
0.25
 10
217.283859743
 20
316.4566402234
 10
217.283859743
 20
291.5935397497
  0
LWPOLYLINE
  5
7B
330
1F
100
AcDbEntity
  8
BEZUGSACHSEN
  6
DASHED
 62
     8
100
AcDbPolyline
 90
        2
 70
     0
 43
0.35
 10
210.283859743
 20
297.4566402234
 10
210.283859743
 20
313.4566402234
  0
LINE
  5
7C
330
1F
100
AcDbEntity
  8
0
  6
Continuous
 62
     7
100
AcDbLine
 10
156.9879132635
 20
318.1689570726
 30
0.0
 11
160.383859743
 21
318.1689570726
 31
0.0
  0
LINE
  5
7D
330
1F
100
AcDbEntity
  8
0
  6
Continuous
 62
     7
100
AcDbLine
 10
146.483859743
 20
318.1689570726
 30
0.0
 11
149.9298062226
 21
318.1689570726
 31
0.0
  0
LINE
  5
7E
330
1F
100
AcDbEntity
  8
0
  6
Continuous
 62
     7
100
AcDbLine
 10
152.296359743
 20
314.2594385847
 30
0.0
 11
154.621359743
 21
314.2594385847
 31
0.0
  0
LINE
  5
7F
330
1F
100
AcDbEntity
  8
0
  6
Continuous
 62
     7
100
AcDbLine
 10
224.283859743
 20
313.4566402234
 30
0.0
 11
229.0159105506
 21
313.4566402234
 31
0.0
  0
LINE
  5
80
330
1F
100
AcDbEntity
  8
0
  6
Continuous
 62
     7
100
AcDbLine
 10
178.333859743
 20
313.4566402234
 30
0.0
 11
210.283859743
 21
313.4566402234
 31
0.0
  0
LINE
  5
81
330
1F
100
AcDbEntity
  8
BEZUGSACHSEN
  6
Continuous
 62
     7
100
AcDbLine
 10
210.283859743
 20
313.4566402234
 30
0.0
 11
178.333859743
 21
313.4566402234
 31
0.0
  0
LINE
  5
82
330
1F
100
AcDbEntity
  8
BEZUGSACHSEN
  6
Continuous
 62
     7
100
AcDbLine
 10
229.0159105506
 20
313.4566402234
 30
0.0
 11
224.283859743
 21
313.4566402234
 31
0.0
  0
LINE
  5
83
330
1F
100
AcDbEntity
  8
0
  6
Continuous
 62
     7
100
AcDbLine
 10
169.483859743
 20
311.4566402234
 30
0.0
 11
176.333859743
 21
311.4566402234
 31
0.0
  0
LINE
  5
84
330
1F
100
AcDbEntity
  8
BEZUGSACHSEN
  6
Continuous
 62
     7
100
AcDbLine
 10
176.333859743
 20
311.4566402234
 30
0.0
 11
162.383859743
 21
311.4566402234
 31
0.0
  0
LINE
  5
85
330
1F
100
AcDbEntity
  8
0
  6
Continuous
 62
     7
100
AcDbLine
 10
145.483859743
 20
310.0066402234
 30
0.0
 11
145.429573759
 21
310.0066402234
 31
0.0
  0
LINE
  5
86
330
1F
100
AcDbEntity
  8
0
  6
Continuous
 62
     7
100
AcDbLine
 10
144.483859743
 20
309.3316402234
 30
0.0
 11
142.833859743
 21
309.3316402234
 31
0.0
  0
LINE
  5
87
330
1F
100
AcDbEntity
  8
0
  6
Continuous
 62
     7
100
AcDbLine
 10
141.7941774098
 20
309.6102222649
 30
0.0
 11
74.69675700729996
 21
299.8462431246
 31
0.0
  0
LWPOLYLINE
  5
88
330
1F
100
AcDbEntity
  8
DEFAULT_2
  6
DASHED
 62
     8
100
AcDbPolyline
 90
        2
 70
     0
 43
0.35
 10
182.183859743
 20
297.4566402234
 10
182.183859743
 20
277.4566402234
  0
LINE
  5
89
330
1F
100
AcDbEntity
  8
RUNDUNGEN
  6
Continuous
 62
     9
100
AcDbLine
 10
178.333859743
 20
261.4566402234
 30
0.0
 11
178.333859743
 21
313.4566402234
 31
0.0
  0
LINE
  5
8A
330
1F
100
AcDbEntity
  8
RUNDUNGEN
  6
Continuous
 62
     7
100
AcDbLine
 10
177.333859743
 20
312.4566402234
 30
0.0
 11
177.333859743
 21
262.4566402234
 31
0.0
  0
LINE
  5
8B
330
1F
100
AcDbEntity
  8
0
  6
Continuous
 62
     7
100
AcDbLine
 10
142.833859743
 20
309.3316402234
 30
0.0
 11
141.7941774098
 21
309.6102222649
 31
0.0
  0
LINE
  5
8C
330
1F
100
AcDbEntity
  8
RUNDUNGEN
  6
Continuous
 62
     9
100
AcDbLine
 10
176.333859743
 20
311.4566402234
 30
0.0
 11
176.333859743
 21
263.4566402234
 31
0.0
  0
LWPOLYLINE
  5
8D
330
1F
100
AcDbEntity
  8
DEFAULT_2
  6
DASHED
 62
     8
100
AcDbPolyline
 90
        2
 70
     0
 43
0.35
 10
210.283859743
 20
297.4566402234
 10
242.283859743
 20
297.4566402234
  0
LWPOLYLINE
  5
8E
330
1F
100
AcDbEntity
  8
DEFAULT_2
  6
DASHED
 62
     8
100
AcDbPolyline
 90
        2
 70
     0
 43
0.35
 10
182.183859743
 20
297.4566402234
 10
210.283859743
 20
297.4566402234
  0
LINE
  5
8F
330
1F
100
AcDbEntity
  8
RUNDUNGEN
  6
Continuous
 62
     9
100
AcDbLine
 10
162.383859743
 20
311.4566402234
 30
0.0
 11
162.383859743
 21
263.456640233
 31
0.0
  0
LINE
  5
90
330
1F
100
AcDbEntity
  8
0
  6
Continuous
 62
     7
100
AcDbLine
 10
161.383859743
 20
317.1335909806
 30
0.0
 11
161.383859743
 21
257.7796894661
 31
0.0
  0
LINE
  5
91
330
1F
100
AcDbEntity
  8
0
  6
Continuous
 62
     9
100
AcDbLine
 10
160.383859743
 20
318.1689570726
 30
0.0
 11
160.383859743
 21
256.7443233741
 31
0.0
  0
LWPOLYLINE
  5
92
330
1F
100
AcDbEntity
  8
TEIL_STARTBEZUEGE
  6
DOT_CENTER
 62
     7
100
AcDbPolyline
 90
        2
 70
     0
 43
0.25
 10
245.283859743
 20
287.4566402234
 10
70.88385974300002
 20
287.4566402234
  0
LINE
  5
93
330
1F
100
AcDbEntity
  8
0
  6
Continuous
 62
     7
100
AcDbLine
 10
156.9879132635
 20
318.1689570726
 30
0.0
 11
156.9879132635
 21
256.7443233741
 31
0.0
  0
LINE
  5
94
330
1F
100
AcDbEntity
  8
0
  6
Continuous
 62
     7
100
AcDbLine
 10
155.371359743
 20
315.2634584258
 30
0.0
 11
155.371359743
 21
259.6498220209
 31
0.0
  0
LINE
  5
95
330
1F
100
AcDbEntity
  8
0
  6
Continuous
 62
     9
100
AcDbLine
 10
154.621359743
 20
314.2594385847
 30
0.0
 11
154.621359743
 21
260.653841862
 31
0.0
  0
LWPOLYLINE
  5
96
330
1F
100
AcDbEntity
  8
DEFAULT_2
  6
DASHED
 62
     8
100
AcDbPolyline
 90
        2
 70
     0
 43
0.35
 10
242.283859743
 20
277.4566402234
 10
182.183859743
 20
277.4566402234
  0
LINE
  5
97
330
1F
100
AcDbEntity
  8
0
  6
Continuous
 62
     9
100
AcDbLine
 10
152.296359743
 20
314.2594385847
 30
0.0
 11
152.296359743
 21
260.653841862
 31
0.0
  0
LINE
  5
98
330
1F
100
AcDbEntity
  8
0
  6
Continuous
 62
     7
100
AcDbLine
 10
151.546359743
 20
315.2634584258
 30
0.0
 11
151.546359743
 21
259.6498220209
 31
0.0
  0
LINE
  5
99
330
1F
100
AcDbEntity
  8
0
  6
Continuous
 62
     7
100
AcDbLine
 10
149.9298062226
 20
318.1689570726
 30
0.0
 11
149.9298062226
 21
256.7443233741
 31
0.0
  0
LINE
  5
9A
330
1F
100
AcDbEntity
  8
0
  6
Continuous
 62
     9
100
AcDbLine
 10
146.483859743
 20
318.1689570726
 30
0.0
 11
146.483859743
 21
256.7443233741
 31
0.0
  0
LINE
  5
9B
330
1F
100
AcDbEntity
  8
0
  6
Continuous
 62
     7
100
AcDbLine
 10
145.483859743
 20
317.1335909806
 30
0.0
 11
145.483859743
 21
257.7796894661
 31
0.0
  0
LINE
  5
9C
330
1F
100
AcDbEntity
  8
0
  6
Continuous
 62
     9
100
AcDbLine
 10
144.483859743
 20
309.3316402234
 30
0.0
 11
144.483859743
 21
265.5816402234
 31
0.0
  0
LINE
  5
9D
330
1F
100
AcDbEntity
  8
0
  6
Continuous
 62
     7
100
AcDbLine
 10
142.833859743
 20
309.3316402234
 30
0.0
 11
142.833859743
 21
265.5816402234
 31
0.0
  0
LWPOLYLINE
  5
9E
330
1F
100
AcDbEntity
  8
TEIL_STARTBEZUEGE
  6
DOT_CENTER
 62
     7
100
AcDbPolyline
 90
        2
 70
     0
 43
0.25
 10
142.283859743
 20
260.653841862
 10
142.283859743
 20
314.2594385847
  0
LINE
  5
9F
330
1F
100
AcDbEntity
  8
0
  6
Continuous
 62
     7
100
AcDbLine
 10
141.7941774098
 20
309.6102222649
 30
0.0
 11
141.7941774098
 21
265.3030581818
 31
0.0
  0
LINE
  5
A0
330
1F
100
AcDbEntity
  8
0
  6
Continuous
 62
     7
100
AcDbLine
 10
144.483859743
 20
265.5816402234
 30
0.0
 11
142.833859743
 21
265.5816402234
 31
0.0
  0
LINE
  5
A1
330
1F
100
AcDbEntity
  8
0
  6
Continuous
 62
     7
100
AcDbLine
 10
142.833859743
 20
265.5816402234
 30
0.0
 11
141.7941774098
 21
265.3030581818
 31
0.0
  0
LINE
  5
A2
330
1F
100
AcDbEntity
  8
0
  6
Continuous
 62
     7
100
AcDbLine
 10
141.7941774098
 20
265.3030581818
 30
0.0
 11
74.69675700729996
 21
275.0670373221001
 31
0.0
  0
LINE
  5
A3
330
1F
100
AcDbEntity
  8
0
  6
Continuous
 62
     7
100
AcDbLine
 10
162.383859743
 20
263.4566402234
 30
0.0
 11
176.333859743
 21
263.4566402234
 31
0.0
  0
LINE
  5
A4
330
1F
100
AcDbEntity
  8
RUNDUNGEN
  6
Continuous
 62
     7
100
AcDbLine
 10
161.3939063559
 20
262.6066402234
 30
0.0
 11
161.383859743
 21
262.6066402234
 31
0.0
  0
LINE
  5
A5
330
1F
100
AcDbEntity
  8
0
  6
Continuous
 62
     7
100
AcDbLine
 10
178.333859743
 20
261.4566402234
 30
0.0
 11
229.0159105506
 21
261.4566402234
 31
0.0
  0
LINE
  5
A6
330
1F
100
AcDbEntity
  8
0
  6
Continuous
 62
     7
100
AcDbLine
 10
152.296359743
 20
260.653841862
 30
0.0
 11
154.621359743
 21
260.653841862
 31
0.0
  0
LINE
  5
A7
330
1F
100
AcDbEntity
  8
0
  6
Continuous
 62
     7
100
AcDbLine
 10
156.9879132635
 20
256.7443233741
 30
0.0
 11
160.383859743
 21
256.7443233741
 31
0.0
  0
LINE
  5
A8
330
1F
100
AcDbEntity
  8
0
  6
Continuous
 62
     7
100
AcDbLine
 10
146.483859743
 20
256.7443233741
 30
0.0
 11
149.9298062226
 21
256.7443233741
 31
0.0
  0
LINE
  5
A9
330
1F
100
AcDbEntity
  8
0
  6
Continuous
 62
     9
100
AcDbLine
 10
74.69675700729996
 20
299.8462431246
 30
0.0
 11
74.69675700729996
 21
275.0670373221001
 31
0.0
  0
LINE
  5
AA
330
1F
100
AcDbEntity
  8
0
  6
Continuous
 62
     7
100
AcDbLine
 10
73.88385974299996
 20
298.9061884242
 30
0.0
 11
73.88385974299996
 21
276.0070920225
 31
0.0
  0
LINE
  5
AB
330
1F
100
AcDbEntity
  8
RUNDUNGEN
  6
Continuous
 62
     7
100
AcDbLine
 10
161.383859743
 20
312.3066402233999
 30
0.0
 11
161.3939063559
 21
312.3066402233999
 31
0.0
  0
ARC
  5
AC
330
1F
100
AcDbEntity
  8
RUNDUNGEN
  6
Continuous
 62
     7
100
AcDbCircle
 10
176.333859743
 20
312.4566402234
 30
0.0
 40
1.0
100
AcDbArc
 50
270.0
 51
0.0
  0
ARC
  5
AD
330
1F
100
AcDbEntity
  8
RUNDUNGEN
  6
Continuous
 62
     7
100
AcDbCircle
 10
229.0159105506
 20
312.4566402234
 30
0.0
 40
0.9999999999268803
100
AcDbArc
 50
59.99999999758122
 51
90.0
  0
ARC
  5
AE
330
1F
100
AcDbEntity
  8
RUNDUNGEN
  6
Continuous
 62
     7
100
AcDbCircle
 10
241.283859743
 20
305.3737364547
 30
0.0
 40
1.0
100
AcDbArc
 50
0.0
 51
60.00000000044565
  0
ARC
  5
AF
330
1F
100
AcDbEntity
  8
RUNDUNGEN
  6
Continuous
 62
     7
100
AcDbCircle
 10
178.333859743
 20
312.4566402234
 30
0.0
 40
1.0
100
AcDbArc
 50
90.0
 51
180.0
  0
ARC
  5
B0
330
1F
100
AcDbEntity
  8
0
  6
Continuous
 62
     7
100
AcDbCircle
 10
1119.5090745386
 20
794.1717137753
 30
0.0
 40
1102.395204024394
100
AcDbArc
 50
209.0041652430567
 51
209.1769749559896
  0
ARC
  5
B1
330
1F
100
AcDbEntity
  8
RUNDUNGEN
  6
Continuous
 62
     7
100
AcDbCircle
 10
162.383859743
 20
262.4566402234
 30
0.0
 40
1.0
100
AcDbArc
 50
90.0
 51
172.3370687055036
  0
ARC
  5
B2
330
1F
100
AcDbEntity
  8
RUNDUNGEN
  6
Continuous
 62
     7
100
AcDbCircle
 10
176.333859743
 20
262.4566402234
 30
0.0
 40
1.0
100
AcDbArc
 50
0.0
 51
90.0
  0
ARC
  5
B3
330
1F
100
AcDbEntity
  8
RUNDUNGEN
  6
Continuous
 62
     7
100
AcDbCircle
 10
229.0159105506
 20
262.4566402234
 30
0.0
 40
1.0
100
AcDbArc
 50
270.0
 51
299.9999999995543
  0
ARC
  5
B4
330
1F
100
AcDbEntity
  8
RUNDUNGEN
  6
Continuous
 62
     7
100
AcDbCircle
 10
241.283859743
 20
269.539543992
 30
0.0
 40
1.000000000013472
100
AcDbArc
 50
299.9999999995543
 51
0.0
  0
ARC
  5
B5
330
1F
100
AcDbEntity
  8
RUNDUNGEN
  6
Continuous
 62
     7
100
AcDbCircle
 10
178.333859743
 20
262.4566402234
 30
0.0
 40
1.0
100
AcDbArc
 50
180.0
 51
270.0
  0
ARC
  5
B6
330
1F
100
AcDbEntity
  8
0
  6
Continuous
 62
     7
100
AcDbCircle
 10
1119.5090745575
 20
-219.2584333391
 30
0.0
 40
1102.395204045936
100
AcDbArc
 50
150.8230250440129
 51
150.9958347569423
  0
ARC
  5
B7
330
1F
100
AcDbEntity
  8
0
  6
Continuous
 62
     7
100
AcDbCircle
 10
74.83385974299996
 20
298.9061884242
 30
0.0
 40
0.9499999999371047
100
AcDbArc
 50
98.29782682802879
 51
180.0
  0
ARC
  5
B8
330
1F
100
AcDbEntity
  8
0
  6
Continuous
 62
     7
100
AcDbCircle
 10
144.483859743
 20
310.3316402234
 30
0.0
 40
1.0
100
AcDbArc
 50
270.0
 51
341.0344250117311
  0
ARC
  5
B9
330
1F
100
AcDbEntity
  8
0
  6
Continuous
 62
     7
100
AcDbCircle
 10
-812.5913550582
 20
794.1717137784
 30
0.0
 40
1102.395204030803
100
AcDbArc
 50
330.8230250440142
 51
330.9958347569435
  0
ARC
  5
BA
330
1F
100
AcDbEntity
  8
0
  6
Continuous
 62
     7
100
AcDbCircle
 10
74.83385974299996
 20
276.0070920225
 30
0.0
 40
0.9500000000000028
100
AcDbArc
 50
180.0
 51
261.7021731719707
  0
ARC
  5
BB
330
1F
100
AcDbEntity
  8
0
  6
Continuous
 62
     7
100
AcDbCircle
 10
144.483859743
 20
264.5816402234
 30
0.0
 40
1.0
100
AcDbArc
 50
0.0
 51
90.0
  0
ARC
  5
BC
330
1F
100
AcDbEntity
  8
0
  6
Continuous
 62
     7
100
AcDbCircle
 10
-812.5913550771
 20
-219.2584333423
 30
0.0
 40
1102.395204052464
100
AcDbArc
 50
29.00416524306206
 51
29.17697495598792
  0
ARC
  5
BD
330
1F
100
AcDbEntity
  8
RUNDUNGEN
  6
Continuous
 62
     7
100
AcDbCircle
 10
162.383859743
 20
312.4566402234
 30
0.0
 40
0.9999999999997546
100
AcDbArc
 50
187.6629312944996
 51
270.0
  0
SPLINE
  5
BE
330
1F
100
AcDbEntity
  8
BEZUGSACHSEN
  6
Continuous
 62
     7
100
AcDbSpline
210
0.0
220
0.0
230
1.0
 70
     8
 71
     3
 72
    23
 73
    19
 74
    17
 42
0.0000000001
 43
0.0000000001
 44
0.00000001
 40
0.0
 40
0.0
 40
0.0
 40
0.0
 40
0.2769076413229997
 40
0.553826125385593
 40
1.329544196157471
 40
2.105314316697977
 40
3.249907572058594
 40
4.39458315812769
 40
5.740073977472853
 40
7.085598907263622
 40
8.431128530160883
 40
9.776624051728568
 40
10.92131351737076
 40
12.0659206452043
 40
12.84171114660483
 40
13.61744959782671
 40
13.894376234651
 40
14.17129202657225
 40
14.17129202657225
 40
14.17129202657225
 40
14.17129202657225
 10
224.283859743
 20
313.4566402234
 30
0.0
 10
224.1946691071113
 20
313.4328720838221
 30
0.0
 10
224.0162843429391
 20
313.3853348739885
 30
0.0
 10
223.5867730318548
 20
313.2760852457757
 30
0.0
 10
222.9935989272235
 20
313.1357669770999
 30
0.0
 10
222.113686114916
 20
312.952510810962
 30
0.0
 10
221.1066105941374
 20
312.7785233445926
 30
0.0
 10
219.9046387209523
 20
312.6232962247341
 30
0.0
 10
218.6295729963597
 20
312.5208939949422
 30
0.0
 10
217.2839053149857
 20
312.4844665671044
 30
0.0
 10
215.9382359330019
 20
312.5208893061952
 30
0.0
 10
214.6631621228627
 20
312.6232878195892
 30
0.0
 10
213.4611790154082
 20
312.7785125088585
 30
0.0
 10
212.4540872275697
 20
312.9525001574251
 30
0.0
 10
211.574156282515
 20
313.1357586239641
 30
0.0
 10
210.9809662010116
 20
313.276080208675
 30
0.0
 10
210.5514430123422
 20
313.3853327473931
 30
0.0
 10
210.3730530017502
 20
313.4328713750189
 30
0.0
 10
210.283859743
 20
313.4566402234
 30
0.0
 11
224.283859743
 21
313.4566402234
 31
0.0
 11
224.0161554347396
 21
313.3858430118595
 31
0.0
 11
223.7478112238009
 21
313.3174673490019
 31
0.0
 11
222.9928610735871
 21
313.1391732211848
 31
0.0
 11
222.2333680656369
 21
312.9810920686136
 31
0.0
 11
221.1054246820452
 21
312.7865735768735
 31
0.0
 11
219.9701339398378
 21
312.6402960051109
 31
0.0
 11
218.6289453908763
 21
312.5327840472795
 31
0.0
 11
217.283906857361
 21
312.4966083641843
 31
0.0
 11
215.9388635048
 21
312.5327794275552
 31
0.0
 11
214.5976699015224
 21
312.6402871811634
 31
0.0
 11
213.462364934484
 21
312.7865629637461
 31
0.0
 11
212.334407394709
 21
312.9810809977484
 31
0.0
 11
211.574894176368
 21
313.1391650678776
 31
0.0
 11
210.8199240548369
 21
313.3174633020233
 31
0.0
 11
210.5515719277386
 21
313.3858409157916
 31
0.0
 11
210.283859743
 21
313.4566402234
 31
0.0
  0
SPLINE
  5
BF
330
1F
100
AcDbEntity
  8
0
  6
Continuous
 62
     7
100
AcDbSpline
210
0.0
220
0.0
230
1.0
 70
     8
 71
     3
 72
    15
 73
    11
 74
     9
 42
0.0000000001
 43
0.0000000001
 44
0.00000001
 40
0.0
 40
0.0
 40
0.0
 40
0.0
 40
0.1499520084980209
 40
0.3004340248444717
 40
0.4507251465237285
 40
0.6008598893960297
 40
0.7510035493374334
 40
0.9012893510643247
 40
1.05183175732658
 40
1.201718119733115
 40
1.201718119733115
 40
1.201718119733115
 40
1.201718119733115
 10
155.371359743
 20
315.0420077214
 30
0.0
 10
155.3686521290144
 20
314.9919583731954
 30
0.0
 10
155.3632273309367
 20
314.8916827765388
 30
0.0
 10
155.3204455502214
 20
314.7462995668821
 30
0.0
 10
155.2530366582346
 20
314.6111540150534
 30
0.0
 10
155.1608304071735
 20
314.4913641465973
 30
0.0
 10
155.0471334910468
 20
314.3916510111801
 30
0.0
 10
154.9157411836743
 20
314.3169416402818
 30
0.0
 10
154.7716990742381
 20
314.2687991674616
 30
0.0
 10
154.6713998458766
 20
314.2625542332831
 30
0.0
 10
154.621359743
 20
314.2594385847
 30
0.0
 11
155.371359743
 21
315.0420077214
 31
0.0
 11
155.3574843266916
 21
314.8926990556272
 31
0.0
 11
155.3163183014784
 21
314.7479572316376
 31
0.0
 11
155.2488670067732
 21
314.6136525627008
 31
0.0
 11
155.1572516511674
 21
314.4947111164571
 31
0.0
 11
155.0442421752003
 21
314.395857806132
 31
0.0
 11
154.9136962894079
 21
314.3214024913225
 31
0.0
 11
154.7704131337252
 21
314.2752185830768
 31
0.0
 11
154.621359743
 21
314.2594385847
 31
0.0
  0
SPLINE
  5
C0
330
1F
100
AcDbEntity
  8
0
  6
Continuous
 62
     7
100
AcDbSpline
210
0.0
220
0.0
230
1.0
 70
     8
 71
     3
 72
    15
 73
    11
 74
     9
 42
0.0000000001
 43
0.0000000001
 44
0.00000001
 40
0.0
 40
0.0
 40
0.0
 40
0.0
 40
0.1498890555170128
 40
0.3004342038689987
 40
0.4507212547700095
 40
0.6008661228164512
 40
0.750999413296479
 40
0.9012890816606799
 40
1.051768580349935
 40
1.201718088880012
 40
1.201718088880012
 40
1.201718088880012
 40
1.201718088880012
 10
154.621359743
 20
260.653841862
 30
0.0
 10
154.6714007471915
 20
260.6507260839778
 30
0.0
 10
154.7717017945445
 20
260.6444808895821
 30
0.0
 10
154.9157457917957
 20
260.5963367811099
 30
0.0
 10
155.0471390358898
 20
260.5216255340417
 30
0.0
 10
155.1608353138772
 20
260.4219111228084
 30
0.0
 10
155.2530400803682
 20
260.3021208560389
 30
0.0
 10
155.3204471385498
 20
260.1669764348095
 30
0.0
 10
155.3632276020086
 20
260.0215951553141
 30
0.0
 10
155.3686522192121
 20
259.9213212371926
 30
0.0
 10
155.371359743
 20
259.8712727253
 30
0.0
 11
154.621359743
 21
260.653841862
 31
0.0
 11
154.7704157763134
 21
260.638061244247
 31
0.0
 11
154.9137012701825
 21
260.5918756519158
 31
0.0
 11
155.0442476546495
 21
260.5174186900443
 31
0.0
 11
155.1572571277687
 21
260.418563541539
 31
0.0
 11
155.2488704886572
 21
260.2996223921538
 31
0.0
 11
155.3163201277532
 21
260.1653185180368
 31
0.0
 11
155.3574847872748
 21
260.0205789231353
 31
0.0
 11
155.371359743
 21
259.8712727253
 31
0.0
  0
SPLINE
  5
C1
330
1F
100
AcDbEntity
  8
0
  6
Continuous
 62
     7
100
AcDbSpline
210
0.0
220
0.0
230
1.0
 70
     8
 71
     3
 72
    15
 73
    11
 74
     9
 42
0.0000000001
 43
0.0000000001
 44
0.00000001
 40
0.0
 40
0.0
 40
0.0
 40
0.0
 40
0.1499521789484398
 40
0.3004343667545093
 40
0.4507255054344596
 40
0.6008602661863449
 40
0.7510040236474532
 40
0.9012899196665004
 40
1.051832040757712
 40
1.201718121771762
 40
1.201718121771762
 40
1.201718121771762
 40
1.201718121771762
 10
151.546359743
 20
259.8712727253
 30
0.0
 10
151.5490673634341
 20
259.921322130517
 30
0.0
 10
151.5544921744388
 20
260.0215978415353
 30
0.0
 10
151.5972740385258
 20
260.1669811558328
 30
0.0
 10
151.6646830221438
 20
260.3021267390909
 30
0.0
 10
151.7568893578629
 20
260.4219165987077
 30
0.0
 10
151.8705863801426
 20
260.5216297210218
 30
0.0
 10
152.0019787118931
 20
260.596338991519
 30
0.0
 10
152.1460206954825
 20
260.6444813192635
 30
0.0
 10
152.2463197342761
 20
260.6507262267214
 30
0.0
 10
152.296359743
 20
260.653841862
 30
0.0
 11
151.546359743
 21
259.8712727253
 31
0.0
 11
151.5602351916896
 21
260.0205815592485
 31
0.0
 11
151.6014013106533
 21
260.1653235348339
 31
0.0
 11
151.6688526734217
 21
260.2996281886118
 31
0.0
 11
151.7604680963264
 21
260.4185696055868
 31
0.0
 11
151.8734776984361
 21
260.5174229198233
 31
0.0
 11
152.0040237162846
 21
260.5918781934185
 31
0.0
 11
152.147306628473
 21
260.6380619275408
 31
0.0
 11
152.296359743
 21
260.653841862
 31
0.0
  0
SPLINE
  5
C2
330
1F
100
AcDbEntity
  8
0
  6
Continuous
 62
     7
100
AcDbSpline
210
0.0
220
0.0
230
1.0
 70
     8
 71
     3
 72
    15
 73
    11
 74
     9
 42
0.0000000001
 43
0.0000000001
 44
0.00000001
 40
0.0
 40
0.0
 40
0.0
 40
0.0
 40
0.1498887297219362
 40
0.3004335478943509
 40
0.4507207372845223
 40
0.6008657480126416
 40
0.7509990952153267
 40
0.9012888186359473
 40
1.051768450163563
 40
1.201718090915638
 40
1.201718090915638
 40
1.201718090915638
 40
1.201718090915638
 10
152.296359743
 20
314.2594385847
 30
0.0
 10
152.2463188478156
 20
314.2625543472807
 30
0.0
 10
152.1460180199419
 20
314.2687995106648
 30
0.0
 10
152.0019741589982
 20
314.3169434542236
 30
0.0
 10
151.8705808710673
 20
314.3916545985594
 30
0.0
 10
151.7568844522018
 20
314.4913690230122
 30
0.0
 10
151.6646795781371
 20
314.6111593154132
 30
0.0
 10
151.597272430841
 20
314.7463037843299
 30
0.0
 10
151.5544918988336
 20
314.8916851584928
 30
0.0
 10
151.5490672717286
 20
314.9919591652783
 30
0.0
 10
151.546359743
 20
315.0420077214
 30
0.0
 11
152.296359743
 21
314.2594385847
 31
0.0
 11
152.1473040294565
 21
314.2752191283437
 31
0.0
 11
152.004018817551
 21
314.3214045191916
 31
0.0
 11
151.8734722565798
 21
314.3958614511279
 31
0.0
 11
151.7604626210648
 21
314.4947166306955
 31
0.0
 11
151.6688491716119
 21
314.6136577834628
 31
0.0
 11
151.6013994561227
 21
314.7479616808235
 31
0.0
 11
151.5602347236796
 21
314.892701393092
 31
0.0
 11
151.546359743
 21
315.0420077214
 31
0.0
  0
SPLINE
  5
C3
330
1F
100
AcDbEntity
  8
0
  6
Continuous
 62
     7
100
AcDbSpline
210
0.0
220
0.0
230
1.0
 70
     8
 71
     3
 72
    15
 73
    11
 74
     9
 42
0.0000000001
 43
0.0000000001
 44
0.00000001
 40
0.0
 40
0.0
 40
0.0
 40
0.0
 40
0.1991719801557306
 40
0.3990534797348393
 40
0.5986806086127778
 40
0.7980986751277882
 40
0.997525147095475
 40
1.19714768079487
 40
1.397095016958911
 40
1.596192537841107
 40
1.596192537841107
 40
1.596192537841107
 40
1.596192537841107
 10
145.483859743
 20
257.7796894661
 30
0.0
 10
145.4874848367467
 20
257.7132107002694
 30
0.0
 10
145.4947479380768
 20
257.5800163482704
 30
0.0
 10
145.5520400709983
 20
257.3870132379327
 30
0.0
 10
145.6423469844892
 20
257.2078705454481
 30
0.0
 10
145.7657052883471
 20
257.0494241703402
 30
0.0
 10
145.917556969725
 20
256.9179334789662
 30
0.0
 10
146.0926332983706
 20
256.8197076054854
 30
0.0
 10
146.2841729351998
 20
256.7565600140109
 30
0.0
 10
146.4173920425779
 20
256.7483964589709
 30
0.0
 10
146.483859743
 20
256.7443233741
 30
0.0
 11
145.483859743
 21
257.7796894661
 31
0.0
 11
145.5024388683717
 21
257.5813859265966
 31
0.0
 11
145.5575730471264
 21
257.3892587910664
 31
0.0
 11
145.6479051801594
 21
257.2112388586831
 31
0.0
 11
145.7704508206411
 21
257.0539171143134
 31
0.0
 11
145.9213491197485
 21
256.9235306846209
 31
0.0
 11
146.0952969521124
 21
256.8255954632935
 31
0.0
 11
146.2858375831577
 21
256.7649884904276
 31
0.0
 11
146.483859743
 21
256.7443233741
 31
0.0
  0
SPLINE
  5
C4
330
1F
100
AcDbEntity
  8
0
  6
Continuous
 62
     7
100
AcDbSpline
210
0.0
220
0.0
230
1.0
 70
     8
 71
     3
 72
    15
 73
    11
 74
     9
 42
0.0000000001
 43
0.0000000001
 44
0.00000001
 40
0.0
 40
0.0
 40
0.0
 40
0.0
 40
0.1991002753653465
 40
0.3990504135793569
 40
0.5986744170903986
 40
0.7981023202704478
 40
0.9975187549648175
 40
1.197144245660816
 40
1.397023128021984
 40
1.59619251279587
 40
1.59619251279587
 40
1.59619251279587
 40
1.59619251279587
 10
146.483859743
 20
318.1689570726
 30
0.0
 10
146.4173911207346
 20
318.164883858575
 30
0.0
 10
146.2841701537803
 20
318.1567200439431
 30
0.0
 10
146.0926285149089
 20
318.0935707824268
 30
0.0
 10
145.9175511136498
 20
317.9953429089057
 30
0.0
 10
145.7657000551937
 20
317.863850806446
 30
0.0
 10
145.6423433320257
 20
317.7054040128068
 30
0.0
 10
145.5520383757834
 20
317.526262558377
 30
0.0
 10
145.4947476474475
 20
317.3332614862722
 30
0.0
 10
145.4874847400615
 20
317.2000688781434
 30
0.0
 10
145.483859743
 20
317.1335909806
 30
0.0
 11
146.483859743
 21
318.1689570726
 31
0.0
 11
146.2858348785603
 21
318.1482913349124
 31
0.0
 11
146.095291848683
 21
318.0876826594855
 31
0.0
 11
145.9213433398884
 21
317.9897456436748
 31
0.0
 11
145.7704449236147
 21
317.8593571605451
 31
0.0
 11
145.6479014587671
 21
317.702035789939
 31
0.0
 11
145.5575711188441
 21
317.5240167847036
 31
0.0
 11
145.5024383784848
 21
317.331891959253
 31
0.0
 11
145.483859743
 21
317.1335909806
 31
0.0
  0
SPLINE
  5
C5
330
1F
100
AcDbEntity
  8
0
  6
Continuous
 62
     7
100
AcDbSpline
210
0.0
220
0.0
230
1.0
 70
     8
 71
     3
 72
    15
 73
    11
 74
     9
 42
0.0000000001
 43
0.0000000001
 44
0.00000001
 40
0.0
 40
0.0
 40
0.0
 40
0.0
 40
0.1991000959938488
 40
0.3990500501761822
 40
0.5986741602601915
 40
0.7981021742105257
 40
0.9975186421951423
 40
1.197144165106563
 40
1.397023090630575
 40
1.596192517478149
 40
1.596192517478149
 40
1.596192517478149
 40
1.596192517478149
 10
160.383859743
 20
256.7443233741
 30
0.0
 10
160.4503283052536
 20
256.7483965774975
 30
0.0
 10
160.5835491506282
 20
256.7565603707498
 30
0.0
 10
160.7750907280001
 20
256.8197095309527
 30
0.0
 10
160.9501681676113
 20
256.9179373664348
 30
0.0
 10
161.102019306886
 20
257.0494295055548
 30
0.0
 10
161.2253760807773
 20
257.2078763347143
 30
0.0
 10
161.3156810688395
 20
257.3870178134741
 30
0.0
 10
161.372971829582
 20
257.5800189178367
 30
0.0
 10
161.3802347429576
 20
257.7132115544808
 30
0.0
 10
161.383859743
 20
257.7796894661
 30
0.0
 11
160.383859743
 21
256.7443233741
 31
0.0
 11
160.5818844321298
 21
256.7649890635344
 31
0.0
 11
160.7724273071436
 21
256.8255976186978
 31
0.0
 11
160.9463759362451
 21
256.9235346380548
 31
0.0
 11
161.0972744540929
 21
257.0539231730551
 31
0.0
 11
161.2198179534886
 21
257.2112445589481
 31
0.0
 11
161.310148324341
 21
257.3892635846149
 31
0.0
 11
161.365281094554
 21
257.5813884464034
 31
0.0
 11
161.383859743
 21
257.7796894661
 31
0.0
  0
SPLINE
  5
C6
330
1F
100
AcDbEntity
  8
0
  6
Continuous
 62
     7
100
AcDbSpline
210
0.0
220
0.0
230
1.0
 70
     8
 71
     3
 72
    15
 73
    11
 74
     9
 42
0.0000000001
 43
0.0000000001
 44
0.00000001
 40
0.0
 40
0.0
 40
0.0
 40
0.0
 40
0.1991720574204872
 40
0.3990536357571906
 40
0.5986807643208683
 40
0.7980988308064055
 40
0.9975253742459254
 40
1.197147976121449
 40
1.397095164885382
 40
1.596192542471463
 40
1.596192542471463
 40
1.596192542471463
 40
1.596192542471463
 10
161.383859743
 20
317.1335909806
 30
0.0
 10
161.3802346448355
 20
317.2000697722747
 30
0.0
 10
161.3729715346321
 20
317.3332641764605
 30
0.0
 10
161.3156793551097
 20
317.5262673289402
 30
0.0
 10
161.225372406723
 20
317.705410032231
 30
0.0
 10
161.1020140714675
 20
317.8638564128595
 30
0.0
 10
160.95016233867
 20
317.9953471173797
 30
0.0
 10
160.7750859886677
 20
318.0935729533954
 30
0.0
 10
160.5835464055986
 20
318.1567204594425
 30
0.0
 10
160.4503273954783
 20
318.1648839966104
 30
0.0
 10
160.383859743
 20
318.1689570726
 30
0.0
 11
161.383859743
 21
317.1335909806
 31
0.0
 11
161.3652805976493
 21
317.3318945958347
 31
0.0
 11
161.3101463695845
 21
317.5240217991508
 31
0.0
 11
161.2198142121547
 21
317.7020417188021
 31
0.0
 11
161.0972685548873
 21
317.8593634500592
 31
0.0
 11
160.9463701851393
 21
317.9897499073147
 31
0.0
 11
160.7724222705271
 21
318.0876851215208
 31
0.0
 11
160.5818817629382
 21
318.1482919962329
 31
0.0
 11
160.383859743
 21
318.1689570726
 31
0.0
  0
SPLINE
  5
C7
330
1F
100
AcDbEntity
  8
0
  6
Continuous
 62
     2
100
AcDbSpline
210
0.0
220
0.0
230
1.0
 70
     8
 71
     3
 72
    47
 73
    43
 74
    41
 42
0.0000000001
 43
0.0000000001
 44
0.00000001
 40
0.0
 40
0.0
 40
0.0
 40
0.0
 40
0.0261345159520008
 40
0.1038008332739405
 40
0.2318402500252626
 40
0.4088823894504266
 40
0.6335003449337944
 40
0.904241207434876
 40
1.219638357298204
 40
1.578162296530527
 40
1.978070417902833
 40
2.416762581648817
 40
2.891369381838906
 40
3.398692782176388
 40
3.935194584177787
 40
4.496155088914738
 40
5.07661271554018
 40
5.671654002406881
 40
6.276771908076593
 40
6.888916139098868
 40
7.505505228098769
 40
8.124309492396193
 40
8.743181102944629
 40
9.359921461294052
 40
9.972235043404208
 40
10.57751453684027
 40
11.17270956444673
 40
11.75337674416174
 40
12.31468592402105
 40
12.85177377793644
 40
13.35997846548528
 40
13.83564148627394
 40
14.27541792766249
 40
14.67636323093159
 40
15.03582669156936
 40
15.35204300598458
 40
15.62347256634538
 40
15.84866171631893
 40
16.02617039378956
 40
16.15456127088545
 40
16.23244826944596
 40
16.25865921590555
 40
16.25865921590555
 40
16.25865921590555
 40
16.25865921590555
 10
209.283859743
 20
313.4566632248
 30
0.0
 10
209.2921845280458
 20
313.4540964542765
 30
0.0
 10
209.325248833739
 20
313.4439017784058
 30
0.0
 10
209.3991653061716
 20
313.4213499161231
 30
0.0
 10
209.5212856996168
 20
313.384417481841
 30
0.0
 10
209.6905582090459
 20
313.3341890847005
 30
0.0
 10
209.9058070364033
 20
313.2717020707098
 30
0.0
 10
210.1659446814534
 20
313.1984464562
 30
0.0
 10
210.469823496354
 20
313.1158928700897
 30
0.0
 10
210.8162811692814
 20
313.0259130322721
 30
0.0
 10
211.2037491707044
 20
312.9304556321952
 30
0.0
 10
211.6302476630776
 20
312.8318340676855
 30
0.0
 10
212.0932715746309
 20
312.7324838152338
 30
0.0
 10
212.5899598280727
 20
312.6349579269836
 30
0.0
 10
213.1167698487598
 20
312.54191689421
 30
0.0
 10
213.669452033657
 20
312.4558182090091
 30
0.0
 10
214.2432314760543
 20
312.3792366909175
 30
0.0
 10
214.8332249390468
 20
312.313974299233
 30
0.0
 10
215.4351281256503
 20
312.2618140134103
 30
0.0
 10
216.0452848845261
 20
312.2237212788064
 30
0.0
 10
216.6607589738967
 20
312.2005754880094
 30
0.0
 10
217.2788613878708
 20
312.1926813897249
 30
0.0
 10
217.8970173414751
 20
312.20032762197
 30
0.0
 10
218.5126299631935
 20
312.2232309918916
 30
0.0
 10
219.1229619912035
 20
312.2610965767886
 30
0.0
 10
219.7250458802683
 20
312.3130431001007
 30
0.0
 10
220.3152373209149
 20
312.3781074132631
 30
0.0
 10
220.8892790082295
 20
312.4545182600384
 30
0.0
 10
221.4423674270891
 20
312.5404876761729
 30
0.0
 10
221.9698026189895
 20
312.6334702775289
 30
0.0
 10
222.4673431633976
 20
312.731022064003
 30
0.0
 10
222.9313764054189
 20
312.8304701731955
 30
0.0
 10
223.3589264204699
 20
312.9292465413856
 30
0.0
 10
223.7474001230456
 20
313.0248875214763
 30
0.0
 10
224.0947707782491
 20
313.1150597285475
 30
0.0
 10
224.3994443563126
 20
313.1977997295083
 30
0.0
 10
224.6602539169602
 20
313.2712261002611
 30
0.0
 10
224.8760581020453
 20
313.3338643108209
 30
0.0
 10
225.0457759197656
 20
313.3842198258944
 30
0.0
 10
225.1682282543844
 20
313.4212507119806
 30
0.0
 10
225.2423516775516
 20
313.4438651093359
 30
0.0
 10
225.2755106144889
 20
313.4540889968081
 30
0.0
 10
225.283859743
 20
313.4566632817
 30
0.0
 11
209.283859743
 21
313.4566632248
 31
0.0
 11
209.3088359996812
 21
313.4489691019625
 31
0.0
 11
209.38311205785
 21
313.426272758
 31
0.0
 11
209.5056777051333
 21
313.3892355557833
 31
0.0
 11
209.6753981509167
 21
313.3388481623667
 31
0.0
 11
209.8911173882812
 21
313.2762507458354
 31
0.0
 11
210.1517191233333
 21
313.2028521742167
 31
0.0
 11
210.4560918266042
 21
313.1201925126792
 31
0.0
 11
210.8031033133
 21
313.0300679150167
 31
0.0
 11
211.1914079077479
 21
312.9344329451041
 31
0.0
 11
211.6188266260833
 21
312.8356197185167
 31
0.0
 11
212.082877943327
 21
312.7360808328937
 31
0.0
 11
212.5807034782333
 21
312.6383732624333
 31
0.0
 11
213.1090320530479
 21
312.545082852502
 31
0.0
 11
213.66331816025
 21
312.4588065565833
 31
0.0
 11
214.2386738536875
 21
312.3820153960459
 31
0.0
 11
214.83011576245
 21
312.3166655556833
 31
0.0
 11
215.4329745003021
 21
312.2644255139771
 31
0.0
 11
216.0439320444667
 21
312.2263277607333
 31
0.0
 11
216.6600852923167
 21
312.203148463125
 31
0.0
 11
217.2788394583667
 21
312.1952744864666
 31
0.0
 11
217.89766408625
 21
312.2029001187625
 31
0.0
 11
218.5139777189333
 21
312.2258386406333
 31
0.0
 11
219.1251190666771
 21
312.2637091557417
 31
0.0
 11
219.7281585095834
 21
312.3157350673
 31
0.0
 11
220.3197772000584
 21
312.3808844799458
 31
0.0
 11
220.8953677098833
 21
312.4575000044667
 31
0.0
 11
221.4500275042646
 21
312.5436423743625
 31
0.0
 11
221.9789622027333
 21
312.6368703078333
 31
0.0
 11
222.4776795616167
 21
312.7346097594125
 31
0.0
 11
222.9427877301
 21
312.8342576442666
 31
0.0
 11
223.3712824019167
 21
312.9332305427041
 31
0.0
 11
223.7606090561333
 21
313.0290527349666
 31
0.0
 11
224.1085408086958
 21
313.1193714766125
 31
0.0
 11
224.4137115377333
 21
313.2022182245333
 31
0.0
 11
224.6749809745375
 21
313.2757864760396
 31
0.0
 11
224.8912515008667
 21
313.3385336887833
 31
0.0
 11
225.0614205605594
 21
313.3890492477792
 31
0.0
 11
225.1843231953083
 21
313.42618628715
 31
0.0
 11
225.2588104448198
 21
313.4489466519313
 31
0.0
 11
225.283859743
 21
313.4566632817
 31
0.0
  0
DIMENSION
  5
D2
330
1F
100
AcDbEntity
  8
1
100
AcDbDimension
  2
*D2
 10
242.283859743
 20
342.787413755676
 30
0.0
 11
173.2838203140633
 21
346.537413755676
 31
0.0
 70
    32
  1
<>
 71
     5
 42
-1.0
 53
0.00013888888889
  3
ME10_DIM_10
100
AcDbAlignedDimension
 13
73.88385974299996
 23
298.9061884242
 33
0.0
 14
242.283859743
 24
305.3737364547
 34
0.0
100
AcDbRotatedDimension
  0
DIMENSION
  5
DD
330
1F
100
AcDbEntity
  8
1
100
AcDbDimension
  2
*D3
 10
242.283859743
 20
335.172210698254
 30
0.0
 11
193.760506374554
 21
338.922210698254
 31
0.0
 70
    32
  1
<>
 71
     5
 42
-1.0
 53
0.00013888888889
  3
ME10_DIM_11
100
AcDbAlignedDimension
 13
142.283859743
 23
314.2594385847
 33
0.0
 14
242.283859743
 24
305.3737364547
 34
0.0
100
AcDbRotatedDimension
  0
DIMENSION
  5
E8
330
1F
100
AcDbEntity
  8
1
100
AcDbDimension
  2
*D4
 10
242.283859743
 20
327.881058834765
 30
0.0
 11
202.6963811289775
 21
331.631058834765
 31
0.0
 70
    32
  1
<>
 71
     5
 42
-1.0
 53
0.00013888888889
  3
ME10_DIM_12
100
AcDbAlignedDimension
 13
161.383859743
 23
317.1335909806
 33
0.0
 14
242.283859743
 24
305.3737364547
 34
0.0
100
AcDbRotatedDimension
  0
DIMENSION
  5
F3
330
1F
100
AcDbEntity
  8
1
100
AcDbDimension
  2
*D5
 10
262.783410682253
 20
313.4566402234
 30
0.0
 11
259.033410682253
 21
287.860736384057
 31
0.0
 70
    32
  1
<>
 71
     5
 42
-1.0
 53
90.0
  3
ME10_DIM_13
100
AcDbAlignedDimension
 13
229.0159105506
 23
261.4566402234
 33
0.0
 14
229.0159105506
 24
313.4566402234
 34
0.0
 50
90.0
100
AcDbRotatedDimension
  0
DIMENSION
  5
FE
330
1F
100
AcDbEntity
  8
1
100
AcDbDimension
  2
*D6
 10
254.034028446066
 20
297.4566402234
 30
0.0
 11
250.284028446066
 21
287.050608399225
 31
0.0
 70
    32
  1
<>
 71
     5
 42
-1.0
 53
90.0
  3
ME10_DIM_14
100
AcDbAlignedDimension
 13
242.283859743
 23
277.4566402234
 33
0.0
 14
242.283859743
 24
297.4566402234
 34
0.0
 50
90.0
100
AcDbRotatedDimension
  0
INSERT
  5
105
330
1F
100
AcDbEntity
  8
1
100
AcDbBlockReference
  2
*D7
 10
0.0
 20
0.0
 30
0.0
  0
ENDSEC
  0
SECTION
  2
OBJECTS
  0
DICTIONARY
  5
C
330
0
100
AcDbDictionary
281
     1
  3
ACAD_GROUP
350
D
  3
ACAD_LAYOUT
350
1A
  3
ACAD_MLEADERSTYLE
350
108
  3
ACAD_MLINESTYLE
350
17
  3
ACAD_PLOTSETTINGS
350
19
  3
ACAD_PLOTSTYLENAME
350
E
  3
ACAD_SCALELIST
350
4A
  3
ACAD_VISUALSTYLE
350
2A
  3
AcDbVariableDictionary
350
106
  0
DICTIONARY
  5
D
102
{ACAD_REACTORS
330
C
102
}
330
C
100
AcDbDictionary
281
     1
  0
DICTIONARY
  5
1A
102
{ACAD_REACTORS
330
C
102
}
330
C
100
AcDbDictionary
281
     1
  3
Layout1
350
1E
  3
Layout2
350
26
  3
Model
350
22
  0
DICTIONARY
  5
108
102
{ACAD_REACTORS
330
C
102
}
330
C
100
AcDbDictionary
281
     1
  0
DICTIONARY
  5
17
102
{ACAD_REACTORS
330
C
102
}
330
C
100
AcDbDictionary
281
     1
  3
Standard
350
18
  0
DICTIONARY
  5
19
102
{ACAD_REACTORS
330
C
102
}
330
C
100
AcDbDictionary
281
     1
  0
ACDBDICTIONARYWDFLT
  5
E
102
{ACAD_REACTORS
330
C
102
}
330
C
100
AcDbDictionary
281
     1
  3
Normal
350
F
100
AcDbDictionaryWithDefault
340
F
  0
DICTIONARY
  5
4A
102
{ACAD_REACTORS
330
C
102
}
330
C
100
AcDbDictionary
281
     1
  3
A0
350
4B
  3
A1
350
4C
  3
A2
350
4D
  3
A3
350
4E
  3
A4
350
4F
  3
A5
350
50
  3
A6
350
51
  3
A7
350
52
  3
A8
350
53
  3
A9
350
54
  3
B0
350
55
  3
B1
350
56
  3
B2
350
57
  3
B3
350
58
  3
B4
350
59
  3
B5
350
5A
  3
B6
350
5B
  3
B7
350
5C
  3
B8
350
5D
  3
B9
350
5E
  3
C0
350
5F
  3
C1
350
60
  3
C2
350
61
  3
C3
350
62
  3
C4
350
63
  3
C5
350
64
  3
C6
350
65
  3
C7
350
66
  3
C8
350
67
  3
C9
350
68
  3
D0
350
69
  3
D1
350
6A
  3
D2
350
6B
  0
DICTIONARY
  5
2A
102
{ACAD_REACTORS
330
C
102
}
330
C
100
AcDbDictionary
281
     1
  3
2dWireframe
350
2F
  3
3D Hidden
350
31
  3
3dWireframe
350
30
  3
Basic
350
32
  3
Brighten
350
36
  3
ColorChange
350
3A
  3
Conceptual
350
34
  3
Dim
350
35
  3
Facepattern
350
39
  3
Flat
350
2B
  3
FlatWithEdges
350
2C
  3
Gouraud
350
2D
  3
GouraudWithEdges
350
2E
  3
Linepattern
350
38
  3
Realistic
350
33
  3
Thicken
350
37
  0
DICTIONARY
  5
106
102
{ACAD_REACTORS
330
C
102
}
330
C
100
AcDbDictionary
281
     1
  3
CANNOSCALE
350
109
  0
LAYOUT
  5
1E
102
{ACAD_REACTORS
330
1A
102
}
330
1A
100
AcDbPlotSettings
  1

  2
none_device
  4

  6

 40
0.0
 41
0.0
 42
0.0
 43
0.0
 44
0.0
 45
0.0
 46
0.0
 47
0.0
 48
0.0
 49
0.0
140
0.0
141
0.0
142
1.0
143
1.0
 70
   688
 72
     0
 73
     0
 74
     5
  7

 75
    16
147
1.0
148
0.0
149
0.0
100
AcDbLayout
  1
Layout1
 70
     1
 71
     1
 10
0.0
 20
0.0
 11
12.0
 21
9.0
 12
0.0
 22
0.0
 32
0.0
 14
1.00000000000000E+20
 24
1.00000000000000E+20
 34
1.00000000000000E+20
 15
-1.00000000000000E+20
 25
-1.00000000000000E+20
 35
-1.00000000000000E+20
146
0.0
 13
0.0
 23
0.0
 33
0.0
 16
1.0
 26
0.0
 36
0.0
 17
0.0
 27
1.0
 37
0.0
 76
     0
330
1B
  0
LAYOUT
  5
26
102
{ACAD_REACTORS
330
1A
102
}
330
1A
100
AcDbPlotSettings
  1

  2
none_device
  4

  6

 40
0.0
 41
0.0
 42
0.0
 43
0.0
 44
0.0
 45
0.0
 46
0.0
 47
0.0
 48
0.0
 49
0.0
140
0.0
141
0.0
142
1.0
143
1.0
 70
   688
 72
     0
 73
     0
 74
     5
  7

 75
    16
147
1.0
148
0.0
149
0.0
100
AcDbLayout
  1
Layout2
 70
     1
 71
     2
 10
0.0
 20
0.0
 11
0.0
 21
0.0
 12
0.0
 22
0.0
 32
0.0
 14
0.0
 24
0.0
 34
0.0
 15
0.0
 25
0.0
 35
0.0
146
0.0
 13
0.0
 23
0.0
 33
0.0
 16
1.0
 26
0.0
 36
0.0
 17
0.0
 27
1.0
 37
0.0
 76
     0
330
23
  0
LAYOUT
  5
22
102
{ACAD_REACTORS
330
1A
102
}
330
1A
100
AcDbPlotSettings
  1

  2
none_device
  4

  6

 40
0.0
 41
0.0
 42
0.0
 43
0.0
 44
0.0
 45
0.0
 46
0.0
 47
0.0
 48
0.0
 49
0.0
140
0.0
141
0.0
142
1.0
143
1.0
 70
  1712
 72
     0
 73
     0
 74
     0
  7

 75
     0
147
1.0
148
0.0
149
0.0
100
AcDbLayout
  1
Model
 70
     1
 71
     0
 10
0.0
 20
0.0
 11
12.0
 21
9.0
 12
0.0
 22
0.0
 32
0.0
 14
70.75885974300002
 24
235.4196124174857
 34
0.0
 15
264.783410682253
 25
348.287413755676
 35
0.0
146
0.0
 13
0.0
 23
0.0
 33
0.0
 16
1.0
 26
0.0
 36
0.0
 17
0.0
 27
1.0
 37
0.0
 76
     0
330
1F
331
29
  0
MLINESTYLE
  5
18
102
{ACAD_REACTORS
330
17
102
}
330
17
100
AcDbMlineStyle
  2
Standard
 70
     0
  3

 62
   256
 51
90.0
 52
90.0
 71
     2
 49
0.5
 62
   256
  6
BYLAYER
 49
-0.5
 62
   256
  6
BYLAYER
  0
ACDBPLACEHOLDER
  5
F
102
{ACAD_REACTORS
330
E
102
}
330
E
  0
SCALE
  5
4B
102
{ACAD_REACTORS
330
4A
102
}
330
4A
100
AcDbScale
 70
     0
300
1:1
140
1.0
141
1.0
290
     1
  0
SCALE
  5
4C
102
{ACAD_REACTORS
330
4A
102
}
330
4A
100
AcDbScale
 70
     0
300
1:2
140
1.0
141
2.0
290
     0
  0
SCALE
  5
4D
102
{ACAD_REACTORS
330
4A
102
}
330
4A
100
AcDbScale
 70
     0
300
1:4
140
1.0
141
4.0
290
     0
  0
SCALE
  5
4E
102
{ACAD_REACTORS
330
4A
102
}
330
4A
100
AcDbScale
 70
     0
300
1:5
140
1.0
141
5.0
290
     0
  0
SCALE
  5
4F
102
{ACAD_REACTORS
330
4A
102
}
330
4A
100
AcDbScale
 70
     0
300
1:8
140
1.0
141
8.0
290
     0
  0
SCALE
  5
50
102
{ACAD_REACTORS
330
4A
102
}
330
4A
100
AcDbScale
 70
     0
300
1:10
140
1.0
141
10.0
290
     0
  0
SCALE
  5
51
102
{ACAD_REACTORS
330
4A
102
}
330
4A
100
AcDbScale
 70
     0
300
1:16
140
1.0
141
16.0
290
     0
  0
SCALE
  5
52
102
{ACAD_REACTORS
330
4A
102
}
330
4A
100
AcDbScale
 70
     0
300
1:20
140
1.0
141
20.0
290
     0
  0
SCALE
  5
53
102
{ACAD_REACTORS
330
4A
102
}
330
4A
100
AcDbScale
 70
     0
300
1:30
140
1.0
141
30.0
290
     0
  0
SCALE
  5
54
102
{ACAD_REACTORS
330
4A
102
}
330
4A
100
AcDbScale
 70
     0
300
1:40
140
1.0
141
40.0
290
     0
  0
SCALE
  5
55
102
{ACAD_REACTORS
330
4A
102
}
330
4A
100
AcDbScale
 70
     0
300
1:50
140
1.0
141
50.0
290
     0
  0
SCALE
  5
56
102
{ACAD_REACTORS
330
4A
102
}
330
4A
100
AcDbScale
 70
     0
300
1:100
140
1.0
141
100.0
290
     0
  0
SCALE
  5
57
102
{ACAD_REACTORS
330
4A
102
}
330
4A
100
AcDbScale
 70
     0
300
2:1
140
2.0
141
1.0
290
     0
  0
SCALE
  5
58
102
{ACAD_REACTORS
330
4A
102
}
330
4A
100
AcDbScale
 70
     0
300
4:1
140
4.0
141
1.0
290
     0
  0
SCALE
  5
59
102
{ACAD_REACTORS
330
4A
102
}
330
4A
100
AcDbScale
 70
     0
300
8:1
140
8.0
141
1.0
290
     0
  0
SCALE
  5
5A
102
{ACAD_REACTORS
330
4A
102
}
330
4A
100
AcDbScale
 70
     0
300
10:1
140
10.0
141
1.0
290
     0
  0
SCALE
  5
5B
102
{ACAD_REACTORS
330
4A
102
}
330
4A
100
AcDbScale
 70
     0
300
100:1
140
100.0
141
1.0
290
     0
  0
SCALE
  5
5C
102
{ACAD_REACTORS
330
4A
102
}
330
4A
100
AcDbScale
 70
     0
300
1/128" = 1'-0"
140
0.0078125
141
12.0
290
     0
  0
SCALE
  5
5D
102
{ACAD_REACTORS
330
4A
102
}
330
4A
100
AcDbScale
 70
     0
300
1/64" = 1'-0"
140
0.015625
141
12.0
290
     0
  0
SCALE
  5
5E
102
{ACAD_REACTORS
330
4A
102
}
330
4A
100
AcDbScale
 70
     0
300
1/32" = 1'-0"
140
0.03125
141
12.0
290
     0
  0
SCALE
  5
5F
102
{ACAD_REACTORS
330
4A
102
}
330
4A
100
AcDbScale
 70
     0
300
1/16" = 1'-0"
140
0.0625
141
12.0
290
     0
  0
SCALE
  5
60
102
{ACAD_REACTORS
330
4A
102
}
330
4A
100
AcDbScale
 70
     0
300
3/32" = 1'-0"
140
0.09375
141
12.0
290
     0
  0
SCALE
  5
61
102
{ACAD_REACTORS
330
4A
102
}
330
4A
100
AcDbScale
 70
     0
300
1/8" = 1'-0"
140
0.125
141
12.0
290
     0
  0
SCALE
  5
62
102
{ACAD_REACTORS
330
4A
102
}
330
4A
100
AcDbScale
 70
     0
300
3/16" = 1'-0"
140
0.1875
141
12.0
290
     0
  0
SCALE
  5
63
102
{ACAD_REACTORS
330
4A
102
}
330
4A
100
AcDbScale
 70
     0
300
1/4" = 1'-0"
140
0.25
141
12.0
290
     0
  0
SCALE
  5
64
102
{ACAD_REACTORS
330
4A
102
}
330
4A
100
AcDbScale
 70
     0
300
3/8" = 1'-0"
140
0.375
141
12.0
290
     0
  0
SCALE
  5
65
102
{ACAD_REACTORS
330
4A
102
}
330
4A
100
AcDbScale
 70
     0
300
1/2" = 1'-0"
140
0.5
141
12.0
290
     0
  0
SCALE
  5
66
102
{ACAD_REACTORS
330
4A
102
}
330
4A
100
AcDbScale
 70
     0
300
3/4" = 1'-0"
140
0.75
141
12.0
290
     0
  0
SCALE
  5
67
102
{ACAD_REACTORS
330
4A
102
}
330
4A
100
AcDbScale
 70
     0
300
1" = 1'-0"
140
1.0
141
12.0
290
     0
  0
SCALE
  5
68
102
{ACAD_REACTORS
330
4A
102
}
330
4A
100
AcDbScale
 70
     0
300
1-1/2" = 1'-0"
140
1.5
141
12.0
290
     0
  0
SCALE
  5
69
102
{ACAD_REACTORS
330
4A
102
}
330
4A
100
AcDbScale
 70
     0
300
3" = 1'-0"
140
3.0
141
12.0
290
     0
  0
SCALE
  5
6A
102
{ACAD_REACTORS
330
4A
102
}
330
4A
100
AcDbScale
 70
     0
300
6" = 1'-0"
140
6.0
141
12.0
290
     0
  0
SCALE
  5
6B
102
{ACAD_REACTORS
330
4A
102
}
330
4A
100
AcDbScale
 70
     0
300
1'-0" = 1'-0"
140
12.0
141
12.0
290
     0
  0
VISUALSTYLE
  5
2F
102
{ACAD_REACTORS
330
2A
102
}
330
2A
100
AcDbVisualStyle
  2
2dWireframe
 70
     4
 71
     0
 72
     2
 73
     0
 90
        0
 40
-0.6
 41
-30.0
 62
     5
 63
     7
 74
     1
 91
        4
 64
     7
 65
   257
 75
     1
175
     1
 42
1.0
 92
        0
 66
   257
 43
1.0
 76
     1
 77
     6
 78
     2
 67
     7
 79
     5
170
     0
171
     0
290
     0
174
     0
 93
        1
 44
0.0
173
     0
291
     0
 45
0.0
1001
ACAD
1000
AcDbSavedByObjectVersion
1070
     0
  0
VISUALSTYLE
  5
31
102
{ACAD_REACTORS
330
2A
102
}
330
2A
100
AcDbVisualStyle
  2
3D Hidden
 70
     6
 71
     1
 72
     2
 73
     2
 90
        0
 40
-0.6
 41
-30.0
 62
     5
 63
     7
 74
     2
 91
        2
 64
     7
 65
   257
 75
     2
175
     1
 42
40.0
 92
        0
 66
   257
 43
1.0
 76
     1
 77
     6
 78
     2
 67
     7
 79
     3
170
     0
171
     0
290
     0
174
     0
 93
        1
 44
0.0
173
     0
291
     0
 45
0.0
1001
ACAD
1000
AcDbSavedByObjectVersion
1070
     0
  0
VISUALSTYLE
  5
30
102
{ACAD_REACTORS
330
2A
102
}
330
2A
100
AcDbVisualStyle
  2
3dWireframe
 70
     5
 71
     0
 72
     2
 73
     0
 90
        0
 40
-0.6
 41
-30.0
 62
     5
 63
     7
 74
     1
 91
        4
 64
     7
 65
   257
 75
     1
175
     1
 42
1.0
 92
        0
 66
   257
 43
1.0
 76
     1
 77
     6
 78
     2
 67
     7
 79
     5
170
     0
171
     0
290
     0
174
     0
 93
        1
 44
0.0
173
     0
291
     0
 45
0.0
1001
ACAD
1000
AcDbSavedByObjectVersion
1070
     0
  0
VISUALSTYLE
  5
32
102
{ACAD_REACTORS
330
2A
102
}
330
2A
100
AcDbVisualStyle
  2
Basic
 70
     7
 71
     1
 72
     0
 73
     1
 90
        0
 40
-0.6
 41
-30.0
 62
     5
 63
     7
 74
     0
 91
        4
 64
     7
 65
   257
 75
     1
175
     1
 42
1.0
 92
        8
 66
     7
 43
1.0
 76
     1
 77
     6
 78
     2
 67
     7
 79
     5
170
     0
171
     0
290
     0
174
     0
 93
        1
 44
0.0
173
     0
291
     1
 45
0.0
1001
ACAD
1000
AcDbSavedByObjectVersion
1070
     0
  0
VISUALSTYLE
  5
36
102
{ACAD_REACTORS
330
2A
102
}
330
2A
100
AcDbVisualStyle
  2
Brighten
 70
    12
 71
     2
 72
     2
 73
     0
 90
        0
 40
-0.6
 41
-30.0
 62
     5
 63
     7
 74
     1
 91
        4
 64
     7
 65
   257
 75
     1
175
     1
 42
1.0
 92
        8
 66
     7
 43
1.0
 76
     1
 77
     6
 78
     2
 67
     7
 79
     5
170
     0
171
     0
290
     0
174
     0
 93
        1
 44
50.0
173
     0
291
     1
 45
0.0
1001
ACAD
1000
AcDbSavedByObjectVersion
1070
     0
  0
VISUALSTYLE
  5
3A
102
{ACAD_REACTORS
330
2A
102
}
330
2A
100
AcDbVisualStyle
  2
ColorChange
 70
    16
 71
     2
 72
     2
 73
     3
 90
        0
 40
-0.6
 41
-30.0
 62
     5
 63
     8
 74
     1
 91
        4
 64
     7
 65
   257
 75
     1
175
     1
 42
1.0
 92
        8
 66
     8
 43
1.0
 76
     1
 77
     6
 78
     2
 67
     7
 79
     5
170
     0
171
     0
290
     0
174
     0
 93
        1
 44
0.0
173
     0
291
     1
 45
0.0
1001
ACAD
1000
AcDbSavedByObjectVersion
1070
     0
  0
VISUALSTYLE
  5
34
102
{ACAD_REACTORS
330
2A
102
}
330
2A
100
AcDbVisualStyle
  2
Conceptual
 70
     9
 71
     3
 72
     2
 73
     0
 90
        0
 40
-0.6
 41
-30.0
 62
     5
 63
     7
 74
     2
 91
        2
 64
     7
 65
   257
 75
     1
175
     1
 42
40.0
 92
        8
 66
     7
 43
1.0
 76
     1
 77
     6
 78
     2
 67
     7
 79
     3
170
     0
171
     0
290
     0
174
     0
 93
        1
 44
0.0
173
     0
291
     0
 45
0.0
1001
ACAD
1000
AcDbSavedByObjectVersion
1070
     0
  0
VISUALSTYLE
  5
35
102
{ACAD_REACTORS
330
2A
102
}
330
2A
100
AcDbVisualStyle
  2
Dim
 70
    11
 71
     2
 72
     2
 73
     0
 90
        0
 40
-0.6
 41
-30.0
 62
     5
 63
     7
 74
     1
 91
        4
 64
     7
 65
   257
 75
     1
175
     1
 42
1.0
 92
        8
 66
     7
 43
1.0
 76
     1
 77
     6
 78
     2
 67
     7
 79
     5
170
     0
171
     0
290
     0
174
     0
 93
        1
 44
-50.0
173
     0
291
     1
 45
0.0
1001
ACAD
1000
AcDbSavedByObjectVersion
1070
     0
  0
VISUALSTYLE
  5
39
102
{ACAD_REACTORS
330
2A
102
}
330
2A
100
AcDbVisualStyle
  2
Facepattern
 70
    15
 71
     2
 72
     2
 73
     0
 90
        0
 40
-0.6
 41
-30.0
 62
     5
 63
     7
 74
     1
 91
        4
 64
     7
 65
   257
 75
     1
175
     1
 42
1.0
 92
        8
 66
     7
 43
1.0
 76
     1
 77
     6
 78
     2
 67
     7
 79
     5
170
     0
171
     0
290
     0
174
     0
 93
        1
 44
0.0
173
     0
291
     1
 45
0.0
1001
ACAD
1000
AcDbSavedByObjectVersion
1070
     0
  0
VISUALSTYLE
  5
2B
102
{ACAD_REACTORS
330
2A
102
}
330
2A
100
AcDbVisualStyle
  2
Flat
 70
     0
 71
     2
 72
     1
 73
     1
 90
        2
 40
-0.6
 41
30.0
 62
     5
 63
     7
 74
     0
 91
        4
 64
     7
 65
   257
 75
     1
175
     1
 42
1.0
 92
        8
 66
     7
 43
1.0
 76
     1
 77
     6
 78
     2
 67
     7
 79
     5
170
     0
171
     0
290
     0
174
     0
 93
       13
 44
0.0
173
     0
291
     1
 45
0.0
1001
ACAD
1000
AcDbSavedByObjectVersion
1070
     0
  0
VISUALSTYLE
  5
2C
102
{ACAD_REACTORS
330
2A
102
}
330
2A
100
AcDbVisualStyle
  2
FlatWithEdges
 70
     1
 71
     2
 72
     1
 73
     1
 90
        2
 40
-0.6
 41
30.0
 62
     5
 63
     7
 74
     1
 91
        4
 64
     7
 65
   257
 75
     1
175
     1
 42
1.0
 92
        0
 66
   257
 43
1.0
 76
     1
 77
     6
 78
     2
 67
     7
 79
     5
170
     0
171
     0
290
     0
174
     0
 93
       13
 44
0.0
173
     0
291
     1
 45
0.0
1001
ACAD
1000
AcDbSavedByObjectVersion
1070
     0
  0
VISUALSTYLE
  5
2D
102
{ACAD_REACTORS
330
2A
102
}
330
2A
100
AcDbVisualStyle
  2
Gouraud
 70
     2
 71
     2
 72
     2
 73
     1
 90
        2
 40
-0.6
 41
30.0
 62
     5
 63
     7
 74
     0
 91
        4
 64
     7
 65
   257
 75
     1
175
     1
 42
1.0
 92
        0
 66
     7
 43
1.0
 76
     1
 77
     6
 78
     2
 67
     7
 79
     5
170
     0
171
     0
290
     0
174
     0
 93
       13
 44
0.0
173
     0
291
     1
 45
0.0
1001
ACAD
1000
AcDbSavedByObjectVersion
1070
     0
  0
VISUALSTYLE
  5
2E
102
{ACAD_REACTORS
330
2A
102
}
330
2A
100
AcDbVisualStyle
  2
GouraudWithEdges
 70
     3
 71
     2
 72
     2
 73
     1
 90
        2
 40
-0.6
 41
30.0
 62
     5
 63
     7
 74
     1
 91
        4
 64
     7
 65
   257
 75
     1
175
     1
 42
1.0
 92
        0
 66
   257
 43
1.0
 76
     1
 77
     6
 78
     2
 67
     7
 79
     5
170
     0
171
     0
290
     0
174
     0
 93
       13
 44
0.0
173
     0
291
     1
 45
0.0
1001
ACAD
1000
AcDbSavedByObjectVersion
1070
     0
  0
VISUALSTYLE
  5
38
102
{ACAD_REACTORS
330
2A
102
}
330
2A
100
AcDbVisualStyle
  2
Linepattern
 70
    14
 71
     2
 72
     2
 73
     0
 90
        0
 40
-0.6
 41
-30.0
 62
     5
 63
     7
 74
     1
 91
        4
 64
     7
 65
   257
 75
     7
175
     7
 42
1.0
 92
        8
 66
     7
 43
1.0
 76
     1
 77
     6
 78
     2
 67
     7
 79
     5
170
     0
171
     0
290
     0
174
     0
 93
        1
 44
0.0
173
     0
291
     1
 45
0.0
1001
ACAD
1000
AcDbSavedByObjectVersion
1070
     0
  0
VISUALSTYLE
  5
33
102
{ACAD_REACTORS
330
2A
102
}
330
2A
100
AcDbVisualStyle
  2
Realistic
 70
     8
 71
     2
 72
     2
 73
     0
 90
        0
 40
-0.6
 41
-30.0
 62
     5
 63
     7
 74
     1
 91
        0
 64
     7
 65
   257
 75
     1
175
     1
 42
1.0
 92
        8
 66
     8
 43
1.0
 76
     1
 77
     6
 78
     2
 67
     7
 79
     5
170
     0
171
     0
290
     0
174
     0
 93
       13
 44
0.0
173
     0
291
     0
 45
0.0
1001
ACAD
1000
AcDbSavedByObjectVersion
1070
     0
  0
VISUALSTYLE
  5
37
102
{ACAD_REACTORS
330
2A
102
}
330
2A
100
AcDbVisualStyle
  2
Thicken
 70
    13
 71
     2
 72
     2
 73
     0
 90
        0
 40
-0.6
 41
-30.0
 62
     5
 63
     7
 74
     1
 91
        4
 64
     7
 65
   257
 75
     1
175
     1
 42
1.0
 92
       12
 66
     7
 43
1.0
 76
     1
 77
     6
 78
     2
 67
     7
 79
     5
170
     0
171
     0
290
     0
174
     0
 93
        1
 44
0.0
173
     0
291
     1
 45
0.0
1001
ACAD
1000
AcDbSavedByObjectVersion
1070
     0
  0
DICTIONARYVAR
  5
109
102
{ACAD_REACTORS
330
106
102
}
330
106
100
DictionaryVariables
280
     0
  1
1:1
  0
ENDSEC
  0
EOF
