  0
SECTION
  2
HEADER
  9
$ACADVER
  1
AC1015
  9
$ACADMAINTVER
 70
     6
  9
$DWGCODEPAGE
  3
ANSI_1252
  9
$INSBASE
 10
0.0
 20
0.0
 30
0.0
  9
$EXTMIN
 10
56.27057012850004
 20
240.0934924639077
 30
0.0
  9
$EXTMAX
 10
249.024231484768
 20
344.954773363466
 30
0.0
  9
$LIMMIN
 10
0.0
 20
0.0
  9
$LIMMAX
 10
12.0
 20
9.0
  9
$ORTHOMODE
 70
     0
  9
$REGENMODE
 70
     1
  9
$FILLMODE
 70
     1
  9
$QTEXTMODE
 70
     0
  9
$MIRRTEXT
 70
     1
  9
$LTSCALE
 40
1.0
  9
$ATTMODE
 70
     1
  9
$TEXTSIZE
 40
0.2
  9
$TRACEWID
 40
0.05
  9
$TEXTSTYLE
  7
Standard
  9
$CLAYER
  8
0
  9
$CELTYPE
  6
ByLayer
  9
$CECOLOR
 62
   256
  9
$CELTSCALE
 40
1.0
  9
$DISPSILH
 70
     0
  9
$DIMSCALE
 40
1.0
  9
$DIMASZ
 40
0.18
  9
$DIMEXO
 40
0.0625
  9
$DIMDLI
 40
0.38
  9
$DIMRND
 40
0.0
  9
$DIMDLE
 40
0.0
  9
$DIMEXE
 40
0.18
  9
$DIMTP
 40
0.0
  9
$DIMTM
 40
0.0
  9
$DIMTXT
 40
0.18
  9
$DIMCEN
 40
0.09
  9
$DIMTSZ
 40
0.0
  9
$DIMTOL
 70
     0
  9
$DIMLIM
 70
     0
  9
$DIMTIH
 70
     1
  9
$DIMTOH
 70
     1
  9
$DIMSE1
 70
     0
  9
$DIMSE2
 70
     0
  9
$DIMTAD
 70
     0
  9
$DIMZIN
 70
     0
  9
$DIMBLK
  1

  9
$DIMASO
 70
     1
  9
$DIMSHO
 70
     1
  9
$DIMPOST
  1

  9
$DIMAPOST
  1

  9
$DIMALT
 70
     0
  9
$DIMALTD
 70
     2
  9
$DIMALTF
 40
25.4
  9
$DIMLFAC
 40
1.0
  9
$DIMTOFL
 70
     0
  9
$DIMTVP
 40
0.0
  9
$DIMTIX
 70
     0
  9
$DIMSOXD
 70
     0
  9
$DIMSAH
 70
     0
  9
$DIMBLK1
  1

  9
$DIMBLK2
  1

  9
$DIMSTYLE
  2
Standard
  9
$DIMCLRD
 70
     0
  9
$DIMCLRE
 70
     0
  9
$DIMCLRT
 70
     0
  9
$DIMTFAC
 40
1.0
  9
$DIMGAP
 40
0.09
  9
$DIMJUST
 70
     0
  9
$DIMSD1
 70
     0
  9
$DIMSD2
 70
     0
  9
$DIMTOLJ
 70
     1
  9
$DIMTZIN
 70
     0
  9
$DIMALTZ
 70
     0
  9
$DIMALTTZ
 70
     0
  9
$DIMUPT
 70
     0
  9
$DIMDEC
 70
     4
  9
$DIMTDEC
 70
     4
  9
$DIMALTU
 70
     2
  9
$DIMALTTD
 70
     2
  9
$DIMTXSTY
  7
Standard
  9
$DIMAUNIT
 70
     0
  9
$DIMADEC
 70
     0
  9
$DIMALTRND
 40
0.0
  9
$DIMAZIN
 70
     0
  9
$DIMDSEP
 70
    46
  9
$DIMATFIT
 70
     3
  9
$DIMFRAC
 70
     0
  9
$DIMLDRBLK
  1

  9
$DIMLUNIT
 70
     2
  9
$DIMLWD
 70
    -2
  9
$DIMLWE
 70
    -2
  9
$DIMTMOVE
 70
     0
  9
$LUNITS
 70
     2
  9
$LUPREC
 70
     4
  9
$SKETCHINC
 40
0.1
  9
$FILLETRAD
 40
0.5
  9
$AUNITS
 70
     0
  9
$AUPREC
 70
     0
  9
$MENU
  1
.
  9
$ELEVATION
 40
0.0
  9
$PELEVATION
 40
0.0
  9
$THICKNESS
 40
0.0
  9
$LIMCHECK
 70
     0
  9
$CHAMFERA
 40
0.5
  9
$CHAMFERB
 40
0.5
  9
$CHAMFERC
 40
1.0
  9
$CHAMFERD
 40
0.0
  9
$SKPOLY
 70
     0
  9
$TDCREATE
 40
2456821.356390879
  9
$TDUCREATE
 40
2456821.273057546
  9
$TDUPDATE
 40
2456821.356390891
  9
$TDUUPDATE
 40
2456821.273057558
  9
$TDINDWG
 40
0.0000000116
  9
$TDUSRTIMER
 40
0.0000000116
  9
$USRTIMER
 70
     1
  9
$ANGBASE
 50
0.0
  9
$ANGDIR
 70
     0
  9
$PDMODE
 70
     0
  9
$PDSIZE
 40
0.0
  9
$PLINEWID
 40
0.0
  9
$SPLFRAME
 70
     0
  9
$SPLINETYPE
 70
     6
  9
$SPLINESEGS
 70
     8
  9
$HANDSEED
  5
FF
  9
$SURFTAB1
 70
     6
  9
$SURFTAB2
 70
     6
  9
$SURFTYPE
 70
     6
  9
$SURFU
 70
     6
  9
$SURFV
 70
     6
  9
$UCSBASE
  2

  9
$UCSNAME
  2

  9
$UCSORG
 10
0.0
 20
0.0
 30
0.0
  9
$UCSXDIR
 10
1.0
 20
0.0
 30
0.0
  9
$UCSYDIR
 10
0.0
 20
1.0
 30
0.0
  9
$UCSORTHOREF
  2

  9
$UCSORTHOVIEW
 70
     0
  9
$UCSORGTOP
 10
0.0
 20
0.0
 30
0.0
  9
$UCSORGBOTTOM
 10
0.0
 20
0.0
 30
0.0
  9
$UCSORGLEFT
 10
0.0
 20
0.0
 30
0.0
  9
$UCSORGRIGHT
 10
0.0
 20
0.0
 30
0.0
  9
$UCSORGFRONT
 10
0.0
 20
0.0
 30
0.0
  9
$UCSORGBACK
 10
0.0
 20
0.0
 30
0.0
  9
$PUCSBASE
  2

  9
$PUCSNAME
  2

  9
$PUCSORG
 10
0.0
 20
0.0
 30
0.0
  9
$PUCSXDIR
 10
1.0
 20
0.0
 30
0.0
  9
$PUCSYDIR
 10
0.0
 20
1.0
 30
0.0
  9
$PUCSORTHOREF
  2

  9
$PUCSORTHOVIEW
 70
     0
  9
$PUCSORGTOP
 10
0.0
 20
0.0
 30
0.0
  9
$PUCSORGBOTTOM
 10
0.0
 20
0.0
 30
0.0
  9
$PUCSORGLEFT
 10
0.0
 20
0.0
 30
0.0
  9
$PUCSORGRIGHT
 10
0.0
 20
0.0
 30
0.0
  9
$PUCSORGFRONT
 10
0.0
 20
0.0
 30
0.0
  9
$PUCSORGBACK
 10
0.0
 20
0.0
 30
0.0
  9
$USERI1
 70
     0
  9
$USERI2
 70
     0
  9
$USERI3
 70
     0
  9
$USERI4
 70
     0
  9
$USERI5
 70
     0
  9
$USERR1
 40
16.5
  9
$USERR2
 40
0.0
  9
$USERR3
 40
0.0
  9
$USERR4
 40
0.0
  9
$USERR5
 40
0.0
  9
$WORLDVIEW
 70
     1
  9
$SHADEDGE
 70
     3
  9
$SHADEDIF
 70
    70
  9
$TILEMODE
 70
     1
  9
$MAXACTVP
 70
    64
  9
$PINSBASE
 10
0.0
 20
0.0
 30
0.0
  9
$PLIMCHECK
 70
     0
  9
$PEXTMIN
 10
1.00000000000000E+20
 20
1.00000000000000E+20
 30
1.00000000000000E+20
  9
$PEXTMAX
 10
-1.00000000000000E+20
 20
-1.00000000000000E+20
 30
-1.00000000000000E+20
  9
$PLIMMIN
 10
0.0
 20
0.0
  9
$PLIMMAX
 10
12.0
 20
9.0
  9
$UNITMODE
 70
     0
  9
$VISRETAIN
 70
     1
  9
$PLINEGEN
 70
     0
  9
$PSLTSCALE
 70
     1
  9
$TREEDEPTH
 70
  3020
  9
$CMLSTYLE
  2
Standard
  9
$CMLJUST
 70
     0
  9
$CMLSCALE
 40
1.0
  9
$PROXYGRAPHICS
 70
     1
  9
$MEASUREMENT
 70
     1
  9
$CELWEIGHT
370
    -1
  9
$ENDCAPS
280
     0
  9
$JOINSTYLE
280
     0
  9
$LWDISPLAY
290
     0
  9
$INSUNITS
 70
     1
  9
$HYPERLINKBASE
  1

  9
$STYLESHEET
  1

  9
$XEDIT
290
     1
  9
$CEPSNTYPE
380
     0
  9
$PSTYLEMODE
290
     1
  9
$FINGERPRINTGUID
  2
{4C843FA1-3CC4-4A28-A0DC-C0905083C329}
  9
$VERSIONGUID
  2
{FAEB1C32-E019-11D5-929B-00C0DF256EC4}
  9
$EXTNAMES
290
     1
  9
$PSVPSCALE
 40
0.0
  9
$OLESTARTUP
290
     0
  0
ENDSEC
  0
SECTION
  2
CLASSES
  0
CLASS
  1
ACDBDICTIONARYWDFLT
  2
AcDbDictionaryWithDefault
  3
ObjectDBX Classes
 90
        0
280
     0
281
     0
  0
CLASS
  1
VISUALSTYLE
  2
AcDbVisualStyle
  3
ObjectDBX Classes
 90
     4095
280
     0
281
     0
  0
CLASS
  1
SCALE
  2
AcDbScale
  3
ObjectDBX Classes
 90
     1153
280
     0
281
     0
  0
CLASS
  1

  2
exOdDbPolyline
  3

 90
        0
280
     0
281
     1
  0
CLASS
  1

  2
exOdDbSpline
  3

 90
        0
280
     0
281
     1
  0
CLASS
  1
DICTIONARYVAR
  2
AcDbDictionaryVar
  3
ObjectDBX Classes
 90
        0
280
     0
281
     0
  0
CLASS
  1
ACDBPLACEHOLDER
  2
AcDbPlaceHolder
  3
ObjectDBX Classes
 90
        0
280
     0
281
     0
  0
CLASS
  1
LAYOUT
  2
AcDbLayout
  3
ObjectDBX Classes
 90
        0
280
     0
281
     0
  0
ENDSEC
  0
SECTION
  2
TABLES
  0
TABLE
  2
VPORT
  5
8
330
0
100
AcDbSymbolTable
 70
     1
  0
VPORT
  5
29
330
8
100
AcDbSymbolTableRecord
100
AcDbViewportTableRecord
  2
*Active
 70
     0
 10
0.0
 20
0.0
 11
1.0
 21
1.0
 12
152.647400806634
 22
292.5241329136869
 13
0.0
 23
0.0
 14
0.5
 24
0.5
 15
0.5
 25
0.5
 16
0.0
 26
0.0
 36
1.0
 17
0.0
 27
0.0
 37
0.0
 40
132.2966633932714
 41
1.60267857142857
 42
50.0
 43
0.0
 44
0.0
 50
0.0
 51
0.0
 71
     0
 72
   100
 73
     1
 74
     3
 75
     0
 76
     0
 77
     0
 78
     0
281
     0
 65
     1
110
0.0
120
0.0
130
0.0
111
1.0
121
0.0
131
0.0
112
0.0
122
1.0
132
0.0
 79
     0
146
0.0
  0
ENDTAB
  0
TABLE
  2
LTYPE
  5
5
330
0
100
AcDbSymbolTable
 70
     8
  0
LTYPE
  5
14
330
5
100
AcDbSymbolTableRecord
100
AcDbLinetypeTableRecord
  2
ByBlock
 70
     0
  3

 72
    65
 73
     0
 40
0.0
  0
LTYPE
  5
15
330
5
100
AcDbSymbolTableRecord
100
AcDbLinetypeTableRecord
  2
ByLayer
 70
     0
  3

 72
    65
 73
     0
 40
0.0
  0
LTYPE
  5
16
330
5
100
AcDbSymbolTableRecord
100
AcDbLinetypeTableRecord
  2
Continuous
 70
     0
  3
Solid line
 72
    65
 73
     0
 40
0.0
  0
LTYPE
  5
3B
330
5
100
AcDbSymbolTableRecord
100
AcDbLinetypeTableRecord
  2
DASHED
 70
     0
  3
Dashed
 72
    65
 73
     2
 40
15.0
 49
7.0
 74
     0
 49
-8.0
 74
     0
  0
LTYPE
  5
3C
330
5
100
AcDbSymbolTableRecord
100
AcDbLinetypeTableRecord
  2
DOTTED
 70
     0
  3
Dotted
 72
    65
 73
     2
 40
1.0
 49
0.0
 74
     0
 49
-1.0
 74
     0
  0
LTYPE
  5
3D
330
5
100
AcDbSymbolTableRecord
100
AcDbLinetypeTableRecord
  2
DOT_CENTER
 70
     0
  3
Dot_Center
 72
    65
 73
     4
 40
14.0
 49
12.0
 74
     0
 49
-1.0
 74
     0
 49
0.0
 74
     0
 49
-1.0
 74
     0
  0
LTYPE
  5
3E
330
5
100
AcDbSymbolTableRecord
100
AcDbLinetypeTableRecord
  2
LONG_DASHED
 70
     0
  3
Long_Dashed
 72
    65
 73
     2
 40
15.0
 49
10.0
 74
     0
 49
-5.0
 74
     0
  0
LTYPE
  5
3F
330
5
100
AcDbSymbolTableRecord
100
AcDbLinetypeTableRecord
  2
DASH_CENTER
 70
     0
  3
Dash_Center
 72
    65
 73
     4
 40
14.0
 49
11.0
 74
     0
 49
-1.0
 74
     0
 49
1.0
 74
     0
 49
-1.0
 74
     0
  0
LTYPE
  5
40
330
5
100
AcDbSymbolTableRecord
100
AcDbLinetypeTableRecord
  2
PHANTOM
 70
     0
  3
Phantom
 72
    65
 73
     6
 40
13.0
 49
10.0
 74
     0
 49
-1.0
 74
     0
 49
0.0
 74
     0
 49
-1.0
 74
     0
 49
0.0
 74
     0
 49
-1.0
 74
     0
  0
LTYPE
  5
41
330
5
100
AcDbSymbolTableRecord
100
AcDbLinetypeTableRecord
  2
CENTER_DASH_DASH
 70
     0
  3
Center_Dash_Dash
 72
    65
 73
     6
 40
14.0
 49
9.0
 74
     0
 49
-1.0
 74
     0
 49
1.0
 74
     0
 49
-1.0
 74
     0
 49
1.0
 74
     0
 49
-1.0
 74
     0
  0
ENDTAB
  0
TABLE
  2
LAYER
  5
2
330
0
100
AcDbSymbolTable
 70
     6
  0
LAYER
  5
10
330
2
100
AcDbSymbolTableRecord
100
AcDbLayerTableRecord
  2
0
 70
     0
 62
     7
  6
Continuous
370
    -3
390
F
  0
LAYER
  5
42
330
2
100
AcDbSymbolTableRecord
100
AcDbLayerTableRecord
  2
1
 70
     0
 62
     7
  6
Continuous
370
    -3
390
F
  0
LAYER
  5
43
330
2
100
AcDbSymbolTableRecord
100
AcDbLayerTableRecord
  2
BEZUGSACHSEN
 70
     0
 62
     7
  6
Continuous
370
    -3
390
F
  0
LAYER
  5
44
330
2
100
AcDbSymbolTableRecord
100
AcDbLayerTableRecord
  2
DEFAULT_2
 70
     0
 62
     7
  6
Continuous
370
    -3
390
F
  0
LAYER
  5
45
330
2
100
AcDbSymbolTableRecord
100
AcDbLayerTableRecord
  2
RUNDUNGEN
 70
     0
 62
     7
  6
Continuous
370
    -3
390
F
  0
LAYER
  5
46
330
2
100
AcDbSymbolTableRecord
100
AcDbLayerTableRecord
  2
TEIL_STARTBEZUEGE
 70
     0
 62
     7
  6
Continuous
370
    -3
390
F
  0
ENDTAB
  0
TABLE
  2
STYLE
  5
3
330
0
100
AcDbSymbolTable
 70
     2
  0
STYLE
  5
11
330
3
100
AcDbSymbolTableRecord
100
AcDbTextStyleTableRecord
  2
Standard
 70
     0
 40
0.0
 41
1.0
 50
0.0
 71
     0
 42
0.2
  3
txt
  4

  0
STYLE
  5
6D
330
3
100
AcDbSymbolTableRecord
100
AcDbTextStyleTableRecord
  2
CONVERTER_11
 70
     0
 40
0.0
 41
0.72
 50
0.0
 71
     0
 42
0.2
  3
txt.shx
  4

  0
ENDTAB
  0
TABLE
  2
VIEW
  5
6
330
0
100
AcDbSymbolTable
 70
     0
  0
ENDTAB
  0
TABLE
  2
UCS
  5
7
330
0
100
AcDbSymbolTable
 70
     0
  0
ENDTAB
  0
TABLE
  2
APPID
  5
9
330
0
100
AcDbSymbolTable
 70
     1
  0
APPID
  5
12
330
9
100
AcDbSymbolTableRecord
100
AcDbRegAppTableRecord
  2
ACAD
 70
     0
  0
ENDTAB
  0
TABLE
  2
DIMSTYLE
  5
A
330
0
100
AcDbSymbolTable
 70
     6
100
AcDbDimStyleTable
  0
DIMSTYLE
105
27
330
A
100
AcDbSymbolTableRecord
100
AcDbDimStyleTableRecord
  2
Standard
 70
     0
340
11
  0
DIMSTYLE
105
C6
102
{ACAD_REACTORS
330
C7
102
}
330
A
100
AcDbSymbolTableRecord
100
AcDbDimStyleTableRecord
  2
ME10_DIM_10
 70
     0
  3
\U+2300<>
 41
3.5
 42
2.0
 44
2.0
 71
     1
 73
     0
 74
     0
 77
     1
 78
     8
140
3.5
146
0.7
147
2.0
172
     1
173
     1
176
     2
177
     2
178
     3
271
     2
272
     0
340
6D
  0
DIMSTYLE
105
D1
102
{ACAD_REACTORS
330
D2
102
}
330
A
100
AcDbSymbolTableRecord
100
AcDbDimStyleTableRecord
  2
ME10_DIM_11
 70
     0
  3
\U+2300<>
 41
3.5
 42
2.0
 44
2.0
 71
     1
 73
     0
 74
     0
 77
     1
 78
     8
140
3.5
146
0.7
147
2.0
172
     1
173
     1
176
     2
177
     2
178
     3
271
     2
272
     0
340
6D
  0
DIMSTYLE
105
DC
102
{ACAD_REACTORS
330
DD
102
}
330
A
100
AcDbSymbolTableRecord
100
AcDbDimStyleTableRecord
  2
ME10_DIM_12
 70
     0
  3
<>
 41
3.5
 42
2.0
 44
2.0
 71
     1
 73
     0
 74
     0
 77
     1
 78
     8
140
3.5
146
0.7
147
2.0
172
     1
173
     1
176
     2
177
     2
178
     3
271
     2
272
     0
340
6D
  0
DIMSTYLE
105
E7
102
{ACAD_REACTORS
330
E8
102
}
330
A
100
AcDbSymbolTableRecord
100
AcDbDimStyleTableRecord
  2
ME10_DIM_13
 70
     0
  3
<>
 41
3.5
 42
2.0
 44
2.0
 71
     1
 73
     0
 74
     0
 77
     1
 78
     8
140
3.5
146
0.7
147
2.0
172
     1
173
     1
176
     2
177
     2
178
     3
271
     2
272
     0
340
6D
  0
DIMSTYLE
105
F2
102
{ACAD_REACTORS
330
F3
102
}
330
A
100
AcDbSymbolTableRecord
100
AcDbDimStyleTableRecord
  2
ME10_DIM_14
 70
     0
  3
<>
 41
3.5
 42
2.0
 44
2.0
 71
     1
 73
     0
 74
     0
 77
     1
 78
     8
140
3.5
146
0.7
147
2.0
172
     1
173
     1
176
     2
177
     2
178
     3
271
     2
272
     0
340
6D
  0
ENDTAB
  0
TABLE
  2
BLOCK_RECORD
  5
1
330
0
100
AcDbSymbolTable
 70
     8
  0
BLOCK_RECORD
  5
1F
330
1
100
AcDbSymbolTableRecord
100
AcDbBlockTableRecord
  2
*Model_Space
340
22
  0
BLOCK_RECORD
  5
1B
330
1
100
AcDbSymbolTableRecord
100
AcDbBlockTableRecord
  2
*Paper_Space
340
1E
  0
BLOCK_RECORD
  5
23
330
1
100
AcDbSymbolTableRecord
100
AcDbBlockTableRecord
  2
*Paper_Space0
340
26
  0
BLOCK_RECORD
  5
47
330
1
100
AcDbSymbolTableRecord
100
AcDbBlockTableRecord
  2
Urheberrecht_DE-EN_horizontal
340
0
102
{BLKREFS
331
6C
102
}
  0
BLOCK_RECORD
  5
BD
330
1
100
AcDbSymbolTableRecord
100
AcDbBlockTableRecord
  2
*D2
340
0
  0
BLOCK_RECORD
  5
C8
330
1
100
AcDbSymbolTableRecord
100
AcDbBlockTableRecord
  2
*D3
340
0
  0
BLOCK_RECORD
  5
D3
330
1
100
AcDbSymbolTableRecord
100
AcDbBlockTableRecord
  2
*D4
340
0
  0
BLOCK_RECORD
  5
DE
330
1
100
AcDbSymbolTableRecord
100
AcDbBlockTableRecord
  2
*D5
340
0
  0
BLOCK_RECORD
  5
E9
330
1
100
AcDbSymbolTableRecord
100
AcDbBlockTableRecord
  2
*D6
340
0
  0
BLOCK_RECORD
  5
F4
330
1
100
AcDbSymbolTableRecord
100
AcDbBlockTableRecord
  2
*D7
340
0
102
{BLKREFS
331
FA
102
}
  0
ENDTAB
  0
ENDSEC
  0
SECTION
  2
BLOCKS
  0
BLOCK
  5
20
330
1F
100
AcDbEntity
  8
0
100
AcDbBlockBegin
  2
*Model_Space
 70
     0
 10
0.0
 20
0.0
 30
0.0
  3
*Model_Space
  1

  0
ENDBLK
  5
21
330
1F
100
AcDbEntity
  8
0
100
AcDbBlockEnd
  0
BLOCK
  5
1C
330
1B
100
AcDbEntity
 67
     1
  8
0
100
AcDbBlockBegin
  2
*Paper_Space
 70
     0
 10
0.0
 20
0.0
 30
0.0
  3
*Paper_Space
  1

  0
ENDBLK
  5
1D
330
1B
100
AcDbEntity
 67
     1
  8
0
100
AcDbBlockEnd
  0
BLOCK
  5
24
330
23
100
AcDbEntity
  8
0
100
AcDbBlockBegin
  2
*Paper_Space0
 70
     0
 10
0.0
 20
0.0
 30
0.0
  3
*Paper_Space0
  1

  0
ENDBLK
  5
25
330
23
100
AcDbEntity
  8
0
100
AcDbBlockEnd
  0
BLOCK
  5
48
330
47
100
AcDbEntity
  8
0
100
AcDbBlockBegin
  2
Urheberrecht_DE-EN_horizontal
 70
     0
 10
155.465489121023
 20
247.491500473812
 30
0.0
  3
Urheberrecht_DE-EN_horizontal
  1

  0
MTEXT
  5
6E
330
47
100
AcDbEntity
  8
1
 62
     1
100
AcDbMText
 10
102.0117067316638
 20
240.6934924639077
 30
0.0
 40
2.0
 41
0.0
 71
     7
 72
     1
  1
F\U+00fcr diese Unterlage behalten wir das Ur-\Pheberrecht. Sie darf nur f\U+00fcr den von uns \Pbestimmten Zweck benutzt und ohne unsere \PZustimmung weder vervielf\U+00e4ltigt noch\PDritten zug\U+00e4nglich gemacht werden.
  7
CONVERTER_11
 73
     1
 44
0.90036014405762
  0
MTEXT
  5
6F
330
47
100
AcDbEntity
  8
1
 62
     1
100
AcDbMText
 10
158.30109364897
 20
240.6934924639077
 30
0.0
 40
2.0
 41
0.0
 71
     7
 72
     1
  1
We own the copyright of this document. It \Pdetermined and may neither be copied or \Pmade accessible to outsiders without our\Ppermission.
  7
CONVERTER_11
 73
     1
 44
0.90036014405762
  0
ENDBLK
  5
49
330
47
100
AcDbEntity
  8
0
100
AcDbBlockEnd
  0
BLOCK
  5
C4
330
BD
100
AcDbEntity
  8
0
100
AcDbBlockBegin
  2
*D2
 70
     1
 10
0.0
 20
0.0
 30
0.0
  3
*D2
  1

  0
LINE
  5
BE
330
BD
100
AcDbEntity
  8
1
  6
Continuous
 62
     2
100
AcDbLine
 10
238.124559914802
 20
294.4566402234
 30
0.0
 11
238.124559914802
 21
280.4566402234
 31
0.0
  0
LINE
  5
BF
330
BD
100
AcDbEntity
  8
1
  6
Continuous
 62
     2
100
AcDbLine
 10
229.7955701285
 20
294.4566402234
 30
0.0
 11
240.124559914802
 21
294.4566402234
 31
0.0
  0
LINE
  5
C0
330
BD
100
AcDbEntity
  8
1
  6
Continuous
 62
     2
100
AcDbLine
 10
229.7955701285
 20
280.4566402234
 30
0.0
 11
240.124559914802
 21
280.4566402234
 31
0.0
  0
SOLID
  5
C1
330
BD
100
AcDbEntity
  8
1
 62
     2
100
AcDbTrace
 10
238.5853436563579
 20
290.9566402234
 30
0.0
 11
237.6637761732461
 21
290.9566402234
 31
0.0
 12
238.124559914802
 22
294.4566402234
 32
0.0
 13
238.124559914802
 23
294.4566402234
 33
0.0
  0
SOLID
  5
C2
330
BD
100
AcDbEntity
  8
1
 62
     2
100
AcDbTrace
 10
237.6637761732461
 20
283.9566402234
 30
0.0
 11
238.5853436563579
 21
283.9566402234
 31
0.0
 12
238.124559914802
 22
280.4566402234
 32
0.0
 13
238.124559914802
 23
280.4566402234
 33
0.0
  0
MTEXT
  5
C3
330
BD
100
AcDbEntity
  8
1
 62
     3
100
AcDbMText
 10
236.124559914802
 20
279.105022538661
 30
0.0
 40
3.5
 41
0.0
 71
     7
 72
     1
  1
\C3;%%c\C3;\C3;14\C2;\H2.45;\S^ ;\C3;
  7
CONVERTER_11
 11
0.0
 21
1.0
 31
0.0
 73
     1
 44
0.60024009603842
  0
ENDBLK
  5
C5
330
BD
100
AcDbEntity
  8
0
100
AcDbBlockEnd
  0
BLOCK
  5
CF
330
C8
100
AcDbEntity
  8
0
100
AcDbBlockBegin
  2
*D3
 70
     1
 10
0.0
 20
0.0
 30
0.0
  3
*D3
  1

  0
LINE
  5
C9
330
C8
100
AcDbEntity
  8
1
  6
Continuous
 62
     2
100
AcDbLine
 10
247.024231484768
 20
308.4566402234
 30
0.0
 11
247.024231484768
 21
266.4566402234
 31
0.0
  0
LINE
  5
CA
330
C8
100
AcDbEntity
  8
1
  6
Continuous
 62
     2
100
AcDbLine
 10
216.527620936
 20
308.4566402234
 30
0.0
 11
249.024231484768
 21
308.4566402234
 31
0.0
  0
LINE
  5
CB
330
C8
100
AcDbEntity
  8
1
  6
Continuous
 62
     2
100
AcDbLine
 10
216.527620936
 20
266.4566402234
 30
0.0
 11
249.024231484768
 21
266.4566402234
 31
0.0
  0
SOLID
  5
CC
330
C8
100
AcDbEntity
  8
1
 62
     2
100
AcDbTrace
 10
247.4850152263239
 20
304.9566402234
 30
0.0
 11
246.5634477432121
 21
304.9566402234
 31
0.0
 12
247.024231484768
 22
308.4566402234
 32
0.0
 13
247.024231484768
 23
308.4566402234
 33
0.0
  0
SOLID
  5
CD
330
C8
100
AcDbEntity
  8
1
 62
     2
100
AcDbTrace
 10
246.5634477432121
 20
269.9566402234
 30
0.0
 11
247.4850152263239
 21
269.9566402234
 31
0.0
 12
247.024231484768
 22
266.4566402234
 32
0.0
 13
247.024231484768
 23
266.4566402234
 33
0.0
  0
MTEXT
  5
CE
330
C8
100
AcDbEntity
  8
1
 62
     3
100
AcDbMText
 10
245.024231484768
 20
278.819866047297
 30
0.0
 40
3.5
 41
0.0
 71
     7
 72
     1
  1
\C3;%%c\C3;\C3;42\C2;\H2.45;\S^ ;\C3;
  7
CONVERTER_11
 11
0.0
 21
1.0
 31
0.0
 73
     1
 44
0.60024009603842
  0
ENDBLK
  5
D0
330
C8
100
AcDbEntity
  8
0
100
AcDbBlockEnd
  0
BLOCK
  5
DA
330
D3
100
AcDbEntity
  8
0
100
AcDbBlockBegin
  2
*D4
 70
     1
 10
0.0
 20
0.0
 30
0.0
  3
*D4
  1

  0
LINE
  5
D4
330
D3
100
AcDbEntity
  8
1
  6
Continuous
 62
     2
100
AcDbLine
 10
227.7955701285
 20
325.161361448065
 30
0.0
 11
146.8955701285
 21
325.161361448065
 31
0.0
  0
LINE
  5
D5
330
D3
100
AcDbEntity
  8
1
  6
Continuous
 62
     2
100
AcDbLine
 10
227.7955701285
 20
302.3737364547
 30
0.0
 11
227.7955701285
 21
327.161361448065
 31
0.0
  0
LINE
  5
D6
330
D3
100
AcDbEntity
  8
1
  6
Continuous
 62
     2
100
AcDbLine
 10
146.8955701285
 20
319.1335909806
 30
0.0
 11
146.8955701285
 21
327.161361448065
 31
0.0
  0
SOLID
  5
D7
330
D3
100
AcDbEntity
  8
1
 62
     2
100
AcDbTrace
 10
224.2955701285
 20
324.7005777065091
 30
0.0
 11
224.2955701285
 21
325.6221451896209
 31
0.0
 12
227.7955701285
 22
325.161361448065
 32
0.0
 13
227.7955701285
 23
325.161361448065
 33
0.0
  0
SOLID
  5
D8
330
D3
100
AcDbEntity
  8
1
 62
     2
100
AcDbTrace
 10
150.3955701285
 20
325.6221451896209
 30
0.0
 11
150.3955701285
 21
324.7005777065091
 31
0.0
 12
146.8955701285
 22
325.161361448065
 32
0.0
 13
146.8955701285
 23
325.161361448065
 33
0.0
  0
MTEXT
  5
D9
330
D3
100
AcDbEntity
  8
1
 62
     3
100
AcDbMText
 10
183.6333371528718
 20
327.161361448065
 30
0.0
 40
3.5
 41
0.0
 71
     7
 72
     1
  1
\C3;\C3;\C3;80.9\C2;\H2.45;\S^ ;\C3;
  7
CONVERTER_11
 11
0.9999999999970619
 21
2.424068405545306E-6
 31
0.0
 73
     1
 44
0.60024009603842
  0
ENDBLK
  5
DB
330
D3
100
AcDbEntity
  8
0
100
AcDbBlockEnd
  0
BLOCK
  5
E5
330
DE
100
AcDbEntity
  8
0
100
AcDbBlockBegin
  2
*D5
 70
     1
 10
0.0
 20
0.0
 30
0.0
  3
*D5
  1

  0
LINE
  5
DF
330
DE
100
AcDbEntity
  8
1
  6
Continuous
 62
     2
100
AcDbLine
 10
227.7955701285
 20
332.308067405765
 30
0.0
 11
127.7955701285
 21
332.308067405765
 31
0.0
  0
LINE
  5
E0
330
DE
100
AcDbEntity
  8
1
  6
Continuous
 62
     2
100
AcDbLine
 10
227.7955701285
 20
302.3737364547
 30
0.0
 11
227.7955701285
 21
334.308067405765
 31
0.0
  0
LINE
  5
E1
330
DE
100
AcDbEntity
  8
1
  6
Continuous
 62
     2
100
AcDbLine
 10
127.7955701285
 20
316.2594385847
 30
0.0
 11
127.7955701285
 21
334.308067405765
 31
0.0
  0
SOLID
  5
E2
330
DE
100
AcDbEntity
  8
1
 62
     2
100
AcDbTrace
 10
224.2955701285
 20
331.8472836642091
 30
0.0
 11
224.2955701285
 21
332.7688511473208
 31
0.0
 12
227.7955701285
 22
332.308067405765
 32
0.0
 13
227.7955701285
 23
332.308067405765
 33
0.0
  0
SOLID
  5
E3
330
DE
100
AcDbEntity
  8
1
 62
     2
100
AcDbTrace
 10
131.2955701285
 20
332.7688511473208
 30
0.0
 11
131.2955701285
 21
331.8472836642091
 31
0.0
 12
127.7955701285
 22
332.308067405765
 32
0.0
 13
127.7955701285
 23
332.308067405765
 33
0.0
  0
MTEXT
  5
E4
330
DE
100
AcDbEntity
  8
1
 62
     3
100
AcDbMText
 10
174.370137520031
 20
334.308067405765
 30
0.0
 40
3.5
 41
0.0
 71
     7
 72
     1
  1
\C3;\C3;\C3;100\C2;\H2.45;\S^ ;\C3;
  7
CONVERTER_11
 11
0.9999999999970619
 21
2.424068405545306E-6
 31
0.0
 73
     1
 44
0.60024009603842
  0
ENDBLK
  5
E6
330
DE
100
AcDbEntity
  8
0
100
AcDbBlockEnd
  0
BLOCK
  5
F0
330
E9
100
AcDbEntity
  8
0
100
AcDbBlockBegin
  2
*D6
 70
     1
 10
0.0
 20
0.0
 30
0.0
  3
*D6
  1

  0
LINE
  5
EA
330
E9
100
AcDbEntity
  8
1
  6
Continuous
 62
     2
100
AcDbLine
 10
227.7955701285
 20
339.454773363466
 30
0.0
 11
59.39557012850003
 21
339.454773363466
 31
0.0
  0
LINE
  5
EB
330
E9
100
AcDbEntity
  8
1
  6
Continuous
 62
     2
100
AcDbLine
 10
227.7955701285
 20
302.3737364547
 30
0.0
 11
227.7955701285
 21
341.454773363466
 31
0.0
  0
LINE
  5
EC
330
E9
100
AcDbEntity
  8
1
  6
Continuous
 62
     2
100
AcDbLine
 10
59.39557012850001
 20
300.9061884242
 30
0.0
 11
59.39557012850001
 21
341.454773363466
 31
0.0
  0
SOLID
  5
ED
330
E9
100
AcDbEntity
  8
1
 62
     2
100
AcDbTrace
 10
224.2955701285
 20
338.9939896219101
 30
0.0
 11
224.2955701285
 21
339.9155571050219
 31
0.0
 12
227.7955701285
 22
339.454773363466
 32
0.0
 13
227.7955701285
 23
339.454773363466
 33
0.0
  0
SOLID
  5
EE
330
E9
100
AcDbEntity
  8
1
 62
     2
100
AcDbTrace
 10
62.89557012850003
 20
339.9155571050219
 30
0.0
 11
62.89557012850003
 21
338.9939896219101
 31
0.0
 12
59.39557012850003
 22
339.454773363466
 32
0.0
 13
59.39557012850003
 23
339.454773363466
 33
0.0
  0
MTEXT
  5
EF
330
E9
100
AcDbEntity
  8
1
 62
     3
100
AcDbMText
 10
146.5621291529171
 20
341.454773363466
 30
0.0
 40
3.5
 41
0.0
 71
     7
 72
     1
  1
\C3;\C3;\C3;168.4\C2;\H2.45;\S^ ;\C3;
  7
CONVERTER_11
 11
0.9999999999970619
 21
2.424068405545306E-6
 31
0.0
 73
     1
 44
0.60024009603842
  0
ENDBLK
  5
F1
330
E9
100
AcDbEntity
  8
0
100
AcDbBlockEnd
  0
BLOCK
  5
F8
330
F4
100
AcDbEntity
  8
0
100
AcDbBlockBegin
  2
*D7
 70
     1
 10
0.0
 20
0.0
 30
0.0
  3
*D7
  1

  0
LINE
  5
F5
330
F4
100
AcDbEntity
  8
1
  6
Continuous
 62
     2
100
AcDbLine
 10
156.3388022414927
 20
319.193177392402
 30
0.0
 11
147.9756997032569
 21
309.1514075229136
 31
0.0
  0
SOLID
  5
F6
330
F4
100
AcDbEntity
  8
1
 62
     2
100
AcDbTrace
 10
149.8614772915105
 20
312.1357273020463
 30
0.0
 11
150.5696197739038
 21
311.5459639168157
 31
0.0
 12
147.9756997032569
 22
309.1514075229136
 32
0.0
 13
147.9756997032569
 23
309.1514075229136
 33
0.0
  0
MTEXT
  5
F7
330
F4
100
AcDbEntity
  8
1
 62
     3
100
AcDbMText
 10
150.053500959334
 20
314.7714822658137
 30
0.0
 40
3.5
 41
0.0
 71
     7
 72
     1
  1
\C3; R\C3;\C3;3\C2;\H2.45;\S^ ;\C3;
  7
CONVERTER_11
 11
0.6399568084143404
 21
0.7684108818621267
 31
0.0
 73
     1
 44
0.60024009603842
  0
ENDBLK
  5
F9
330
F4
100
AcDbEntity
  8
0
100
AcDbBlockEnd
  0
ENDSEC
  0
SECTION
  2
ENTITIES
  0
INSERT
  5
6C
330
1F
100
AcDbEntity
  8
0
100
AcDbBlockReference
  2
Urheberrecht_DE-EN_horizontal
 10
155.465489121023
 20
247.491500473812
 30
0.0
  0
LINE
  5
70
330
1F
100
AcDbEntity
  8
0
  6
Continuous
 62
     7
100
AcDbLine
 10
59.39557012850001
 20
298.9061884242
 30
0.0
 11
59.39557012850001
 21
276.0070920225
 31
0.0
  0
LINE
  5
71
330
1F
100
AcDbEntity
  8
0
  6
Continuous
 62
     9
100
AcDbLine
 10
60.20846739279998
 20
299.8462431246001
 30
0.0
 11
60.20846739279998
 21
275.0670373221
 31
0.0
  0
LINE
  5
72
330
1F
100
AcDbEntity
  8
0
  6
Continuous
 62
     7
100
AcDbLine
 10
131.9955701285
 20
256.7443233741
 30
0.0
 11
135.4415166081
 21
256.7443233741
 31
0.0
  0
LINE
  5
73
330
1F
100
AcDbEntity
  8
0
  6
Continuous
 62
     7
100
AcDbLine
 10
142.4996236489
 20
256.7443233741
 30
0.0
 11
145.8955701285
 21
256.7443233741
 31
0.0
  0
LINE
  5
74
330
1F
100
AcDbEntity
  8
0
  6
Continuous
 62
     7
100
AcDbLine
 10
137.8080701285
 20
260.653841862
 30
0.0
 11
140.1330701285
 21
260.653841862
 31
0.0
  0
LINE
  5
75
330
1F
100
AcDbEntity
  8
0
  6
Continuous
 62
     7
100
AcDbLine
 10
127.3058877952
 20
265.3030581818
 30
0.0
 11
60.20846739279998
 21
275.0670373221
 31
0.0
  0
LINE
  5
76
330
1F
100
AcDbEntity
  8
0
  6
Continuous
 62
     7
100
AcDbLine
 10
128.3455701285
 20
265.5816402234
 30
0.0
 11
127.3058877952
 21
265.3030581818
 31
0.0
  0
LINE
  5
77
330
1F
100
AcDbEntity
  8
0
  6
Continuous
 62
     7
100
AcDbLine
 10
129.9955701285
 20
265.5816402234
 30
0.0
 11
128.3455701285
 21
265.5816402234
 31
0.0
  0
LINE
  5
78
330
1F
100
AcDbEntity
  8
0
  6
Continuous
 62
     7
100
AcDbLine
 10
149.8955701285
 20
266.4566402234
 30
0.0
 11
214.527620936
 21
266.4566402234
 31
0.0
  0
LINE
  5
79
330
1F
100
AcDbEntity
  8
0
  6
Continuous
 62
     7
100
AcDbLine
 10
127.3058877952
 20
309.6102222649
 30
0.0
 11
127.3058877952
 21
265.3030581818
 31
0.0
  0
LWPOLYLINE
  5
7A
330
1F
100
AcDbEntity
  8
TEIL_STARTBEZUEGE
  6
DOT_CENTER
 62
     7
100
AcDbPolyline
 90
        2
 70
     0
 43
0.25
 10
127.7955701285
 20
260.653841862
 10
127.7955701285
 20
314.2594385847
  0
LINE
  5
7B
330
1F
100
AcDbEntity
  8
0
  6
Continuous
 62
     7
100
AcDbLine
 10
128.3455701285
 20
309.3316402234
 30
0.0
 11
128.3455701285
 21
265.5816402234
 31
0.0
  0
LINE
  5
7C
330
1F
100
AcDbEntity
  8
0
  6
Continuous
 62
     9
100
AcDbLine
 10
129.9955701285
 20
309.3316402234
 30
0.0
 11
129.9955701285
 21
265.5816402234
 31
0.0
  0
LINE
  5
7D
330
1F
100
AcDbEntity
  8
0
  6
Continuous
 62
     7
100
AcDbLine
 10
130.9955701285
 20
317.1335909806
 30
0.0
 11
130.9955701285
 21
257.7796894661
 31
0.0
  0
LINE
  5
7E
330
1F
100
AcDbEntity
  8
0
  6
Continuous
 62
     9
100
AcDbLine
 10
131.9955701285
 20
318.1689570726
 30
0.0
 11
131.9955701285
 21
256.7443233741
 31
0.0
  0
LINE
  5
7F
330
1F
100
AcDbEntity
  8
0
  6
Continuous
 62
     7
100
AcDbLine
 10
135.4415166081
 20
318.1689570726
 30
0.0
 11
135.4415166081
 21
256.7443233741
 31
0.0
  0
LINE
  5
80
330
1F
100
AcDbEntity
  8
0
  6
Continuous
 62
     7
100
AcDbLine
 10
137.0580701285
 20
315.2634584258
 30
0.0
 11
137.0580701285
 21
259.6498220209
 31
0.0
  0
LINE
  5
81
330
1F
100
AcDbEntity
  8
0
  6
Continuous
 62
     9
100
AcDbLine
 10
137.8080701285
 20
314.2594385847
 30
0.0
 11
137.8080701285
 21
260.653841862
 31
0.0
  0
LWPOLYLINE
  5
82
330
1F
100
AcDbEntity
  8
DEFAULT_2
  6
DASHED
 62
     8
100
AcDbPolyline
 90
        2
 70
     0
 43
0.35
 10
227.7955701285
 20
280.4566402234
 10
172.7955701285
 20
280.4566402234
  0
LINE
  5
83
330
1F
100
AcDbEntity
  8
0
  6
Continuous
 62
     9
100
AcDbLine
 10
140.1330701285
 20
314.2594385847
 30
0.0
 11
140.1330701285
 21
260.653841862
 31
0.0
  0
LINE
  5
84
330
1F
100
AcDbEntity
  8
0
  6
Continuous
 62
     7
100
AcDbLine
 10
140.8830701285
 20
315.2634584258
 30
0.0
 11
140.8830701285
 21
259.6498220209
 31
0.0
  0
LINE
  5
85
330
1F
100
AcDbEntity
  8
0
  6
Continuous
 62
     7
100
AcDbLine
 10
142.4996236489
 20
318.1689570726
 30
0.0
 11
142.4996236489
 21
256.7443233741
 31
0.0
  0
LWPOLYLINE
  5
86
330
1F
100
AcDbEntity
  8
TEIL_STARTBEZUEGE
  6
DOT_CENTER
 62
     7
100
AcDbPolyline
 90
        2
 70
     0
 43
0.25
 10
230.7955701285
 20
287.4566402234
 10
56.39557012850004
 20
287.4566402234
  0
LINE
  5
87
330
1F
100
AcDbEntity
  8
0
  6
Continuous
 62
     9
100
AcDbLine
 10
145.8955701285
 20
318.1689570726
 30
0.0
 11
145.8955701285
 21
256.7443233741
 31
0.0
  0
LINE
  5
88
330
1F
100
AcDbEntity
  8
0
  6
Continuous
 62
     7
100
AcDbLine
 10
146.8955701285
 20
317.1335909806
 30
0.0
 11
146.8955701285
 21
311.4566401685
 31
0.0
  0
LINE
  5
89
330
1F
100
AcDbEntity
  8
RUNDUNGEN
  6
Continuous
 62
     9
100
AcDbLine
 10
149.8955701285
 20
308.4566402234
 30
0.0
 11
149.8955701285
 21
266.4566402234
 31
0.0
  0
LWPOLYLINE
  5
8A
330
1F
100
AcDbEntity
  8
BEZUGSACHSEN
  6
DASHED
 62
     8
100
AcDbPolyline
 90
        2
 70
     0
 43
0.35
 10
227.7955701285
 20
294.4566402234
 10
200.1955701285
 20
294.4566402234
  0
LWPOLYLINE
  5
8B
330
1F
100
AcDbEntity
  8
DEFAULT_2
  6
DASHED
 62
     8
100
AcDbPolyline
 90
        2
 70
     0
 43
0.35
 10
172.7955701285
 20
294.4566402234
 10
200.1955701285
 20
294.4566402234
  0
LINE
  5
8C
330
1F
100
AcDbEntity
  8
0
  6
Continuous
 62
     7
100
AcDbLine
 10
128.3455701285
 20
309.3316402234
 30
0.0
 11
127.3058877952
 21
309.6102222649
 31
0.0
  0
LINE
  5
8D
330
1F
100
AcDbEntity
  8
0
  6
Continuous
 62
     7
100
AcDbLine
 10
127.3058877952
 20
309.6102222649
 30
0.0
 11
60.20846739279998
 21
299.8462431246001
 31
0.0
  0
LINE
  5
8E
330
1F
100
AcDbEntity
  8
BEZUGSACHSEN
  6
Continuous
 62
     7
100
AcDbLine
 10
214.527620936
 20
308.4566402234
 30
0.0
 11
210.3955701285
 21
308.4566402234
 31
0.0
  0
LINE
  5
8F
330
1F
100
AcDbEntity
  8
BEZUGSACHSEN
  6
Continuous
 62
     7
100
AcDbLine
 10
200.1955701285
 20
308.4566402234
 30
0.0
 11
149.8955701285
 21
308.4566402234
 31
0.0
  0
LINE
  5
90
330
1F
100
AcDbEntity
  8
0
  6
Continuous
 62
     7
100
AcDbLine
 10
149.8955701285
 20
308.4566402234
 30
0.0
 11
200.1955701285
 21
308.4566402234
 31
0.0
  0
LINE
  5
91
330
1F
100
AcDbEntity
  8
0
  6
Continuous
 62
     7
100
AcDbLine
 10
210.3955701285
 20
308.4566402234
 30
0.0
 11
214.527620936
 21
308.4566402234
 31
0.0
  0
LINE
  5
92
330
1F
100
AcDbEntity
  8
0
  6
Continuous
 62
     7
100
AcDbLine
 10
129.9955701285
 20
309.3316402234
 30
0.0
 11
128.3455701285
 21
309.3316402234
 31
0.0
  0
LINE
  5
93
330
1F
100
AcDbEntity
  8
0
  6
Continuous
 62
     7
100
AcDbLine
 10
130.9955701285
 20
310.0066402234
 30
0.0
 11
130.9412841444
 21
310.0066402234
 31
0.0
  0
LWPOLYLINE
  5
94
330
1F
100
AcDbEntity
  8
DEFAULT_2
  6
DASHED
 62
     8
100
AcDbPolyline
 90
        2
 70
     0
 43
0.35
 10
172.7955701285
 20
294.4566402234
 10
172.7955701285
 20
280.4566402234
  0
LINE
  5
95
330
1F
100
AcDbEntity
  8
0
  6
Continuous
 62
     7
100
AcDbLine
 10
137.8080701285
 20
314.2594385847
 30
0.0
 11
140.1330701285
 21
314.2594385847
 31
0.0
  0
LINE
  5
96
330
1F
100
AcDbEntity
  8
0
  6
Continuous
 62
     7
100
AcDbLine
 10
131.9955701285
 20
318.1689570726
 30
0.0
 11
135.4415166081
 21
318.1689570726
 31
0.0
  0
LINE
  5
97
330
1F
100
AcDbEntity
  8
0
  6
Continuous
 62
     7
100
AcDbLine
 10
142.4996236489
 20
318.1689570726
 30
0.0
 11
145.8955701285
 21
318.1689570726
 31
0.0
  0
LINE
  5
98
330
1F
100
AcDbEntity
  8
0
  6
Continuous
 62
     7
100
AcDbLine
 10
215.027620936
 20
266.5906148196
 30
0.0
 11
227.2955701285
 21
273.6735185882
 31
0.0
  0
LINE
  5
99
330
1F
100
AcDbEntity
  8
RUNDUNGEN
  6
Continuous
 62
     7
100
AcDbLine
 10
227.2955701285
 20
301.2397618585
 30
0.0
 11
215.027620936
 21
308.3226656271
 31
0.0
  0
LINE
  5
9A
330
1F
100
AcDbEntity
  8
0
  6
Continuous
 62
     7
100
AcDbLine
 10
215.027620936
 20
308.3226656271
 30
0.0
 11
227.2955701285
 21
301.2397618585
 31
0.0
  0
LWPOLYLINE
  5
9B
330
1F
100
AcDbEntity
  8
BEZUGSACHSEN
  6
DASHED
 62
     8
100
AcDbPolyline
 90
        2
 70
     0
 43
0.35
 10
200.1955701285
 20
294.4566402234
 10
200.1955701285
 20
308.4566402234
  0
LWPOLYLINE
  5
9C
330
1F
100
AcDbEntity
  8
BEZUGSACHSEN
  6
DOT_CENTER
 62
     7
100
AcDbPolyline
 90
        2
 70
     0
 43
0.25
 10
205.2955701285
 20
311.4566402234
 10
205.2955701285
 20
289.2504569095
  0
LWPOLYLINE
  5
9D
330
1F
100
AcDbEntity
  8
BEZUGSACHSEN
  6
DASHED
 62
     8
100
AcDbPolyline
 90
        2
 70
     0
 43
0.35
 10
210.3955701285
 20
294.4566402234
 10
210.3955701285
 20
308.4566402234
  0
LINE
  5
9E
330
1F
100
AcDbEntity
  8
RUNDUNGEN
  6
Continuous
 62
     9
100
AcDbLine
 10
214.527620936
 20
266.4566402234
 30
0.0
 11
214.527620936
 21
308.4566402234
 31
0.0
  0
LINE
  5
9F
330
1F
100
AcDbEntity
  8
RUNDUNGEN
  6
Continuous
 62
     9
100
AcDbLine
 10
215.027620936
 20
266.5906148196
 30
0.0
 11
215.027620936
 21
308.3226656271
 31
0.0
  0
LINE
  5
A0
330
1F
100
AcDbEntity
  8
RUNDUNGEN
  6
Continuous
 62
     9
100
AcDbLine
 10
227.2955701285
 20
273.6735185882
 30
0.0
 11
227.2955701285
 21
301.2397618585
 31
0.0
  0
LINE
  5
A1
330
1F
100
AcDbEntity
  8
RUNDUNGEN
  6
Continuous
 62
     7
100
AcDbLine
 10
227.7955701285
 20
274.539543992
 30
0.0
 11
227.7955701285
 21
300.3737364547
 31
0.0
  0
LWPOLYLINE
  5
A2
330
1F
100
AcDbEntity
  8
BEZUGSACHSEN
  6
DASHED
 62
     8
100
AcDbPolyline
 90
        2
 70
     0
 43
0.35
 10
211.2955701285
 20
294.4566402234
 10
211.2955701285
 20
308.4566402234
  0
LWPOLYLINE
  5
A3
330
1F
100
AcDbEntity
  8
BEZUGSACHSEN
  6
DASHED
 62
     8
100
AcDbPolyline
 90
        2
 70
     0
 43
0.35
 10
199.2955701285
 20
294.4566402234
 10
199.2955701285
 20
308.4566402234
  0
LWPOLYLINE
  5
A4
330
1F
100
AcDbEntity
  8
1
  6
Continuous
 62
     7
100
AcDbPolyline
 90
        2
 70
     0
 43
0.5
 10
146.8955701285
 20
311.4566401685
 10
146.8955701285
 20
257.7796894661
  0
ARC
  5
A5
330
1F
100
AcDbEntity
  8
0
  6
Continuous
 62
     7
100
AcDbCircle
 10
-827.0796446917
 20
-219.2584333422
 30
0.0
 40
1102.395204052503
100
AcDbArc
 50
29.004165243055
 51
29.17697495598086
  0
ARC
  5
A6
330
1F
100
AcDbEntity
  8
0
  6
Continuous
 62
     7
100
AcDbCircle
 10
129.9955701285
 20
264.5816402234
 30
0.0
 40
1.0
100
AcDbArc
 50
0.0
 51
90.0
  0
ARC
  5
A7
330
1F
100
AcDbEntity
  8
0
  6
Continuous
 62
     7
100
AcDbCircle
 10
60.34557012850001
 20
276.0070920225
 30
0.0
 40
0.9499999999999957
100
AcDbArc
 50
180.0
 51
261.7021731719695
  0
ARC
  5
A8
330
1F
100
AcDbEntity
  8
0
  6
Continuous
 62
     7
100
AcDbCircle
 10
-827.0796446728
 20
794.1717137784
 30
0.0
 40
1102.39520403089
100
AcDbArc
 50
330.8230250440168
 51
330.995834756946
  0
ARC
  5
A9
330
1F
100
AcDbEntity
  8
0
  6
Continuous
 62
     7
100
AcDbCircle
 10
129.9955701285
 20
310.3316402234
 30
0.0
 40
1.0
100
AcDbArc
 50
270.0
 51
341.0344250098692
  0
ARC
  5
AA
330
1F
100
AcDbEntity
  8
0
  6
Continuous
 62
     7
100
AcDbCircle
 10
60.34557012850001
 20
298.9061884242
 30
0.0
 40
0.9499999999372213
100
AcDbArc
 50
98.2978268280295
 51
180.0
  0
ARC
  5
AB
330
1F
100
AcDbEntity
  8
0
  6
Continuous
 62
     7
100
AcDbCircle
 10
1105.020784943
 20
-219.2584333391
 30
0.0
 40
1102.395204046023
100
AcDbArc
 50
150.8230250440154
 51
150.9958347569423
  0
ARC
  5
AC
330
1F
100
AcDbEntity
  8
RUNDUNGEN
  6
Continuous
 62
     7
100
AcDbCircle
 10
149.8955701285
 20
263.4566402234
 30
0.0
 40
3.0
100
AcDbArc
 50
90.0
 51
180.0
  0
ARC
  5
AD
330
1F
100
AcDbEntity
  8
RUNDUNGEN
  6
Continuous
 62
     7
100
AcDbCircle
 10
214.527620936
 20
267.4566402234
 30
0.0
 40
1.0
100
AcDbArc
 50
270.0
 51
299.9999999995543
  0
ARC
  5
AE
330
1F
100
AcDbEntity
  8
RUNDUNGEN
  6
Continuous
 62
     7
100
AcDbCircle
 10
226.7955701285
 20
274.539543992
 30
0.0
 40
1.000000000013472
100
AcDbArc
 50
299.9999999995543
 51
0.0
  0
ARC
  5
AF
330
1F
100
AcDbEntity
  8
0
  6
Continuous
 62
     7
100
AcDbCircle
 10
1105.0207849241
 20
794.1717137753
 30
0.0
 40
1102.395204024394
100
AcDbArc
 50
209.0041652430567
 51
209.176974955987
  0
ARC
  5
B0
330
1F
100
AcDbEntity
  8
RUNDUNGEN
  6
Continuous
 62
     7
100
AcDbCircle
 10
149.8955701285
 20
311.4566401685
 30
0.0
 40
3.0
100
AcDbArc
 50
180.0
 51
270.0
  0
ARC
  5
B1
330
1F
100
AcDbEntity
  8
RUNDUNGEN
  6
Continuous
 62
     7
100
AcDbCircle
 10
214.527620936
 20
307.4566402234
 30
0.0
 40
0.9999999999268803
100
AcDbArc
 50
59.99999999758122
 51
90.0
  0
ARC
  5
B2
330
1F
100
AcDbEntity
  8
RUNDUNGEN
  6
Continuous
 62
     7
100
AcDbCircle
 10
226.7955701285
 20
300.3737364547
 30
0.0
 40
1.0
100
AcDbArc
 50
0.0
 51
60.00000000044565
  0
SPLINE
  5
B3
330
1F
100
AcDbEntity
  8
0
  6
Continuous
 62
     2
100
AcDbSpline
210
0.0
220
0.0
230
1.0
 70
     8
 71
     3
 72
    45
 73
    41
 74
    39
 42
0.0000000001
 43
0.0000000001
 44
0.00000001
 40
0.0
 40
0.0
 40
0.0
 40
0.0
 40
0.0204190240120165
 40
0.0816842618194306
 40
0.1836222921247868
 40
0.3253168052586592
 40
0.505384274860204
 40
0.721304988957007
 40
0.9704784685504753
 40
1.251088296385435
 40
1.561754448117752
 40
1.902011730768776
 40
2.271378915164408
 40
2.668320238946396
 40
3.090814414286367
 40
3.535826639814455
 40
4.001246711586927
 40
4.489569656943483
 40
5.002549432219783
 40
5.534184576490887
 40
6.076134518520016
 40
6.618212465855672
 40
7.150226683684989
 40
7.663810284097973
 40
8.15293123902163
 40
8.619315731942443
 40
9.065427749246606
 40
9.489109945586812
 40
9.887275866544664
 40
10.25785091441412
 40
10.59925507166691
 40
10.91100196235634
 40
11.19262340260157
 40
11.44270671361761
 40
11.65940348006748
 40
11.84011404060899
 40
11.98232400855838
 40
12.08464075041021
 40
12.1461367457518
 40
12.16663348089661
 40
12.16663348089661
 40
12.16663348089661
 40
12.16663348089661
 10
199.2955701285
 20
308.4566677569
 30
0.0
 10
199.3021131308815
 20
308.454792810528
 30
0.0
 10
199.3282877570196
 20
308.4472922752306
 30
0.0
 10
199.3871792115586
 20
308.4306141464239
 30
0.0
 10
199.4850352839522
 20
308.4031656641426
 30
0.0
 10
199.6212251913973
 20
308.3657570972591
 30
0.0
 10
199.7943373368648
 20
308.3193327443568
 30
0.0
 10
200.0024990297834
 20
308.2653133494984
 30
0.0
 10
200.2436800263527
 20
308.2051473744824
 30
0.0
 10
200.5162407214363
 20
308.1403539037173
 30
0.0
 10
200.8192097237774
 20
308.0722907968924
 30
0.0
 10
201.1520705363318
 20
308.0024478382359
 30
0.0
 10
201.5142094426239
 20
307.9322932313386
 30
0.0
 10
201.9045081833464
 20
307.8636480946904
 30
0.0
 10
202.3209499002362
 20
307.7984845591608
 30
0.0
 10
202.7612309105614
 20
307.7385613328323
 30
0.0
 10
203.2245039568888
 20
307.6855956720535
 30
0.0
 10
203.7114629905233
 20
307.6414618018622
 30
0.0
 10
204.2213815038676
 20
307.6077620891028
 30
0.0
 10
204.7498593952304
 20
307.5862128359624
 30
0.0
 10
205.2884294595623
 20
307.5789253735289
 30
0.0
 10
205.8271309833637
 20
307.5858315536951
 30
0.0
 10
206.3559938341497
 20
307.607029308242
 30
0.0
 10
206.8665272935372
 20
307.6404276544578
 30
0.0
 10
207.354299542456
 20
307.6843291461116
 30
0.0
 10
207.8185511106206
 20
307.7371370768899
 30
0.0
 10
208.2599373020038
 20
307.7969801805356
 30
0.0
 10
208.6775656150365
 20
307.8621351637754
 30
0.0
 10
209.0690797835342
 20
307.9308378243408
 30
0.0
 10
209.432413300082
 20
308.0010999782894
 30
0.0
 10
209.7664139506197
 20
308.0710877595116
 30
0.0
 10
210.0704512818732
 20
308.1393218976237
 30
0.0
 10
210.3439965578761
 20
308.2043008950372
 30
0.0
 10
210.5860577513485
 20
308.2646535581963
 30
0.0
 10
210.7949758857858
 20
308.318848789425
 30
0.0
 10
210.9687136691713
 20
308.3654298713561
 30
0.0
 10
211.1053991101508
 20
308.4029690404651
 30
0.0
 10
211.2036167532857
 20
308.4305169117948
 30
0.0
 10
211.2627287685577
 20
308.4472568664835
 30
0.0
 10
211.289002227571
 20
308.4547857677072
 30
0.0
 10
211.2955701285
 20
308.4566678601
 30
0.0
 11
199.2955701285
 21
308.4566677569
 31
0.0
 11
199.3152005853912
 21
308.4510479967766
 31
0.0
 11
199.3741398183545
 21
308.4343268669913
 31
0.0
 11
199.4722961501565
 21
308.4068187491038
 31
0.0
 11
199.6089240196975
 21
308.3692666477387
 31
0.0
 11
199.7828505991033
 21
308.3226422058125
 31
0.0
 11
199.9918478787284
 21
308.2684029959607
 31
0.0
 11
200.2336153459624
 21
308.208104449378
 31
0.0
 11
200.5066176567708
 21
308.1432075020629
 31
0.0
 11
200.8097344996046
 21
308.0751366755463
 31
0.0
 11
201.1427405254661
 21
308.0052653285076
 31
0.0
 11
201.5053721311116
 21
307.9350482686483
 31
0.0
 11
201.896317732627
 21
307.8663172626789
 31
0.0
 11
202.3137321803167
 21
307.8009987579799
 31
0.0
 11
202.7546840431066
 21
307.7410209656598
 31
0.0
 11
203.2171003677188
 21
307.6882290539606
 31
0.0
 11
203.7034283925439
 21
307.6441342557252
 31
0.0
 11
204.2152904064345
 21
307.6102885975343
 31
0.0
 11
204.7464887093319
 21
307.5887412166488
 31
0.0
 11
205.2883876445917
 21
307.5813059204393
 31
0.0
 11
205.8304197174017
 21
307.5883580855651
 31
0.0
 11
206.3620116132404
 21
307.6095520528926
 31
0.0
 11
206.874498576922
 21
307.6430964513755
 31
0.0
 11
207.3616487759104
 21
307.6869597865315
 31
0.0
 11
207.8250535096612
 21
307.7395957815763
 31
0.0
 11
208.2671259703229
 21
307.7994946255361
 31
0.0
 11
208.6857437879217
 21
307.8648071533122
 31
0.0
 11
209.0779222453946
 21
307.9335978365941
 31
0.0
 11
209.4417628003352
 21
308.003925048141
 31
0.0
 11
209.7759102180329
 21
308.0739414878921
 31
0.0
 11
210.0800963188281
 21
308.142183263496
 31
0.0
 11
210.3540937959938
 21
308.2072679630238
 31
0.0
 11
210.5967517806225
 21
308.2677556885942
 31
0.0
 11
210.806505204028
 21
308.3221706677771
 31
0.0
 11
210.9810557594019
 21
308.3689511157219
 31
0.0
 11
211.118182054757
 21
308.4066347209944
 31
0.0
 11
211.2167035968541
 21
308.4342430785331
 31
0.0
 11
211.2758649650036
 21
308.4510267003631
 31
0.0
 11
211.2955701285
 21
308.4566678601
 31
0.0
  0
SPLINE
  5
B4
330
1F
100
AcDbEntity
  8
0
  6
Continuous
 62
     7
100
AcDbSpline
210
0.0
220
0.0
230
1.0
 70
     8
 71
     3
 72
    15
 73
    11
 74
     9
 42
0.0000000001
 43
0.0000000001
 44
0.00000001
 40
0.0
 40
0.0
 40
0.0
 40
0.0
 40
0.1991720574206834
 40
0.3990536357614086
 40
0.5986807643401594
 40
0.7980988308462013
 40
0.9975253742967534
 40
1.197147976174085
 40
1.397095164926101
 40
1.596192542425144
 40
1.596192542425144
 40
1.596192542425144
 40
1.596192542425144
 10
146.8955701285
 20
317.1335909806
 30
0.0
 10
146.8919450303355
 20
317.2000697722749
 30
0.0
 10
146.8846819201319
 20
317.3332641764621
 30
0.0
 10
146.827389740595
 20
317.5262673289458
 30
0.0
 10
146.7370827921711
 20
317.7054100322335
 30
0.0
 10
146.6137244568835
 20
317.8638564128552
 30
0.0
 10
146.4618727240742
 20
317.9953471173774
 30
0.0
 10
146.2867963740715
 20
318.0935729533924
 30
0.0
 10
146.0952567910354
 20
318.1567204594345
 30
0.0
 10
145.962037780949
 20
318.1648839966083
 30
0.0
 10
145.8955701285
 20
318.1689570726
 30
0.0
 11
146.8955701285
 21
317.1335909806
 31
0.0
 11
146.8769909831472
 21
317.3318945958347
 31
0.0
 11
146.8218567550678
 21
317.5240217991508
 31
0.0
 11
146.7315245976047
 21
317.7020417188021
 31
0.0
 11
146.6089789403039
 21
317.8593634500592
 31
0.0
 11
146.4580805705414
 21
317.9897499073147
 31
0.0
 11
146.2841326559271
 21
318.0876851215208
 31
0.0
 11
146.0935921483507
 21
318.1482919962329
 31
0.0
 11
145.8955701285
 21
318.1689570726
 31
0.0
  0
SPLINE
  5
B5
330
1F
100
AcDbEntity
  8
0
  6
Continuous
 62
     7
100
AcDbSpline
210
0.0
220
0.0
230
1.0
 70
     8
 71
     3
 72
    15
 73
    11
 74
     9
 42
0.0000000001
 43
0.0000000001
 44
0.00000001
 40
0.0
 40
0.0
 40
0.0
 40
0.0
 40
0.1991000959088746
 40
0.3990500500931852
 40
0.5986741602062452
 40
0.7981021741818053
 40
0.9975186421753817
 40
1.197144165087767
 40
1.397023090611771
 40
1.596192517459345
 40
1.596192517459345
 40
1.596192517459345
 40
1.596192517459345
 10
145.8955701285
 20
256.7443233741
 30
0.0
 10
145.962038690725
 20
256.7483965774999
 30
0.0
 10
146.0952595360711
 20
256.7565603707584
 30
0.0
 10
146.2868011134236
 20
256.8197095309592
 30
0.0
 10
146.4618785530592
 20
256.9179373664336
 30
0.0
 10
146.6137296923673
 20
257.0494295055482
 30
0.0
 10
146.7370864662755
 20
257.2078763347109
 30
0.0
 10
146.8273914543396
 20
257.3870178134738
 30
0.0
 10
146.8846822150819
 20
257.5800189178368
 30
0.0
 10
146.8919451284576
 20
257.7132115544808
 30
0.0
 10
146.8955701285
 20
257.7796894661
 30
0.0
 11
145.8955701285
 21
256.7443233741
 31
0.0
 11
146.0935948175444
 21
256.7649890635344
 31
0.0
 11
146.2841376925603
 21
256.8255976186978
 31
0.0
 11
146.4580863216951
 21
256.9235346380548
 31
0.0
 11
146.6089848395762
 21
257.0539231730551
 31
0.0
 11
146.7315283389865
 21
257.2112445589481
 31
0.0
 11
146.821858709841
 21
257.3892635846149
 31
0.0
 11
146.876991480054
 21
257.5813884464034
 31
0.0
 11
146.8955701285
 21
257.7796894661
 31
0.0
  0
SPLINE
  5
B6
330
1F
100
AcDbEntity
  8
0
  6
Continuous
 62
     7
100
AcDbSpline
210
0.0
220
0.0
230
1.0
 70
     8
 71
     3
 72
    15
 73
    11
 74
     9
 42
0.0000000001
 43
0.0000000001
 44
0.00000001
 40
0.0
 40
0.0
 40
0.0
 40
0.0
 40
0.1991002754502642
 40
0.3990504136622974
 40
0.5986744171460964
 40
0.7981023203119735
 40
0.9975187550159141
 40
1.197144245716169
 40
1.39702312806844
 40
1.596192512839897
 40
1.596192512839897
 40
1.596192512839897
 40
1.596192512839897
 10
131.9955701285
 20
318.1689570726
 30
0.0
 10
131.9291015062059
 20
318.1648838585772
 30
0.0
 10
131.7958805392232
 20
318.1567200439516
 30
0.0
 10
131.6043389003318
 20
318.0935707824333
 30
0.0
 10
131.4292614990936
 20
317.9953429089019
 30
0.0
 10
131.2774104406594
 20
317.8638508064357
 30
0.0
 10
131.1540537174787
 20
317.7054040128096
 30
0.0
 10
131.0637487612162
 20
317.5262625583843
 30
0.0
 10
131.0064580329248
 20
317.3332614862678
 30
0.0
 10
130.9991951255539
 20
317.2000688781425
 30
0.0
 10
130.9955701285
 20
317.1335909806
 30
0.0
 11
131.9955701285
 21
318.1689570726
 31
0.0
 11
131.7975452639749
 21
318.1482913349124
 31
0.0
 11
131.6070022340997
 21
318.0876826594855
 31
0.0
 11
131.4330537253364
 21
317.9897456436748
 31
0.0
 11
131.2821553090813
 21
317.8593571605451
 31
0.0
 11
131.1596118442182
 21
317.702035789939
 31
0.0
 11
131.0692815042858
 21
317.5240167847036
 31
0.0
 11
131.0141487639588
 21
317.331891959253
 31
0.0
 11
130.9955701285
 21
317.1335909806
 31
0.0
  0
SPLINE
  5
B7
330
1F
100
AcDbEntity
  8
0
  6
Continuous
 62
     7
100
AcDbSpline
210
0.0
220
0.0
230
1.0
 70
     8
 71
     3
 72
    15
 73
    11
 74
     9
 42
0.0000000001
 43
0.0000000001
 44
0.00000001
 40
0.0
 40
0.0
 40
0.0
 40
0.0
 40
0.1991719801533021
 40
0.3990534797235127
 40
0.5986806086066342
 40
0.7980986751401931
 40
0.9975251471165467
 40
1.197147680798704
 40
1.397095016929974
 40
1.596192537871221
 40
1.596192537871221
 40
1.596192537871221
 40
1.596192537871221
 10
130.9955701285
 20
257.7796894661
 30
0.0
 10
130.9991952222392
 20
257.7132107002702
 30
0.0
 10
131.0064583235541
 20
257.5800163482748
 30
0.0
 10
131.0637504564312
 20
257.387013237925
 30
0.0
 10
131.1540573699438
 20
257.207870545442
 30
0.0
 10
131.2774156738311
 20
257.0494241703444
 30
0.0
 10
131.4292673552147
 20
256.9179334789745
 30
0.0
 10
131.6043436838404
 20
256.8197076054881
 30
0.0
 10
131.7958833206695
 20
256.7565600140005
 30
0.0
 10
131.9291024280576
 20
256.7483964589681
 30
0.0
 10
131.9955701285
 20
256.7443233741
 30
0.0
 11
130.9955701285
 21
257.7796894661
 31
0.0
 11
131.0141492538457
 21
257.5813859265966
 31
0.0
 11
131.0692834325681
 21
257.3892587910664
 31
0.0
 11
131.1596155656125
 21
257.2112388586831
 31
0.0
 11
131.2821612061244
 21
257.0539171143134
 31
0.0
 11
131.4330595052432
 21
256.9235306846209
 31
0.0
 11
131.6070073375874
 21
256.8255954632935
 31
0.0
 11
131.7975479685983
 21
256.7649884904276
 31
0.0
 11
131.9955701285
 21
256.7443233741
 31
0.0
  0
SPLINE
  5
B8
330
1F
100
AcDbEntity
  8
BEZUGSACHSEN
  6
Continuous
 62
     7
100
AcDbSpline
210
0.0
220
0.0
230
1.0
 70
     8
 71
     3
 72
    19
 73
    15
 74
    13
 42
0.0000000001
 43
0.0000000001
 44
0.00000001
 40
0.0
 40
0.0
 40
0.0
 40
0.0
 40
0.7631208668728922
 40
1.526333405271306
 40
2.358997425630328
 40
3.191661760261657
 40
4.171081458107412
 40
5.150546239685967
 40
6.130011103994899
 40
7.109430884217002
 40
7.942095361302423
 40
8.774759524766576
 40
9.537973134643801
 40
10.30109507203846
 40
10.30109507203846
 40
10.30109507203846
 40
10.30109507203846
 10
210.3955701285
 20
308.4566402234
 30
0.0
 10
210.1478344008175
 20
308.3988084782884
 30
0.0
 10
209.6523331856689
 20
308.2831380409032
 30
0.0
 10
208.8796073921729
 20
308.1363305155994
 30
0.0
 10
208.0795580893321
 20
308.0118405964414
 30
0.0
 10
207.2035806039003
 20
307.9105279887686
 30
0.0
 10
206.2751126431915
 20
307.843734574787
 30
0.0
 10
205.2955713960552
 20
307.8200733000498
 30
0.0
 10
204.3160301177011
 20
307.8437344272057
 30
0.0
 10
203.3875620454161
 20
307.9105277254364
 30
0.0
 10
202.5115844276754
 20
308.0118402599443
 30
0.0
 10
201.7115346676971
 20
308.136330184204
 30
0.0
 10
200.9388081170433
 20
308.2831378090215
 30
0.0
 10
200.4433062046496
 20
308.3988084010185
 30
0.0
 10
200.1955701285
 20
308.4566402234
 30
0.0
 11
210.3955701285
 21
308.4566402234
 31
0.0
 11
209.6512449033853
 21
308.2883148934144
 31
0.0
 11
208.9016744254439
 21
308.144657393202
 31
0.0
 11
208.078818056413
 21
308.0172338210273
 31
0.0
 11
207.2516578726531
 21
307.9216517904503
 31
0.0
 11
206.2747530761415
 21
307.8515093419551
 31
0.0
 11
205.2955714230085
 21
307.8279604880454
 31
0.0
 11
204.3163896836625
 21
307.8515091981427
 31
0.0
 11
203.3394847958593
 21
307.9216515254244
 31
0.0
 11
202.5123244608523
 21
308.0172334881112
 31
0.0
 11
201.6894679398512
 21
308.1446570140528
 31
0.0
 11
200.9398964015116
 21
308.2883146738311
 31
0.0
 11
200.1955701285
 21
308.4566402234
 31
0.0
  0
SPLINE
  5
B9
330
1F
100
AcDbEntity
  8
0
  6
Continuous
 62
     7
100
AcDbSpline
210
0.0
220
0.0
230
1.0
 70
     8
 71
     3
 72
    15
 73
    11
 74
     9
 42
0.0000000001
 43
0.0000000001
 44
0.00000001
 40
0.0
 40
0.0
 40
0.0
 40
0.0
 40
0.1499520085006219
 40
0.3004340248599093
 40
0.4507251465489753
 40
0.6008598894231844
 40
0.7510035493645879
 40
0.9012893510914546
 40
1.051831757341834
 40
1.201718119661346
 40
1.201718119661346
 40
1.201718119661346
 40
1.201718119661346
 10
140.8830701285
 20
315.0420077214
 30
0.0
 10
140.8803625145069
 20
314.9919583731944
 30
0.0
 10
140.874937716414
 20
314.8916827765327
 30
0.0
 10
140.8321559356396
 20
314.7462995668842
 30
0.0
 10
140.7647470436373
 20
314.6111540150571
 30
0.0
 10
140.672540792574
 20
314.4913641465977
 30
0.0
 10
140.5588438764469
 20
314.3916510111799
 30
0.0
 10
140.4274515690774
 20
314.3169416402845
 30
0.0
 10
140.283409459675
 20
314.2687991674696
 30
0.0
 10
140.1831102313472
 20
314.2625542332854
 30
0.0
 10
140.1330701285
 20
314.2594385847
 30
0.0
 11
140.8830701285
 21
315.0420077214
 31
0.0
 11
140.8691947121635
 21
314.8926990556272
 31
0.0
 11
140.8280286869033
 21
314.7479572316376
 31
0.0
 11
140.7605773921763
 21
314.6136525627008
 31
0.0
 11
140.6689620365674
 21
314.4947111164571
 31
0.0
 11
140.5559525606002
 21
314.395857806132
 31
0.0
 11
140.4254066748079
 21
314.3214024913225
 31
0.0
 11
140.2821235191377
 21
314.2752185830768
 31
0.0
 11
140.1330701285
 21
314.2594385847
 31
0.0
  0
SPLINE
  5
BA
330
1F
100
AcDbEntity
  8
0
  6
Continuous
 62
     7
100
AcDbSpline
210
0.0
220
0.0
230
1.0
 70
     8
 71
     3
 72
    15
 73
    11
 74
     9
 42
0.0000000001
 43
0.0000000001
 44
0.00000001
 40
0.0
 40
0.0
 40
0.0
 40
0.0
 40
0.1498887298089038
 40
0.300433547993221
 40
0.4507207373815654
 40
0.6008657480987105
 40
0.7509990952810867
 40
0.9012888186867449
 40
1.051768450210372
 40
1.201718090962255
 40
1.201718090962255
 40
1.201718090962255
 40
1.201718090962255
 10
137.8080701285
 20
314.2594385847
 30
0.0
 10
137.7580292332862
 20
314.2625543472786
 30
0.0
 10
137.6577284053788
 20
314.2687995106569
 30
0.0
 10
137.513684544402
 20
314.3169434542204
 30
0.0
 10
137.3822912564714
 20
314.3916545985571
 30
0.0
 10
137.2685948376179
 20
314.4913690230081
 30
0.0
 10
137.1763899635852
 20
314.6111593154158
 30
0.0
 10
137.1089828163263
 20
314.7463037843355
 30
0.0
 10
137.0662022843335
 20
314.8916851584944
 30
0.0
 10
137.0607776572286
 20
314.9919591652785
 30
0.0
 10
137.0580701285
 20
315.0420077214
 30
0.0
 11
137.8080701285
 21
314.2594385847
 31
0.0
 11
137.659014414869
 21
314.2752191283437
 31
0.0
 11
137.5157292029511
 21
314.3214045191916
 31
0.0
 11
137.3851826419819
 21
314.3958614511279
 31
0.0
 11
137.2721730064815
 21
314.4947166306955
 31
0.0
 11
137.1805595570619
 21
314.6136577834628
 31
0.0
 11
137.1131098416061
 21
314.7479616808235
 31
0.0
 11
137.0719451091775
 21
314.892701393092
 31
0.0
 11
137.0580701285
 21
315.0420077214
 31
0.0
  0
SPLINE
  5
BB
330
1F
100
AcDbEntity
  8
0
  6
Continuous
 62
     7
100
AcDbSpline
210
0.0
220
0.0
230
1.0
 70
     8
 71
     3
 72
    15
 73
    11
 74
     9
 42
0.0000000001
 43
0.0000000001
 44
0.00000001
 40
0.0
 40
0.0
 40
0.0
 40
0.0
 40
0.1499521789458388
 40
0.3004343667390716
 40
0.4507255054092254
 40
0.6008602661592204
 40
0.7510040236202858
 40
0.9012899196393824
 40
1.051832040742469
 40
1.201718121843516
 40
1.201718121843516
 40
1.201718121843516
 40
1.201718121843516
 10
137.0580701285
 20
259.8712727253
 30
0.0
 10
137.0607777489266
 20
259.921322130516
 30
0.0
 10
137.066202559916
 20
260.0215978415291
 30
0.0
 10
137.108984423944
 20
260.1669811558349
 30
0.0
 10
137.1763934075465
 20
260.3021267390945
 30
0.0
 10
137.2685997432634
 20
260.421916598708
 30
0.0
 10
137.3822967655426
 20
260.5216297210216
 30
0.0
 10
137.5136890972963
 20
260.5963389915219
 30
0.0
 10
137.6577310809193
 20
260.6444813192716
 30
0.0
 10
137.7580301197467
 20
260.6507262267235
 30
0.0
 10
137.8080701285
 20
260.653841862
 30
0.0
 11
137.0580701285
 21
259.8712727253
 31
0.0
 11
137.0719455771615
 21
260.0205815592485
 31
0.0
 11
137.1131116960782
 21
260.1653235348339
 31
0.0
 11
137.1805630588248
 21
260.2996281886118
 31
0.0
 11
137.2721784817264
 21
260.4185696055868
 31
0.0
 11
137.3851880838361
 21
260.5174229198233
 31
0.0
 11
137.5157341016847
 21
260.5918781934185
 31
0.0
 11
137.6590170138855
 21
260.6380619275408
 31
0.0
 11
137.8080701285
 21
260.653841862
 31
0.0
  0
SPLINE
  5
BC
330
1F
100
AcDbEntity
  8
0
  6
Continuous
 62
     7
100
AcDbSpline
210
0.0
220
0.0
230
1.0
 70
     8
 71
     3
 72
    15
 73
    11
 74
     9
 42
0.0000000001
 43
0.0000000001
 44
0.00000001
 40
0.0
 40
0.0
 40
0.0
 40
0.0
 40
0.1498890554558783
 40
0.3004342038266917
 40
0.4507212547177777
 40
0.6008661227414797
 40
0.7509994132145008
 40
0.9012890815875924
 40
1.051768580289669
 40
1.201718088822349
 40
1.201718088822349
 40
1.201718088822349
 40
1.201718088822349
 10
140.1330701285
 20
260.653841862
 30
0.0
 10
140.1831111326706
 20
260.6507260839752
 30
0.0
 10
140.2834121800082
 20
260.6444808895724
 30
0.0
 10
140.4274561772459
 20
260.5963367811164
 30
0.0
 10
140.5588494213358
 20
260.5216255340464
 30
0.0
 10
140.6725456992958
 20
260.4219111228018
 30
0.0
 10
140.7647504657727
 20
260.302120856032
 30
0.0
 10
140.832157523968
 20
260.1669764348072
 30
0.0
 10
140.8749379874859
 20
260.0215951553203
 30
0.0
 10
140.8803626047046
 20
259.9213212371936
 30
0.0
 10
140.8830701285
 20
259.8712727253
 30
0.0
 11
140.1330701285
 21
260.653841862
 31
0.0
 11
140.2821261617519
 21
260.638061244247
 31
0.0
 11
140.4254116556409
 21
260.5918756519158
 31
0.0
 11
140.5559580400964
 21
260.5174186900443
 31
0.0
 11
140.6689675131854
 21
260.418563541539
 31
0.0
 11
140.7605808740624
 21
260.2996223921538
 31
0.0
 11
140.8280305131782
 21
260.1653185180368
 31
0.0
 11
140.8691951727466
 21
260.0205789231353
 31
0.0
 11
140.8830701285
 21
259.8712727253
 31
0.0
  0
DIMENSION
  5
C7
330
1F
100
AcDbEntity
  8
1
100
AcDbDimension
  2
*D2
 10
238.124559914802
 20
294.4566402234
 30
0.0
 11
234.374559914802
 21
287.540022538661
 31
0.0
 70
    32
  1
<>
 71
     5
 42
-1.0
 53
90.0
  3
ME10_DIM_10
100
AcDbAlignedDimension
 13
227.7955701285
 23
280.4566402234
 33
0.0
 14
227.7955701285
 24
294.4566402234
 34
0.0
 50
90.0
100
AcDbRotatedDimension
  0
DIMENSION
  5
D2
330
1F
100
AcDbEntity
  8
1
100
AcDbDimension
  2
*D3
 10
247.024231484768
 20
308.4566402234
 30
0.0
 11
243.274231484768
 21
287.674866047297
 31
0.0
 70
    32
  1
<>
 71
     5
 42
-1.0
 53
90.0
  3
ME10_DIM_11
100
AcDbAlignedDimension
 13
214.527620936
 23
266.4566402234
 33
0.0
 14
214.527620936
 24
308.4566402234
 34
0.0
 50
90.0
100
AcDbRotatedDimension
  0
DIMENSION
  5
DD
330
1F
100
AcDbEntity
  8
1
100
AcDbDimension
  2
*D4
 10
227.7955701285
 20
325.161361448065
 30
0.0
 11
187.4483371528718
 21
328.911361448065
 31
0.0
 70
    32
  1
<>
 71
     5
 42
-1.0
 53
0.00013888888889
  3
ME10_DIM_12
100
AcDbAlignedDimension
 13
146.8955701285
 23
317.1335909806
 33
0.0
 14
227.7955701285
 24
300.3737364547
 34
0.0
100
AcDbRotatedDimension
  0
DIMENSION
  5
E8
330
1F
100
AcDbEntity
  8
1
100
AcDbDimension
  2
*D5
 10
227.7955701285
 20
332.308067405765
 30
0.0
 11
177.310137520031
 21
336.058067405765
 31
0.0
 70
    32
  1
<>
 71
     5
 42
-1.0
 53
0.00013888888889
  3
ME10_DIM_13
100
AcDbAlignedDimension
 13
127.7955701285
 23
314.2594385847
 33
0.0
 14
227.7955701285
 24
300.3737364547
 34
0.0
100
AcDbRotatedDimension
  0
DIMENSION
  5
F3
330
1F
100
AcDbEntity
  8
1
100
AcDbDimension
  2
*D6
 10
227.7955701285
 20
339.454773363466
 30
0.0
 11
151.2171291529171
 21
343.204773363466
 31
0.0
 70
    32
  1
<>
 71
     5
 42
-1.0
 53
0.00013888888889
  3
ME10_DIM_14
100
AcDbAlignedDimension
 13
59.39557012850001
 23
298.9061884242
 33
0.0
 14
227.7955701285
 24
300.3737364547
 34
0.0
100
AcDbRotatedDimension
  0
INSERT
  5
FA
330
1F
100
AcDbEntity
  8
1
100
AcDbBlockReference
  2
*D7
 10
0.0
 20
0.0
 30
0.0
  0
ENDSEC
  0
SECTION
  2
OBJECTS
  0
DICTIONARY
  5
C
330
0
100
AcDbDictionary
281
     1
  3
ACAD_GROUP
350
D
  3
ACAD_LAYOUT
350
1A
  3
ACAD_MLEADERSTYLE
350
FD
  3
ACAD_MLINESTYLE
350
17
  3
ACAD_PLOTSETTINGS
350
19
  3
ACAD_PLOTSTYLENAME
350
E
  3
ACAD_SCALELIST
350
4A
  3
ACAD_VISUALSTYLE
350
2A
  3
AcDbVariableDictionary
350
FB
  0
DICTIONARY
  5
D
102
{ACAD_REACTORS
330
C
102
}
330
C
100
AcDbDictionary
281
     1
  0
DICTIONARY
  5
1A
102
{ACAD_REACTORS
330
C
102
}
330
C
100
AcDbDictionary
281
     1
  3
Layout1
350
1E
  3
Layout2
350
26
  3
Model
350
22
  0
DICTIONARY
  5
FD
102
{ACAD_REACTORS
330
C
102
}
330
C
100
AcDbDictionary
281
     1
  0
DICTIONARY
  5
17
102
{ACAD_REACTORS
330
C
102
}
330
C
100
AcDbDictionary
281
     1
  3
Standard
350
18
  0
DICTIONARY
  5
19
102
{ACAD_REACTORS
330
C
102
}
330
C
100
AcDbDictionary
281
     1
  0
ACDBDICTIONARYWDFLT
  5
E
102
{ACAD_REACTORS
330
C
102
}
330
C
100
AcDbDictionary
281
     1
  3
Normal
350
F
100
AcDbDictionaryWithDefault
340
F
  0
DICTIONARY
  5
4A
102
{ACAD_REACTORS
330
C
102
}
330
C
100
AcDbDictionary
281
     1
  3
A0
350
4B
  3
A1
350
4C
  3
A2
350
4D
  3
A3
350
4E
  3
A4
350
4F
  3
A5
350
50
  3
A6
350
51
  3
A7
350
52
  3
A8
350
53
  3
A9
350
54
  3
B0
350
55
  3
B1
350
56
  3
B2
350
57
  3
B3
350
58
  3
B4
350
59
  3
B5
350
5A
  3
B6
350
5B
  3
B7
350
5C
  3
B8
350
5D
  3
B9
350
5E
  3
C0
350
5F
  3
C1
350
60
  3
C2
350
61
  3
C3
350
62
  3
C4
350
63
  3
C5
350
64
  3
C6
350
65
  3
C7
350
66
  3
C8
350
67
  3
C9
350
68
  3
D0
350
69
  3
D1
350
6A
  3
D2
350
6B
  0
DICTIONARY
  5
2A
102
{ACAD_REACTORS
330
C
102
}
330
C
100
AcDbDictionary
281
     1
  3
2dWireframe
350
2F
  3
3D Hidden
350
31
  3
3dWireframe
350
30
  3
Basic
350
32
  3
Brighten
350
36
  3
ColorChange
350
3A
  3
Conceptual
350
34
  3
Dim
350
35
  3
Facepattern
350
39
  3
Flat
350
2B
  3
FlatWithEdges
350
2C
  3
Gouraud
350
2D
  3
GouraudWithEdges
350
2E
  3
Linepattern
350
38
  3
Realistic
350
33
  3
Thicken
350
37
  0
DICTIONARY
  5
FB
102
{ACAD_REACTORS
330
C
102
}
330
C
100
AcDbDictionary
281
     1
  3
CANNOSCALE
350
FE
  0
LAYOUT
  5
1E
102
{ACAD_REACTORS
330
1A
102
}
330
1A
100
AcDbPlotSettings
  1

  2
none_device
  4

  6

 40
0.0
 41
0.0
 42
0.0
 43
0.0
 44
0.0
 45
0.0
 46
0.0
 47
0.0
 48
0.0
 49
0.0
140
0.0
141
0.0
142
1.0
143
1.0
 70
   688
 72
     0
 73
     0
 74
     5
  7

 75
    16
147
1.0
148
0.0
149
0.0
100
AcDbLayout
  1
Layout1
 70
     1
 71
     1
 10
0.0
 20
0.0
 11
12.0
 21
9.0
 12
0.0
 22
0.0
 32
0.0
 14
1.00000000000000E+20
 24
1.00000000000000E+20
 34
1.00000000000000E+20
 15
-1.00000000000000E+20
 25
-1.00000000000000E+20
 35
-1.00000000000000E+20
146
0.0
 13
0.0
 23
0.0
 33
0.0
 16
1.0
 26
0.0
 36
0.0
 17
0.0
 27
1.0
 37
0.0
 76
     0
330
1B
  0
LAYOUT
  5
26
102
{ACAD_REACTORS
330
1A
102
}
330
1A
100
AcDbPlotSettings
  1

  2
none_device
  4

  6

 40
0.0
 41
0.0
 42
0.0
 43
0.0
 44
0.0
 45
0.0
 46
0.0
 47
0.0
 48
0.0
 49
0.0
140
0.0
141
0.0
142
1.0
143
1.0
 70
   688
 72
     0
 73
     0
 74
     5
  7

 75
    16
147
1.0
148
0.0
149
0.0
100
AcDbLayout
  1
Layout2
 70
     1
 71
     2
 10
0.0
 20
0.0
 11
0.0
 21
0.0
 12
0.0
 22
0.0
 32
0.0
 14
0.0
 24
0.0
 34
0.0
 15
0.0
 25
0.0
 35
0.0
146
0.0
 13
0.0
 23
0.0
 33
0.0
 16
1.0
 26
0.0
 36
0.0
 17
0.0
 27
1.0
 37
0.0
 76
     0
330
23
  0
LAYOUT
  5
22
102
{ACAD_REACTORS
330
1A
102
}
330
1A
100
AcDbPlotSettings
  1

  2
none_device
  4

  6

 40
0.0
 41
0.0
 42
0.0
 43
0.0
 44
0.0
 45
0.0
 46
0.0
 47
0.0
 48
0.0
 49
0.0
140
0.0
141
0.0
142
1.0
143
1.0
 70
  1712
 72
     0
 73
     0
 74
     0
  7

 75
     0
147
1.0
148
0.0
149
0.0
100
AcDbLayout
  1
Model
 70
     1
 71
     0
 10
0.0
 20
0.0
 11
12.0
 21
9.0
 12
0.0
 22
0.0
 32
0.0
 14
56.27057012850004
 24
240.0934924639077
 34
0.0
 15
249.024231484768
 25
344.954773363466
 35
0.0
146
0.0
 13
0.0
 23
0.0
 33
0.0
 16
1.0
 26
0.0
 36
0.0
 17
0.0
 27
1.0
 37
0.0
 76
     0
330
1F
331
29
  0
MLINESTYLE
  5
18
102
{ACAD_REACTORS
330
17
102
}
330
17
100
AcDbMlineStyle
  2
Standard
 70
     0
  3

 62
   256
 51
90.0
 52
90.0
 71
     2
 49
0.5
 62
   256
  6
BYLAYER
 49
-0.5
 62
   256
  6
BYLAYER
  0
ACDBPLACEHOLDER
  5
F
102
{ACAD_REACTORS
330
E
102
}
330
E
  0
SCALE
  5
4B
102
{ACAD_REACTORS
330
4A
102
}
330
4A
100
AcDbScale
 70
     0
300
1:1
140
1.0
141
1.0
290
     1
  0
SCALE
  5
4C
102
{ACAD_REACTORS
330
4A
102
}
330
4A
100
AcDbScale
 70
     0
300
1:2
140
1.0
141
2.0
290
     0
  0
SCALE
  5
4D
102
{ACAD_REACTORS
330
4A
102
}
330
4A
100
AcDbScale
 70
     0
300
1:4
140
1.0
141
4.0
290
     0
  0
SCALE
  5
4E
102
{ACAD_REACTORS
330
4A
102
}
330
4A
100
AcDbScale
 70
     0
300
1:5
140
1.0
141
5.0
290
     0
  0
SCALE
  5
4F
102
{ACAD_REACTORS
330
4A
102
}
330
4A
100
AcDbScale
 70
     0
300
1:8
140
1.0
141
8.0
290
     0
  0
SCALE
  5
50
102
{ACAD_REACTORS
330
4A
102
}
330
4A
100
AcDbScale
 70
     0
300
1:10
140
1.0
141
10.0
290
     0
  0
SCALE
  5
51
102
{ACAD_REACTORS
330
4A
102
}
330
4A
100
AcDbScale
 70
     0
300
1:16
140
1.0
141
16.0
290
     0
  0
SCALE
  5
52
102
{ACAD_REACTORS
330
4A
102
}
330
4A
100
AcDbScale
 70
     0
300
1:20
140
1.0
141
20.0
290
     0
  0
SCALE
  5
53
102
{ACAD_REACTORS
330
4A
102
}
330
4A
100
AcDbScale
 70
     0
300
1:30
140
1.0
141
30.0
290
     0
  0
SCALE
  5
54
102
{ACAD_REACTORS
330
4A
102
}
330
4A
100
AcDbScale
 70
     0
300
1:40
140
1.0
141
40.0
290
     0
  0
SCALE
  5
55
102
{ACAD_REACTORS
330
4A
102
}
330
4A
100
AcDbScale
 70
     0
300
1:50
140
1.0
141
50.0
290
     0
  0
SCALE
  5
56
102
{ACAD_REACTORS
330
4A
102
}
330
4A
100
AcDbScale
 70
     0
300
1:100
140
1.0
141
100.0
290
     0
  0
SCALE
  5
57
102
{ACAD_REACTORS
330
4A
102
}
330
4A
100
AcDbScale
 70
     0
300
2:1
140
2.0
141
1.0
290
     0
  0
SCALE
  5
58
102
{ACAD_REACTORS
330
4A
102
}
330
4A
100
AcDbScale
 70
     0
300
4:1
140
4.0
141
1.0
290
     0
  0
SCALE
  5
59
102
{ACAD_REACTORS
330
4A
102
}
330
4A
100
AcDbScale
 70
     0
300
8:1
140
8.0
141
1.0
290
     0
  0
SCALE
  5
5A
102
{ACAD_REACTORS
330
4A
102
}
330
4A
100
AcDbScale
 70
     0
300
10:1
140
10.0
141
1.0
290
     0
  0
SCALE
  5
5B
102
{ACAD_REACTORS
330
4A
102
}
330
4A
100
AcDbScale
 70
     0
300
100:1
140
100.0
141
1.0
290
     0
  0
SCALE
  5
5C
102
{ACAD_REACTORS
330
4A
102
}
330
4A
100
AcDbScale
 70
     0
300
1/128" = 1'-0"
140
0.0078125
141
12.0
290
     0
  0
SCALE
  5
5D
102
{ACAD_REACTORS
330
4A
102
}
330
4A
100
AcDbScale
 70
     0
300
1/64" = 1'-0"
140
0.015625
141
12.0
290
     0
  0
SCALE
  5
5E
102
{ACAD_REACTORS
330
4A
102
}
330
4A
100
AcDbScale
 70
     0
300
1/32" = 1'-0"
140
0.03125
141
12.0
290
     0
  0
SCALE
  5
5F
102
{ACAD_REACTORS
330
4A
102
}
330
4A
100
AcDbScale
 70
     0
300
1/16" = 1'-0"
140
0.0625
141
12.0
290
     0
  0
SCALE
  5
60
102
{ACAD_REACTORS
330
4A
102
}
330
4A
100
AcDbScale
 70
     0
300
3/32" = 1'-0"
140
0.09375
141
12.0
290
     0
  0
SCALE
  5
61
102
{ACAD_REACTORS
330
4A
102
}
330
4A
100
AcDbScale
 70
     0
300
1/8" = 1'-0"
140
0.125
141
12.0
290
     0
  0
SCALE
  5
62
102
{ACAD_REACTORS
330
4A
102
}
330
4A
100
AcDbScale
 70
     0
300
3/16" = 1'-0"
140
0.1875
141
12.0
290
     0
  0
SCALE
  5
63
102
{ACAD_REACTORS
330
4A
102
}
330
4A
100
AcDbScale
 70
     0
300
1/4" = 1'-0"
140
0.25
141
12.0
290
     0
  0
SCALE
  5
64
102
{ACAD_REACTORS
330
4A
102
}
330
4A
100
AcDbScale
 70
     0
300
3/8" = 1'-0"
140
0.375
141
12.0
290
     0
  0
SCALE
  5
65
102
{ACAD_REACTORS
330
4A
102
}
330
4A
100
AcDbScale
 70
     0
300
1/2" = 1'-0"
140
0.5
141
12.0
290
     0
  0
SCALE
  5
66
102
{ACAD_REACTORS
330
4A
102
}
330
4A
100
AcDbScale
 70
     0
300
3/4" = 1'-0"
140
0.75
141
12.0
290
     0
  0
SCALE
  5
67
102
{ACAD_REACTORS
330
4A
102
}
330
4A
100
AcDbScale
 70
     0
300
1" = 1'-0"
140
1.0
141
12.0
290
     0
  0
SCALE
  5
68
102
{ACAD_REACTORS
330
4A
102
}
330
4A
100
AcDbScale
 70
     0
300
1-1/2" = 1'-0"
140
1.5
141
12.0
290
     0
  0
SCALE
  5
69
102
{ACAD_REACTORS
330
4A
102
}
330
4A
100
AcDbScale
 70
     0
300
3" = 1'-0"
140
3.0
141
12.0
290
     0
  0
SCALE
  5
6A
102
{ACAD_REACTORS
330
4A
102
}
330
4A
100
AcDbScale
 70
     0
300
6" = 1'-0"
140
6.0
141
12.0
290
     0
  0
SCALE
  5
6B
102
{ACAD_REACTORS
330
4A
102
}
330
4A
100
AcDbScale
 70
     0
300
1'-0" = 1'-0"
140
12.0
141
12.0
290
     0
  0
VISUALSTYLE
  5
2F
102
{ACAD_REACTORS
330
2A
102
}
330
2A
100
AcDbVisualStyle
  2
2dWireframe
 70
     4
 71
     0
 72
     2
 73
     0
 90
        0
 40
-0.6
 41
-30.0
 62
     5
 63
     7
 74
     1
 91
        4
 64
     7
 65
   257
 75
     1
175
     1
 42
1.0
 92
        0
 66
   257
 43
1.0
 76
     1
 77
     6
 78
     2
 67
     7
 79
     5
170
     0
171
     0
290
     0
174
     0
 93
        1
 44
0.0
173
     0
291
     0
 45
0.0
1001
ACAD
1000
AcDbSavedByObjectVersion
1070
     0
  0
VISUALSTYLE
  5
31
102
{ACAD_REACTORS
330
2A
102
}
330
2A
100
AcDbVisualStyle
  2
3D Hidden
 70
     6
 71
     1
 72
     2
 73
     2
 90
        0
 40
-0.6
 41
-30.0
 62
     5
 63
     7
 74
     2
 91
        2
 64
     7
 65
   257
 75
     2
175
     1
 42
40.0
 92
        0
 66
   257
 43
1.0
 76
     1
 77
     6
 78
     2
 67
     7
 79
     3
170
     0
171
     0
290
     0
174
     0
 93
        1
 44
0.0
173
     0
291
     0
 45
0.0
1001
ACAD
1000
AcDbSavedByObjectVersion
1070
     0
  0
VISUALSTYLE
  5
30
102
{ACAD_REACTORS
330
2A
102
}
330
2A
100
AcDbVisualStyle
  2
3dWireframe
 70
     5
 71
     0
 72
     2
 73
     0
 90
        0
 40
-0.6
 41
-30.0
 62
     5
 63
     7
 74
     1
 91
        4
 64
     7
 65
   257
 75
     1
175
     1
 42
1.0
 92
        0
 66
   257
 43
1.0
 76
     1
 77
     6
 78
     2
 67
     7
 79
     5
170
     0
171
     0
290
     0
174
     0
 93
        1
 44
0.0
173
     0
291
     0
 45
0.0
1001
ACAD
1000
AcDbSavedByObjectVersion
1070
     0
  0
VISUALSTYLE
  5
32
102
{ACAD_REACTORS
330
2A
102
}
330
2A
100
AcDbVisualStyle
  2
Basic
 70
     7
 71
     1
 72
     0
 73
     1
 90
        0
 40
-0.6
 41
-30.0
 62
     5
 63
     7
 74
     0
 91
        4
 64
     7
 65
   257
 75
     1
175
     1
 42
1.0
 92
        8
 66
     7
 43
1.0
 76
     1
 77
     6
 78
     2
 67
     7
 79
     5
170
     0
171
     0
290
     0
174
     0
 93
        1
 44
0.0
173
     0
291
     1
 45
0.0
1001
ACAD
1000
AcDbSavedByObjectVersion
1070
     0
  0
VISUALSTYLE
  5
36
102
{ACAD_REACTORS
330
2A
102
}
330
2A
100
AcDbVisualStyle
  2
Brighten
 70
    12
 71
     2
 72
     2
 73
     0
 90
        0
 40
-0.6
 41
-30.0
 62
     5
 63
     7
 74
     1
 91
        4
 64
     7
 65
   257
 75
     1
175
     1
 42
1.0
 92
        8
 66
     7
 43
1.0
 76
     1
 77
     6
 78
     2
 67
     7
 79
     5
170
     0
171
     0
290
     0
174
     0
 93
        1
 44
50.0
173
     0
291
     1
 45
0.0
1001
ACAD
1000
AcDbSavedByObjectVersion
1070
     0
  0
VISUALSTYLE
  5
3A
102
{ACAD_REACTORS
330
2A
102
}
330
2A
100
AcDbVisualStyle
  2
ColorChange
 70
    16
 71
     2
 72
     2
 73
     3
 90
        0
 40
-0.6
 41
-30.0
 62
     5
 63
     8
 74
     1
 91
        4
 64
     7
 65
   257
 75
     1
175
     1
 42
1.0
 92
        8
 66
     8
 43
1.0
 76
     1
 77
     6
 78
     2
 67
     7
 79
     5
170
     0
171
     0
290
     0
174
     0
 93
        1
 44
0.0
173
     0
291
     1
 45
0.0
1001
ACAD
1000
AcDbSavedByObjectVersion
1070
     0
  0
VISUALSTYLE
  5
34
102
{ACAD_REACTORS
330
2A
102
}
330
2A
100
AcDbVisualStyle
  2
Conceptual
 70
     9
 71
     3
 72
     2
 73
     0
 90
        0
 40
-0.6
 41
-30.0
 62
     5
 63
     7
 74
     2
 91
        2
 64
     7
 65
   257
 75
     1
175
     1
 42
40.0
 92
        8
 66
     7
 43
1.0
 76
     1
 77
     6
 78
     2
 67
     7
 79
     3
170
     0
171
     0
290
     0
174
     0
 93
        1
 44
0.0
173
     0
291
     0
 45
0.0
1001
ACAD
1000
AcDbSavedByObjectVersion
1070
     0
  0
VISUALSTYLE
  5
35
102
{ACAD_REACTORS
330
2A
102
}
330
2A
100
AcDbVisualStyle
  2
Dim
 70
    11
 71
     2
 72
     2
 73
     0
 90
        0
 40
-0.6
 41
-30.0
 62
     5
 63
     7
 74
     1
 91
        4
 64
     7
 65
   257
 75
     1
175
     1
 42
1.0
 92
        8
 66
     7
 43
1.0
 76
     1
 77
     6
 78
     2
 67
     7
 79
     5
170
     0
171
     0
290
     0
174
     0
 93
        1
 44
-50.0
173
     0
291
     1
 45
0.0
1001
ACAD
1000
AcDbSavedByObjectVersion
1070
     0
  0
VISUALSTYLE
  5
39
102
{ACAD_REACTORS
330
2A
102
}
330
2A
100
AcDbVisualStyle
  2
Facepattern
 70
    15
 71
     2
 72
     2
 73
     0
 90
        0
 40
-0.6
 41
-30.0
 62
     5
 63
     7
 74
     1
 91
        4
 64
     7
 65
   257
 75
     1
175
     1
 42
1.0
 92
        8
 66
     7
 43
1.0
 76
     1
 77
     6
 78
     2
 67
     7
 79
     5
170
     0
171
     0
290
     0
174
     0
 93
        1
 44
0.0
173
     0
291
     1
 45
0.0
1001
ACAD
1000
AcDbSavedByObjectVersion
1070
     0
  0
VISUALSTYLE
  5
2B
102
{ACAD_REACTORS
330
2A
102
}
330
2A
100
AcDbVisualStyle
  2
Flat
 70
     0
 71
     2
 72
     1
 73
     1
 90
        2
 40
-0.6
 41
30.0
 62
     5
 63
     7
 74
     0
 91
        4
 64
     7
 65
   257
 75
     1
175
     1
 42
1.0
 92
        8
 66
     7
 43
1.0
 76
     1
 77
     6
 78
     2
 67
     7
 79
     5
170
     0
171
     0
290
     0
174
     0
 93
       13
 44
0.0
173
     0
291
     1
 45
0.0
1001
ACAD
1000
AcDbSavedByObjectVersion
1070
     0
  0
VISUALSTYLE
  5
2C
102
{ACAD_REACTORS
330
2A
102
}
330
2A
100
AcDbVisualStyle
  2
FlatWithEdges
 70
     1
 71
     2
 72
     1
 73
     1
 90
        2
 40
-0.6
 41
30.0
 62
     5
 63
     7
 74
     1
 91
        4
 64
     7
 65
   257
 75
     1
175
     1
 42
1.0
 92
        0
 66
   257
 43
1.0
 76
     1
 77
     6
 78
     2
 67
     7
 79
     5
170
     0
171
     0
290
     0
174
     0
 93
       13
 44
0.0
173
     0
291
     1
 45
0.0
1001
ACAD
1000
AcDbSavedByObjectVersion
1070
     0
  0
VISUALSTYLE
  5
2D
102
{ACAD_REACTORS
330
2A
102
}
330
2A
100
AcDbVisualStyle
  2
Gouraud
 70
     2
 71
     2
 72
     2
 73
     1
 90
        2
 40
-0.6
 41
30.0
 62
     5
 63
     7
 74
     0
 91
        4
 64
     7
 65
   257
 75
     1
175
     1
 42
1.0
 92
        0
 66
     7
 43
1.0
 76
     1
 77
     6
 78
     2
 67
     7
 79
     5
170
     0
171
     0
290
     0
174
     0
 93
       13
 44
0.0
173
     0
291
     1
 45
0.0
1001
ACAD
1000
AcDbSavedByObjectVersion
1070
     0
  0
VISUALSTYLE
  5
2E
102
{ACAD_REACTORS
330
2A
102
}
330
2A
100
AcDbVisualStyle
  2
GouraudWithEdges
 70
     3
 71
     2
 72
     2
 73
     1
 90
        2
 40
-0.6
 41
30.0
 62
     5
 63
     7
 74
     1
 91
        4
 64
     7
 65
   257
 75
     1
175
     1
 42
1.0
 92
        0
 66
   257
 43
1.0
 76
     1
 77
     6
 78
     2
 67
     7
 79
     5
170
     0
171
     0
290
     0
174
     0
 93
       13
 44
0.0
173
     0
291
     1
 45
0.0
1001
ACAD
1000
AcDbSavedByObjectVersion
1070
     0
  0
VISUALSTYLE
  5
38
102
{ACAD_REACTORS
330
2A
102
}
330
2A
100
AcDbVisualStyle
  2
Linepattern
 70
    14
 71
     2
 72
     2
 73
     0
 90
        0
 40
-0.6
 41
-30.0
 62
     5
 63
     7
 74
     1
 91
        4
 64
     7
 65
   257
 75
     7
175
     7
 42
1.0
 92
        8
 66
     7
 43
1.0
 76
     1
 77
     6
 78
     2
 67
     7
 79
     5
170
     0
171
     0
290
     0
174
     0
 93
        1
 44
0.0
173
     0
291
     1
 45
0.0
1001
ACAD
1000
AcDbSavedByObjectVersion
1070
     0
  0
VISUALSTYLE
  5
33
102
{ACAD_REACTORS
330
2A
102
}
330
2A
100
AcDbVisualStyle
  2
Realistic
 70
     8
 71
     2
 72
     2
 73
     0
 90
        0
 40
-0.6
 41
-30.0
 62
     5
 63
     7
 74
     1
 91
        0
 64
     7
 65
   257
 75
     1
175
     1
 42
1.0
 92
        8
 66
     8
 43
1.0
 76
     1
 77
     6
 78
     2
 67
     7
 79
     5
170
     0
171
     0
290
     0
174
     0
 93
       13
 44
0.0
173
     0
291
     0
 45
0.0
1001
ACAD
1000
AcDbSavedByObjectVersion
1070
     0
  0
VISUALSTYLE
  5
37
102
{ACAD_REACTORS
330
2A
102
}
330
2A
100
AcDbVisualStyle
  2
Thicken
 70
    13
 71
     2
 72
     2
 73
     0
 90
        0
 40
-0.6
 41
-30.0
 62
     5
 63
     7
 74
     1
 91
        4
 64
     7
 65
   257
 75
     1
175
     1
 42
1.0
 92
       12
 66
     7
 43
1.0
 76
     1
 77
     6
 78
     2
 67
     7
 79
     5
170
     0
171
     0
290
     0
174
     0
 93
        1
 44
0.0
173
     0
291
     1
 45
0.0
1001
ACAD
1000
AcDbSavedByObjectVersion
1070
     0
  0
DICTIONARYVAR
  5
FE
102
{ACAD_REACTORS
330
FB
102
}
330
FB
100
DictionaryVariables
280
     0
  1
1:1
  0
ENDSEC
  0
EOF
