  0
SECTION
  2
HEADER
  9
$ACADVER
  1
AC1015
  9
$ACADMAINTVER
 70
     6
  9
$DWGCODEPAGE
  3
ANSI_1252
  9
$INSBASE
 10
0.0
 20
0.0
 30
0.0
  9
$EXTMIN
 10
38.83096225909999
 20
234.0176464233337
 30
0.0
  9
$EXTMAX
 10
231.771240290392
 20
340.6007378365
 30
0.0
  9
$LIMMIN
 10
0.0
 20
0.0
  9
$LIMMAX
 10
12.0
 20
9.0
  9
$ORTHOMODE
 70
     0
  9
$REGENMODE
 70
     1
  9
$FILLMODE
 70
     1
  9
$QTEXTMODE
 70
     0
  9
$MIRRTEXT
 70
     1
  9
$LTSCALE
 40
1.0
  9
$ATTMODE
 70
     1
  9
$TEXTSIZE
 40
0.2
  9
$TRACEWID
 40
0.05
  9
$TEXTSTYLE
  7
Standard
  9
$CLAYER
  8
0
  9
$CELTYPE
  6
ByLayer
  9
$CECOLOR
 62
   256
  9
$CELTSCALE
 40
1.0
  9
$DISPSILH
 70
     0
  9
$DIMSCALE
 40
1.0
  9
$DIMASZ
 40
0.18
  9
$DIMEXO
 40
0.0625
  9
$DIMDLI
 40
0.38
  9
$DIMRND
 40
0.0
  9
$DIMDLE
 40
0.0
  9
$DIMEXE
 40
0.18
  9
$DIMTP
 40
0.0
  9
$DIMTM
 40
0.0
  9
$DIMTXT
 40
0.18
  9
$DIMCEN
 40
0.09
  9
$DIMTSZ
 40
0.0
  9
$DIMTOL
 70
     0
  9
$DIMLIM
 70
     0
  9
$DIMTIH
 70
     1
  9
$DIMTOH
 70
     1
  9
$DIMSE1
 70
     0
  9
$DIMSE2
 70
     0
  9
$DIMTAD
 70
     0
  9
$DIMZIN
 70
     0
  9
$DIMBLK
  1

  9
$DIMASO
 70
     1
  9
$DIMSHO
 70
     1
  9
$DIMPOST
  1

  9
$DIMAPOST
  1

  9
$DIMALT
 70
     0
  9
$DIMALTD
 70
     2
  9
$DIMALTF
 40
25.4
  9
$DIMLFAC
 40
1.0
  9
$DIMTOFL
 70
     0
  9
$DIMTVP
 40
0.0
  9
$DIMTIX
 70
     0
  9
$DIMSOXD
 70
     0
  9
$DIMSAH
 70
     0
  9
$DIMBLK1
  1

  9
$DIMBLK2
  1

  9
$DIMSTYLE
  2
Standard
  9
$DIMCLRD
 70
     0
  9
$DIMCLRE
 70
     0
  9
$DIMCLRT
 70
     0
  9
$DIMTFAC
 40
1.0
  9
$DIMGAP
 40
0.09
  9
$DIMJUST
 70
     0
  9
$DIMSD1
 70
     0
  9
$DIMSD2
 70
     0
  9
$DIMTOLJ
 70
     1
  9
$DIMTZIN
 70
     0
  9
$DIMALTZ
 70
     0
  9
$DIMALTTZ
 70
     0
  9
$DIMUPT
 70
     0
  9
$DIMDEC
 70
     4
  9
$DIMTDEC
 70
     4
  9
$DIMALTU
 70
     2
  9
$DIMALTTD
 70
     2
  9
$DIMTXSTY
  7
Standard
  9
$DIMAUNIT
 70
     0
  9
$DIMADEC
 70
     0
  9
$DIMALTRND
 40
0.0
  9
$DIMAZIN
 70
     0
  9
$DIMDSEP
 70
    46
  9
$DIMATFIT
 70
     3
  9
$DIMFRAC
 70
     0
  9
$DIMLDRBLK
  1

  9
$DIMLUNIT
 70
     2
  9
$DIMLWD
 70
    -2
  9
$DIMLWE
 70
    -2
  9
$DIMTMOVE
 70
     0
  9
$LUNITS
 70
     2
  9
$LUPREC
 70
     4
  9
$SKETCHINC
 40
0.1
  9
$FILLETRAD
 40
0.5
  9
$AUNITS
 70
     0
  9
$AUPREC
 70
     0
  9
$MENU
  1
.
  9
$ELEVATION
 40
0.0
  9
$PELEVATION
 40
0.0
  9
$THICKNESS
 40
0.0
  9
$LIMCHECK
 70
     0
  9
$CHAMFERA
 40
0.5
  9
$CHAMFERB
 40
0.5
  9
$CHAMFERC
 40
1.0
  9
$CHAMFERD
 40
0.0
  9
$SKPOLY
 70
     0
  9
$TDCREATE
 40
2456821.356480787
  9
$TDUCREATE
 40
2456821.273147454
  9
$TDUPDATE
 40
2456821.356480799
  9
$TDUUPDATE
 40
2456821.273147465
  9
$TDINDWG
 40
0.0000000116
  9
$TDUSRTIMER
 40
0.0000000116
  9
$USRTIMER
 70
     1
  9
$ANGBASE
 50
0.0
  9
$ANGDIR
 70
     0
  9
$PDMODE
 70
     0
  9
$PDSIZE
 40
0.0
  9
$PLINEWID
 40
0.0
  9
$SPLFRAME
 70
     0
  9
$SPLINETYPE
 70
     6
  9
$SPLINESEGS
 70
     8
  9
$HANDSEED
  5
100
  9
$SURFTAB1
 70
     6
  9
$SURFTAB2
 70
     6
  9
$SURFTYPE
 70
     6
  9
$SURFU
 70
     6
  9
$SURFV
 70
     6
  9
$UCSBASE
  2

  9
$UCSNAME
  2

  9
$UCSORG
 10
0.0
 20
0.0
 30
0.0
  9
$UCSXDIR
 10
1.0
 20
0.0
 30
0.0
  9
$UCSYDIR
 10
0.0
 20
1.0
 30
0.0
  9
$UCSORTHOREF
  2

  9
$UCSORTHOVIEW
 70
     0
  9
$UCSORGTOP
 10
0.0
 20
0.0
 30
0.0
  9
$UCSORGBOTTOM
 10
0.0
 20
0.0
 30
0.0
  9
$UCSORGLEFT
 10
0.0
 20
0.0
 30
0.0
  9
$UCSORGRIGHT
 10
0.0
 20
0.0
 30
0.0
  9
$UCSORGFRONT
 10
0.0
 20
0.0
 30
0.0
  9
$UCSORGBACK
 10
0.0
 20
0.0
 30
0.0
  9
$PUCSBASE
  2

  9
$PUCSNAME
  2

  9
$PUCSORG
 10
0.0
 20
0.0
 30
0.0
  9
$PUCSXDIR
 10
1.0
 20
0.0
 30
0.0
  9
$PUCSYDIR
 10
0.0
 20
1.0
 30
0.0
  9
$PUCSORTHOREF
  2

  9
$PUCSORTHOVIEW
 70
     0
  9
$PUCSORGTOP
 10
0.0
 20
0.0
 30
0.0
  9
$PUCSORGBOTTOM
 10
0.0
 20
0.0
 30
0.0
  9
$PUCSORGLEFT
 10
0.0
 20
0.0
 30
0.0
  9
$PUCSORGRIGHT
 10
0.0
 20
0.0
 30
0.0
  9
$PUCSORGFRONT
 10
0.0
 20
0.0
 30
0.0
  9
$PUCSORGBACK
 10
0.0
 20
0.0
 30
0.0
  9
$USERI1
 70
     0
  9
$USERI2
 70
     0
  9
$USERI3
 70
     0
  9
$USERI4
 70
     0
  9
$USERI5
 70
     0
  9
$USERR1
 40
16.5
  9
$USERR2
 40
0.0
  9
$USERR3
 40
0.0
  9
$USERR4
 40
0.0
  9
$USERR5
 40
0.0
  9
$WORLDVIEW
 70
     1
  9
$SHADEDGE
 70
     3
  9
$SHADEDIF
 70
    70
  9
$TILEMODE
 70
     1
  9
$MAXACTVP
 70
    64
  9
$PINSBASE
 10
0.0
 20
0.0
 30
0.0
  9
$PLIMCHECK
 70
     0
  9
$PEXTMIN
 10
1.00000000000000E+20
 20
1.00000000000000E+20
 30
1.00000000000000E+20
  9
$PEXTMAX
 10
-1.00000000000000E+20
 20
-1.00000000000000E+20
 30
-1.00000000000000E+20
  9
$PLIMMIN
 10
0.0
 20
0.0
  9
$PLIMMAX
 10
12.0
 20
9.0
  9
$UNITMODE
 70
     0
  9
$VISRETAIN
 70
     1
  9
$PLINEGEN
 70
     0
  9
$PSLTSCALE
 70
     1
  9
$TREEDEPTH
 70
  3020
  9
$CMLSTYLE
  2
Standard
  9
$CMLJUST
 70
     0
  9
$CMLSCALE
 40
1.0
  9
$PROXYGRAPHICS
 70
     1
  9
$MEASUREMENT
 70
     1
  9
$CELWEIGHT
370
    -1
  9
$ENDCAPS
280
     0
  9
$JOINSTYLE
280
     0
  9
$LWDISPLAY
290
     0
  9
$INSUNITS
 70
     1
  9
$HYPERLINKBASE
  1

  9
$STYLESHEET
  1

  9
$XEDIT
290
     1
  9
$CEPSNTYPE
380
     0
  9
$PSTYLEMODE
290
     1
  9
$FINGERPRINTGUID
  2
{D33602C6-AA9B-437F-845D-A070EF9CC2E7}
  9
$VERSIONGUID
  2
{FAEB1C32-E019-11D5-929B-00C0DF256EC4}
  9
$EXTNAMES
290
     1
  9
$PSVPSCALE
 40
0.0
  9
$OLESTARTUP
290
     0
  0
ENDSEC
  0
SECTION
  2
CLASSES
  0
CLASS
  1
ACDBDICTIONARYWDFLT
  2
AcDbDictionaryWithDefault
  3
ObjectDBX Classes
 90
        0
280
     0
281
     0
  0
CLASS
  1
VISUALSTYLE
  2
AcDbVisualStyle
  3
ObjectDBX Classes
 90
     4095
280
     0
281
     0
  0
CLASS
  1
SCALE
  2
AcDbScale
  3
ObjectDBX Classes
 90
     1153
280
     0
281
     0
  0
CLASS
  1

  2
exOdDbPolyline
  3

 90
        0
280
     0
281
     1
  0
CLASS
  1

  2
exOdDbSpline
  3

 90
        0
280
     0
281
     1
  0
CLASS
  1
DICTIONARYVAR
  2
AcDbDictionaryVar
  3
ObjectDBX Classes
 90
        0
280
     0
281
     0
  0
CLASS
  1
ACDBPLACEHOLDER
  2
AcDbPlaceHolder
  3
ObjectDBX Classes
 90
        0
280
     0
281
     0
  0
CLASS
  1
LAYOUT
  2
AcDbLayout
  3
ObjectDBX Classes
 90
        0
280
     0
281
     0
  0
ENDSEC
  0
SECTION
  2
TABLES
  0
TABLE
  2
VPORT
  5
8
330
0
100
AcDbSymbolTable
 70
     1
  0
VPORT
  5
29
330
8
100
AcDbSymbolTableRecord
100
AcDbViewportTableRecord
  2
*Active
 70
     0
 10
0.0
 20
0.0
 11
1.0
 21
1.0
 12
135.301101274746
 22
287.3091921299168
 13
0.0
 23
0.0
 14
0.5
 24
0.5
 15
0.5
 25
0.5
 16
0.0
 26
0.0
 36
1.0
 17
0.0
 27
0.0
 37
0.0
 40
132.4247479301124
 41
1.60267857142857
 42
50.0
 43
0.0
 44
0.0
 50
0.0
 51
0.0
 71
     0
 72
   100
 73
     1
 74
     3
 75
     0
 76
     0
 77
     0
 78
     0
281
     0
 65
     1
110
0.0
120
0.0
130
0.0
111
1.0
121
0.0
131
0.0
112
0.0
122
1.0
132
0.0
 79
     0
146
0.0
  0
ENDTAB
  0
TABLE
  2
LTYPE
  5
5
330
0
100
AcDbSymbolTable
 70
     8
  0
LTYPE
  5
14
330
5
100
AcDbSymbolTableRecord
100
AcDbLinetypeTableRecord
  2
ByBlock
 70
     0
  3

 72
    65
 73
     0
 40
0.0
  0
LTYPE
  5
15
330
5
100
AcDbSymbolTableRecord
100
AcDbLinetypeTableRecord
  2
ByLayer
 70
     0
  3

 72
    65
 73
     0
 40
0.0
  0
LTYPE
  5
16
330
5
100
AcDbSymbolTableRecord
100
AcDbLinetypeTableRecord
  2
Continuous
 70
     0
  3
Solid line
 72
    65
 73
     0
 40
0.0
  0
LTYPE
  5
3B
330
5
100
AcDbSymbolTableRecord
100
AcDbLinetypeTableRecord
  2
DASHED
 70
     0
  3
Dashed
 72
    65
 73
     2
 40
15.0
 49
7.0
 74
     0
 49
-8.0
 74
     0
  0
LTYPE
  5
3C
330
5
100
AcDbSymbolTableRecord
100
AcDbLinetypeTableRecord
  2
DOTTED
 70
     0
  3
Dotted
 72
    65
 73
     2
 40
1.0
 49
0.0
 74
     0
 49
-1.0
 74
     0
  0
LTYPE
  5
3D
330
5
100
AcDbSymbolTableRecord
100
AcDbLinetypeTableRecord
  2
DOT_CENTER
 70
     0
  3
Dot_Center
 72
    65
 73
     4
 40
14.0
 49
12.0
 74
     0
 49
-1.0
 74
     0
 49
0.0
 74
     0
 49
-1.0
 74
     0
  0
LTYPE
  5
3E
330
5
100
AcDbSymbolTableRecord
100
AcDbLinetypeTableRecord
  2
LONG_DASHED
 70
     0
  3
Long_Dashed
 72
    65
 73
     2
 40
15.0
 49
10.0
 74
     0
 49
-5.0
 74
     0
  0
LTYPE
  5
3F
330
5
100
AcDbSymbolTableRecord
100
AcDbLinetypeTableRecord
  2
DASH_CENTER
 70
     0
  3
Dash_Center
 72
    65
 73
     4
 40
14.0
 49
11.0
 74
     0
 49
-1.0
 74
     0
 49
1.0
 74
     0
 49
-1.0
 74
     0
  0
LTYPE
  5
40
330
5
100
AcDbSymbolTableRecord
100
AcDbLinetypeTableRecord
  2
PHANTOM
 70
     0
  3
Phantom
 72
    65
 73
     6
 40
13.0
 49
10.0
 74
     0
 49
-1.0
 74
     0
 49
0.0
 74
     0
 49
-1.0
 74
     0
 49
0.0
 74
     0
 49
-1.0
 74
     0
  0
LTYPE
  5
41
330
5
100
AcDbSymbolTableRecord
100
AcDbLinetypeTableRecord
  2
CENTER_DASH_DASH
 70
     0
  3
Center_Dash_Dash
 72
    65
 73
     6
 40
14.0
 49
9.0
 74
     0
 49
-1.0
 74
     0
 49
1.0
 74
     0
 49
-1.0
 74
     0
 49
1.0
 74
     0
 49
-1.0
 74
     0
  0
ENDTAB
  0
TABLE
  2
LAYER
  5
2
330
0
100
AcDbSymbolTable
 70
     6
  0
LAYER
  5
10
330
2
100
AcDbSymbolTableRecord
100
AcDbLayerTableRecord
  2
0
 70
     0
 62
     7
  6
Continuous
370
    -3
390
F
  0
LAYER
  5
42
330
2
100
AcDbSymbolTableRecord
100
AcDbLayerTableRecord
  2
1
 70
     0
 62
     7
  6
Continuous
370
    -3
390
F
  0
LAYER
  5
43
330
2
100
AcDbSymbolTableRecord
100
AcDbLayerTableRecord
  2
BEZUGSACHSEN
 70
     0
 62
     7
  6
Continuous
370
    -3
390
F
  0
LAYER
  5
44
330
2
100
AcDbSymbolTableRecord
100
AcDbLayerTableRecord
  2
DEFAULT_2
 70
     0
 62
     7
  6
Continuous
370
    -3
390
F
  0
LAYER
  5
45
330
2
100
AcDbSymbolTableRecord
100
AcDbLayerTableRecord
  2
RUNDUNGEN
 70
     0
 62
     7
  6
Continuous
370
    -3
390
F
  0
LAYER
  5
46
330
2
100
AcDbSymbolTableRecord
100
AcDbLayerTableRecord
  2
TEIL_STARTBEZUEGE
 70
     0
 62
     7
  6
Continuous
370
    -3
390
F
  0
ENDTAB
  0
TABLE
  2
STYLE
  5
3
330
0
100
AcDbSymbolTable
 70
     2
  0
STYLE
  5
11
330
3
100
AcDbSymbolTableRecord
100
AcDbTextStyleTableRecord
  2
Standard
 70
     0
 40
0.0
 41
1.0
 50
0.0
 71
     0
 42
0.2
  3
txt
  4

  0
STYLE
  5
6D
330
3
100
AcDbSymbolTableRecord
100
AcDbTextStyleTableRecord
  2
CONVERTER_11
 70
     0
 40
0.0
 41
0.72
 50
0.0
 71
     0
 42
0.2
  3
txt.shx
  4

  0
ENDTAB
  0
TABLE
  2
VIEW
  5
6
330
0
100
AcDbSymbolTable
 70
     0
  0
ENDTAB
  0
TABLE
  2
UCS
  5
7
330
0
100
AcDbSymbolTable
 70
     0
  0
ENDTAB
  0
TABLE
  2
APPID
  5
9
330
0
100
AcDbSymbolTable
 70
     1
  0
APPID
  5
12
330
9
100
AcDbSymbolTableRecord
100
AcDbRegAppTableRecord
  2
ACAD
 70
     0
  0
ENDTAB
  0
TABLE
  2
DIMSTYLE
  5
A
330
0
100
AcDbSymbolTable
 70
     6
100
AcDbDimStyleTable
  0
DIMSTYLE
105
27
330
A
100
AcDbSymbolTableRecord
100
AcDbDimStyleTableRecord
  2
Standard
 70
     0
340
11
  0
DIMSTYLE
105
C7
102
{ACAD_REACTORS
330
C8
102
}
330
A
100
AcDbSymbolTableRecord
100
AcDbDimStyleTableRecord
  2
ME10_DIM_10
 70
     0
  3
\U+2300<>
 41
3.5
 42
2.0
 44
2.0
 71
     1
 73
     0
 74
     0
 77
     1
 78
     8
140
3.5
146
0.7
147
2.0
172
     1
173
     1
176
     2
177
     2
178
     3
271
     2
272
     0
340
6D
  0
DIMSTYLE
105
D2
102
{ACAD_REACTORS
330
D3
102
}
330
A
100
AcDbSymbolTableRecord
100
AcDbDimStyleTableRecord
  2
ME10_DIM_11
 70
     0
  3
\U+2300<>
 41
3.5
 42
2.0
 44
2.0
 71
     1
 73
     0
 74
     0
 77
     1
 78
     8
140
3.5
146
0.7
147
2.0
172
     1
173
     1
176
     2
177
     2
178
     3
271
     2
272
     0
340
6D
  0
DIMSTYLE
105
DD
102
{ACAD_REACTORS
330
DE
102
}
330
A
100
AcDbSymbolTableRecord
100
AcDbDimStyleTableRecord
  2
ME10_DIM_12
 70
     0
  3
<>
 41
3.5
 42
2.0
 44
2.0
 71
     1
 73
     0
 74
     0
 77
     1
 78
     8
140
3.5
146
0.7
147
2.0
172
     1
173
     1
176
     2
177
     2
178
     3
271
     2
272
     0
340
6D
  0
DIMSTYLE
105
E8
102
{ACAD_REACTORS
330
E9
102
}
330
A
100
AcDbSymbolTableRecord
100
AcDbDimStyleTableRecord
  2
ME10_DIM_13
 70
     0
  3
<>
 41
3.5
 42
2.0
 44
2.0
 71
     1
 73
     0
 74
     0
 77
     1
 78
     8
140
3.5
146
0.7
147
2.0
172
     1
173
     1
176
     2
177
     2
178
     3
271
     2
272
     0
340
6D
  0
DIMSTYLE
105
F3
102
{ACAD_REACTORS
330
F4
102
}
330
A
100
AcDbSymbolTableRecord
100
AcDbDimStyleTableRecord
  2
ME10_DIM_14
 70
     0
  3
<>
 41
3.5
 42
2.0
 44
2.0
 71
     1
 73
     0
 74
     0
 77
     1
 78
     8
140
3.5
146
0.7
147
2.0
172
     1
173
     1
176
     2
177
     2
178
     3
271
     2
272
     0
340
6D
  0
ENDTAB
  0
TABLE
  2
BLOCK_RECORD
  5
1
330
0
100
AcDbSymbolTable
 70
     8
  0
BLOCK_RECORD
  5
1F
330
1
100
AcDbSymbolTableRecord
100
AcDbBlockTableRecord
  2
*Model_Space
340
22
  0
BLOCK_RECORD
  5
1B
330
1
100
AcDbSymbolTableRecord
100
AcDbBlockTableRecord
  2
*Paper_Space
340
1E
  0
BLOCK_RECORD
  5
23
330
1
100
AcDbSymbolTableRecord
100
AcDbBlockTableRecord
  2
*Paper_Space0
340
26
  0
BLOCK_RECORD
  5
47
330
1
100
AcDbSymbolTableRecord
100
AcDbBlockTableRecord
  2
Urheberrecht_DE-EN_horizontal
340
0
102
{BLKREFS
331
6C
102
}
  0
BLOCK_RECORD
  5
BE
330
1
100
AcDbSymbolTableRecord
100
AcDbBlockTableRecord
  2
*D2
340
0
  0
BLOCK_RECORD
  5
C9
330
1
100
AcDbSymbolTableRecord
100
AcDbBlockTableRecord
  2
*D3
340
0
  0
BLOCK_RECORD
  5
D4
330
1
100
AcDbSymbolTableRecord
100
AcDbBlockTableRecord
  2
*D4
340
0
  0
BLOCK_RECORD
  5
DF
330
1
100
AcDbSymbolTableRecord
100
AcDbBlockTableRecord
  2
*D5
340
0
  0
BLOCK_RECORD
  5
EA
330
1
100
AcDbSymbolTableRecord
100
AcDbBlockTableRecord
  2
*D6
340
0
  0
BLOCK_RECORD
  5
F5
330
1
100
AcDbSymbolTableRecord
100
AcDbBlockTableRecord
  2
*D7
340
0
102
{BLKREFS
331
FB
102
}
  0
ENDTAB
  0
ENDSEC
  0
SECTION
  2
BLOCKS
  0
BLOCK
  5
20
330
1F
100
AcDbEntity
  8
0
100
AcDbBlockBegin
  2
*Model_Space
 70
     0
 10
0.0
 20
0.0
 30
0.0
  3
*Model_Space
  1

  0
ENDBLK
  5
21
330
1F
100
AcDbEntity
  8
0
100
AcDbBlockEnd
  0
BLOCK
  5
1C
330
1B
100
AcDbEntity
 67
     1
  8
0
100
AcDbBlockBegin
  2
*Paper_Space
 70
     0
 10
0.0
 20
0.0
 30
0.0
  3
*Paper_Space
  1

  0
ENDBLK
  5
1D
330
1B
100
AcDbEntity
 67
     1
  8
0
100
AcDbBlockEnd
  0
BLOCK
  5
24
330
23
100
AcDbEntity
  8
0
100
AcDbBlockBegin
  2
*Paper_Space0
 70
     0
 10
0.0
 20
0.0
 30
0.0
  3
*Paper_Space0
  1

  0
ENDBLK
  5
25
330
23
100
AcDbEntity
  8
0
100
AcDbBlockEnd
  0
BLOCK
  5
48
330
47
100
AcDbEntity
  8
0
100
AcDbBlockBegin
  2
Urheberrecht_DE-EN_horizontal
 70
     0
 10
132.246570043829
 20
241.415654433238
 30
0.0
  3
Urheberrecht_DE-EN_horizontal
  1

  0
MTEXT
  5
6E
330
47
100
AcDbEntity
  8
1
 62
     1
100
AcDbMText
 10
78.79278765446976
 20
234.6176464233337
 30
0.0
 40
2.0
 41
0.0
 71
     7
 72
     1
  1
F\U+00fcr diese Unterlage behalten wir das Ur-\Pheberrecht. Sie darf nur f\U+00fcr den von uns \Pbestimmten Zweck benutzt und ohne unsere \PZustimmung weder vervielf\U+00e4ltigt noch\PDritten zug\U+00e4nglich gemacht werden.
  7
CONVERTER_11
 73
     1
 44
0.90036014405762
  0
MTEXT
  5
6F
330
47
100
AcDbEntity
  8
1
 62
     1
100
AcDbMText
 10
135.0821745717759
 20
234.6176464233337
 30
0.0
 40
2.0
 41
0.0
 71
     7
 72
     1
  1
We own the copyright of this document. It \Pdetermined and may neither be copied or \Pmade accessible to outsiders without our\Ppermission.
  7
CONVERTER_11
 73
     1
 44
0.90036014405762
  0
ENDBLK
  5
49
330
47
100
AcDbEntity
  8
0
100
AcDbBlockEnd
  0
BLOCK
  5
C5
330
BE
100
AcDbEntity
  8
0
100
AcDbBlockBegin
  2
*D2
 70
     1
 10
0.0
 20
0.0
 30
0.0
  3
*D2
  1

  0
LINE
  5
BF
330
BE
100
AcDbEntity
  8
1
  6
Continuous
 62
     2
100
AcDbLine
 10
221.362666746357
 20
287.8223053732
 30
0.0
 11
221.362666746357
 21
275.8223053732
 31
0.0
  0
LINE
  5
C0
330
BE
100
AcDbEntity
  8
1
  6
Continuous
 62
     2
100
AcDbLine
 10
212.3559622591
 20
287.8223053732
 30
0.0
 11
223.362666746357
 21
287.8223053732
 31
0.0
  0
LINE
  5
C1
330
BE
100
AcDbEntity
  8
1
  6
Continuous
 62
     2
100
AcDbLine
 10
212.3559622591
 20
275.8223053732
 30
0.0
 11
223.362666746357
 21
275.8223053732
 31
0.0
  0
SOLID
  5
C2
330
BE
100
AcDbEntity
  8
1
 62
     2
100
AcDbTrace
 10
221.8234504879129
 20
284.3223053732
 30
0.0
 11
220.9018830048011
 21
284.3223053732
 31
0.0
 12
221.362666746357
 22
287.8223053732
 32
0.0
 13
221.362666746357
 23
287.8223053732
 33
0.0
  0
SOLID
  5
C3
330
BE
100
AcDbEntity
  8
1
 62
     2
100
AcDbTrace
 10
220.9018830048011
 20
279.3223053732
 30
0.0
 11
221.8234504879129
 21
279.3223053732
 31
0.0
 12
221.362666746357
 22
275.8223053732
 32
0.0
 13
221.362666746357
 23
275.8223053732
 33
0.0
  0
MTEXT
  5
C4
330
BE
100
AcDbEntity
  8
1
 62
     3
100
AcDbMText
 10
219.362666746357
 20
273.349790510059
 30
0.0
 40
3.5
 41
0.0
 71
     7
 72
     1
  1
\C3;%%c\C3;\C3;12\C2;\H2.45;\S^ ;\C3;
  7
CONVERTER_11
 11
0.0
 21
1.0
 31
0.0
 73
     1
 44
0.60024009603842
  0
ENDBLK
  5
C6
330
BE
100
AcDbEntity
  8
0
100
AcDbBlockEnd
  0
BLOCK
  5
D0
330
C9
100
AcDbEntity
  8
0
100
AcDbBlockBegin
  2
*D3
 70
     1
 10
0.0
 20
0.0
 30
0.0
  3
*D3
  1

  0
LINE
  5
CA
330
C9
100
AcDbEntity
  8
1
  6
Continuous
 62
     2
100
AcDbLine
 10
229.771240290392
 20
302.8223053732
 30
0.0
 11
229.771240290392
 21
260.8223053732
 31
0.0
  0
LINE
  5
CB
330
C9
100
AcDbEntity
  8
1
  6
Continuous
 62
     2
100
AcDbLine
 10
199.0880130667
 20
302.8223053732
 30
0.0
 11
231.771240290392
 21
302.8223053732
 31
0.0
  0
LINE
  5
CC
330
C9
100
AcDbEntity
  8
1
  6
Continuous
 62
     2
100
AcDbLine
 10
199.0880130667
 20
260.8223053732
 30
0.0
 11
231.771240290392
 21
260.8223053732
 31
0.0
  0
SOLID
  5
CD
330
C9
100
AcDbEntity
  8
1
 62
     2
100
AcDbTrace
 10
230.2320240319479
 20
299.3223053732
 30
0.0
 11
229.3104565488361
 21
299.3223053732
 31
0.0
 12
229.771240290392
 22
302.8223053732
 32
0.0
 13
229.771240290392
 23
302.8223053732
 33
0.0
  0
SOLID
  5
CE
330
C9
100
AcDbEntity
  8
1
 62
     2
100
AcDbTrace
 10
229.3104565488361
 20
264.3223053732
 30
0.0
 11
230.2320240319479
 21
264.3223053732
 31
0.0
 12
229.771240290392
 22
260.8223053732
 32
0.0
 13
229.771240290392
 23
260.8223053732
 33
0.0
  0
MTEXT
  5
CF
330
C9
100
AcDbEntity
  8
1
 62
     3
100
AcDbMText
 10
227.771240290392
 20
272.929790510059
 30
0.0
 40
3.5
 41
0.0
 71
     7
 72
     1
  1
\C3;%%c\C3;\C3;42\C2;\H2.45;\S^ ;\C3;
  7
CONVERTER_11
 11
0.0
 21
1.0
 31
0.0
 73
     1
 44
0.60024009603842
  0
ENDBLK
  5
D1
330
C9
100
AcDbEntity
  8
0
100
AcDbBlockEnd
  0
BLOCK
  5
DB
330
D4
100
AcDbEntity
  8
0
100
AcDbBlockBegin
  2
*D4
 70
     1
 10
0.0
 20
0.0
 30
0.0
  3
*D4
  1

  0
LINE
  5
D5
330
D4
100
AcDbEntity
  8
1
  6
Continuous
 62
     2
100
AcDbLine
 10
210.3559622591001
 20
320.539178029064
 30
0.0
 11
129.4559622591001
 21
320.539178029064
 31
0.0
  0
LINE
  5
D6
330
D4
100
AcDbEntity
  8
1
  6
Continuous
 62
     2
100
AcDbLine
 10
129.4559622591001
 20
313.4992561305
 30
0.0
 11
129.4559622591001
 21
322.539178029064
 31
0.0
  0
LINE
  5
D7
330
D4
100
AcDbEntity
  8
1
  6
Continuous
 62
     2
100
AcDbLine
 10
210.3559622591001
 20
296.7394016046
 30
0.0
 11
210.3559622591001
 21
322.539178029064
 31
0.0
  0
SOLID
  5
D8
330
D4
100
AcDbEntity
  8
1
 62
     2
100
AcDbTrace
 10
206.8559622591001
 20
320.0783942875081
 30
0.0
 11
206.8559622591001
 21
320.9999617706198
 31
0.0
 12
210.3559622591001
 22
320.539178029064
 32
0.0
 13
210.3559622591001
 23
320.539178029064
 33
0.0
  0
SOLID
  5
D9
330
D4
100
AcDbEntity
  8
1
 62
     2
100
AcDbTrace
 10
132.9559622591001
 20
320.9999617706198
 30
0.0
 11
132.9559622591001
 21
320.0783942875081
 31
0.0
 12
129.4559622591001
 22
320.539178029064
 32
0.0
 13
129.4559622591001
 23
320.539178029064
 33
0.0
  0
MTEXT
  5
DA
330
D4
100
AcDbEntity
  8
1
 62
     3
100
AcDbMText
 10
165.3992694205292
 20
322.539178029064
 30
0.0
 40
3.5
 41
0.0
 71
     7
 72
     1
  1
\C3;\C3;\C3;80.9\C2;\H2.45;\S^ ;\C3;
  7
CONVERTER_11
 11
0.9999999999970619
 21
2.424068405545306E-6
 31
0.0
 73
     1
 44
0.60024009603842
  0
ENDBLK
  5
DC
330
D4
100
AcDbEntity
  8
0
100
AcDbBlockEnd
  0
BLOCK
  5
E6
330
DF
100
AcDbEntity
  8
0
100
AcDbBlockBegin
  2
*D5
 70
     1
 10
0.0
 20
0.0
 30
0.0
  3
*D5
  1

  0
LINE
  5
E0
330
DF
100
AcDbEntity
  8
1
  6
Continuous
 62
     2
100
AcDbLine
 10
210.3559622591
 20
327.647971005923
 30
0.0
 11
110.3559622591
 21
327.647971005923
 31
0.0
  0
LINE
  5
E1
330
DF
100
AcDbEntity
  8
1
  6
Continuous
 62
     2
100
AcDbLine
 10
210.3559622591
 20
296.7394016046
 30
0.0
 11
210.3559622591
 21
329.647971005923
 31
0.0
  0
LINE
  5
E2
330
DF
100
AcDbEntity
  8
1
  6
Continuous
 62
     2
100
AcDbLine
 10
110.3559622591
 20
310.6251037346
 30
0.0
 11
110.3559622591
 21
329.647971005923
 31
0.0
  0
SOLID
  5
E3
330
DF
100
AcDbEntity
  8
1
 62
     2
100
AcDbTrace
 10
206.8559622591
 20
327.1871872643671
 30
0.0
 11
206.8559622591
 21
328.1087547474789
 31
0.0
 12
210.3559622591
 22
327.647971005923
 32
0.0
 13
210.3559622591
 23
327.647971005923
 33
0.0
  0
SOLID
  5
E4
330
DF
100
AcDbEntity
  8
1
 62
     2
100
AcDbTrace
 10
113.8559622591
 20
328.1087547474789
 30
0.0
 11
113.8559622591
 21
327.1871872643671
 31
0.0
 12
110.3559622591
 22
327.647971005923
 32
0.0
 13
110.3559622591
 23
327.647971005923
 33
0.0
  0
MTEXT
  5
E5
330
DF
100
AcDbEntity
  8
1
 62
     3
100
AcDbMText
 10
156.273600164015
 20
329.647971005923
 30
0.0
 40
3.5
 41
0.0
 71
     7
 72
     1
  1
\C3;\C3;\C3;100\C2;\H2.45;\S^ ;\C3;
  7
CONVERTER_11
 11
0.9999999999970619
 21
2.424068405545306E-6
 31
0.0
 73
     1
 44
0.60024009603842
  0
ENDBLK
  5
E7
330
DF
100
AcDbEntity
  8
0
100
AcDbBlockEnd
  0
BLOCK
  5
F1
330
EA
100
AcDbEntity
  8
0
100
AcDbBlockBegin
  2
*D6
 70
     1
 10
0.0
 20
0.0
 30
0.0
  3
*D6
  1

  0
LINE
  5
EB
330
EA
100
AcDbEntity
  8
1
  6
Continuous
 62
     2
100
AcDbLine
 10
210.3559622591
 20
335.1007378365
 30
0.0
 11
41.95596225909998
 21
335.1007378365
 31
0.0
  0
LINE
  5
EC
330
EA
100
AcDbEntity
  8
1
  6
Continuous
 62
     2
100
AcDbLine
 10
210.3559622591
 20
296.7394016046
 30
0.0
 11
210.3559622591
 21
337.1007378365
 31
0.0
  0
LINE
  5
ED
330
EA
100
AcDbEntity
  8
1
  6
Continuous
 62
     2
100
AcDbLine
 10
41.95596225909996
 20
295.2718535741
 30
0.0
 11
41.95596225909996
 21
337.1007378365
 31
0.0
  0
SOLID
  5
EE
330
EA
100
AcDbEntity
  8
1
 62
     2
100
AcDbTrace
 10
206.8559622591
 20
334.6399540949441
 30
0.0
 11
206.8559622591
 21
335.5615215780559
 31
0.0
 12
210.3559622591
 22
335.1007378365
 32
0.0
 13
210.3559622591
 23
335.1007378365
 33
0.0
  0
SOLID
  5
EF
330
EA
100
AcDbEntity
  8
1
 62
     2
100
AcDbTrace
 10
45.45596225909998
 20
335.5615215780559
 30
0.0
 11
45.45596225909998
 21
334.6399540949441
 31
0.0
 12
41.95596225909998
 22
335.1007378365
 32
0.0
 13
41.95596225909998
 23
335.1007378365
 33
0.0
  0
MTEXT
  5
F0
330
EA
100
AcDbEntity
  8
1
 62
     3
100
AcDbMText
 10
134.7742555555117
 20
337.1007378365
 30
0.0
 40
3.5
 41
0.0
 71
     7
 72
     1
  1
\C3;\C3;\C3;168.4\C2;\H2.45;\S^ ;\C3;
  7
CONVERTER_11
 11
0.9999999999970619
 21
2.424068405545306E-6
 31
0.0
 73
     1
 44
0.60024009603842
  0
ENDBLK
  5
F2
330
EA
100
AcDbEntity
  8
0
100
AcDbBlockEnd
  0
BLOCK
  5
F9
330
F5
100
AcDbEntity
  8
0
100
AcDbBlockBegin
  2
*D7
 70
     1
 10
0.0
 20
0.0
 30
0.0
  3
*D7
  1

  0
LINE
  5
F6
330
F5
100
AcDbEntity
  8
1
  6
Continuous
 62
     2
100
AcDbLine
 10
139.5054953647912
 20
311.8536993266589
 30
0.0
 11
130.1764257729093
 21
303.8719942129286
 31
0.0
  0
SOLID
  5
F7
330
F5
100
AcDbEntity
  8
1
 62
     2
100
AcDbTrace
 10
132.5363277906728
 20
306.4974816196853
 30
0.0
 11
133.1354422229242
 21
305.7972327189386
 31
0.0
 12
130.1764257729093
 22
303.8719942129286
 32
0.0
 13
130.1764257729093
 23
303.8719942129286
 33
0.0
  0
MTEXT
  5
F8
330
F5
100
AcDbEntity
  8
1
 62
     3
100
AcDbMText
 10
132.5672343852985
 20
308.54962084992
 30
0.0
 40
3.5
 41
0.0
 71
     7
 72
     1
  1
\C3; R\C3;\C3;3\C2;\H2.45;\S^ ;\C3;
  7
CONVERTER_11
 11
0.7598454953969069
 21
0.6501037018238162
 31
0.0
 73
     1
 44
0.60024009603842
  0
ENDBLK
  5
FA
330
F5
100
AcDbEntity
  8
0
100
AcDbBlockEnd
  0
ENDSEC
  0
SECTION
  2
ENTITIES
  0
INSERT
  5
6C
330
1F
100
AcDbEntity
  8
0
100
AcDbBlockReference
  2
Urheberrecht_DE-EN_horizontal
 10
132.246570043829
 20
241.415654433238
 30
0.0
  0
LINE
  5
70
330
1F
100
AcDbEntity
  8
0
  6
Continuous
 62
     7
100
AcDbLine
 10
129.4559622591
 20
305.8223053184
 30
0.0
 11
129.4559622591
 21
252.145354616
 31
0.0
  0
LINE
  5
71
330
1F
100
AcDbEntity
  8
0
  6
Continuous
 62
     7
100
AcDbLine
 10
41.95596225909996
 20
293.2718535741
 30
0.0
 11
41.95596225909996
 21
270.3727571724
 31
0.0
  0
LINE
  5
72
330
1F
100
AcDbEntity
  8
0
  6
Continuous
 62
     9
100
AcDbLine
 10
42.76885952339998
 20
294.2119082744999
 30
0.0
 11
42.76885952339996
 21
269.4327024720001
 31
0.0
  0
LINE
  5
73
330
1F
100
AcDbEntity
  8
0
  6
Continuous
 62
     7
100
AcDbLine
 10
114.5559622591
 20
251.109988524
 30
0.0
 11
118.0019087387
 21
251.109988524
 31
0.0
  0
LINE
  5
74
330
1F
100
AcDbEntity
  8
0
  6
Continuous
 62
     7
100
AcDbLine
 10
125.0600157795
 20
251.109988524
 30
0.0
 11
128.4559622591
 21
251.109988524
 31
0.0
  0
LINE
  5
75
330
1F
100
AcDbEntity
  8
0
  6
Continuous
 62
     7
100
AcDbLine
 10
120.3684622591
 20
255.0195070119
 30
0.0
 11
122.6934622591
 21
255.0195070119
 31
0.0
  0
LINE
  5
76
330
1F
100
AcDbEntity
  8
0
  6
Continuous
 62
     7
100
AcDbLine
 10
109.8662799259
 20
259.6687233317
 30
0.0
 11
42.76885952339996
 21
269.4327024720001
 31
0.0
  0
LINE
  5
77
330
1F
100
AcDbEntity
  8
0
  6
Continuous
 62
     7
100
AcDbLine
 10
110.9059622591
 20
259.9473053732
 30
0.0
 11
109.8662799259
 21
259.6687233317
 31
0.0
  0
LINE
  5
78
330
1F
100
AcDbEntity
  8
0
  6
Continuous
 62
     7
100
AcDbLine
 10
112.5559622591
 20
259.9473053732
 30
0.0
 11
110.9059622591
 21
259.9473053732
 31
0.0
  0
LINE
  5
79
330
1F
100
AcDbEntity
  8
0
  6
Continuous
 62
     7
100
AcDbLine
 10
132.4559622591
 20
260.8223053732
 30
0.0
 11
197.0880130667
 21
260.8223053732
 31
0.0
  0
LINE
  5
7A
330
1F
100
AcDbEntity
  8
0
  6
Continuous
 62
     7
100
AcDbLine
 10
109.8662799259
 20
303.9758874148
 30
0.0
 11
109.8662799259
 21
259.6687233317
 31
0.0
  0
LWPOLYLINE
  5
7B
330
1F
100
AcDbEntity
  8
TEIL_STARTBEZUEGE
  6
DOT_CENTER
 62
     7
100
AcDbPolyline
 90
        2
 70
     0
 43
0.25
 10
110.3559622591
 20
255.0195070119
 10
110.3559622591
 20
308.6251037346
  0
LINE
  5
7C
330
1F
100
AcDbEntity
  8
0
  6
Continuous
 62
     7
100
AcDbLine
 10
110.9059622591
 20
303.6973053732
 30
0.0
 11
110.9059622591
 21
259.9473053732
 31
0.0
  0
LINE
  5
7D
330
1F
100
AcDbEntity
  8
0
  6
Continuous
 62
     9
100
AcDbLine
 10
112.5559622591
 20
303.6973053732
 30
0.0
 11
112.5559622591
 21
259.9473053732
 31
0.0
  0
LINE
  5
7E
330
1F
100
AcDbEntity
  8
0
  6
Continuous
 62
     7
100
AcDbLine
 10
113.5559622591
 20
311.4992561305
 30
0.0
 11
113.5559622591
 21
252.145354616
 31
0.0
  0
LINE
  5
7F
330
1F
100
AcDbEntity
  8
0
  6
Continuous
 62
     9
100
AcDbLine
 10
114.5559622591
 20
312.5346222225
 30
0.0
 11
114.5559622591
 21
251.109988524
 31
0.0
  0
LINE
  5
80
330
1F
100
AcDbEntity
  8
0
  6
Continuous
 62
     7
100
AcDbLine
 10
118.0019087387
 20
312.5346222225
 30
0.0
 11
118.0019087387
 21
251.109988524
 31
0.0
  0
LINE
  5
81
330
1F
100
AcDbEntity
  8
0
  6
Continuous
 62
     7
100
AcDbLine
 10
119.6184622591
 20
309.6291235757
 30
0.0
 11
119.6184622591
 21
254.0154871708
 31
0.0
  0
LINE
  5
82
330
1F
100
AcDbEntity
  8
0
  6
Continuous
 62
     9
100
AcDbLine
 10
120.3684622591
 20
308.6251037346
 30
0.0
 11
120.3684622591
 21
255.0195070119
 31
0.0
  0
LWPOLYLINE
  5
83
330
1F
100
AcDbEntity
  8
DEFAULT_2
  6
DASHED
 62
     8
100
AcDbPolyline
 90
        2
 70
     0
 43
0.35
 10
210.3559622591
 20
275.8223053732
 10
166.3559622591
 20
275.8223053732
  0
LINE
  5
84
330
1F
100
AcDbEntity
  8
0
  6
Continuous
 62
     9
100
AcDbLine
 10
122.6934622591
 20
308.6251037346
 30
0.0
 11
122.6934622591
 21
255.0195070119
 31
0.0
  0
LINE
  5
85
330
1F
100
AcDbEntity
  8
0
  6
Continuous
 62
     7
100
AcDbLine
 10
123.4434622591
 20
309.6291235757
 30
0.0
 11
123.4434622591
 21
254.0154871708
 31
0.0
  0
LINE
  5
86
330
1F
100
AcDbEntity
  8
0
  6
Continuous
 62
     7
100
AcDbLine
 10
125.0600157795
 20
312.5346222225
 30
0.0
 11
125.0600157795
 21
251.109988524
 31
0.0
  0
LWPOLYLINE
  5
87
330
1F
100
AcDbEntity
  8
TEIL_STARTBEZUEGE
  6
DOT_CENTER
 62
     7
100
AcDbPolyline
 90
        2
 70
     0
 43
0.25
 10
213.3559622591
 20
281.8223053732
 10
38.95596225909999
 20
281.8223053732
  0
LINE
  5
88
330
1F
100
AcDbEntity
  8
0
  6
Continuous
 62
     9
100
AcDbLine
 10
128.4559622591
 20
312.5346222225
 30
0.0
 11
128.4559622591
 21
251.109988524
 31
0.0
  0
LINE
  5
89
330
1F
100
AcDbEntity
  8
0
  6
Continuous
 62
     7
100
AcDbLine
 10
129.4559622591
 20
311.4992561305
 30
0.0
 11
129.4559622591
 21
305.8223053184
 31
0.0
  0
LINE
  5
8A
330
1F
100
AcDbEntity
  8
RUNDUNGEN
  6
Continuous
 62
     9
100
AcDbLine
 10
132.4559622591
 20
302.8223053732
 30
0.0
 11
132.4559622591
 21
260.8223053732
 31
0.0
  0
LWPOLYLINE
  5
8B
330
1F
100
AcDbEntity
  8
DEFAULT_2
  6
DASHED
 62
     8
100
AcDbPolyline
 90
        2
 70
     0
 43
0.35
 10
166.3559622591
 20
287.8223053732
 10
182.7559622591
 20
287.8223053732
  0
LWPOLYLINE
  5
8C
330
1F
100
AcDbEntity
  8
DEFAULT_2
  6
DASHED
 62
     8
100
AcDbPolyline
 90
        2
 70
     0
 43
0.35
 10
182.7559622591
 20
287.8223053732
 10
210.3559622591
 20
287.8223053732
  0
LINE
  5
8D
330
1F
100
AcDbEntity
  8
0
  6
Continuous
 62
     7
100
AcDbLine
 10
110.9059622591
 20
303.6973053732
 30
0.0
 11
109.8662799259
 21
303.9758874148
 31
0.0
  0
LINE
  5
8E
330
1F
100
AcDbEntity
  8
0
  6
Continuous
 62
     7
100
AcDbLine
 10
109.8662799259
 20
303.9758874148
 30
0.0
 11
42.76885952339998
 21
294.2119082744999
 31
0.0
  0
LINE
  5
8F
330
1F
100
AcDbEntity
  8
BEZUGSACHSEN
  6
Continuous
 62
     7
100
AcDbLine
 10
197.0880130667
 20
302.8223053732
 30
0.0
 11
192.9559622591
 21
302.8223053732
 31
0.0
  0
LINE
  5
90
330
1F
100
AcDbEntity
  8
BEZUGSACHSEN
  6
Continuous
 62
     7
100
AcDbLine
 10
182.7559622591
 20
302.8223053732
 30
0.0
 11
132.4559622591
 21
302.8223053732
 31
0.0
  0
LINE
  5
91
330
1F
100
AcDbEntity
  8
0
  6
Continuous
 62
     7
100
AcDbLine
 10
132.4559622591
 20
302.8223053732
 30
0.0
 11
182.7559622591
 21
302.8223053732
 31
0.0
  0
LINE
  5
92
330
1F
100
AcDbEntity
  8
0
  6
Continuous
 62
     7
100
AcDbLine
 10
192.9559622591
 20
302.8223053732
 30
0.0
 11
197.0880130667
 21
302.8223053732
 31
0.0
  0
LINE
  5
93
330
1F
100
AcDbEntity
  8
0
  6
Continuous
 62
     7
100
AcDbLine
 10
112.5559622591
 20
303.6973053732
 30
0.0
 11
110.9059622591
 21
303.6973053732
 31
0.0
  0
LINE
  5
94
330
1F
100
AcDbEntity
  8
0
  6
Continuous
 62
     7
100
AcDbLine
 10
113.5559622591
 20
304.3723053732
 30
0.0
 11
113.5016762751
 21
304.3723053732
 31
0.0
  0
LINE
  5
95
330
1F
100
AcDbEntity
  8
0
  6
Continuous
 62
     7
100
AcDbLine
 10
120.3684622591
 20
308.6251037346
 30
0.0
 11
122.6934622591
 21
308.6251037346
 31
0.0
  0
LINE
  5
96
330
1F
100
AcDbEntity
  8
0
  6
Continuous
 62
     7
100
AcDbLine
 10
114.5559622591
 20
312.5346222225
 30
0.0
 11
118.0019087387
 21
312.5346222225
 31
0.0
  0
LINE
  5
97
330
1F
100
AcDbEntity
  8
0
  6
Continuous
 62
     7
100
AcDbLine
 10
125.0600157795
 20
312.5346222225
 30
0.0
 11
128.4559622591
 21
312.5346222225
 31
0.0
  0
LWPOLYLINE
  5
98
330
1F
100
AcDbEntity
  8
DEFAULT_2
  6
DASHED
 62
     8
100
AcDbPolyline
 90
        2
 70
     0
 43
0.35
 10
166.3559622591
 20
287.8223053732
 10
166.3559622591
 20
275.8223053732
  0
LINE
  5
99
330
1F
100
AcDbEntity
  8
0
  6
Continuous
 62
     7
100
AcDbLine
 10
197.5880130667
 20
260.9562799695
 30
0.0
 11
209.8559622591
 21
268.0391837381
 31
0.0
  0
LINE
  5
9A
330
1F
100
AcDbEntity
  8
RUNDUNGEN
  6
Continuous
 62
     7
100
AcDbLine
 10
209.8559622591
 20
295.6054270084
 30
0.0
 11
197.5880130667
 21
302.688330777
 31
0.0
  0
LINE
  5
9B
330
1F
100
AcDbEntity
  8
0
  6
Continuous
 62
     7
100
AcDbLine
 10
197.5880130667
 20
302.688330777
 30
0.0
 11
209.8559622591
 21
295.6054270084
 31
0.0
  0
LWPOLYLINE
  5
9C
330
1F
100
AcDbEntity
  8
BEZUGSACHSEN
  6
DASHED
 62
     8
100
AcDbPolyline
 90
        2
 70
     0
 43
0.35
 10
182.7559622591
 20
287.8223053732
 10
182.7559622591
 20
302.8223053732
  0
LWPOLYLINE
  5
9D
330
1F
100
AcDbEntity
  8
BEZUGSACHSEN
  6
DOT_CENTER
 62
     7
100
AcDbPolyline
 90
        2
 70
     0
 43
0.25
 10
187.8559622591
 20
305.8223053732
 10
187.8559622591
 20
281.97918582
  0
LWPOLYLINE
  5
9E
330
1F
100
AcDbEntity
  8
BEZUGSACHSEN
  6
DASHED
 62
     8
100
AcDbPolyline
 90
        2
 70
     0
 43
0.35
 10
192.9559622591
 20
287.8223053732
 10
192.9559622591
 20
302.8223053732
  0
LINE
  5
9F
330
1F
100
AcDbEntity
  8
RUNDUNGEN
  6
Continuous
 62
     9
100
AcDbLine
 10
197.0880130667
 20
260.8223053732
 30
0.0
 11
197.0880130667
 21
302.8223053732
 31
0.0
  0
LINE
  5
A0
330
1F
100
AcDbEntity
  8
RUNDUNGEN
  6
Continuous
 62
     9
100
AcDbLine
 10
197.5880130667
 20
260.9562799695
 30
0.0
 11
197.5880130667
 21
302.688330777
 31
0.0
  0
LINE
  5
A1
330
1F
100
AcDbEntity
  8
RUNDUNGEN
  6
Continuous
 62
     9
100
AcDbLine
 10
209.8559622591
 20
268.0391837381
 30
0.0
 11
209.8559622591
 21
295.6054270084
 31
0.0
  0
LINE
  5
A2
330
1F
100
AcDbEntity
  8
RUNDUNGEN
  6
Continuous
 62
     7
100
AcDbLine
 10
210.3559622591
 20
268.9052091419
 30
0.0
 11
210.3559622591
 21
294.7394016046
 31
0.0
  0
LWPOLYLINE
  5
A3
330
1F
100
AcDbEntity
  8
BEZUGSACHSEN
  6
DASHED
 62
     8
100
AcDbPolyline
 90
        2
 70
     0
 43
0.35
 10
193.8559622591
 20
287.8223053732
 10
193.8559622591
 20
302.8223053732
  0
LWPOLYLINE
  5
A4
330
1F
100
AcDbEntity
  8
BEZUGSACHSEN
  6
DASHED
 62
     8
100
AcDbPolyline
 90
        2
 70
     0
 43
0.35
 10
181.8559622591
 20
287.8223053732
 10
181.8559622591
 20
302.8223053732
  0
ARC
  5
A5
330
1F
100
AcDbEntity
  8
0
  6
Continuous
 62
     7
100
AcDbCircle
 10
-844.5192525611
 20
-224.8927681924
 30
0.0
 40
1102.395204052551
100
AcDbArc
 50
29.00416524305954
 51
29.17697495598539
  0
ARC
  5
A6
330
1F
100
AcDbEntity
  8
0
  6
Continuous
 62
     7
100
AcDbCircle
 10
112.5559622591
 20
258.9473053732
 30
0.0
 40
1.0
100
AcDbArc
 50
0.0
 51
90.0
  0
ARC
  5
A7
330
1F
100
AcDbEntity
  8
0
  6
Continuous
 62
     7
100
AcDbCircle
 10
42.90596225909997
 20
270.3727571724
 30
0.0
 40
0.95000000000001
100
AcDbArc
 50
180.0
 51
261.7021731719699
  0
ARC
  5
A8
330
1F
100
AcDbEntity
  8
0
  6
Continuous
 62
     7
100
AcDbCircle
 10
-844.5192525547
 20
788.5373789353
 30
0.0
 40
1102.395204045217
100
AcDbArc
 50
330.8230250440158
 51
330.9958347569428
  0
ARC
  5
A9
330
1F
100
AcDbEntity
  8
0
  6
Continuous
 62
     7
100
AcDbCircle
 10
112.5559622591
 20
304.6973053732
 30
0.0
 40
1.0
100
AcDbArc
 50
270.0
 51
341.0344250117313
  0
ARC
  5
AA
330
1F
100
AcDbEntity
  8
0
  6
Continuous
 62
     7
100
AcDbCircle
 10
42.90596225909997
 20
293.2718535741
 30
0.0
 40
0.9499999999369912
100
AcDbArc
 50
98.29782682802936
 51
180.0
  0
ARC
  5
AB
330
1F
100
AcDbEntity
  8
0
  6
Continuous
 62
     7
100
AcDbCircle
 10
1087.5811770736
 20
-224.8927681892
 30
0.0
 40
1102.395204046023
100
AcDbArc
 50
150.8230250440154
 51
150.9958347569423
  0
ARC
  5
AC
330
1F
100
AcDbEntity
  8
RUNDUNGEN
  6
Continuous
 62
     7
100
AcDbCircle
 10
132.4559622591
 20
257.8223053732
 30
0.0
 40
3.0
100
AcDbArc
 50
90.0
 51
180.0
  0
ARC
  5
AD
330
1F
100
AcDbEntity
  8
RUNDUNGEN
  6
Continuous
 62
     7
100
AcDbCircle
 10
197.0880130667
 20
261.8223053732
 30
0.0
 40
1.0
100
AcDbArc
 50
270.0
 51
300.0000000024187
  0
ARC
  5
AE
330
1F
100
AcDbEntity
  8
RUNDUNGEN
  6
Continuous
 62
     7
100
AcDbCircle
 10
209.3559622591
 20
268.9052091419
 30
0.0
 40
1.000000000013472
100
AcDbArc
 50
299.9999999995543
 51
0.0
  0
ARC
  5
AF
330
1F
100
AcDbEntity
  8
0
  6
Continuous
 62
     7
100
AcDbCircle
 10
1087.5811770673
 20
788.5373789322
 30
0.0
 40
1102.395204038807
100
AcDbArc
 50
209.0041652430574
 51
209.1769749559854
  0
ARC
  5
B0
330
1F
100
AcDbEntity
  8
RUNDUNGEN
  6
Continuous
 62
     7
100
AcDbCircle
 10
132.8426807407
 20
304.4141203573
 30
0.0
 40
3.386718481599776
100
AcDbArc
 50
180.0000390431048
 51
180.7074349395473
  0
ARC
  5
B1
330
1F
100
AcDbEntity
  8
RUNDUNGEN
  6
Continuous
 62
     7
100
AcDbCircle
 10
132.4559622591
 20
305.8223053184
 30
0.0
 40
3.0
100
AcDbArc
 50
180.0
 51
270.0
  0
ARC
  5
B2
330
1F
100
AcDbEntity
  8
RUNDUNGEN
  6
Continuous
 62
     7
100
AcDbCircle
 10
197.0880130667
 20
301.8223053732
 30
0.0
 40
1.000000000013472
100
AcDbArc
 50
60.00000000044565
 51
90.0
  0
ARC
  5
B3
330
1F
100
AcDbEntity
  8
RUNDUNGEN
  6
Continuous
 62
     7
100
AcDbCircle
 10
209.3559622591
 20
294.7394016046
 30
0.0
 40
1.0
100
AcDbArc
 50
0.0
 51
60.00000000044565
  0
SPLINE
  5
B4
330
1F
100
AcDbEntity
  8
0
  6
Continuous
 62
     2
100
AcDbSpline
210
0.0
220
0.0
230
1.0
 70
     8
 71
     3
 72
    45
 73
    41
 74
    39
 42
0.0000000001
 43
0.0000000001
 44
0.00000001
 40
0.0
 40
0.0
 40
0.0
 40
0.0
 40
0.0204190240442379
 40
0.081684261891498
 40
0.1836222921832668
 40
0.3253168052839343
 40
0.5053842748756958
 40
0.7213049889746743
 40
0.9704784685635894
 40
1.251088296391319
 40
1.561754448120448
 40
1.902011730771012
 40
2.271378915166671
 40
2.668320238948678
 40
3.090814414288602
 40
3.53582663981669
 40
4.001246711589218
 40
4.489569656945745
 40
5.002549432222184
 40
5.534184576493877
 40
6.076134518523435
 40
6.618212465858849
 40
7.15022668369093
 40
7.663810284119519
 40
8.152931239072824
 40
8.61931573201034
 40
9.065427749298461
 40
9.489109945612624
 40
9.887275866558667
 40
10.25785091442646
 40
10.59925507167922
 40
10.91100196236867
 40
11.19262340261391
 40
11.44270671362995
 40
11.65940348007979
 40
11.84011404062132
 40
11.98232400857071
 40
12.08464075042254
 40
12.14613674576413
 40
12.16663348090894
 40
12.16663348090894
 40
12.16663348090894
 40
12.16663348090894
 10
181.8559622591
 20
302.8223329068
 30
0.0
 10
181.8625052614901
 20
302.820457960419
 30
0.0
 10
181.8886798876443
 20
302.8129574250906
 30
0.0
 10
181.947571342198
 20
302.7962792962644
 30
0.0
 10
182.0454274145937
 20
302.7688308139985
 30
0.0
 10
182.181617322023
 20
302.7314222471292
 30
0.0
 10
182.3547294674698
 20
302.6849978942021
 30
0.0
 10
182.5628911603793
 20
302.6309784993246
 30
0.0
 10
182.8040721569519
 20
302.570812524335
 30
0.0
 10
183.0766328520389
 20
302.5060190536053
 30
0.0
 10
183.3796018543787
 20
302.4379559467921
 30
0.0
 10
183.7124626669319
 20
302.3681129881358
 30
0.0
 10
184.0746015732239
 20
302.2979583812386
 30
0.0
 10
184.4649003139464
 20
302.2293132445905
 30
0.0
 10
184.8813420308362
 20
302.1641497090608
 30
0.0
 10
185.3216230411613
 20
302.1042264827322
 30
0.0
 10
185.7848960874889
 20
302.0512608219536
 30
0.0
 10
186.2718551211233
 20
302.0071269517621
 30
0.0
 10
186.781773634468
 20
301.9734272390027
 30
0.0
 10
187.3102515258302
 20
301.9518779858496
 30
0.0
 10
187.8488215901619
 20
301.9445905233788
 30
0.0
 10
188.3875231139648
 20
301.9514967035203
 30
0.0
 10
188.9163859647564
 20
301.9726944580917
 30
0.0
 10
189.4269194241577
 20
302.0060928043333
 30
0.0
 10
189.9146916730993
 20
302.0499942959619
 30
0.0
 10
190.3789432412777
 20
302.1028022267128
 30
0.0
 10
190.820329432649
 20
302.1626453303836
 30
0.0
 10
191.2379577456574
 20
302.2278003136632
 30
0.0
 10
191.6294719141393
 20
302.2965029742419
 30
0.0
 10
191.9928054306826
 20
302.3667651281892
 30
0.0
 10
192.3268060812197
 20
302.4367529094119
 30
0.0
 10
192.6308434124732
 20
302.5049870475235
 30
0.0
 10
192.9043886884761
 20
302.5699660449373
 30
0.0
 10
193.1464498819485
 20
302.6303187080964
 30
0.0
 10
193.3553680163859
 20
302.6845139393249
 30
0.0
 10
193.5291057997714
 20
302.7310950212562
 30
0.0
 10
193.6657912407508
 20
302.7686341903651
 30
0.0
 10
193.7640088838857
 20
302.7961820616947
 30
0.0
 10
193.8231208991577
 20
302.8129220163835
 30
0.0
 10
193.849394358171
 20
302.8204509176072
 30
0.0
 10
193.8559622591
 20
302.82233301
 30
0.0
 11
181.8559622591
 21
302.8223329068
 31
0.0
 11
181.8755927160173
 21
302.8167131466506
 31
0.0
 11
181.9345319490129
 21
302.799992016833
 31
0.0
 11
182.0326882808034
 21
302.7724838989548
 31
0.0
 11
182.1693161503142
 21
302.7349317976053
 31
0.0
 11
182.3432427297053
 21
302.6883073556625
 31
0.0
 11
182.5522400093284
 21
302.634068145794
 31
0.0
 11
182.7940074765624
 21
302.57376959923
 31
0.0
 11
183.0670097873708
 21
302.5088726519462
 31
0.0
 11
183.3701266302046
 21
302.4408018254442
 31
0.0
 11
183.7031326560661
 21
302.3709304784076
 31
0.0
 11
184.0657642617116
 21
302.3007134185483
 31
0.0
 11
184.4567098632271
 21
302.231982412579
 31
0.0
 11
184.8741243109167
 21
302.1666639078799
 31
0.0
 11
185.3150761737066
 21
302.1066861155598
 31
0.0
 11
185.7774924983188
 21
302.0538942038606
 31
0.0
 11
186.2638205231439
 21
302.0097994056252
 31
0.0
 11
186.7756825370345
 21
301.9759537474322
 31
0.0
 11
187.3068808399319
 21
301.9544063665321
 31
0.0
 11
187.8487797751917
 21
301.9469710702913
 31
0.0
 11
188.3908118480017
 21
301.9540232353984
 31
0.0
 11
188.9224037438426
 21
301.9752172027426
 31
0.0
 11
189.4348907075387
 21
302.0087616012421
 31
0.0
 11
189.9220409065584
 21
302.0526249363814
 31
0.0
 11
190.3854456403278
 21
302.1052609314096
 31
0.0
 11
190.8275181009708
 21
302.1651597753882
 31
0.0
 11
191.2461359185383
 21
302.2304723031955
 31
0.0
 11
191.6383143759967
 21
302.299262986492
 31
0.0
 11
192.0021549309352
 21
302.369590198041
 31
0.0
 11
192.3363023486329
 21
302.4396066377921
 31
0.0
 11
192.6404884494281
 21
302.507848413396
 31
0.0
 11
192.9144859265938
 21
302.5729331129238
 31
0.0
 11
193.1571439112225
 21
302.6334208384943
 31
0.0
 11
193.366897334628
 21
302.687835817677
 31
0.0
 11
193.5414478900019
 21
302.7346162656219
 31
0.0
 11
193.678574185357
 21
302.7722998708944
 31
0.0
 11
193.7770957274541
 21
302.7999082284331
 31
0.0
 11
193.8362570956036
 21
302.8166918502631
 31
0.0
 11
193.8559622591
 21
302.82233301
 31
0.0
  0
SPLINE
  5
B5
330
1F
100
AcDbEntity
  8
0
  6
Continuous
 62
     7
100
AcDbSpline
210
0.0
220
0.0
230
1.0
 70
     8
 71
     3
 72
    15
 73
    11
 74
     9
 42
0.0000000001
 43
0.0000000001
 44
0.00000001
 40
0.0
 40
0.0
 40
0.0
 40
0.0
 40
0.1991720574206268
 40
0.3990536357614066
 40
0.5986807643402209
 40
0.7980988308461829
 40
0.9975253742967566
 40
1.197147976174088
 40
1.397095164926105
 40
1.596192542425148
 40
1.596192542425148
 40
1.596192542425148
 40
1.596192542425148
 10
129.4559622591
 20
311.4992561305
 30
0.0
 10
129.4523371609355
 20
311.5657349221748
 30
0.0
 10
129.4450740507319
 20
311.698929326362
 30
0.0
 10
129.3877818711951
 20
311.8919324788458
 30
0.0
 10
129.2974749227711
 20
312.0710751821335
 30
0.0
 10
129.1741165874835
 20
312.2295215627553
 30
0.0
 10
129.0222648546742
 20
312.3610122672773
 30
0.0
 10
128.8471885046715
 20
312.4592381032924
 30
0.0
 10
128.6556489216354
 20
312.5223856093345
 30
0.0
 10
128.522429911549
 20
312.5305491465083
 30
0.0
 10
128.4559622591
 20
312.5346222225
 30
0.0
 11
129.4559622591
 21
311.4992561305
 31
0.0
 11
129.4373831137472
 21
311.6975597457346
 31
0.0
 11
129.3822488856678
 21
311.8896869490508
 31
0.0
 11
129.2919167282047
 21
312.0677068687021
 31
0.0
 11
129.1693710709039
 21
312.2250285999592
 31
0.0
 11
129.0184727011414
 21
312.3554150572147
 31
0.0
 11
128.8445247865271
 21
312.4533502714208
 31
0.0
 11
128.6539842789507
 21
312.5139571461329
 31
0.0
 11
128.4559622591
 21
312.5346222225
 31
0.0
  0
SPLINE
  5
B6
330
1F
100
AcDbEntity
  8
0
  6
Continuous
 62
     7
100
AcDbSpline
210
0.0
220
0.0
230
1.0
 70
     8
 71
     3
 72
    15
 73
    11
 74
     9
 42
0.0000000001
 43
0.0000000001
 44
0.00000001
 40
0.0
 40
0.0
 40
0.0
 40
0.0
 40
0.199100095932066
 40
0.3990500501373578
 40
0.5986741602461231
 40
0.7981021742185388
 40
0.9975186422146405
 40
1.197144165127899
 40
1.397023090651974
 40
1.596192517499488
 40
1.596192517499488
 40
1.596192517499488
 40
1.596192517499488
 10
128.4559622591
 20
251.109988524
 30
0.0
 10
128.5224308213325
 20
251.1140617273928
 30
0.0
 10
128.655651666693
 20
251.1222255206372
 30
0.0
 10
128.847193244079
 20
251.1853746807834
 30
0.0
 10
129.0222706837111
 20
251.2836025162845
 30
0.0
 10
129.1741218229818
 20
251.4150946554383
 30
0.0
 10
129.2974785968748
 20
251.5735414846099
 30
0.0
 10
129.3877835849395
 20
251.7526829633734
 30
0.0
 10
129.445074345682
 20
251.9456840677367
 30
0.0
 10
129.4523372590576
 20
252.0788767043808
 30
0.0
 10
129.4559622591
 20
252.145354616
 30
0.0
 11
128.4559622591
 21
251.109988524
 31
0.0
 11
128.6539869481704
 21
251.1306542134083
 31
0.0
 11
128.8445298232186
 21
251.1912627685394
 31
0.0
 11
129.018478452342
 21
251.289199787908
 31
0.0
 11
129.1693769701929
 21
251.4195883229385
 31
0.0
 11
129.2919204695886
 21
251.576909708846
 31
0.0
 11
129.382250840441
 21
251.7549287345148
 31
0.0
 11
129.4373836106541
 21
251.9470535963034
 31
0.0
 11
129.4559622591
 21
252.145354616
 31
0.0
  0
SPLINE
  5
B7
330
1F
100
AcDbEntity
  8
0
  6
Continuous
 62
     7
100
AcDbSpline
210
0.0
220
0.0
230
1.0
 70
     8
 71
     3
 72
    15
 73
    11
 74
     9
 42
0.0000000001
 43
0.0000000001
 44
0.00000001
 40
0.0
 40
0.0
 40
0.0
 40
0.0
 40
0.1991002754244047
 40
0.3990504136056255
 40
0.5986744170975974
 40
0.7981023202753025
 40
0.9975187549696908
 40
1.197144245665645
 40
1.397023128026817
 40
1.596192512800704
 40
1.596192512800704
 40
1.596192512800704
 40
1.596192512800704
 10
114.5559622591
 20
312.5346222225
 30
0.0
 10
114.4894936368143
 20
312.5305490084779
 30
0.0
 10
114.35627266985
 20
312.5223851938533
 30
0.0
 10
114.1647310309793
 20
312.4592359323241
 30
0.0
 10
113.9896536297434
 20
312.3610080588001
 30
0.0
 10
113.8378025712933
 20
312.2295159563455
 30
0.0
 10
113.7144458481258
 20
312.0710691627067
 30
0.0
 10
113.6241408918834
 20
311.891927708277
 30
0.0
 10
113.5668501635475
 20
311.6989266361721
 30
0.0
 10
113.5595872561615
 20
311.5657340280434
 30
0.0
 10
113.5559622591
 20
311.4992561305
 30
0.0
 11
114.5559622591
 21
312.5346222225
 31
0.0
 11
114.3579373946009
 21
312.5139564848124
 31
0.0
 11
114.167394364758
 21
312.4533478093855
 31
0.0
 11
113.9934458559853
 21
312.3554107935748
 31
0.0
 11
113.8425474397147
 21
312.2250223104451
 31
0.0
 11
113.7200039748671
 21
312.067700939839
 31
0.0
 11
113.6296736349441
 21
311.8896819346036
 31
0.0
 11
113.5745408945848
 21
311.697557109153
 31
0.0
 11
113.5559622591
 21
311.4992561305
 31
0.0
  0
SPLINE
  5
B8
330
1F
100
AcDbEntity
  8
0
  6
Continuous
 62
     7
100
AcDbSpline
210
0.0
220
0.0
230
1.0
 70
     8
 71
     3
 72
    15
 73
    11
 74
     9
 42
0.0000000001
 43
0.0000000001
 44
0.00000001
 40
0.0
 40
0.0
 40
0.0
 40
0.0
 40
0.1991719801557615
 40
0.399053479734757
 40
0.5986806086127463
 40
0.7980986751277392
 40
0.9975251470930713
 40
1.197147680773395
 40
1.39709501690469
 40
1.596192537845949
 40
1.596192537845949
 40
1.596192537845949
 40
1.596192537845949
 10
113.5559622591
 20
252.145354616
 30
0.0
 10
113.5595873528467
 20
252.0788758501693
 30
0.0
 10
113.5668504541768
 20
251.9456814981703
 30
0.0
 10
113.6241425870984
 20
251.7526783878328
 30
0.0
 10
113.7144495005891
 20
251.5735356953481
 30
0.0
 10
113.8378078044467
 20
251.4150893202408
 30
0.0
 10
113.9896594858187
 20
251.2835986288717
 30
0.0
 10
114.164735814441
 20
251.1853727553882
 30
0.0
 10
114.3562754512695
 20
251.1222251639003
 30
0.0
 10
114.4894945586576
 20
251.114061608868
 30
0.0
 10
114.5559622591
 20
251.109988524
 30
0.0
 11
113.5559622591
 21
252.145354616
 31
0.0
 11
113.5745413844718
 21
251.9470510764966
 31
0.0
 11
113.6296755632264
 21
251.7549239409665
 31
0.0
 11
113.7200076962594
 21
251.5769040085831
 31
0.0
 11
113.8425533367411
 21
251.4195822642134
 31
0.0
 11
113.9934516358453
 21
251.2891958345209
 31
0.0
 11
114.1673994681874
 21
251.1912606131935
 31
0.0
 11
114.3579400991983
 21
251.1306536403276
 31
0.0
 11
114.5559622591
 21
251.109988524
 31
0.0
  0
SPLINE
  5
B9
330
1F
100
AcDbEntity
  8
BEZUGSACHSEN
  6
Continuous
 62
     7
100
AcDbSpline
210
0.0
220
0.0
230
1.0
 70
     8
 71
     3
 72
    19
 73
    15
 74
    13
 42
0.0000000001
 43
0.0000000001
 44
0.00000001
 40
0.0
 40
0.0
 40
0.0
 40
0.0
 40
0.763120866828979
 40
1.526333405192296
 40
2.358997425557582
 40
3.191661760206754
 40
4.171081458036719
 40
5.15054623958294
 40
6.130011103879086
 40
7.109430884116972
 40
7.942095361235567
 40
8.774759524731214
 40
9.537973134618284
 40
10.30109507199536
 40
10.30109507199536
 40
10.30109507199536
 40
10.30109507199536
 10
192.9559622591
 20
302.8223053732
 30
0.0
 10
192.7082265314245
 20
302.7644736281239
 30
0.0
 10
192.2127253162868
 20
302.6488031908092
 30
0.0
 10
191.4399995228189
 20
302.5019956654932
 30
0.0
 10
190.6399502199802
 20
302.3775057463414
 30
0.0
 10
189.7639727345457
 20
302.2761931386705
 30
0.0
 10
188.8355047738472
 20
302.2093997246873
 30
0.0
 10
187.8559635267311
 20
302.1857384499496
 30
0.0
 10
186.8764222483869
 20
302.2093995771066
 30
0.0
 10
185.9479541760898
 20
302.2761928753372
 30
0.0
 10
185.0719765583221
 20
302.3775054098447
 30
0.0
 10
184.2719267983177
 20
302.5019953341005
 30
0.0
 10
183.4992002476582
 20
302.648802958925
 30
0.0
 10
183.0036983352515
 20
302.7644735508536
 30
0.0
 10
182.7559622591
 20
302.8223053732
 30
0.0
 11
192.9559622591
 21
302.8223053732
 31
0.0
 11
192.2116370340105
 21
302.6539800433019
 31
0.0
 11
191.4620665561025
 21
302.5103225431019
 31
0.0
 11
190.6392101870653
 21
302.3828989709273
 31
0.0
 11
189.8120500032873
 21
302.2873169403503
 31
0.0
 11
188.8351452067916
 21
302.2171744918551
 31
0.0
 11
187.8559635536909
 21
302.1936256379454
 31
0.0
 11
186.8767818143578
 21
302.2171743480427
 31
0.0
 11
185.8998769265388
 21
302.2873166753243
 31
0.0
 11
185.0727165914984
 21
302.3828986380111
 31
0.0
 11
184.2498600704654
 21
302.5103221639528
 31
0.0
 11
183.5002885321133
 21
302.6539798237186
 31
0.0
 11
182.7559622591
 21
302.8223053732
 31
0.0
  0
SPLINE
  5
BA
330
1F
100
AcDbEntity
  8
0
  6
Continuous
 62
     7
100
AcDbSpline
210
0.0
220
0.0
230
1.0
 70
     8
 71
     3
 72
    15
 73
    11
 74
     9
 42
0.0000000001
 43
0.0000000001
 44
0.00000001
 40
0.0
 40
0.0
 40
0.0
 40
0.0
 40
0.1499520084135165
 40
0.3004340247607208
 40
0.4507251464498757
 40
0.6008598893240397
 40
0.7510035492654272
 40
0.901289350992322
 40
1.051831757242733
 40
1.20171811956221
 40
1.20171811956221
 40
1.20171811956221
 40
1.20171811956221
 10
123.4434622591
 20
309.4076728712
 30
0.0
 10
123.4407546451049
 20
309.3576235230237
 30
0.0
 10
123.4353298470069
 20
309.2573479263957
 30
0.0
 10
123.3925480662369
 20
309.1119647167809
 30
0.0
 10
123.3251391742376
 20
308.976819164957
 30
0.0
 10
123.2329329231739
 20
308.8570292964978
 30
0.0
 10
123.1192360070468
 20
308.7573161610799
 30
0.0
 10
122.9878436996775
 20
308.6826067901846
 30
0.0
 10
122.843801590275
 20
308.6344643173695
 30
0.0
 10
122.7435023619472
 20
308.6282193831853
 30
0.0
 10
122.6934622591
 20
308.6251037346
 30
0.0
 11
123.4434622591
 21
309.4076728712
 31
0.0
 11
123.4295868427635
 21
309.2583642055147
 31
0.0
 11
123.3884208175033
 21
309.1136223815377
 31
0.0
 11
123.3209695227764
 21
308.9793177126008
 31
0.0
 11
123.2293541671674
 21
308.8603762663571
 31
0.0
 11
123.1163446912002
 21
308.7615229560321
 31
0.0
 11
122.9857988054079
 21
308.6870676412225
 31
0.0
 11
122.8425156497377
 21
308.6408837329767
 31
0.0
 11
122.6934622591
 21
308.6251037346
 31
0.0
  0
SPLINE
  5
BB
330
1F
100
AcDbEntity
  8
0
  6
Continuous
 62
     7
100
AcDbSpline
210
0.0
220
0.0
230
1.0
 70
     8
 71
     3
 72
    15
 73
    11
 74
     9
 42
0.0000000001
 43
0.0000000001
 44
0.00000001
 40
0.0
 40
0.0
 40
0.0
 40
0.0
 40
0.1498887297830707
 40
0.3004335479366347
 40
0.4507207373348722
 40
0.6008657480747839
 40
0.7509990952660311
 40
0.9012888186726968
 40
1.051768450184354
 40
1.201718090849014
 40
1.201718090849014
 40
1.201718090849014
 40
1.201718090849014
 10
120.3684622591
 20
308.6251037346
 30
0.0
 10
120.3184213638946
 20
308.6282194971781
 30
0.0
 10
120.2181205360056
 20
308.634464660555
 30
0.0
 10
120.0740766750491
 20
308.6826086041299
 30
0.0
 10
119.9426833871172
 20
308.7573197484614
 30
0.0
 10
119.8289869682362
 20
308.8570341729022
 30
0.0
 10
119.7367820941867
 20
308.9768244653121
 30
0.0
 10
119.6693749469291
 20
309.1119689342321
 30
0.0
 10
119.6265944149405
 20
309.2573503083574
 30
0.0
 10
119.6211697878305
 20
309.357624315108
 30
0.0
 10
119.6184622591
 20
309.4076728712
 30
0.0
 11
120.3684622591
 21
308.6251037346
 31
0.0
 11
120.219406545495
 21
308.6408842782437
 31
0.0
 11
120.0761213336094
 21
308.6870696690917
 31
0.0
 11
119.9455747726287
 21
308.7615266010279
 31
0.0
 11
119.8325651370982
 21
308.8603817805954
 31
0.0
 11
119.740951687664
 21
308.9793229333628
 31
0.0
 11
119.6735019722061
 21
309.1136268307235
 31
0.0
 11
119.6323372397775
 21
309.2583665429796
 31
0.0
 11
119.6184622591
 21
309.4076728712
 31
0.0
  0
SPLINE
  5
BC
330
1F
100
AcDbEntity
  8
0
  6
Continuous
 62
     7
100
AcDbSpline
210
0.0
220
0.0
230
1.0
 70
     8
 71
     3
 72
    15
 73
    11
 74
     9
 42
0.0000000001
 43
0.0000000001
 44
0.00000001
 40
0.0
 40
0.0
 40
0.0
 40
0.0
 40
0.1499521789460591
 40
0.3004343667432648
 40
0.4507255054274373
 40
0.600860266188808
 40
0.7510040236381772
 40
0.9012899196491142
 40
1.051832040771037
 40
1.201718121810977
 40
1.201718121810977
 40
1.201718121810977
 40
1.201718121810977
 10
119.6184622591
 20
254.2369378752
 30
0.0
 10
119.6211698795266
 20
254.2869872804162
 30
0.0
 10
119.626594690516
 20
254.3872629914307
 30
0.0
 10
119.6693765545587
 20
254.5326463057405
 30
0.0
 10
119.7367855381966
 20
254.6677918889935
 30
0.0
 10
119.8289918739292
 20
254.787581748598
 30
0.0
 10
119.9426888961926
 20
254.8872948709235
 30
0.0
 10
120.0740812279456
 20
254.9620041414283
 30
0.0
 10
120.2181232115556
 20
255.0101464691617
 30
0.0
 10
120.3184222503677
 20
255.0163913766208
 30
0.0
 10
120.3684622591
 20
255.0195070119
 30
0.0
 11
119.6184622591
 21
254.2369378752
 31
0.0
 11
119.6323377077636
 21
254.3862467091485
 31
0.0
 11
119.673503826695
 21
254.5309886847339
 31
0.0
 11
119.7409551894727
 21
254.6652933385118
 31
0.0
 11
119.8325706123931
 21
254.7842347554867
 31
0.0
 11
119.9455802144872
 21
254.8830880697233
 31
0.0
 11
120.0761262323263
 21
254.9575433433185
 31
0.0
 11
120.2194091445469
 21
255.0037270774408
 31
0.0
 11
120.3684622591
 21
255.0195070119
 31
0.0
  0
SPLINE
  5
BD
330
1F
100
AcDbEntity
  8
0
  6
Continuous
 62
     7
100
AcDbSpline
210
0.0
220
0.0
230
1.0
 70
     8
 71
     3
 72
    15
 73
    11
 74
     9
 42
0.0000000001
 43
0.0000000001
 44
0.00000001
 40
0.0
 40
0.0
 40
0.0
 40
0.0
 40
0.1498890554579728
 40
0.3004342038426722
 40
0.450721254762693
 40
0.6008661228114691
 40
0.750999413291497
 40
0.9012890816556915
 40
1.051768580344975
 40
1.201718088875024
 40
1.201718088875024
 40
1.201718088875024
 40
1.201718088875024
 10
122.6934622591
 20
255.0195070119
 30
0.0
 10
122.7435032632713
 20
255.0163912338751
 30
0.0
 10
122.8438043106142
 20
255.0101460394716
 30
0.0
 10
122.9878483078661
 20
254.9620019310126
 30
0.0
 10
123.1192415519835
 20
254.8872906839472
 30
0.0
 10
123.2329378299767
 20
254.7875762727089
 30
0.0
 10
123.3251425964682
 20
254.667786005939
 30
0.0
 10
123.3925496546497
 20
254.5326415847094
 30
0.0
 10
123.4353301181086
 20
254.3872603052143
 30
0.0
 10
123.4407547353121
 20
254.2869863870926
 30
0.0
 10
123.4434622591
 20
254.2369378752
 30
0.0
 11
122.6934622591
 21
255.0195070119
 31
0.0
 11
122.842518292354
 21
255.003726394147
 31
0.0
 11
122.9858037862575
 21
254.9575408018157
 31
0.0
 11
123.1163501707464
 21
254.8830838399443
 31
0.0
 11
123.2293596438687
 21
254.784228691439
 31
0.0
 11
123.3209730047572
 21
254.6652875420538
 31
0.0
 11
123.3884226438531
 21
254.5309836679368
 31
0.0
 11
123.4295873033747
 21
254.3862440730353
 31
0.0
 11
123.4434622591
 21
254.2369378752
 31
0.0
  0
DIMENSION
  5
C8
330
1F
100
AcDbEntity
  8
1
100
AcDbDimension
  2
*D2
 10
221.362666746357
 20
287.8223053732
 30
0.0
 11
217.612666746357
 21
281.784790510059
 31
0.0
 70
    32
  1
<>
 71
     5
 42
-1.0
 53
90.0
  3
ME10_DIM_10
100
AcDbAlignedDimension
 13
210.3559622591
 23
275.8223053732
 33
0.0
 14
210.3559622591
 24
287.8223053732
 34
0.0
 50
90.0
100
AcDbRotatedDimension
  0
DIMENSION
  5
D3
330
1F
100
AcDbEntity
  8
1
100
AcDbDimension
  2
*D3
 10
229.771240290392
 20
302.8223053732
 30
0.0
 11
226.021240290392
 21
281.784790510059
 31
0.0
 70
    32
  1
<>
 71
     5
 42
-1.0
 53
90.0
  3
ME10_DIM_11
100
AcDbAlignedDimension
 13
197.0880130667
 23
260.8223053732
 33
0.0
 14
197.0880130667
 24
302.8223053732
 34
0.0
 50
90.0
100
AcDbRotatedDimension
  0
DIMENSION
  5
DE
330
1F
100
AcDbEntity
  8
1
100
AcDbDimension
  2
*D4
 10
210.3559622591001
 20
320.539178029064
 30
0.0
 11
169.2142694205292
 21
324.289178029064
 31
0.0
 70
    32
  1
<>
 71
     5
 42
-1.0
 53
0.00013888888889
  3
ME10_DIM_12
100
AcDbAlignedDimension
 13
129.4559622591
 23
311.4992561305
 33
0.0
 14
210.3559622591
 24
294.7394016046
 34
0.0
100
AcDbRotatedDimension
  0
DIMENSION
  5
E9
330
1F
100
AcDbEntity
  8
1
100
AcDbDimension
  2
*D5
 10
210.3559622591
 20
327.647971005923
 30
0.0
 11
159.213600164015
 21
331.397971005923
 31
0.0
 70
    32
  1
<>
 71
     5
 42
-1.0
 53
0.00013888888889
  3
ME10_DIM_13
100
AcDbAlignedDimension
 13
110.3559622591
 23
308.6251037346
 33
0.0
 14
210.3559622591
 24
294.7394016046
 34
0.0
100
AcDbRotatedDimension
  0
DIMENSION
  5
F4
330
1F
100
AcDbEntity
  8
1
100
AcDbDimension
  2
*D6
 10
210.3559622591
 20
335.1007378365
 30
0.0
 11
139.4292555555117
 21
338.8507378365
 31
0.0
 70
    32
  1
<>
 71
     5
 42
-1.0
 53
0.00013888888889
  3
ME10_DIM_14
100
AcDbAlignedDimension
 13
41.95596225909996
 23
293.2718535741
 33
0.0
 14
210.3559622591
 24
294.7394016046
 34
0.0
100
AcDbRotatedDimension
  0
INSERT
  5
FB
330
1F
100
AcDbEntity
  8
1
100
AcDbBlockReference
  2
*D7
 10
0.0
 20
0.0
 30
0.0
  0
ENDSEC
  0
SECTION
  2
OBJECTS
  0
DICTIONARY
  5
C
330
0
100
AcDbDictionary
281
     1
  3
ACAD_GROUP
350
D
  3
ACAD_LAYOUT
350
1A
  3
ACAD_MLEADERSTYLE
350
FE
  3
ACAD_MLINESTYLE
350
17
  3
ACAD_PLOTSETTINGS
350
19
  3
ACAD_PLOTSTYLENAME
350
E
  3
ACAD_SCALELIST
350
4A
  3
ACAD_VISUALSTYLE
350
2A
  3
AcDbVariableDictionary
350
FC
  0
DICTIONARY
  5
D
102
{ACAD_REACTORS
330
C
102
}
330
C
100
AcDbDictionary
281
     1
  0
DICTIONARY
  5
1A
102
{ACAD_REACTORS
330
C
102
}
330
C
100
AcDbDictionary
281
     1
  3
Layout1
350
1E
  3
Layout2
350
26
  3
Model
350
22
  0
DICTIONARY
  5
FE
102
{ACAD_REACTORS
330
C
102
}
330
C
100
AcDbDictionary
281
     1
  0
DICTIONARY
  5
17
102
{ACAD_REACTORS
330
C
102
}
330
C
100
AcDbDictionary
281
     1
  3
Standard
350
18
  0
DICTIONARY
  5
19
102
{ACAD_REACTORS
330
C
102
}
330
C
100
AcDbDictionary
281
     1
  0
ACDBDICTIONARYWDFLT
  5
E
102
{ACAD_REACTORS
330
C
102
}
330
C
100
AcDbDictionary
281
     1
  3
Normal
350
F
100
AcDbDictionaryWithDefault
340
F
  0
DICTIONARY
  5
4A
102
{ACAD_REACTORS
330
C
102
}
330
C
100
AcDbDictionary
281
     1
  3
A0
350
4B
  3
A1
350
4C
  3
A2
350
4D
  3
A3
350
4E
  3
A4
350
4F
  3
A5
350
50
  3
A6
350
51
  3
A7
350
52
  3
A8
350
53
  3
A9
350
54
  3
B0
350
55
  3
B1
350
56
  3
B2
350
57
  3
B3
350
58
  3
B4
350
59
  3
B5
350
5A
  3
B6
350
5B
  3
B7
350
5C
  3
B8
350
5D
  3
B9
350
5E
  3
C0
350
5F
  3
C1
350
60
  3
C2
350
61
  3
C3
350
62
  3
C4
350
63
  3
C5
350
64
  3
C6
350
65
  3
C7
350
66
  3
C8
350
67
  3
C9
350
68
  3
D0
350
69
  3
D1
350
6A
  3
D2
350
6B
  0
DICTIONARY
  5
2A
102
{ACAD_REACTORS
330
C
102
}
330
C
100
AcDbDictionary
281
     1
  3
2dWireframe
350
2F
  3
3D Hidden
350
31
  3
3dWireframe
350
30
  3
Basic
350
32
  3
Brighten
350
36
  3
ColorChange
350
3A
  3
Conceptual
350
34
  3
Dim
350
35
  3
Facepattern
350
39
  3
Flat
350
2B
  3
FlatWithEdges
350
2C
  3
Gouraud
350
2D
  3
GouraudWithEdges
350
2E
  3
Linepattern
350
38
  3
Realistic
350
33
  3
Thicken
350
37
  0
DICTIONARY
  5
FC
102
{ACAD_REACTORS
330
C
102
}
330
C
100
AcDbDictionary
281
     1
  3
CANNOSCALE
350
FF
  0
LAYOUT
  5
1E
102
{ACAD_REACTORS
330
1A
102
}
330
1A
100
AcDbPlotSettings
  1

  2
none_device
  4

  6

 40
0.0
 41
0.0
 42
0.0
 43
0.0
 44
0.0
 45
0.0
 46
0.0
 47
0.0
 48
0.0
 49
0.0
140
0.0
141
0.0
142
1.0
143
1.0
 70
   688
 72
     0
 73
     0
 74
     5
  7

 75
    16
147
1.0
148
0.0
149
0.0
100
AcDbLayout
  1
Layout1
 70
     1
 71
     1
 10
0.0
 20
0.0
 11
12.0
 21
9.0
 12
0.0
 22
0.0
 32
0.0
 14
1.00000000000000E+20
 24
1.00000000000000E+20
 34
1.00000000000000E+20
 15
-1.00000000000000E+20
 25
-1.00000000000000E+20
 35
-1.00000000000000E+20
146
0.0
 13
0.0
 23
0.0
 33
0.0
 16
1.0
 26
0.0
 36
0.0
 17
0.0
 27
1.0
 37
0.0
 76
     0
330
1B
  0
LAYOUT
  5
26
102
{ACAD_REACTORS
330
1A
102
}
330
1A
100
AcDbPlotSettings
  1

  2
none_device
  4

  6

 40
0.0
 41
0.0
 42
0.0
 43
0.0
 44
0.0
 45
0.0
 46
0.0
 47
0.0
 48
0.0
 49
0.0
140
0.0
141
0.0
142
1.0
143
1.0
 70
   688
 72
     0
 73
     0
 74
     5
  7

 75
    16
147
1.0
148
0.0
149
0.0
100
AcDbLayout
  1
Layout2
 70
     1
 71
     2
 10
0.0
 20
0.0
 11
0.0
 21
0.0
 12
0.0
 22
0.0
 32
0.0
 14
0.0
 24
0.0
 34
0.0
 15
0.0
 25
0.0
 35
0.0
146
0.0
 13
0.0
 23
0.0
 33
0.0
 16
1.0
 26
0.0
 36
0.0
 17
0.0
 27
1.0
 37
0.0
 76
     0
330
23
  0
LAYOUT
  5
22
102
{ACAD_REACTORS
330
1A
102
}
330
1A
100
AcDbPlotSettings
  1

  2
none_device
  4

  6

 40
0.0
 41
0.0
 42
0.0
 43
0.0
 44
0.0
 45
0.0
 46
0.0
 47
0.0
 48
0.0
 49
0.0
140
0.0
141
0.0
142
1.0
143
1.0
 70
  1712
 72
     0
 73
     0
 74
     0
  7

 75
     0
147
1.0
148
0.0
149
0.0
100
AcDbLayout
  1
Model
 70
     1
 71
     0
 10
0.0
 20
0.0
 11
12.0
 21
9.0
 12
0.0
 22
0.0
 32
0.0
 14
38.83096225909999
 24
234.0176464233337
 34
0.0
 15
231.771240290392
 25
340.6007378365
 35
0.0
146
0.0
 13
0.0
 23
0.0
 33
0.0
 16
1.0
 26
0.0
 36
0.0
 17
0.0
 27
1.0
 37
0.0
 76
     0
330
1F
331
29
  0
MLINESTYLE
  5
18
102
{ACAD_REACTORS
330
17
102
}
330
17
100
AcDbMlineStyle
  2
Standard
 70
     0
  3

 62
   256
 51
90.0
 52
90.0
 71
     2
 49
0.5
 62
   256
  6
BYLAYER
 49
-0.5
 62
   256
  6
BYLAYER
  0
ACDBPLACEHOLDER
  5
F
102
{ACAD_REACTORS
330
E
102
}
330
E
  0
SCALE
  5
4B
102
{ACAD_REACTORS
330
4A
102
}
330
4A
100
AcDbScale
 70
     0
300
1:1
140
1.0
141
1.0
290
     1
  0
SCALE
  5
4C
102
{ACAD_REACTORS
330
4A
102
}
330
4A
100
AcDbScale
 70
     0
300
1:2
140
1.0
141
2.0
290
     0
  0
SCALE
  5
4D
102
{ACAD_REACTORS
330
4A
102
}
330
4A
100
AcDbScale
 70
     0
300
1:4
140
1.0
141
4.0
290
     0
  0
SCALE
  5
4E
102
{ACAD_REACTORS
330
4A
102
}
330
4A
100
AcDbScale
 70
     0
300
1:5
140
1.0
141
5.0
290
     0
  0
SCALE
  5
4F
102
{ACAD_REACTORS
330
4A
102
}
330
4A
100
AcDbScale
 70
     0
300
1:8
140
1.0
141
8.0
290
     0
  0
SCALE
  5
50
102
{ACAD_REACTORS
330
4A
102
}
330
4A
100
AcDbScale
 70
     0
300
1:10
140
1.0
141
10.0
290
     0
  0
SCALE
  5
51
102
{ACAD_REACTORS
330
4A
102
}
330
4A
100
AcDbScale
 70
     0
300
1:16
140
1.0
141
16.0
290
     0
  0
SCALE
  5
52
102
{ACAD_REACTORS
330
4A
102
}
330
4A
100
AcDbScale
 70
     0
300
1:20
140
1.0
141
20.0
290
     0
  0
SCALE
  5
53
102
{ACAD_REACTORS
330
4A
102
}
330
4A
100
AcDbScale
 70
     0
300
1:30
140
1.0
141
30.0
290
     0
  0
SCALE
  5
54
102
{ACAD_REACTORS
330
4A
102
}
330
4A
100
AcDbScale
 70
     0
300
1:40
140
1.0
141
40.0
290
     0
  0
SCALE
  5
55
102
{ACAD_REACTORS
330
4A
102
}
330
4A
100
AcDbScale
 70
     0
300
1:50
140
1.0
141
50.0
290
     0
  0
SCALE
  5
56
102
{ACAD_REACTORS
330
4A
102
}
330
4A
100
AcDbScale
 70
     0
300
1:100
140
1.0
141
100.0
290
     0
  0
SCALE
  5
57
102
{ACAD_REACTORS
330
4A
102
}
330
4A
100
AcDbScale
 70
     0
300
2:1
140
2.0
141
1.0
290
     0
  0
SCALE
  5
58
102
{ACAD_REACTORS
330
4A
102
}
330
4A
100
AcDbScale
 70
     0
300
4:1
140
4.0
141
1.0
290
     0
  0
SCALE
  5
59
102
{ACAD_REACTORS
330
4A
102
}
330
4A
100
AcDbScale
 70
     0
300
8:1
140
8.0
141
1.0
290
     0
  0
SCALE
  5
5A
102
{ACAD_REACTORS
330
4A
102
}
330
4A
100
AcDbScale
 70
     0
300
10:1
140
10.0
141
1.0
290
     0
  0
SCALE
  5
5B
102
{ACAD_REACTORS
330
4A
102
}
330
4A
100
AcDbScale
 70
     0
300
100:1
140
100.0
141
1.0
290
     0
  0
SCALE
  5
5C
102
{ACAD_REACTORS
330
4A
102
}
330
4A
100
AcDbScale
 70
     0
300
1/128" = 1'-0"
140
0.0078125
141
12.0
290
     0
  0
SCALE
  5
5D
102
{ACAD_REACTORS
330
4A
102
}
330
4A
100
AcDbScale
 70
     0
300
1/64" = 1'-0"
140
0.015625
141
12.0
290
     0
  0
SCALE
  5
5E
102
{ACAD_REACTORS
330
4A
102
}
330
4A
100
AcDbScale
 70
     0
300
1/32" = 1'-0"
140
0.03125
141
12.0
290
     0
  0
SCALE
  5
5F
102
{ACAD_REACTORS
330
4A
102
}
330
4A
100
AcDbScale
 70
     0
300
1/16" = 1'-0"
140
0.0625
141
12.0
290
     0
  0
SCALE
  5
60
102
{ACAD_REACTORS
330
4A
102
}
330
4A
100
AcDbScale
 70
     0
300
3/32" = 1'-0"
140
0.09375
141
12.0
290
     0
  0
SCALE
  5
61
102
{ACAD_REACTORS
330
4A
102
}
330
4A
100
AcDbScale
 70
     0
300
1/8" = 1'-0"
140
0.125
141
12.0
290
     0
  0
SCALE
  5
62
102
{ACAD_REACTORS
330
4A
102
}
330
4A
100
AcDbScale
 70
     0
300
3/16" = 1'-0"
140
0.1875
141
12.0
290
     0
  0
SCALE
  5
63
102
{ACAD_REACTORS
330
4A
102
}
330
4A
100
AcDbScale
 70
     0
300
1/4" = 1'-0"
140
0.25
141
12.0
290
     0
  0
SCALE
  5
64
102
{ACAD_REACTORS
330
4A
102
}
330
4A
100
AcDbScale
 70
     0
300
3/8" = 1'-0"
140
0.375
141
12.0
290
     0
  0
SCALE
  5
65
102
{ACAD_REACTORS
330
4A
102
}
330
4A
100
AcDbScale
 70
     0
300
1/2" = 1'-0"
140
0.5
141
12.0
290
     0
  0
SCALE
  5
66
102
{ACAD_REACTORS
330
4A
102
}
330
4A
100
AcDbScale
 70
     0
300
3/4" = 1'-0"
140
0.75
141
12.0
290
     0
  0
SCALE
  5
67
102
{ACAD_REACTORS
330
4A
102
}
330
4A
100
AcDbScale
 70
     0
300
1" = 1'-0"
140
1.0
141
12.0
290
     0
  0
SCALE
  5
68
102
{ACAD_REACTORS
330
4A
102
}
330
4A
100
AcDbScale
 70
     0
300
1-1/2" = 1'-0"
140
1.5
141
12.0
290
     0
  0
SCALE
  5
69
102
{ACAD_REACTORS
330
4A
102
}
330
4A
100
AcDbScale
 70
     0
300
3" = 1'-0"
140
3.0
141
12.0
290
     0
  0
SCALE
  5
6A
102
{ACAD_REACTORS
330
4A
102
}
330
4A
100
AcDbScale
 70
     0
300
6" = 1'-0"
140
6.0
141
12.0
290
     0
  0
SCALE
  5
6B
102
{ACAD_REACTORS
330
4A
102
}
330
4A
100
AcDbScale
 70
     0
300
1'-0" = 1'-0"
140
12.0
141
12.0
290
     0
  0
VISUALSTYLE
  5
2F
102
{ACAD_REACTORS
330
2A
102
}
330
2A
100
AcDbVisualStyle
  2
2dWireframe
 70
     4
 71
     0
 72
     2
 73
     0
 90
        0
 40
-0.6
 41
-30.0
 62
     5
 63
     7
 74
     1
 91
        4
 64
     7
 65
   257
 75
     1
175
     1
 42
1.0
 92
        0
 66
   257
 43
1.0
 76
     1
 77
     6
 78
     2
 67
     7
 79
     5
170
     0
171
     0
290
     0
174
     0
 93
        1
 44
0.0
173
     0
291
     0
 45
0.0
1001
ACAD
1000
AcDbSavedByObjectVersion
1070
     0
  0
VISUALSTYLE
  5
31
102
{ACAD_REACTORS
330
2A
102
}
330
2A
100
AcDbVisualStyle
  2
3D Hidden
 70
     6
 71
     1
 72
     2
 73
     2
 90
        0
 40
-0.6
 41
-30.0
 62
     5
 63
     7
 74
     2
 91
        2
 64
     7
 65
   257
 75
     2
175
     1
 42
40.0
 92
        0
 66
   257
 43
1.0
 76
     1
 77
     6
 78
     2
 67
     7
 79
     3
170
     0
171
     0
290
     0
174
     0
 93
        1
 44
0.0
173
     0
291
     0
 45
0.0
1001
ACAD
1000
AcDbSavedByObjectVersion
1070
     0
  0
VISUALSTYLE
  5
30
102
{ACAD_REACTORS
330
2A
102
}
330
2A
100
AcDbVisualStyle
  2
3dWireframe
 70
     5
 71
     0
 72
     2
 73
     0
 90
        0
 40
-0.6
 41
-30.0
 62
     5
 63
     7
 74
     1
 91
        4
 64
     7
 65
   257
 75
     1
175
     1
 42
1.0
 92
        0
 66
   257
 43
1.0
 76
     1
 77
     6
 78
     2
 67
     7
 79
     5
170
     0
171
     0
290
     0
174
     0
 93
        1
 44
0.0
173
     0
291
     0
 45
0.0
1001
ACAD
1000
AcDbSavedByObjectVersion
1070
     0
  0
VISUALSTYLE
  5
32
102
{ACAD_REACTORS
330
2A
102
}
330
2A
100
AcDbVisualStyle
  2
Basic
 70
     7
 71
     1
 72
     0
 73
     1
 90
        0
 40
-0.6
 41
-30.0
 62
     5
 63
     7
 74
     0
 91
        4
 64
     7
 65
   257
 75
     1
175
     1
 42
1.0
 92
        8
 66
     7
 43
1.0
 76
     1
 77
     6
 78
     2
 67
     7
 79
     5
170
     0
171
     0
290
     0
174
     0
 93
        1
 44
0.0
173
     0
291
     1
 45
0.0
1001
ACAD
1000
AcDbSavedByObjectVersion
1070
     0
  0
VISUALSTYLE
  5
36
102
{ACAD_REACTORS
330
2A
102
}
330
2A
100
AcDbVisualStyle
  2
Brighten
 70
    12
 71
     2
 72
     2
 73
     0
 90
        0
 40
-0.6
 41
-30.0
 62
     5
 63
     7
 74
     1
 91
        4
 64
     7
 65
   257
 75
     1
175
     1
 42
1.0
 92
        8
 66
     7
 43
1.0
 76
     1
 77
     6
 78
     2
 67
     7
 79
     5
170
     0
171
     0
290
     0
174
     0
 93
        1
 44
50.0
173
     0
291
     1
 45
0.0
1001
ACAD
1000
AcDbSavedByObjectVersion
1070
     0
  0
VISUALSTYLE
  5
3A
102
{ACAD_REACTORS
330
2A
102
}
330
2A
100
AcDbVisualStyle
  2
ColorChange
 70
    16
 71
     2
 72
     2
 73
     3
 90
        0
 40
-0.6
 41
-30.0
 62
     5
 63
     8
 74
     1
 91
        4
 64
     7
 65
   257
 75
     1
175
     1
 42
1.0
 92
        8
 66
     8
 43
1.0
 76
     1
 77
     6
 78
     2
 67
     7
 79
     5
170
     0
171
     0
290
     0
174
     0
 93
        1
 44
0.0
173
     0
291
     1
 45
0.0
1001
ACAD
1000
AcDbSavedByObjectVersion
1070
     0
  0
VISUALSTYLE
  5
34
102
{ACAD_REACTORS
330
2A
102
}
330
2A
100
AcDbVisualStyle
  2
Conceptual
 70
     9
 71
     3
 72
     2
 73
     0
 90
        0
 40
-0.6
 41
-30.0
 62
     5
 63
     7
 74
     2
 91
        2
 64
     7
 65
   257
 75
     1
175
     1
 42
40.0
 92
        8
 66
     7
 43
1.0
 76
     1
 77
     6
 78
     2
 67
     7
 79
     3
170
     0
171
     0
290
     0
174
     0
 93
        1
 44
0.0
173
     0
291
     0
 45
0.0
1001
ACAD
1000
AcDbSavedByObjectVersion
1070
     0
  0
VISUALSTYLE
  5
35
102
{ACAD_REACTORS
330
2A
102
}
330
2A
100
AcDbVisualStyle
  2
Dim
 70
    11
 71
     2
 72
     2
 73
     0
 90
        0
 40
-0.6
 41
-30.0
 62
     5
 63
     7
 74
     1
 91
        4
 64
     7
 65
   257
 75
     1
175
     1
 42
1.0
 92
        8
 66
     7
 43
1.0
 76
     1
 77
     6
 78
     2
 67
     7
 79
     5
170
     0
171
     0
290
     0
174
     0
 93
        1
 44
-50.0
173
     0
291
     1
 45
0.0
1001
ACAD
1000
AcDbSavedByObjectVersion
1070
     0
  0
VISUALSTYLE
  5
39
102
{ACAD_REACTORS
330
2A
102
}
330
2A
100
AcDbVisualStyle
  2
Facepattern
 70
    15
 71
     2
 72
     2
 73
     0
 90
        0
 40
-0.6
 41
-30.0
 62
     5
 63
     7
 74
     1
 91
        4
 64
     7
 65
   257
 75
     1
175
     1
 42
1.0
 92
        8
 66
     7
 43
1.0
 76
     1
 77
     6
 78
     2
 67
     7
 79
     5
170
     0
171
     0
290
     0
174
     0
 93
        1
 44
0.0
173
     0
291
     1
 45
0.0
1001
ACAD
1000
AcDbSavedByObjectVersion
1070
     0
  0
VISUALSTYLE
  5
2B
102
{ACAD_REACTORS
330
2A
102
}
330
2A
100
AcDbVisualStyle
  2
Flat
 70
     0
 71
     2
 72
     1
 73
     1
 90
        2
 40
-0.6
 41
30.0
 62
     5
 63
     7
 74
     0
 91
        4
 64
     7
 65
   257
 75
     1
175
     1
 42
1.0
 92
        8
 66
     7
 43
1.0
 76
     1
 77
     6
 78
     2
 67
     7
 79
     5
170
     0
171
     0
290
     0
174
     0
 93
       13
 44
0.0
173
     0
291
     1
 45
0.0
1001
ACAD
1000
AcDbSavedByObjectVersion
1070
     0
  0
VISUALSTYLE
  5
2C
102
{ACAD_REACTORS
330
2A
102
}
330
2A
100
AcDbVisualStyle
  2
FlatWithEdges
 70
     1
 71
     2
 72
     1
 73
     1
 90
        2
 40
-0.6
 41
30.0
 62
     5
 63
     7
 74
     1
 91
        4
 64
     7
 65
   257
 75
     1
175
     1
 42
1.0
 92
        0
 66
   257
 43
1.0
 76
     1
 77
     6
 78
     2
 67
     7
 79
     5
170
     0
171
     0
290
     0
174
     0
 93
       13
 44
0.0
173
     0
291
     1
 45
0.0
1001
ACAD
1000
AcDbSavedByObjectVersion
1070
     0
  0
VISUALSTYLE
  5
2D
102
{ACAD_REACTORS
330
2A
102
}
330
2A
100
AcDbVisualStyle
  2
Gouraud
 70
     2
 71
     2
 72
     2
 73
     1
 90
        2
 40
-0.6
 41
30.0
 62
     5
 63
     7
 74
     0
 91
        4
 64
     7
 65
   257
 75
     1
175
     1
 42
1.0
 92
        0
 66
     7
 43
1.0
 76
     1
 77
     6
 78
     2
 67
     7
 79
     5
170
     0
171
     0
290
     0
174
     0
 93
       13
 44
0.0
173
     0
291
     1
 45
0.0
1001
ACAD
1000
AcDbSavedByObjectVersion
1070
     0
  0
VISUALSTYLE
  5
2E
102
{ACAD_REACTORS
330
2A
102
}
330
2A
100
AcDbVisualStyle
  2
GouraudWithEdges
 70
     3
 71
     2
 72
     2
 73
     1
 90
        2
 40
-0.6
 41
30.0
 62
     5
 63
     7
 74
     1
 91
        4
 64
     7
 65
   257
 75
     1
175
     1
 42
1.0
 92
        0
 66
   257
 43
1.0
 76
     1
 77
     6
 78
     2
 67
     7
 79
     5
170
     0
171
     0
290
     0
174
     0
 93
       13
 44
0.0
173
     0
291
     1
 45
0.0
1001
ACAD
1000
AcDbSavedByObjectVersion
1070
     0
  0
VISUALSTYLE
  5
38
102
{ACAD_REACTORS
330
2A
102
}
330
2A
100
AcDbVisualStyle
  2
Linepattern
 70
    14
 71
     2
 72
     2
 73
     0
 90
        0
 40
-0.6
 41
-30.0
 62
     5
 63
     7
 74
     1
 91
        4
 64
     7
 65
   257
 75
     7
175
     7
 42
1.0
 92
        8
 66
     7
 43
1.0
 76
     1
 77
     6
 78
     2
 67
     7
 79
     5
170
     0
171
     0
290
     0
174
     0
 93
        1
 44
0.0
173
     0
291
     1
 45
0.0
1001
ACAD
1000
AcDbSavedByObjectVersion
1070
     0
  0
VISUALSTYLE
  5
33
102
{ACAD_REACTORS
330
2A
102
}
330
2A
100
AcDbVisualStyle
  2
Realistic
 70
     8
 71
     2
 72
     2
 73
     0
 90
        0
 40
-0.6
 41
-30.0
 62
     5
 63
     7
 74
     1
 91
        0
 64
     7
 65
   257
 75
     1
175
     1
 42
1.0
 92
        8
 66
     8
 43
1.0
 76
     1
 77
     6
 78
     2
 67
     7
 79
     5
170
     0
171
     0
290
     0
174
     0
 93
       13
 44
0.0
173
     0
291
     0
 45
0.0
1001
ACAD
1000
AcDbSavedByObjectVersion
1070
     0
  0
VISUALSTYLE
  5
37
102
{ACAD_REACTORS
330
2A
102
}
330
2A
100
AcDbVisualStyle
  2
Thicken
 70
    13
 71
     2
 72
     2
 73
     0
 90
        0
 40
-0.6
 41
-30.0
 62
     5
 63
     7
 74
     1
 91
        4
 64
     7
 65
   257
 75
     1
175
     1
 42
1.0
 92
       12
 66
     7
 43
1.0
 76
     1
 77
     6
 78
     2
 67
     7
 79
     5
170
     0
171
     0
290
     0
174
     0
 93
        1
 44
0.0
173
     0
291
     1
 45
0.0
1001
ACAD
1000
AcDbSavedByObjectVersion
1070
     0
  0
DICTIONARYVAR
  5
FF
102
{ACAD_REACTORS
330
FC
102
}
330
FC
100
DictionaryVariables
280
     0
  1
1:1
  0
ENDSEC
  0
EOF
