  0
SECTION
  2
HEADER
  9
$ACADVER
  1
AC1015
  9
$ACADMAINTVER
 70
     6
  9
$DWGCODEPAGE
  3
ANSI_1252
  9
$INSBASE
 10
0.0
 20
0.0
 30
0.0
  9
$EXTMIN
 10
56.27057012850004
 20
231.1246172009127
 30
0.0
  9
$EXTMAX
 10
250.360967245534
 20
336.586451739332
 30
0.0
  9
$LIMMIN
 10
0.0
 20
0.0
  9
$LIMMAX
 10
12.0
 20
9.0
  9
$ORTHOMODE
 70
     0
  9
$REGENMODE
 70
     1
  9
$FILLMODE
 70
     1
  9
$QTEXTMODE
 70
     0
  9
$MIRRTEXT
 70
     1
  9
$LTSCALE
 40
1.0
  9
$ATTMODE
 70
     1
  9
$TEXTSIZE
 40
0.2
  9
$TRACEWID
 40
0.05
  9
$TEXTSTYLE
  7
Standard
  9
$CLAYER
  8
0
  9
$CELTYPE
  6
ByLayer
  9
$CECOLOR
 62
   256
  9
$CELTSCALE
 40
1.0
  9
$DISPSILH
 70
     0
  9
$DIMSCALE
 40
1.0
  9
$DIMASZ
 40
0.18
  9
$DIMEXO
 40
0.0625
  9
$DIMDLI
 40
0.38
  9
$DIMRND
 40
0.0
  9
$DIMDLE
 40
0.0
  9
$DIMEXE
 40
0.18
  9
$DIMTP
 40
0.0
  9
$DIMTM
 40
0.0
  9
$DIMTXT
 40
0.18
  9
$DIMCEN
 40
0.09
  9
$DIMTSZ
 40
0.0
  9
$DIMTOL
 70
     0
  9
$DIMLIM
 70
     0
  9
$DIMTIH
 70
     1
  9
$DIMTOH
 70
     1
  9
$DIMSE1
 70
     0
  9
$DIMSE2
 70
     0
  9
$DIMTAD
 70
     0
  9
$DIMZIN
 70
     0
  9
$DIMBLK
  1

  9
$DIMASO
 70
     1
  9
$DIMSHO
 70
     1
  9
$DIMPOST
  1

  9
$DIMAPOST
  1

  9
$DIMALT
 70
     0
  9
$DIMALTD
 70
     2
  9
$DIMALTF
 40
25.4
  9
$DIMLFAC
 40
1.0
  9
$DIMTOFL
 70
     0
  9
$DIMTVP
 40
0.0
  9
$DIMTIX
 70
     0
  9
$DIMSOXD
 70
     0
  9
$DIMSAH
 70
     0
  9
$DIMBLK1
  1

  9
$DIMBLK2
  1

  9
$DIMSTYLE
  2
Standard
  9
$DIMCLRD
 70
     0
  9
$DIMCLRE
 70
     0
  9
$DIMCLRT
 70
     0
  9
$DIMTFAC
 40
1.0
  9
$DIMGAP
 40
0.09
  9
$DIMJUST
 70
     0
  9
$DIMSD1
 70
     0
  9
$DIMSD2
 70
     0
  9
$DIMTOLJ
 70
     1
  9
$DIMTZIN
 70
     0
  9
$DIMALTZ
 70
     0
  9
$DIMALTTZ
 70
     0
  9
$DIMUPT
 70
     0
  9
$DIMDEC
 70
     4
  9
$DIMTDEC
 70
     4
  9
$DIMALTU
 70
     2
  9
$DIMALTTD
 70
     2
  9
$DIMTXSTY
  7
Standard
  9
$DIMAUNIT
 70
     0
  9
$DIMADEC
 70
     0
  9
$DIMALTRND
 40
0.0
  9
$DIMAZIN
 70
     0
  9
$DIMDSEP
 70
    46
  9
$DIMATFIT
 70
     3
  9
$DIMFRAC
 70
     0
  9
$DIMLDRBLK
  1

  9
$DIMLUNIT
 70
     2
  9
$DIMLWD
 70
    -2
  9
$DIMLWE
 70
    -2
  9
$DIMTMOVE
 70
     0
  9
$LUNITS
 70
     2
  9
$LUPREC
 70
     4
  9
$SKETCHINC
 40
0.1
  9
$FILLETRAD
 40
0.5
  9
$AUNITS
 70
     0
  9
$AUPREC
 70
     0
  9
$MENU
  1
.
  9
$ELEVATION
 40
0.0
  9
$PELEVATION
 40
0.0
  9
$THICKNESS
 40
0.0
  9
$LIMCHECK
 70
     0
  9
$CHAMFERA
 40
0.5
  9
$CHAMFERB
 40
0.5
  9
$CHAMFERC
 40
1.0
  9
$CHAMFERD
 40
0.0
  9
$SKPOLY
 70
     0
  9
$TDCREATE
 40
2456821.356649942
  9
$TDUCREATE
 40
2456821.273316609
  9
$TDUPDATE
 40
2456821.356649954
  9
$TDUUPDATE
 40
2456821.27331662
  9
$TDINDWG
 40
0.0000000116
  9
$TDUSRTIMER
 40
0.0000000116
  9
$USRTIMER
 70
     1
  9
$ANGBASE
 50
0.0
  9
$ANGDIR
 70
     0
  9
$PDMODE
 70
     0
  9
$PDSIZE
 40
0.0
  9
$PLINEWID
 40
0.0
  9
$SPLFRAME
 70
     0
  9
$SPLINETYPE
 70
     6
  9
$SPLINESEGS
 70
     8
  9
$HANDSEED
  5
FF
  9
$SURFTAB1
 70
     6
  9
$SURFTAB2
 70
     6
  9
$SURFTYPE
 70
     6
  9
$SURFU
 70
     6
  9
$SURFV
 70
     6
  9
$UCSBASE
  2

  9
$UCSNAME
  2

  9
$UCSORG
 10
0.0
 20
0.0
 30
0.0
  9
$UCSXDIR
 10
1.0
 20
0.0
 30
0.0
  9
$UCSYDIR
 10
0.0
 20
1.0
 30
0.0
  9
$UCSORTHOREF
  2

  9
$UCSORTHOVIEW
 70
     0
  9
$UCSORGTOP
 10
0.0
 20
0.0
 30
0.0
  9
$UCSORGBOTTOM
 10
0.0
 20
0.0
 30
0.0
  9
$UCSORGLEFT
 10
0.0
 20
0.0
 30
0.0
  9
$UCSORGRIGHT
 10
0.0
 20
0.0
 30
0.0
  9
$UCSORGFRONT
 10
0.0
 20
0.0
 30
0.0
  9
$UCSORGBACK
 10
0.0
 20
0.0
 30
0.0
  9
$PUCSBASE
  2

  9
$PUCSNAME
  2

  9
$PUCSORG
 10
0.0
 20
0.0
 30
0.0
  9
$PUCSXDIR
 10
1.0
 20
0.0
 30
0.0
  9
$PUCSYDIR
 10
0.0
 20
1.0
 30
0.0
  9
$PUCSORTHOREF
  2

  9
$PUCSORTHOVIEW
 70
     0
  9
$PUCSORGTOP
 10
0.0
 20
0.0
 30
0.0
  9
$PUCSORGBOTTOM
 10
0.0
 20
0.0
 30
0.0
  9
$PUCSORGLEFT
 10
0.0
 20
0.0
 30
0.0
  9
$PUCSORGRIGHT
 10
0.0
 20
0.0
 30
0.0
  9
$PUCSORGFRONT
 10
0.0
 20
0.0
 30
0.0
  9
$PUCSORGBACK
 10
0.0
 20
0.0
 30
0.0
  9
$USERI1
 70
     0
  9
$USERI2
 70
     0
  9
$USERI3
 70
     0
  9
$USERI4
 70
     0
  9
$USERI5
 70
     0
  9
$USERR1
 40
16.5
  9
$USERR2
 40
0.0
  9
$USERR3
 40
0.0
  9
$USERR4
 40
0.0
  9
$USERR5
 40
0.0
  9
$WORLDVIEW
 70
     1
  9
$SHADEDGE
 70
     3
  9
$SHADEDIF
 70
    70
  9
$TILEMODE
 70
     1
  9
$MAXACTVP
 70
    64
  9
$PINSBASE
 10
0.0
 20
0.0
 30
0.0
  9
$PLIMCHECK
 70
     0
  9
$PEXTMIN
 10
1.00000000000000E+20
 20
1.00000000000000E+20
 30
1.00000000000000E+20
  9
$PEXTMAX
 10
-1.00000000000000E+20
 20
-1.00000000000000E+20
 30
-1.00000000000000E+20
  9
$PLIMMIN
 10
0.0
 20
0.0
  9
$PLIMMAX
 10
12.0
 20
9.0
  9
$UNITMODE
 70
     0
  9
$VISRETAIN
 70
     1
  9
$PLINEGEN
 70
     0
  9
$PSLTSCALE
 70
     1
  9
$TREEDEPTH
 70
  3020
  9
$CMLSTYLE
  2
Standard
  9
$CMLJUST
 70
     0
  9
$CMLSCALE
 40
1.0
  9
$PROXYGRAPHICS
 70
     1
  9
$MEASUREMENT
 70
     1
  9
$CELWEIGHT
370
    -1
  9
$ENDCAPS
280
     0
  9
$JOINSTYLE
280
     0
  9
$LWDISPLAY
290
     0
  9
$INSUNITS
 70
     1
  9
$HYPERLINKBASE
  1

  9
$STYLESHEET
  1

  9
$XEDIT
290
     1
  9
$CEPSNTYPE
380
     0
  9
$PSTYLEMODE
290
     1
  9
$FINGERPRINTGUID
  2
{EFB15B05-D288-4A40-AB19-9868F94D46E9}
  9
$VERSIONGUID
  2
{FAEB1C32-E019-11D5-929B-00C0DF256EC4}
  9
$EXTNAMES
290
     1
  9
$PSVPSCALE
 40
0.0
  9
$OLESTARTUP
290
     0
  0
ENDSEC
  0
SECTION
  2
CLASSES
  0
CLASS
  1
ACDBDICTIONARYWDFLT
  2
AcDbDictionaryWithDefault
  3
ObjectDBX Classes
 90
        0
280
     0
281
     0
  0
CLASS
  1
VISUALSTYLE
  2
AcDbVisualStyle
  3
ObjectDBX Classes
 90
     4095
280
     0
281
     0
  0
CLASS
  1
SCALE
  2
AcDbScale
  3
ObjectDBX Classes
 90
     1153
280
     0
281
     0
  0
CLASS
  1

  2
exOdDbPolyline
  3

 90
        0
280
     0
281
     1
  0
CLASS
  1

  2
exOdDbSpline
  3

 90
        0
280
     0
281
     1
  0
CLASS
  1
DICTIONARYVAR
  2
AcDbDictionaryVar
  3
ObjectDBX Classes
 90
        0
280
     0
281
     0
  0
CLASS
  1
ACDBPLACEHOLDER
  2
AcDbPlaceHolder
  3
ObjectDBX Classes
 90
        0
280
     0
281
     0
  0
CLASS
  1
LAYOUT
  2
AcDbLayout
  3
ObjectDBX Classes
 90
        0
280
     0
281
     0
  0
ENDSEC
  0
SECTION
  2
TABLES
  0
TABLE
  2
VPORT
  5
8
330
0
100
AcDbSymbolTable
 70
     1
  0
VPORT
  5
29
330
8
100
AcDbSymbolTableRecord
100
AcDbViewportTableRecord
  2
*Active
 70
     0
 10
0.0
 20
0.0
 11
1.0
 21
1.0
 12
153.315768687017
 22
283.8555344701223
 13
0.0
 23
0.0
 14
0.5
 24
0.5
 15
0.5
 25
0.5
 16
0.0
 26
0.0
 36
1.0
 17
0.0
 27
0.0
 37
0.0
 40
133.2141332858974
 41
1.60267857142857
 42
50.0
 43
0.0
 44
0.0
 50
0.0
 51
0.0
 71
     0
 72
   100
 73
     1
 74
     3
 75
     0
 76
     0
 77
     0
 78
     0
281
     0
 65
     1
110
0.0
120
0.0
130
0.0
111
1.0
121
0.0
131
0.0
112
0.0
122
1.0
132
0.0
 79
     0
146
0.0
  0
ENDTAB
  0
TABLE
  2
LTYPE
  5
5
330
0
100
AcDbSymbolTable
 70
     8
  0
LTYPE
  5
14
330
5
100
AcDbSymbolTableRecord
100
AcDbLinetypeTableRecord
  2
ByBlock
 70
     0
  3

 72
    65
 73
     0
 40
0.0
  0
LTYPE
  5
15
330
5
100
AcDbSymbolTableRecord
100
AcDbLinetypeTableRecord
  2
ByLayer
 70
     0
  3

 72
    65
 73
     0
 40
0.0
  0
LTYPE
  5
16
330
5
100
AcDbSymbolTableRecord
100
AcDbLinetypeTableRecord
  2
Continuous
 70
     0
  3
Solid line
 72
    65
 73
     0
 40
0.0
  0
LTYPE
  5
3B
330
5
100
AcDbSymbolTableRecord
100
AcDbLinetypeTableRecord
  2
DASHED
 70
     0
  3
Dashed
 72
    65
 73
     2
 40
15.0
 49
7.0
 74
     0
 49
-8.0
 74
     0
  0
LTYPE
  5
3C
330
5
100
AcDbSymbolTableRecord
100
AcDbLinetypeTableRecord
  2
DOTTED
 70
     0
  3
Dotted
 72
    65
 73
     2
 40
1.0
 49
0.0
 74
     0
 49
-1.0
 74
     0
  0
LTYPE
  5
3D
330
5
100
AcDbSymbolTableRecord
100
AcDbLinetypeTableRecord
  2
DOT_CENTER
 70
     0
  3
Dot_Center
 72
    65
 73
     4
 40
14.0
 49
12.0
 74
     0
 49
-1.0
 74
     0
 49
0.0
 74
     0
 49
-1.0
 74
     0
  0
LTYPE
  5
3E
330
5
100
AcDbSymbolTableRecord
100
AcDbLinetypeTableRecord
  2
LONG_DASHED
 70
     0
  3
Long_Dashed
 72
    65
 73
     2
 40
15.0
 49
10.0
 74
     0
 49
-5.0
 74
     0
  0
LTYPE
  5
3F
330
5
100
AcDbSymbolTableRecord
100
AcDbLinetypeTableRecord
  2
DASH_CENTER
 70
     0
  3
Dash_Center
 72
    65
 73
     4
 40
14.0
 49
11.0
 74
     0
 49
-1.0
 74
     0
 49
1.0
 74
     0
 49
-1.0
 74
     0
  0
LTYPE
  5
40
330
5
100
AcDbSymbolTableRecord
100
AcDbLinetypeTableRecord
  2
PHANTOM
 70
     0
  3
Phantom
 72
    65
 73
     6
 40
13.0
 49
10.0
 74
     0
 49
-1.0
 74
     0
 49
0.0
 74
     0
 49
-1.0
 74
     0
 49
0.0
 74
     0
 49
-1.0
 74
     0
  0
LTYPE
  5
41
330
5
100
AcDbSymbolTableRecord
100
AcDbLinetypeTableRecord
  2
CENTER_DASH_DASH
 70
     0
  3
Center_Dash_Dash
 72
    65
 73
     6
 40
14.0
 49
9.0
 74
     0
 49
-1.0
 74
     0
 49
1.0
 74
     0
 49
-1.0
 74
     0
 49
1.0
 74
     0
 49
-1.0
 74
     0
  0
ENDTAB
  0
TABLE
  2
LAYER
  5
2
330
0
100
AcDbSymbolTable
 70
     6
  0
LAYER
  5
10
330
2
100
AcDbSymbolTableRecord
100
AcDbLayerTableRecord
  2
0
 70
     0
 62
     7
  6
Continuous
370
    -3
390
F
  0
LAYER
  5
42
330
2
100
AcDbSymbolTableRecord
100
AcDbLayerTableRecord
  2
1
 70
     0
 62
     7
  6
Continuous
370
    -3
390
F
  0
LAYER
  5
43
330
2
100
AcDbSymbolTableRecord
100
AcDbLayerTableRecord
  2
BEZUGSACHSEN
 70
     0
 62
     7
  6
Continuous
370
    -3
390
F
  0
LAYER
  5
44
330
2
100
AcDbSymbolTableRecord
100
AcDbLayerTableRecord
  2
DEFAULT_2
 70
     0
 62
     7
  6
Continuous
370
    -3
390
F
  0
LAYER
  5
45
330
2
100
AcDbSymbolTableRecord
100
AcDbLayerTableRecord
  2
RUNDUNGEN
 70
     0
 62
     7
  6
Continuous
370
    -3
390
F
  0
LAYER
  5
46
330
2
100
AcDbSymbolTableRecord
100
AcDbLayerTableRecord
  2
TEIL_STARTBEZUEGE
 70
     0
 62
     7
  6
Continuous
370
    -3
390
F
  0
ENDTAB
  0
TABLE
  2
STYLE
  5
3
330
0
100
AcDbSymbolTable
 70
     2
  0
STYLE
  5
11
330
3
100
AcDbSymbolTableRecord
100
AcDbTextStyleTableRecord
  2
Standard
 70
     0
 40
0.0
 41
1.0
 50
0.0
 71
     0
 42
0.2
  3
txt
  4

  0
STYLE
  5
6D
330
3
100
AcDbSymbolTableRecord
100
AcDbTextStyleTableRecord
  2
CONVERTER_11
 70
     0
 40
0.0
 41
0.72
 50
0.0
 71
     0
 42
0.2
  3
txt.shx
  4

  0
ENDTAB
  0
TABLE
  2
VIEW
  5
6
330
0
100
AcDbSymbolTable
 70
     0
  0
ENDTAB
  0
TABLE
  2
UCS
  5
7
330
0
100
AcDbSymbolTable
 70
     0
  0
ENDTAB
  0
TABLE
  2
APPID
  5
9
330
0
100
AcDbSymbolTable
 70
     1
  0
APPID
  5
12
330
9
100
AcDbSymbolTableRecord
100
AcDbRegAppTableRecord
  2
ACAD
 70
     0
  0
ENDTAB
  0
TABLE
  2
DIMSTYLE
  5
A
330
0
100
AcDbSymbolTable
 70
     6
100
AcDbDimStyleTable
  0
DIMSTYLE
105
27
330
A
100
AcDbSymbolTableRecord
100
AcDbDimStyleTableRecord
  2
Standard
 70
     0
340
11
  0
DIMSTYLE
105
C6
102
{ACAD_REACTORS
330
C7
102
}
330
A
100
AcDbSymbolTableRecord
100
AcDbDimStyleTableRecord
  2
ME10_DIM_10
 70
     0
  3
\U+2300<>
 41
3.5
 42
2.0
 44
2.0
 71
     1
 73
     0
 74
     0
 77
     1
 78
     8
140
3.5
146
0.7
147
2.0
172
     1
173
     1
176
     2
177
     2
178
     3
271
     2
272
     0
340
6D
  0
DIMSTYLE
105
D1
102
{ACAD_REACTORS
330
D2
102
}
330
A
100
AcDbSymbolTableRecord
100
AcDbDimStyleTableRecord
  2
ME10_DIM_11
 70
     0
  3
\U+2300<>
 41
3.5
 42
2.0
 44
2.0
 71
     1
 73
     0
 74
     0
 77
     1
 78
     8
140
3.5
146
0.7
147
2.0
172
     1
173
     1
176
     2
177
     2
178
     3
271
     2
272
     0
340
6D
  0
DIMSTYLE
105
DC
102
{ACAD_REACTORS
330
DD
102
}
330
A
100
AcDbSymbolTableRecord
100
AcDbDimStyleTableRecord
  2
ME10_DIM_12
 70
     0
  3
<>
 41
3.5
 42
2.0
 44
2.0
 71
     1
 73
     0
 74
     0
 77
     1
 78
     8
140
3.5
146
0.7
147
2.0
172
     1
173
     1
176
     2
177
     2
178
     3
271
     2
272
     0
340
6D
  0
DIMSTYLE
105
E7
102
{ACAD_REACTORS
330
E8
102
}
330
A
100
AcDbSymbolTableRecord
100
AcDbDimStyleTableRecord
  2
ME10_DIM_13
 70
     0
  3
<>
 41
3.5
 42
2.0
 44
2.0
 71
     1
 73
     0
 74
     0
 77
     1
 78
     8
140
3.5
146
0.7
147
2.0
172
     1
173
     1
176
     2
177
     2
178
     3
271
     2
272
     0
340
6D
  0
DIMSTYLE
105
F2
102
{ACAD_REACTORS
330
F3
102
}
330
A
100
AcDbSymbolTableRecord
100
AcDbDimStyleTableRecord
  2
ME10_DIM_14
 70
     0
  3
<>
 41
3.5
 42
2.0
 44
2.0
 71
     1
 73
     0
 74
     0
 77
     1
 78
     8
140
3.5
146
0.7
147
2.0
172
     1
173
     1
176
     2
177
     2
178
     3
271
     2
272
     0
340
6D
  0
ENDTAB
  0
TABLE
  2
BLOCK_RECORD
  5
1
330
0
100
AcDbSymbolTable
 70
     8
  0
BLOCK_RECORD
  5
1F
330
1
100
AcDbSymbolTableRecord
100
AcDbBlockTableRecord
  2
*Model_Space
340
22
  0
BLOCK_RECORD
  5
1B
330
1
100
AcDbSymbolTableRecord
100
AcDbBlockTableRecord
  2
*Paper_Space
340
1E
  0
BLOCK_RECORD
  5
23
330
1
100
AcDbSymbolTableRecord
100
AcDbBlockTableRecord
  2
*Paper_Space0
340
26
  0
BLOCK_RECORD
  5
47
330
1
100
AcDbSymbolTableRecord
100
AcDbBlockTableRecord
  2
Urheberrecht_DE-EN_horizontal
340
0
102
{BLKREFS
331
6C
102
}
  0
BLOCK_RECORD
  5
BB
330
1
100
AcDbSymbolTableRecord
100
AcDbBlockTableRecord
  2
*D2
340
0
  0
BLOCK_RECORD
  5
C8
330
1
100
AcDbSymbolTableRecord
100
AcDbBlockTableRecord
  2
*D3
340
0
  0
BLOCK_RECORD
  5
D3
330
1
100
AcDbSymbolTableRecord
100
AcDbBlockTableRecord
  2
*D4
340
0
  0
BLOCK_RECORD
  5
DE
330
1
100
AcDbSymbolTableRecord
100
AcDbBlockTableRecord
  2
*D5
340
0
  0
BLOCK_RECORD
  5
E9
330
1
100
AcDbSymbolTableRecord
100
AcDbBlockTableRecord
  2
*D6
340
0
  0
BLOCK_RECORD
  5
F4
330
1
100
AcDbSymbolTableRecord
100
AcDbBlockTableRecord
  2
*D7
340
0
102
{BLKREFS
331
FA
102
}
  0
ENDTAB
  0
ENDSEC
  0
SECTION
  2
BLOCKS
  0
BLOCK
  5
20
330
1F
100
AcDbEntity
  8
0
100
AcDbBlockBegin
  2
*Model_Space
 70
     0
 10
0.0
 20
0.0
 30
0.0
  3
*Model_Space
  1

  0
ENDBLK
  5
21
330
1F
100
AcDbEntity
  8
0
100
AcDbBlockEnd
  0
BLOCK
  5
1C
330
1B
100
AcDbEntity
 67
     1
  8
0
100
AcDbBlockBegin
  2
*Paper_Space
 70
     0
 10
0.0
 20
0.0
 30
0.0
  3
*Paper_Space
  1

  0
ENDBLK
  5
1D
330
1B
100
AcDbEntity
 67
     1
  8
0
100
AcDbBlockEnd
  0
BLOCK
  5
24
330
23
100
AcDbEntity
  8
0
100
AcDbBlockBegin
  2
*Paper_Space0
 70
     0
 10
0.0
 20
0.0
 30
0.0
  3
*Paper_Space0
  1

  0
ENDBLK
  5
25
330
23
100
AcDbEntity
  8
0
100
AcDbBlockEnd
  0
BLOCK
  5
48
330
47
100
AcDbEntity
  8
0
100
AcDbBlockBegin
  2
Urheberrecht_DE-EN_horizontal
 70
     0
 10
148.164733774298
 20
238.522625210817
 30
0.0
  3
Urheberrecht_DE-EN_horizontal
  1

  0
MTEXT
  5
6E
330
47
100
AcDbEntity
  8
1
 62
     1
100
AcDbMText
 10
94.71095138493878
 20
231.7246172009127
 30
0.0
 40
2.0
 41
0.0
 71
     7
 72
     1
  1
F\U+00fcr diese Unterlage behalten wir das Ur-\Pheberrecht. Sie darf nur f\U+00fcr den von uns \Pbestimmten Zweck benutzt und ohne unsere \PZustimmung weder vervielf\U+00e4ltigt noch\PDritten zug\U+00e4nglich gemacht werden.
  7
CONVERTER_11
 73
     1
 44
0.90036014405762
  0
MTEXT
  5
6F
330
47
100
AcDbEntity
  8
1
 62
     1
100
AcDbMText
 10
151.000338302245
 20
231.7246172009127
 30
0.0
 40
2.0
 41
0.0
 71
     7
 72
     1
  1
We own the copyright of this document. It \Pdetermined and may neither be copied or \Pmade accessible to outsiders without our\Ppermission.
  7
CONVERTER_11
 73
     1
 44
0.90036014405762
  0
ENDBLK
  5
49
330
47
100
AcDbEntity
  8
0
100
AcDbBlockEnd
  0
BLOCK
  5
C4
330
BB
100
AcDbEntity
  8
0
100
AcDbBlockBegin
  2
*D2
 70
     1
 10
0.0
 20
0.0
 30
0.0
  3
*D2
  1

  0
LINE
  5
BC
330
BB
100
AcDbEntity
  8
1
  6
Continuous
 62
     2
100
AcDbLine
 10
239.044964743646
 20
290.4075904375
 30
0.0
 11
239.044964743646
 21
283.4075904375
 31
0.0
  0
LINE
  5
BD
330
BB
100
AcDbEntity
  8
1
  6
Continuous
 62
     2
100
AcDbLine
 10
239.044964743646
 20
283.4075904375
 30
0.0
 11
239.044964743646
 21
275.4075904375
 31
0.0
  0
LINE
  5
BE
330
BB
100
AcDbEntity
  8
1
  6
Continuous
 62
     2
100
AcDbLine
 10
239.044964743646
 20
275.4075904375
 30
0.0
 11
239.044964743646
 21
268.4075904375
 31
0.0
  0
LINE
  5
BF
330
BB
100
AcDbEntity
  8
1
  6
Continuous
 62
     2
100
AcDbLine
 10
229.7955701285
 20
283.4075904375
 30
0.0
 11
241.044964743646
 21
283.4075904375
 31
0.0
  0
LINE
  5
C0
330
BB
100
AcDbEntity
  8
1
  6
Continuous
 62
     2
100
AcDbLine
 10
229.7955701285
 20
275.4075904375
 30
0.0
 11
241.044964743646
 21
275.4075904375
 31
0.0
  0
SOLID
  5
C1
330
BB
100
AcDbEntity
  8
1
 62
     2
100
AcDbTrace
 10
238.5841810020901
 20
286.9075904375
 30
0.0
 11
239.5057484852019
 21
286.9075904375
 31
0.0
 12
239.044964743646
 22
283.4075904375
 32
0.0
 13
239.044964743646
 23
283.4075904375
 33
0.0
  0
SOLID
  5
C2
330
BB
100
AcDbEntity
  8
1
 62
     2
100
AcDbTrace
 10
239.5057484852019
 20
271.9075904375
 30
0.0
 11
238.5841810020901
 21
271.9075904375
 31
0.0
 12
239.044964743646
 22
275.4075904375
 32
0.0
 13
239.044964743646
 23
275.4075904375
 33
0.0
  0
MTEXT
  5
C3
330
BB
100
AcDbEntity
  8
1
 62
     3
100
AcDbMText
 10
237.044964743646
 20
272.000479680412
 30
0.0
 40
3.5
 41
0.0
 71
     7
 72
     1
  1
\C3;%%c\C3;\C3;8\C2;\H2.45;\S^ ;\C3;
  7
CONVERTER_11
 11
0.0
 21
1.0
 31
0.0
 73
     1
 44
0.60024009603842
  0
ENDBLK
  5
C5
330
BB
100
AcDbEntity
  8
0
100
AcDbBlockEnd
  0
BLOCK
  5
CF
330
C8
100
AcDbEntity
  8
0
100
AcDbBlockBegin
  2
*D3
 70
     1
 10
0.0
 20
0.0
 30
0.0
  3
*D3
  1

  0
LINE
  5
C9
330
C8
100
AcDbEntity
  8
1
  6
Continuous
 62
     2
100
AcDbLine
 10
248.360967245534
 20
293.4075904375
 30
0.0
 11
248.360967245534
 21
265.4075904375
 31
0.0
  0
LINE
  5
CA
330
C8
100
AcDbEntity
  8
1
  6
Continuous
 62
     2
100
AcDbLine
 10
218.527620936
 20
293.4075904375
 30
0.0
 11
250.360967245534
 21
293.4075904375
 31
0.0
  0
LINE
  5
CB
330
C8
100
AcDbEntity
  8
1
  6
Continuous
 62
     2
100
AcDbLine
 10
218.527620936
 20
265.4075904375
 30
0.0
 11
250.360967245534
 21
265.4075904375
 31
0.0
  0
SOLID
  5
CC
330
C8
100
AcDbEntity
  8
1
 62
     2
100
AcDbTrace
 10
248.8217509870899
 20
289.9075904375
 30
0.0
 11
247.9001835039781
 21
289.9075904375
 31
0.0
 12
248.360967245534
 22
293.4075904375
 32
0.0
 13
248.360967245534
 23
293.4075904375
 33
0.0
  0
SOLID
  5
CD
330
C8
100
AcDbEntity
  8
1
 62
     2
100
AcDbTrace
 10
247.9001835039781
 20
268.9075904375
 30
0.0
 11
248.8217509870899
 21
268.9075904375
 31
0.0
 12
248.360967245534
 22
265.4075904375
 32
0.0
 13
248.360967245534
 23
265.4075904375
 33
0.0
  0
MTEXT
  5
CE
330
C8
100
AcDbEntity
  8
1
 62
     3
100
AcDbMText
 10
246.360967245534
 20
270.396627097976
 30
0.0
 40
3.5
 41
0.0
 71
     7
 72
     1
  1
\C3;%%c\C3;\C3;28\C2;\H2.45;\S^ ;\C3;
  7
CONVERTER_11
 11
0.0
 21
1.0
 31
0.0
 73
     1
 44
0.60024009603842
  0
ENDBLK
  5
D0
330
C8
100
AcDbEntity
  8
0
100
AcDbBlockEnd
  0
BLOCK
  5
DA
330
D3
100
AcDbEntity
  8
0
100
AcDbBlockBegin
  2
*D4
 70
     1
 10
0.0
 20
0.0
 30
0.0
  3
*D4
  1

  0
LINE
  5
D4
330
D3
100
AcDbEntity
  8
1
  6
Continuous
 62
     2
100
AcDbLine
 10
227.7955701285
 20
316.314186192686
 30
0.0
 11
146.8955701285
 21
316.314186192686
 31
0.0
  0
LINE
  5
D5
330
D3
100
AcDbEntity
  8
1
  6
Continuous
 62
     2
100
AcDbLine
 10
227.7955701285
 20
288.4793872072
 30
0.0
 11
227.7955701285
 21
318.314186192686
 31
0.0
  0
LINE
  5
D6
330
D3
100
AcDbEntity
  8
1
  6
Continuous
 62
     2
100
AcDbLine
 10
146.8955701285
 20
311.0845411948
 30
0.0
 11
146.8955701285
 21
318.314186192686
 31
0.0
  0
SOLID
  5
D7
330
D3
100
AcDbEntity
  8
1
 62
     2
100
AcDbTrace
 10
224.2955701285
 20
315.8534024511301
 30
0.0
 11
224.2955701285
 21
316.7749699342419
 31
0.0
 12
227.7955701285
 22
316.314186192686
 32
0.0
 13
227.7955701285
 23
316.314186192686
 33
0.0
  0
SOLID
  5
D8
330
D3
100
AcDbEntity
  8
1
 62
     2
100
AcDbTrace
 10
150.3955701285
 20
316.7749699342419
 30
0.0
 11
150.3955701285
 21
315.8534024511301
 31
0.0
 12
146.8955701285
 22
316.314186192686
 32
0.0
 13
146.8955701285
 23
316.314186192686
 33
0.0
  0
MTEXT
  5
D9
330
D3
100
AcDbEntity
  8
1
 62
     3
100
AcDbMText
 10
182.05354200124
 20
318.314186192686
 30
0.0
 40
3.5
 41
0.0
 71
     7
 72
     1
  1
\C3;\C3;\C3;80.9\C2;\H2.45;\S^ ;\C3;
  7
CONVERTER_11
 11
0.9999999999970619
 21
2.424068405545306E-6
 31
0.0
 73
     1
 44
0.60024009603842
  0
ENDBLK
  5
DB
330
D3
100
AcDbEntity
  8
0
100
AcDbBlockEnd
  0
BLOCK
  5
E5
330
DE
100
AcDbEntity
  8
0
100
AcDbBlockBegin
  2
*D5
 70
     1
 10
0.0
 20
0.0
 30
0.0
  3
*D5
  1

  0
LINE
  5
DF
330
DE
100
AcDbEntity
  8
1
  6
Continuous
 62
     2
100
AcDbLine
 10
227.7955701285
 20
324.096004650294
 30
0.0
 11
127.7955701285
 21
324.096004650294
 31
0.0
  0
LINE
  5
E0
330
DE
100
AcDbEntity
  8
1
  6
Continuous
 62
     2
100
AcDbLine
 10
227.7955701285
 20
288.4793872072
 30
0.0
 11
227.7955701285
 21
326.096004650294
 31
0.0
  0
LINE
  5
E1
330
DE
100
AcDbEntity
  8
1
  6
Continuous
 62
     2
100
AcDbLine
 10
127.7955701285
 20
308.2103887988
 30
0.0
 11
127.7955701285
 21
326.096004650294
 31
0.0
  0
SOLID
  5
E2
330
DE
100
AcDbEntity
  8
1
 62
     2
100
AcDbTrace
 10
224.2955701285
 20
323.6352209087381
 30
0.0
 11
224.2955701285
 21
324.5567883918499
 31
0.0
 12
227.7955701285
 22
324.096004650294
 32
0.0
 13
227.7955701285
 23
324.096004650294
 33
0.0
  0
SOLID
  5
E3
330
DE
100
AcDbEntity
  8
1
 62
     2
100
AcDbTrace
 10
131.2955701285
 20
324.5567883918499
 30
0.0
 11
131.2955701285
 21
323.6352209087381
 31
0.0
 12
127.7955701285
 22
324.096004650294
 32
0.0
 13
127.7955701285
 23
324.096004650294
 33
0.0
  0
MTEXT
  5
E4
330
DE
100
AcDbEntity
  8
1
 62
     3
100
AcDbMText
 10
174.593229758491
 20
326.096004650294
 30
0.0
 40
3.5
 41
0.0
 71
     7
 72
     1
  1
\C3;\C3;\C3;100\C2;\H2.45;\S^ ;\C3;
  7
CONVERTER_11
 11
0.9999999999970619
 21
2.424068405545306E-6
 31
0.0
 73
     1
 44
0.60024009603842
  0
ENDBLK
  5
E6
330
DE
100
AcDbEntity
  8
0
100
AcDbBlockEnd
  0
BLOCK
  5
F0
330
E9
100
AcDbEntity
  8
0
100
AcDbBlockBegin
  2
*D6
 70
     1
 10
0.0
 20
0.0
 30
0.0
  3
*D6
  1

  0
LINE
  5
EA
330
E9
100
AcDbEntity
  8
1
  6
Continuous
 62
     2
100
AcDbLine
 10
227.7955701285
 20
331.086451739332
 30
0.0
 11
59.39557012849997
 21
331.086451739332
 31
0.0
  0
LINE
  5
EB
330
E9
100
AcDbEntity
  8
1
  6
Continuous
 62
     2
100
AcDbLine
 10
227.7955701285
 20
288.4793872072
 30
0.0
 11
227.7955701285
 21
333.086451739332
 31
0.0
  0
LINE
  5
EC
330
E9
100
AcDbEntity
  8
1
  6
Continuous
 62
     2
100
AcDbLine
 10
59.39557012849997
 20
292.8571386383
 30
0.0
 11
59.39557012849997
 21
333.086451739332
 31
0.0
  0
SOLID
  5
ED
330
E9
100
AcDbEntity
  8
1
 62
     2
100
AcDbTrace
 10
224.2955701285
 20
330.6256679977761
 30
0.0
 11
224.2955701285
 21
331.5472354808879
 31
0.0
 12
227.7955701285
 22
331.086451739332
 32
0.0
 13
227.7955701285
 23
331.086451739332
 33
0.0
  0
SOLID
  5
EE
330
E9
100
AcDbEntity
  8
1
 62
     2
100
AcDbTrace
 10
62.89557012849997
 20
331.5472354808879
 30
0.0
 11
62.89557012849997
 21
330.6256679977761
 31
0.0
 12
59.39557012849997
 22
331.086451739332
 32
0.0
 13
59.39557012849997
 23
331.086451739332
 33
0.0
  0
MTEXT
  5
EF
330
E9
100
AcDbEntity
  8
1
 62
     3
100
AcDbMText
 10
148.4110482599542
 20
333.086451739332
 30
0.0
 40
3.5
 41
0.0
 71
     7
 72
     1
  1
\C3;\C3;\C3;168.4\C2;\H2.45;\S^ ;\C3;
  7
CONVERTER_11
 11
0.9999999999970619
 21
2.424068405545306E-6
 31
0.0
 73
     1
 44
0.60024009603842
  0
ENDBLK
  5
F1
330
E9
100
AcDbEntity
  8
0
100
AcDbBlockEnd
  0
BLOCK
  5
F8
330
F4
100
AcDbEntity
  8
0
100
AcDbBlockBegin
  2
*D7
 70
     1
 10
0.0
 20
0.0
 30
0.0
  3
*D7
  1

  0
LINE
  5
F5
330
F4
100
AcDbEntity
  8
1
  6
Continuous
 62
     2
100
AcDbLine
 10
159.2069506497051
 20
302.3657848617649
 30
0.0
 11
147.4985722659455
 21
296.0271682487505
 31
0.0
  0
SOLID
  5
F6
330
F4
100
AcDbEntity
  8
1
 62
     2
100
AcDbTrace
 10
150.3570988012106
 20
298.0986768062194
 30
0.0
 11
150.7958427382565
 21
297.288250755531
 31
0.0
 12
147.4985722659455
 22
296.0271682487505
 32
0.0
 13
147.4985722659455
 23
296.0271682487505
 33
0.0
  0
MTEXT
  5
F7
330
F4
100
AcDbEntity
  8
1
 62
     3
100
AcDbMText
 10
151.7296369461744
 20
300.5920374786824
 30
0.0
 40
3.5
 41
0.0
 71
     7
 72
     1
  1
\C3; R\C3;\C3;5\C2;\H2.45;\S^ ;\C3;
  7
CONVERTER_11
 11
0.8793995725108993
 21
0.4760844377499096
 31
0.0
 73
     1
 44
0.60024009603842
  0
ENDBLK
  5
F9
330
F4
100
AcDbEntity
  8
0
100
AcDbBlockEnd
  0
ENDSEC
  0
SECTION
  2
ENTITIES
  0
INSERT
  5
6C
330
1F
100
AcDbEntity
  8
0
100
AcDbBlockReference
  2
Urheberrecht_DE-EN_horizontal
 10
148.164733774298
 20
238.522625210817
 30
0.0
  0
LINE
  5
70
330
1F
100
AcDbEntity
  8
0
  6
Continuous
 62
     7
100
AcDbLine
 10
59.39557012849997
 20
290.8571386383
 30
0.0
 11
59.39557012849997
 21
267.9580422367
 31
0.0
  0
LINE
  5
71
330
1F
100
AcDbEntity
  8
0
  6
Continuous
 62
     9
100
AcDbLine
 10
60.20846739279998
 20
291.7971933388002
 30
0.0
 11
60.20846739279997
 21
267.0179875361999
 31
0.0
  0
LINE
  5
72
330
1F
100
AcDbEntity
  8
0
  6
Continuous
 62
     7
100
AcDbLine
 10
131.9955701285
 20
248.6952735882
 30
0.0
 11
135.4415166081
 21
248.6952735882
 31
0.0
  0
LINE
  5
73
330
1F
100
AcDbEntity
  8
0
  6
Continuous
 62
     7
100
AcDbLine
 10
142.4996236489
 20
248.6952735882
 30
0.0
 11
145.8955701285
 21
248.6952735882
 31
0.0
  0
LINE
  5
74
330
1F
100
AcDbEntity
  8
0
  6
Continuous
 62
     7
100
AcDbLine
 10
137.8080701285
 20
252.6047920761
 30
0.0
 11
140.1330701285
 21
252.6047920761
 31
0.0
  0
LINE
  5
75
330
1F
100
AcDbEntity
  8
0
  6
Continuous
 62
     7
100
AcDbLine
 10
127.3058877952
 20
257.2540083959
 30
0.0
 11
60.20846739279997
 21
267.0179875361999
 31
0.0
  0
LINE
  5
76
330
1F
100
AcDbEntity
  8
0
  6
Continuous
 62
     7
100
AcDbLine
 10
128.3455701285
 20
257.5325904375
 30
0.0
 11
127.3058877952
 21
257.2540083959
 31
0.0
  0
LINE
  5
77
330
1F
100
AcDbEntity
  8
0
  6
Continuous
 62
     7
100
AcDbLine
 10
129.9955701285
 20
257.5325904375
 30
0.0
 11
128.3455701285
 21
257.5325904375
 31
0.0
  0
LINE
  5
78
330
1F
100
AcDbEntity
  8
0
  6
Continuous
 62
     7
100
AcDbLine
 10
127.3058877952
 20
301.5611724791
 30
0.0
 11
127.3058877952
 21
257.2540083959
 31
0.0
  0
LWPOLYLINE
  5
79
330
1F
100
AcDbEntity
  8
TEIL_STARTBEZUEGE
  6
DOT_CENTER
 62
     7
100
AcDbPolyline
 90
        2
 70
     0
 43
0.25
 10
127.7955701285
 20
252.6047920761
 10
127.7955701285
 20
306.2103887988
  0
LINE
  5
7A
330
1F
100
AcDbEntity
  8
0
  6
Continuous
 62
     7
100
AcDbLine
 10
128.3455701285
 20
301.2825904375
 30
0.0
 11
128.3455701285
 21
257.5325904375
 31
0.0
  0
LINE
  5
7B
330
1F
100
AcDbEntity
  8
0
  6
Continuous
 62
     9
100
AcDbLine
 10
129.9955701285
 20
301.2825904375
 30
0.0
 11
129.9955701285
 21
257.5325904375
 31
0.0
  0
LINE
  5
7C
330
1F
100
AcDbEntity
  8
0
  6
Continuous
 62
     7
100
AcDbLine
 10
130.9955701285
 20
309.0845411948
 30
0.0
 11
130.9955701285
 21
249.7306396802
 31
0.0
  0
LINE
  5
7D
330
1F
100
AcDbEntity
  8
0
  6
Continuous
 62
     9
100
AcDbLine
 10
131.9955701285
 20
310.1199072868
 30
0.0
 11
131.9955701285
 21
248.6952735882
 31
0.0
  0
LINE
  5
7E
330
1F
100
AcDbEntity
  8
0
  6
Continuous
 62
     7
100
AcDbLine
 10
151.8955701285
 20
265.4075904375
 30
0.0
 11
216.527620936
 21
265.4075904375
 31
0.0
  0
LINE
  5
7F
330
1F
100
AcDbEntity
  8
0
  6
Continuous
 62
     7
100
AcDbLine
 10
135.4415166081
 20
310.1199072868
 30
0.0
 11
135.4415166081
 21
248.6952735882
 31
0.0
  0
LINE
  5
80
330
1F
100
AcDbEntity
  8
0
  6
Continuous
 62
     7
100
AcDbLine
 10
137.0580701285
 20
307.2144086399
 30
0.0
 11
137.0580701285
 21
251.600772235
 31
0.0
  0
LINE
  5
81
330
1F
100
AcDbEntity
  8
0
  6
Continuous
 62
     9
100
AcDbLine
 10
137.8080701285
 20
306.2103887988
 30
0.0
 11
137.8080701285
 21
252.6047920761
 31
0.0
  0
LINE
  5
82
330
1F
100
AcDbEntity
  8
0
  6
Continuous
 62
     9
100
AcDbLine
 10
140.1330701285
 20
306.2103887988
 30
0.0
 11
140.1330701285
 21
252.6047920761
 31
0.0
  0
LINE
  5
83
330
1F
100
AcDbEntity
  8
0
  6
Continuous
 62
     7
100
AcDbLine
 10
140.8830701285
 20
307.2144086399
 30
0.0
 11
140.8830701285
 21
251.600772235
 31
0.0
  0
LINE
  5
84
330
1F
100
AcDbEntity
  8
0
  6
Continuous
 62
     7
100
AcDbLine
 10
142.4996236489
 20
310.1199072868
 30
0.0
 11
142.4996236489
 21
248.6952735882
 31
0.0
  0
LWPOLYLINE
  5
85
330
1F
100
AcDbEntity
  8
DEFAULT_2
  6
DASHED
 62
     8
100
AcDbPolyline
 90
        2
 70
     0
 43
0.35
 10
227.7955701285
 20
275.4075904375
 10
194.7955701285
 20
275.4075904375
  0
LWPOLYLINE
  5
86
330
1F
100
AcDbEntity
  8
TEIL_STARTBEZUEGE
  6
DOT_CENTER
 62
     7
100
AcDbPolyline
 90
        2
 70
     0
 43
0.25
 10
230.7955701285
 20
279.4075904375
 10
56.39557012850004
 20
279.4075904375
  0
LINE
  5
87
330
1F
100
AcDbEntity
  8
0
  6
Continuous
 62
     9
100
AcDbLine
 10
145.8955701285
 20
310.1199072868
 30
0.0
 11
145.8955701285
 21
248.6952735882
 31
0.0
  0
LINE
  5
88
330
1F
100
AcDbEntity
  8
0
  6
Continuous
 62
     7
100
AcDbLine
 10
146.8955701285
 20
309.0845411948
 30
0.0
 11
146.8955701285
 21
249.7306396802
 31
0.0
  0
LWPOLYLINE
  5
89
330
1F
100
AcDbEntity
  8
DEFAULT_2
  6
DASHED
 62
     8
100
AcDbPolyline
 90
        2
 70
     0
 43
0.35
 10
194.7955701285
 20
283.4075904375
 10
227.7955701285
 20
283.4075904375
  0
LINE
  5
8A
330
1F
100
AcDbEntity
  8
RUNDUNGEN
  6
Continuous
 62
     9
100
AcDbLine
 10
151.8955701285
 20
293.4075904375
 30
0.0
 11
151.8955701285
 21
265.4075904375
 31
0.0
  0
LINE
  5
8B
330
1F
100
AcDbEntity
  8
BEZUGSACHSEN
  6
Continuous
 62
     7
100
AcDbLine
 10
216.527620936
 20
293.4075904375
 30
0.0
 11
213.1955701285
 21
293.4075904375
 31
0.0
  0
LINE
  5
8C
330
1F
100
AcDbEntity
  8
BEZUGSACHSEN
  6
Continuous
 62
     7
100
AcDbLine
 10
206.3955701285
 20
293.4075904375
 30
0.0
 11
151.8955701285
 21
293.4075904375
 31
0.0
  0
LINE
  5
8D
330
1F
100
AcDbEntity
  8
0
  6
Continuous
 62
     7
100
AcDbLine
 10
151.8955701285
 20
293.4075904375
 30
0.0
 11
206.3955701285
 21
293.4075904375
 31
0.0
  0
LINE
  5
8E
330
1F
100
AcDbEntity
  8
0
  6
Continuous
 62
     7
100
AcDbLine
 10
213.1955701285
 20
293.4075904375
 30
0.0
 11
216.527620936
 21
293.4075904375
 31
0.0
  0
LINE
  5
8F
330
1F
100
AcDbEntity
  8
0
  6
Continuous
 62
     7
100
AcDbLine
 10
128.3455701285
 20
301.2825904375
 30
0.0
 11
127.3058877952
 21
301.5611724791
 31
0.0
  0
LINE
  5
90
330
1F
100
AcDbEntity
  8
0
  6
Continuous
 62
     7
100
AcDbLine
 10
127.3058877952
 20
301.5611724791
 30
0.0
 11
60.20846739279998
 21
291.7971933388002
 31
0.0
  0
LINE
  5
91
330
1F
100
AcDbEntity
  8
0
  6
Continuous
 62
     7
100
AcDbLine
 10
129.9955701285
 20
301.2825904375
 30
0.0
 11
128.3455701285
 21
301.2825904375
 31
0.0
  0
LINE
  5
92
330
1F
100
AcDbEntity
  8
0
  6
Continuous
 62
     7
100
AcDbLine
 10
130.9955701285
 20
301.9575904375
 30
0.0
 11
130.9412841444
 21
301.9575904375
 31
0.0
  0
LINE
  5
93
330
1F
100
AcDbEntity
  8
0
  6
Continuous
 62
     7
100
AcDbLine
 10
137.8080701285
 20
306.2103887988
 30
0.0
 11
140.1330701285
 21
306.2103887988
 31
0.0
  0
LINE
  5
94
330
1F
100
AcDbEntity
  8
0
  6
Continuous
 62
     7
100
AcDbLine
 10
131.9955701285
 20
310.1199072868
 30
0.0
 11
135.4415166081
 21
310.1199072868
 31
0.0
  0
LINE
  5
95
330
1F
100
AcDbEntity
  8
0
  6
Continuous
 62
     7
100
AcDbLine
 10
142.4996236489
 20
310.1199072868
 30
0.0
 11
145.8955701285
 21
310.1199072868
 31
0.0
  0
LINE
  5
96
330
1F
100
AcDbEntity
  8
RUNDUNGEN
  6
Continuous
 62
     7
100
AcDbLine
 10
227.2955701285
 20
287.345412611
 30
0.0
 11
217.027620936
 21
293.2736158413
 31
0.0
  0
LINE
  5
97
330
1F
100
AcDbEntity
  8
0
  6
Continuous
 62
     7
100
AcDbLine
 10
217.027620936
 20
293.2736158413
 30
0.0
 11
227.2955701285
 21
287.345412611
 31
0.0
  0
LWPOLYLINE
  5
98
330
1F
100
AcDbEntity
  8
DEFAULT_2
  6
DASHED
 62
     8
100
AcDbPolyline
 90
        2
 70
     0
 43
0.35
 10
194.7955701285
 20
283.4075904375
 10
194.7955701285
 20
275.4075904375
  0
LINE
  5
99
330
1F
100
AcDbEntity
  8
0
  6
Continuous
 62
     7
100
AcDbLine
 10
217.027620936
 20
265.5415650337
 30
0.0
 11
227.2955701285
 21
271.469768264
 31
0.0
  0
LWPOLYLINE
  5
9A
330
1F
100
AcDbEntity
  8
BEZUGSACHSEN
  6
DASHED
 62
     8
100
AcDbPolyline
 90
        2
 70
     0
 43
0.35
 10
206.3955701285
 20
283.4075904375
 10
206.3955701285
 20
293.4075904375
  0
LWPOLYLINE
  5
9B
330
1F
100
AcDbEntity
  8
BEZUGSACHSEN
  6
DOT_CENTER
 62
     7
100
AcDbPolyline
 90
        2
 70
     0
 43
0.25
 10
209.7955701285
 20
296.4075904375
 10
209.7955701285
 20
280.8146840677
  0
LWPOLYLINE
  5
9C
330
1F
100
AcDbEntity
  8
BEZUGSACHSEN
  6
DASHED
 62
     8
100
AcDbPolyline
 90
        2
 70
     0
 43
0.35
 10
213.1955701285
 20
283.4075904375
 10
213.1955701285
 20
293.4075904375
  0
LINE
  5
9D
330
1F
100
AcDbEntity
  8
RUNDUNGEN
  6
Continuous
 62
     9
100
AcDbLine
 10
216.527620936
 20
265.4075904375
 30
0.0
 11
216.527620936
 21
293.4075904375
 31
0.0
  0
LINE
  5
9E
330
1F
100
AcDbEntity
  8
RUNDUNGEN
  6
Continuous
 62
     9
100
AcDbLine
 10
217.027620936
 20
265.5415650337
 30
0.0
 11
217.027620936
 21
293.2736158413
 31
0.0
  0
LINE
  5
9F
330
1F
100
AcDbEntity
  8
RUNDUNGEN
  6
Continuous
 62
     9
100
AcDbLine
 10
227.2955701285
 20
271.469768264
 30
0.0
 11
227.2955701285
 21
287.345412611
 31
0.0
  0
LINE
  5
A0
330
1F
100
AcDbEntity
  8
RUNDUNGEN
  6
Continuous
 62
     7
100
AcDbLine
 10
227.7955701285
 20
286.4793872072
 30
0.0
 11
227.7955701285
 21
272.3357936678
 31
0.0
  0
LWPOLYLINE
  5
A1
330
1F
100
AcDbEntity
  8
BEZUGSACHSEN
  6
DASHED
 62
     8
100
AcDbPolyline
 90
        2
 70
     0
 43
0.35
 10
213.7955701285
 20
283.4075904375
 10
213.7955701285
 20
293.4075904375
  0
LWPOLYLINE
  5
A2
330
1F
100
AcDbEntity
  8
BEZUGSACHSEN
  6
DASHED
 62
     8
100
AcDbPolyline
 90
        2
 70
     0
 43
0.35
 10
205.7955701285
 20
283.4075904375
 10
205.7955701285
 20
293.4075904375
  0
ARC
  5
A3
330
1F
100
AcDbEntity
  8
0
  6
Continuous
 62
     7
100
AcDbCircle
 10
-827.0796446791
 20
-227.3074831211
 30
0.0
 40
1102.395204038089
100
AcDbArc
 50
29.00416524305434
 51
29.176974955987
  0
ARC
  5
A4
330
1F
100
AcDbEntity
  8
0
  6
Continuous
 62
     7
100
AcDbCircle
 10
129.9955701285
 20
256.5325904375
 30
0.0
 40
1.0
100
AcDbArc
 50
0.0
 51
90.0
  0
ARC
  5
A5
330
1F
100
AcDbEntity
  8
0
  6
Continuous
 62
     7
100
AcDbCircle
 10
60.34557012849997
 20
267.9580422367
 30
0.0
 40
0.9500000000000028
100
AcDbArc
 50
180.0
 51
261.7021731728426
  0
ARC
  5
A6
330
1F
100
AcDbEntity
  8
0
  6
Continuous
 62
     7
100
AcDbCircle
 10
-827.0796446728
 20
786.1226639926
 30
0.0
 40
1102.395204030939
100
AcDbArc
 50
330.8230250440122
 51
330.9958347569415
  0
ARC
  5
A7
330
1F
100
AcDbEntity
  8
0
  6
Continuous
 62
     7
100
AcDbCircle
 10
129.9955701285
 20
302.2825904375
 30
0.0
 40
1.0
100
AcDbArc
 50
270.0
 51
341.0344250098692
  0
ARC
  5
A8
330
1F
100
AcDbEntity
  8
0
  6
Continuous
 62
     7
100
AcDbCircle
 10
60.34557012849997
 20
290.8571386383
 30
0.0
 40
0.9500000000362695
100
AcDbArc
 50
98.29782682715609
 51
180.0
  0
ARC
  5
A9
330
1F
100
AcDbEntity
  8
0
  6
Continuous
 62
     7
100
AcDbCircle
 10
1105.0207849304
 20
-227.307483118
 30
0.0
 40
1102.395204031658
100
AcDbArc
 50
150.8230250440093
 51
150.9958347569429
  0
ARC
  5
AA
330
1F
100
AcDbEntity
  8
RUNDUNGEN
  6
Continuous
 62
     7
100
AcDbCircle
 10
151.8955701285
 20
260.4075904375
 30
0.0
 40
5.0
100
AcDbArc
 50
90.0
 51
180.0
  0
ARC
  5
AB
330
1F
100
AcDbEntity
  8
RUNDUNGEN
  6
Continuous
 62
     7
100
AcDbCircle
 10
226.7955701285
 20
272.3357936678
 30
0.0
 40
1.000000000013472
100
AcDbArc
 50
299.9999999995543
 51
0.0
  0
ARC
  5
AC
330
1F
100
AcDbEntity
  8
RUNDUNGEN
  6
Continuous
 62
     7
100
AcDbCircle
 10
216.527620936
 20
266.4075904375
 30
0.0
 40
1.0
100
AcDbArc
 50
270.0
 51
299.9999999995543
  0
ARC
  5
AD
330
1F
100
AcDbEntity
  8
0
  6
Continuous
 62
     7
100
AcDbCircle
 10
1105.0207849241
 20
786.1226639894
 30
0.0
 40
1102.395204024394
100
AcDbArc
 50
209.0041652430567
 51
209.176974955987
  0
ARC
  5
AE
330
1F
100
AcDbEntity
  8
RUNDUNGEN
  6
Continuous
 62
     7
100
AcDbCircle
 10
151.8955701285
 20
298.4075904375
 30
0.0
 40
5.0
100
AcDbArc
 50
180.0
 51
270.0
  0
ARC
  5
AF
330
1F
100
AcDbEntity
  8
RUNDUNGEN
  6
Continuous
 62
     7
100
AcDbCircle
 10
216.527620936
 20
292.4075904375
 30
0.0
 40
1.000000000013472
100
AcDbArc
 50
60.00000000044565
 51
90.0
  0
ARC
  5
B0
330
1F
100
AcDbEntity
  8
RUNDUNGEN
  6
Continuous
 62
     7
100
AcDbCircle
 10
226.7955701285
 20
286.4793872072
 30
0.0
 40
1.0
100
AcDbArc
 50
0.0
 51
60.00000000044565
  0
SPLINE
  5
B1
330
1F
100
AcDbEntity
  8
0
  6
Continuous
 62
     2
100
AcDbSpline
210
0.0
220
0.0
230
1.0
 70
     8
 71
     3
 72
    41
 73
    37
 74
    35
 42
0.0000000001
 43
0.0000000001
 44
0.00000001
 40
0.0
 40
0.0
 40
0.0
 40
0.0
 40
0.0178725536793178
 40
0.0712596803479095
 40
0.1595907685575021
 40
0.2813955570666995
 40
0.4350856182107627
 40
0.6194859560002509
 40
0.8331812037457145
 40
1.073337192242503
 40
1.337202592053006
 40
1.623707242709165
 40
1.931574906691513
 40
2.256908787751498
 40
2.595901564529207
 40
2.947606889633319
 40
3.310821970970625
 40
3.680319790050381
 40
4.050906466232379
 40
4.421474867574906
 40
4.790942396469068
 40
5.154238712221236
 40
5.506265269718591
 40
5.845867375170394
 40
6.172095035750403
 40
6.481007272595676
 40
6.768564671492725
 40
7.033442745172729
 40
7.274544378662561
 40
7.489083864858633
 40
7.67420015947826
 40
7.82848933564086
 40
7.950789601596341
 40
8.03949503316774
 40
8.09311330505304
 40
8.111064317642462
 40
8.111064317642462
 40
8.111064317642462
 40
8.111064317642462
 10
205.7955701285
 20
293.4076069451
 30
0.0
 10
205.8012971953658
 20
293.4059659845433
 30
0.0
 10
205.8241315905791
 20
293.399423308727
 30
0.0
 10
205.875328516658
 20
293.3849732401309
 30
0.0
 10
205.9599430970263
 20
293.3613836394762
 30
0.0
 10
206.0769839576545
 20
293.3296123109563
 30
0.0
 10
206.2252397052007
 20
293.2906087167088
 30
0.0
 10
206.403610442125
 20
293.245718562584
 30
0.0
 10
206.6105556961226
 20
293.1963314762291
 30
0.0
 10
206.8440379955667
 20
293.1441232459097
 30
0.0
 10
207.1021090765456
 20
293.0908022549849
 30
0.0
 10
207.3833133277137
 20
293.038115110581
 30
0.0
 10
207.6857432271656
 20
292.9877746398631
 30
0.0
 10
208.006506244018
 20
292.9414410641135
 30
0.0
 10
208.3427854157826
 20
292.9009265761811
 30
0.0
 10
208.6925534479766
 20
292.8676864910407
 30
0.0
 10
209.0532237106482
 20
292.8429950362696
 30
0.0
 10
209.4207093101367
 20
292.8275193635649
 30
0.0
 10
209.7909375561847
 20
292.8222255122357
 30
0.0
 10
210.1611592285968
 20
292.8272642041144
 30
0.0
 10
210.5286664191565
 20
292.8424845100709
 30
0.0
 10
210.8894770764896
 20
292.8669414491667
 30
0.0
 10
211.2396028262418
 20
292.8999826093798
 30
0.0
 10
211.5765108927547
 20
292.9403626459114
 30
0.0
 10
211.8981396553981
 20
292.9866442045007
 30
0.0
 10
212.2015775191813
 20
293.0370026012105
 30
0.0
 10
212.4838216049741
 20
293.089770271509
 30
0.0
 10
212.7428924328138
 20
293.1432136865476
 30
0.0
 10
212.9772992198732
 20
293.1955689509926
 30
0.0
 10
213.1850661700122
 20
293.245111552083
 30
0.0
 10
213.364140995282
 20
293.2901534073239
 30
0.0
 10
213.512983814259
 20
293.3292976728687
 30
0.0
 10
213.6304989805286
 20
293.3611908374931
 30
0.0
 10
213.7154677780559
 20
293.3848764613738
 30
0.0
 10
213.7668843421432
 20
293.3993876600048
 30
0.0
 10
213.789817925604
 20
293.4059588357675
 30
0.0
 10
213.7955701285
 20
293.4076070185
 30
0.0
 11
205.7955701285
 21
293.4076069451
 31
0.0
 11
205.8127529522302
 21
293.4026897565053
 31
0.0
 11
205.8641242529916
 21
293.3881579034917
 31
0.0
 11
205.9492174832198
 21
293.3644614203427
 31
0.0
 11
206.0667629276667
 21
293.33253220185
 31
0.0
 11
206.2154020226718
 21
293.2934546593158
 31
0.0
 11
206.3942239786079
 21
293.2484414095765
 31
0.0
 11
206.6020842793635
 21
293.1988454996768
 31
0.0
 11
206.8364557288583
 21
293.1464534919601
 31
0.0
 11
207.0948699652201
 21
293.0930959089689
 31
0.0
 11
207.3764766407031
 21
293.0403455992915
 31
0.0
 11
207.6801650076129
 21
292.9897899435286
 31
0.0
 11
208.0021647051263
 21
292.9433321243072
 31
0.0
 11
208.3387280679825
 21
292.9028203298467
 31
0.0
 11
208.6888578291333
 21
292.8695669681667
 31
0.0
 11
209.0512215078125
 21
292.8447121962916
 31
0.0
 11
209.4203953701667
 21
292.8292429474666
 31
0.0
 11
209.7909442358188
 21
292.823949297727
 31
0.0
 11
210.1614783913833
 21
292.82898711805
 31
0.0
 11
210.5306326009208
 21
292.8441997604208
 31
0.0
 11
210.8930940712833
 21
292.8688147059166
 31
0.0
 11
211.2435654345237
 21
292.9018680072925
 31
0.0
 11
211.5807585807068
 21
292.9422458749239
 31
0.0
 11
211.9036682231448
 21
292.9886554574266
 31
0.0
 11
212.208411110129
 21
293.0392374987582
 31
0.0
 11
212.4910732952027
 21
293.0920706965584
 31
0.0
 11
212.7504960150929
 21
293.1455519673102
 31
0.0
 11
212.9858031300392
 21
293.1980929924915
 31
0.0
 11
213.1944938103589
 21
293.2478462947432
 31
0.0
 11
213.3740160772053
 21
293.2930104203304
 31
0.0
 11
213.5232380476833
 21
293.3322271694
 31
0.0
 11
213.6412634022208
 21
293.3642797939271
 31
0.0
 11
213.7267179785833
 21
293.3880740993167
 31
0.0
 11
213.7783118817854
 21
293.4026682156771
 31
0.0
 11
213.7955701285
 21
293.4076070185
 31
0.0
  0
SPLINE
  5
B2
330
1F
100
AcDbEntity
  8
0
  6
Continuous
 62
     7
100
AcDbSpline
210
0.0
220
0.0
230
1.0
 70
     8
 71
     3
 72
    15
 73
    11
 74
     9
 42
0.0000000001
 43
0.0000000001
 44
0.00000001
 40
0.0
 40
0.0
 40
0.0
 40
0.0
 40
0.199172057359447
 40
0.3990536357191863
 40
0.5986807642877482
 40
0.7980988307699779
 40
0.9975253742130228
 40
1.197147976100059
 40
1.397095164866307
 40
1.596192542368265
 40
1.596192542368265
 40
1.596192542368265
 40
1.596192542368265
 10
146.8955701285
 20
309.0845411948
 30
0.0
 10
146.8919450303331
 20
309.151019986454
 30
0.0
 10
146.8846819201231
 20
309.2842143906261
 30
0.0
 10
146.827389740601
 20
309.4772175430956
 30
0.0
 10
146.7370827921757
 20
309.6563602463788
 30
0.0
 10
146.6137244568772
 20
309.8148066269746
 30
0.0
 10
146.4618727240668
 20
309.9462973314825
 30
0.0
 10
146.2867963740689
 20
310.0445231675108
 30
0.0
 10
146.0952567910421
 20
310.1076706736117
 30
0.0
 10
145.96203778095
 20
310.1158342108008
 30
0.0
 10
145.8955701285
 20
310.1199072868
 30
0.0
 11
146.8955701285
 21
309.0845411948
 31
0.0
 11
146.8769909831472
 21
309.2828448099732
 31
0.0
 11
146.8218567550678
 21
309.4749720133091
 31
0.0
 11
146.7315245976047
 21
309.652991932949
 31
0.0
 11
146.6089789403039
 21
309.8103136641759
 31
0.0
 11
146.4580805705414
 21
309.9407001214199
 31
0.0
 11
146.2841326559271
 21
310.0386353356458
 31
0.0
 11
146.0935921483507
 21
310.0992422104048
 31
0.0
 11
145.8955701285
 21
310.1199072868
 31
0.0
  0
SPLINE
  5
B3
330
1F
100
AcDbEntity
  8
0
  6
Continuous
 62
     7
100
AcDbSpline
210
0.0
220
0.0
230
1.0
 70
     8
 71
     3
 72
    15
 73
    11
 74
     9
 42
0.0000000001
 43
0.0000000001
 44
0.00000001
 40
0.0
 40
0.0
 40
0.0
 40
0.0
 40
0.1991000959088716
 40
0.3990500500931908
 40
0.5986741602062926
 40
0.7981021741818155
 40
0.9975186421778359
 40
1.197144165109737
 40
1.397023090666798
 40
1.596192517455229
 40
1.596192517455229
 40
1.596192517455229
 40
1.596192517455229
 10
145.8955701285
 20
248.6952735882
 30
0.0
 10
145.9620386907249
 20
248.6993467915999
 30
0.0
 10
146.0952595360711
 20
248.7075105848583
 30
0.0
 10
146.2868011134236
 20
248.7706597450593
 30
0.0
 10
146.4618785530591
 20
248.8688875805336
 30
0.0
 10
146.6137296923678
 20
249.0003797196488
 30
0.0
 10
146.7370864662807
 20
249.1588265488177
 30
0.0
 10
146.827391454342
 20
249.3379680276034
 30
0.0
 10
146.8846822150725
 20
249.5309691319665
 30
0.0
 10
146.891945128455
 20
249.664161768601
 30
0.0
 10
146.8955701285
 20
249.7306396802
 30
0.0
 11
145.8955701285
 21
248.6952735882
 31
0.0
 11
146.0935948175444
 21
248.7159392776343
 31
0.0
 11
146.2841376925603
 21
248.7765478327977
 31
0.0
 11
146.4580863216951
 21
248.8744848521549
 31
0.0
 11
146.6089848395762
 21
249.0048733871551
 31
0.0
 11
146.7315283389865
 21
249.1621947730512
 31
0.0
 11
146.821858709841
 21
249.3402137987399
 31
0.0
 11
146.876991480054
 21
249.5323386605628
 31
0.0
 11
146.8955701285
 21
249.7306396802
 31
0.0
  0
SPLINE
  5
B4
330
1F
100
AcDbEntity
  8
0
  6
Continuous
 62
     7
100
AcDbSpline
210
0.0
220
0.0
230
1.0
 70
     8
 71
     3
 72
    15
 73
    11
 74
     9
 42
0.0000000001
 43
0.0000000001
 44
0.00000001
 40
0.0
 40
0.0
 40
0.0
 40
0.0
 40
0.1991002754531847
 40
0.3990504136794157
 40
0.5986744171739515
 40
0.7981023203419099
 40
0.9975187550458058
 40
1.197144245746061
 40
1.397023128086366
 40
1.596192512770665
 40
1.596192512770665
 40
1.596192512770665
 40
1.596192512770665
 10
131.9955701285
 20
310.1199072868
 30
0.0
 10
131.9291015062049
 20
310.1158340727698
 30
0.0
 10
131.7958805392165
 20
310.1076702581287
 30
0.0
 10
131.6043389003341
 20
310.0445209965518
 30
0.0
 10
131.4292614990974
 20
309.946293123005
 30
0.0
 10
131.27741044066
 20
309.8148010205363
 30
0.0
 10
131.1540537174784
 20
309.6563542269097
 30
0.0
 10
131.0637487612188
 20
309.4772127724876
 30
0.0
 10
131.0064580329319
 20
309.2842117004047
 30
0.0
 10
130.9991951255558
 20
309.1510190923133
 30
0.0
 10
130.9955701285
 20
309.0845411948
 30
0.0
 11
131.9955701285
 21
310.1199072868
 31
0.0
 11
131.7975452639749
 21
310.0992415490843
 31
0.0
 11
131.6070022340997
 21
310.0386328736105
 31
0.0
 11
131.4330537253364
 21
309.9406958577779
 31
0.0
 11
131.2821553090813
 21
309.810307374645
 31
0.0
 11
131.1596118442182
 21
309.6529860040391
 31
0.0
 11
131.0692815042858
 21
309.4749669988036
 31
0.0
 11
131.0141487639588
 21
309.2828421733655
 31
0.0
 11
130.9955701285
 21
309.0845411948
 31
0.0
  0
SPLINE
  5
B5
330
1F
100
AcDbEntity
  8
0
  6
Continuous
 62
     7
100
AcDbSpline
210
0.0
220
0.0
230
1.0
 70
     8
 71
     3
 72
    15
 73
    11
 74
     9
 42
0.0000000001
 43
0.0000000001
 44
0.00000001
 40
0.0
 40
0.0
 40
0.0
 40
0.0
 40
0.1991719801533021
 40
0.3990534797234581
 40
0.5986806086066049
 40
0.7980986751401862
 40
0.9975251471165212
 40
1.197147680798665
 40
1.39709501692996
 40
1.596192537871205
 40
1.596192537871205
 40
1.596192537871205
 40
1.596192537871205
 10
130.9955701285
 20
249.7306396802
 30
0.0
 10
130.9991952222392
 20
249.6641609143702
 30
0.0
 10
131.0064583235541
 20
249.5309665623749
 30
0.0
 10
131.0637504564312
 20
249.3379634520249
 30
0.0
 10
131.1540573699438
 20
249.1588207595421
 30
0.0
 10
131.2774156738311
 20
249.0003743844444
 30
0.0
 10
131.4292673552147
 20
248.8688836930744
 30
0.0
 10
131.6043436838404
 20
248.7706578195882
 30
0.0
 10
131.7958833206696
 20
248.7075102281004
 30
0.0
 10
131.9291024280576
 20
248.6993466730681
 30
0.0
 10
131.9955701285
 20
248.6952735882
 30
0.0
 11
130.9955701285
 21
249.7306396802
 31
0.0
 11
131.0141492538457
 21
249.5323361406966
 31
0.0
 11
131.0692834325681
 21
249.3402090051665
 31
0.0
 11
131.1596155656125
 21
249.1621890727831
 31
0.0
 11
131.2821612061244
 21
249.0048673284134
 31
0.0
 11
131.4330595052432
 21
248.8744808987209
 31
0.0
 11
131.6070073375874
 21
248.7765456773935
 31
0.0
 11
131.7975479685983
 21
248.7159387045276
 31
0.0
 11
131.9955701285
 21
248.6952735882
 31
0.0
  0
SPLINE
  5
B6
330
1F
100
AcDbEntity
  8
BEZUGSACHSEN
  6
Continuous
 62
     7
100
AcDbSpline
210
0.0
220
0.0
230
1.0
 70
     8
 71
     3
 72
    19
 73
    15
 74
    13
 42
0.0000000001
 43
0.0000000001
 44
0.00000001
 40
0.0
 40
0.0
 40
0.0
 40
0.0
 40
0.508719919671363
 40
1.017500950979953
 40
1.572573997516312
 40
2.127647275195584
 40
2.780625480981127
 40
3.43363371733516
 40
4.086645429502523
 40
4.739627106891221
 40
5.294728357426646
 40
5.849829397367394
 40
6.358644792874729
 40
6.867399034714665
 40
6.867399034714665
 40
6.867399034714665
 40
6.867399034714665
 10
213.1955701285
 20
293.4075904375
 30
0.0
 10
213.0304218186598
 20
293.3690381551652
 30
0.0
 10
212.7001053600008
 20
293.2919289592771
 30
0.0
 10
212.1849851901248
 20
293.194060172392
 30
0.0
 10
211.6516526937516
 20
293.1110670591262
 30
0.0
 10
211.0676821532056
 20
293.0435191868357
 30
0.0
 10
210.4486950452288
 20
292.9989811679947
 30
0.0
 10
209.7956347542807
 20
292.9832003344154
 30
0.0
 10
209.1425731327294
 20
292.9989742918395
 30
0.0
 10
208.5235739670696
 20
293.0435071398897
 30
0.0
 10
207.9395832138192
 20
293.1110529530267
 30
0.0
 10
207.4062205406216
 20
293.194048086196
 30
0.0
 10
206.8910684071502
 20
293.2919214324387
 30
0.0
 10
206.5607296038414
 20
293.3690356472771
 30
0.0
 10
206.3955701285
 20
293.4075904375
 30
0.0
 11
213.1955701285
 21
293.4075904375
 31
0.0
 11
212.6993799835311
 21
293.2953794901455
 31
0.0
 11
212.199693643027
 21
293.1996105028219
 31
0.0
 11
211.6511593873524
 21
293.1146619457844
 31
0.0
 11
211.0997561329909
 21
293.0509375809536
 31
0.0
 11
210.4484552253945
 21
293.004165099781
 31
0.0
 11
209.7956358841106
 21
292.9884595468822
 31
0.0
 11
209.1428129036114
 21
293.0041583481071
 31
0.0
 11
208.4915080842885
 21
293.0509248246909
 31
0.0
 11
207.9400765629063
 21
293.1146482550142
 31
0.0
 11
207.3915142180443
 21
293.1995983482616
 31
0.0
 11
206.8917938562246
 21
293.2953723880015
 31
0.0
 11
206.3955701285
 21
293.4075904375
 31
0.0
  0
SPLINE
  5
B7
330
1F
100
AcDbEntity
  8
0
  6
Continuous
 62
     7
100
AcDbSpline
210
0.0
220
0.0
230
1.0
 70
     8
 71
     3
 72
    15
 73
    11
 74
     9
 42
0.0000000001
 43
0.0000000001
 44
0.00000001
 40
0.0
 40
0.0
 40
0.0
 40
0.0
 40
0.1499520084746427
 40
0.3004340248028747
 40
0.4507251465003731
 40
0.6008598893869213
 40
0.7510035493179955
 40
0.9012893510402437
 40
1.051831757300546
 40
1.201718119622792
 40
1.201718119622792
 40
1.201718119622792
 40
1.201718119622792
 10
140.8830701285
 20
306.9929579355
 30
0.0
 10
140.8803625145074
 20
306.9429085873028
 30
0.0
 10
140.8749377164157
 20
306.8426329906598
 30
0.0
 10
140.8321559356312
 20
306.6972497810313
 30
0.0
 10
140.7647470436354
 20
306.5621042292064
 30
0.0
 10
140.6725407925836
 20
306.4423143607328
 30
0.0
 10
140.5588438764441
 20
306.3426012253268
 30
0.0
 10
140.4274515690693
 20
306.2678918544512
 30
0.0
 10
140.28340945968
 20
306.2197493815925
 30
0.0
 10
140.1831102313481
 20
306.2135044473929
 30
0.0
 10
140.1330701285
 20
306.2103887988
 30
0.0
 11
140.8830701285
 21
306.9929579355
 31
0.0
 11
140.8691947121635
 21
306.8436492697533
 31
0.0
 11
140.8280286869033
 21
306.698907445796
 31
0.0
 11
140.7605773921763
 21
306.5646027768498
 31
0.0
 11
140.6689620365674
 21
306.4456613305904
 31
0.0
 11
140.5559525606002
 21
306.3468080202811
 31
0.0
 11
140.4254066748079
 21
306.2723527054809
 31
0.0
 11
140.2821235191377
 21
306.2261687972028
 31
0.0
 11
140.1330701285
 21
306.2103887988
 31
0.0
  0
SPLINE
  5
B8
330
1F
100
AcDbEntity
  8
0
  6
Continuous
 62
     7
100
AcDbSpline
210
0.0
220
0.0
230
1.0
 70
     8
 71
     3
 72
    15
 73
    11
 74
     9
 42
0.0000000001
 43
0.0000000001
 44
0.00000001
 40
0.0
 40
0.0
 40
0.0
 40
0.0
 40
0.1498887298116447
 40
0.3004335480058672
 40
0.4507207373895649
 40
0.600865748096418
 40
0.7509990952910883
 40
0.9012888187052297
 40
1.051768450197856
 40
1.201718090923703
 40
1.201718090923703
 40
1.201718090923703
 40
1.201718090923703
 10
137.8080701285
 20
306.2103887988
 30
0.0
 10
137.7580292332854
 20
306.2135045613863
 30
0.0
 10
137.6577284053738
 20
306.2197497247798
 30
0.0
 10
137.5136845444102
 20
306.267893668387
 30
0.0
 10
137.3822912564742
 20
306.342604812704
 30
0.0
 10
137.2685948376082
 20
306.4423192371431
 30
0.0
 10
137.1763899635869
 20
306.5621095295651
 30
0.0
 10
137.1089828163348
 20
306.6972539984827
 30
0.0
 10
137.0662022843318
 20
306.8426353726214
 30
0.0
 10
137.060777657228
 20
306.9429093793869
 30
0.0
 10
137.0580701285
 20
306.9929579355
 30
0.0
 11
137.8080701285
 21
306.2103887988
 31
0.0
 11
137.659014414869
 21
306.2261693424698
 31
0.0
 11
137.5157292029511
 21
306.27235473335
 31
0.0
 11
137.3851826419819
 21
306.3468116652769
 31
0.0
 11
137.2721730064815
 21
306.4456668448288
 31
0.0
 11
137.1805595570619
 21
306.5646079976116
 31
0.0
 11
137.1131098416061
 21
306.6989118949818
 31
0.0
 11
137.0719451091775
 21
306.8436516072181
 31
0.0
 11
137.0580701285
 21
306.9929579355
 31
0.0
  0
SPLINE
  5
B9
330
1F
100
AcDbEntity
  8
0
  6
Continuous
 62
     7
100
AcDbSpline
210
0.0
220
0.0
230
1.0
 70
     8
 71
     3
 72
    15
 73
    11
 74
     9
 42
0.0000000001
 43
0.0000000001
 44
0.00000001
 40
0.0
 40
0.0
 40
0.0
 40
0.0
 40
0.1499521789458671
 40
0.3004343667390998
 40
0.4507255054092536
 40
0.6008602661591811
 40
0.7510040236182444
 40
0.9012899196264987
 40
1.051832040715207
 40
1.201718121813294
 40
1.201718121813294
 40
1.201718121813294
 40
1.201718121813294
 10
137.0580701285
 20
251.8222229395
 30
0.0
 10
137.0607777489266
 20
251.872272344716
 30
0.0
 10
137.066202559916
 20
251.9725480557292
 30
0.0
 10
137.108984423944
 20
252.1179313700349
 30
0.0
 10
137.1763934075464
 20
252.2530769532945
 30
0.0
 10
137.2685997432631
 20
252.3728668129075
 30
0.0
 10
137.3822967655387
 20
252.4725799352184
 30
0.0
 10
137.513689097294
 20
252.5472892057035
 30
0.0
 10
137.6577310809261
 20
252.5954315333946
 30
0.0
 10
137.7580301197477
 20
252.6016764408312
 30
0.0
 10
137.8080701285
 20
252.6047920761
 30
0.0
 11
137.0580701285
 21
251.8222229395
 31
0.0
 11
137.0719455771615
 21
251.9715317734485
 31
0.0
 11
137.1131116960782
 21
252.1162737490339
 31
0.0
 11
137.1805630588248
 21
252.2505784028118
 31
0.0
 11
137.2721784817264
 21
252.3695198197867
 31
0.0
 11
137.3851880838361
 21
252.4683731340202
 31
0.0
 11
137.5157341016847
 21
252.5428284075935
 31
0.0
 11
137.6590170138855
 21
252.5890121416689
 31
0.0
 11
137.8080701285
 21
252.6047920761
 31
0.0
  0
SPLINE
  5
BA
330
1F
100
AcDbEntity
  8
0
  6
Continuous
 62
     7
100
AcDbSpline
210
0.0
220
0.0
230
1.0
 70
     8
 71
     3
 72
    15
 73
    11
 74
     9
 42
0.0000000001
 43
0.0000000001
 44
0.00000001
 40
0.0
 40
0.0
 40
0.0
 40
0.0
 40
0.1498890554531374
 40
0.3004342038140629
 40
0.4507212547108095
 40
0.6008661227544219
 40
0.7509994132389716
 40
0.9012890816138919
 40
1.051768580303994
 40
1.20171808874954
 40
1.20171808874954
 40
1.20171808874954
 40
1.20171808874954
 10
140.1330701285
 20
252.6047920761
 30
0.0
 10
140.1831111326697
 20
252.6016762980827
 30
0.0
 10
140.2834121800033
 20
252.5954311036953
 30
0.0
 10
140.4274561772543
 20
252.5472869952828
 30
0.0
 10
140.558849421342
 20
252.4725757481911
 30
0.0
 10
140.6725456992919
 20
252.372861336918
 30
0.0
 10
140.7647504657704
 20
252.2530710701365
 30
0.0
 10
140.8321575239653
 20
252.1179266489112
 30
0.0
 10
140.8749379874788
 20
251.9725453694574
 30
0.0
 10
140.8803626047027
 20
251.8722714513642
 30
0.0
 10
140.8830701285
 20
251.8222229395
 30
0.0
 11
140.1330701285
 21
252.6047920761
 31
0.0
 11
140.2821261617519
 21
252.5890114583731
 31
0.0
 11
140.4254116556409
 21
252.5428258660741
 31
0.0
 11
140.5559580400964
 21
252.4683689041912
 31
0.0
 11
140.6689675131854
 21
252.3695137556556
 31
0.0
 11
140.7605808740624
 21
252.2505726062559
 31
0.0
 11
140.8280305131782
 21
252.1162687321368
 31
0.0
 11
140.8691951727466
 21
251.9715291372478
 31
0.0
 11
140.8830701285
 21
251.8222229395
 31
0.0
  0
DIMENSION
  5
C7
330
1F
100
AcDbEntity
  8
1
100
AcDbDimension
  2
*D2
 10
239.044964743646
 20
283.4075904375
 30
0.0
 11
235.294964743646
 21
279.595479680412
 31
0.0
 70
    32
  1
<>
 71
     5
 42
-1.0
 53
90.0
  3
ME10_DIM_10
100
AcDbAlignedDimension
 13
227.7955701285
 23
275.4075904375
 33
0.0
 14
227.7955701285
 24
283.4075904375
 34
0.0
 50
90.0
100
AcDbRotatedDimension
  0
DIMENSION
  5
D2
330
1F
100
AcDbEntity
  8
1
100
AcDbDimension
  2
*D3
 10
248.360967245534
 20
293.4075904375
 30
0.0
 11
244.610967245534
 21
279.251627097976
 31
0.0
 70
    32
  1
<>
 71
     5
 42
-1.0
 53
90.0
  3
ME10_DIM_11
100
AcDbAlignedDimension
 13
216.527620936
 23
265.4075904375
 33
0.0
 14
216.527620936
 24
293.4075904375
 34
0.0
 50
90.0
100
AcDbRotatedDimension
  0
DIMENSION
  5
DD
330
1F
100
AcDbEntity
  8
1
100
AcDbDimension
  2
*D4
 10
227.7955701285
 20
316.314186192686
 30
0.0
 11
185.86854200124
 21
320.064186192686
 31
0.0
 70
    32
  1
<>
 71
     5
 42
-1.0
 53
0.00013888888889
  3
ME10_DIM_12
100
AcDbAlignedDimension
 13
146.8955701285
 23
309.0845411948
 33
0.0
 14
227.7955701285
 24
286.4793872072
 34
0.0
100
AcDbRotatedDimension
  0
DIMENSION
  5
E8
330
1F
100
AcDbEntity
  8
1
100
AcDbDimension
  2
*D5
 10
227.7955701285
 20
324.096004650294
 30
0.0
 11
177.533229758491
 21
327.846004650294
 31
0.0
 70
    32
  1
<>
 71
     5
 42
-1.0
 53
0.00013888888889
  3
ME10_DIM_13
100
AcDbAlignedDimension
 13
127.7955701285
 23
306.2103887988
 33
0.0
 14
227.7955701285
 24
286.4793872072
 34
0.0
100
AcDbRotatedDimension
  0
DIMENSION
  5
F3
330
1F
100
AcDbEntity
  8
1
100
AcDbDimension
  2
*D6
 10
227.7955701285
 20
331.086451739332
 30
0.0
 11
153.0660482599542
 21
334.836451739332
 31
0.0
 70
    32
  1
<>
 71
     5
 42
-1.0
 53
0.00013888888889
  3
ME10_DIM_14
100
AcDbAlignedDimension
 13
59.39557012849997
 23
290.8571386383
 33
0.0
 14
227.7955701285
 24
286.4793872072
 34
0.0
100
AcDbRotatedDimension
  0
INSERT
  5
FA
330
1F
100
AcDbEntity
  8
1
100
AcDbBlockReference
  2
*D7
 10
0.0
 20
0.0
 30
0.0
  0
ENDSEC
  0
SECTION
  2
OBJECTS
  0
DICTIONARY
  5
C
330
0
100
AcDbDictionary
281
     1
  3
ACAD_GROUP
350
D
  3
ACAD_LAYOUT
350
1A
  3
ACAD_MLEADERSTYLE
350
FD
  3
ACAD_MLINESTYLE
350
17
  3
ACAD_PLOTSETTINGS
350
19
  3
ACAD_PLOTSTYLENAME
350
E
  3
ACAD_SCALELIST
350
4A
  3
ACAD_VISUALSTYLE
350
2A
  3
AcDbVariableDictionary
350
FB
  0
DICTIONARY
  5
D
102
{ACAD_REACTORS
330
C
102
}
330
C
100
AcDbDictionary
281
     1
  0
DICTIONARY
  5
1A
102
{ACAD_REACTORS
330
C
102
}
330
C
100
AcDbDictionary
281
     1
  3
Layout1
350
1E
  3
Layout2
350
26
  3
Model
350
22
  0
DICTIONARY
  5
FD
102
{ACAD_REACTORS
330
C
102
}
330
C
100
AcDbDictionary
281
     1
  0
DICTIONARY
  5
17
102
{ACAD_REACTORS
330
C
102
}
330
C
100
AcDbDictionary
281
     1
  3
Standard
350
18
  0
DICTIONARY
  5
19
102
{ACAD_REACTORS
330
C
102
}
330
C
100
AcDbDictionary
281
     1
  0
ACDBDICTIONARYWDFLT
  5
E
102
{ACAD_REACTORS
330
C
102
}
330
C
100
AcDbDictionary
281
     1
  3
Normal
350
F
100
AcDbDictionaryWithDefault
340
F
  0
DICTIONARY
  5
4A
102
{ACAD_REACTORS
330
C
102
}
330
C
100
AcDbDictionary
281
     1
  3
A0
350
4B
  3
A1
350
4C
  3
A2
350
4D
  3
A3
350
4E
  3
A4
350
4F
  3
A5
350
50
  3
A6
350
51
  3
A7
350
52
  3
A8
350
53
  3
A9
350
54
  3
B0
350
55
  3
B1
350
56
  3
B2
350
57
  3
B3
350
58
  3
B4
350
59
  3
B5
350
5A
  3
B6
350
5B
  3
B7
350
5C
  3
B8
350
5D
  3
B9
350
5E
  3
C0
350
5F
  3
C1
350
60
  3
C2
350
61
  3
C3
350
62
  3
C4
350
63
  3
C5
350
64
  3
C6
350
65
  3
C7
350
66
  3
C8
350
67
  3
C9
350
68
  3
D0
350
69
  3
D1
350
6A
  3
D2
350
6B
  0
DICTIONARY
  5
2A
102
{ACAD_REACTORS
330
C
102
}
330
C
100
AcDbDictionary
281
     1
  3
2dWireframe
350
2F
  3
3D Hidden
350
31
  3
3dWireframe
350
30
  3
Basic
350
32
  3
Brighten
350
36
  3
ColorChange
350
3A
  3
Conceptual
350
34
  3
Dim
350
35
  3
Facepattern
350
39
  3
Flat
350
2B
  3
FlatWithEdges
350
2C
  3
Gouraud
350
2D
  3
GouraudWithEdges
350
2E
  3
Linepattern
350
38
  3
Realistic
350
33
  3
Thicken
350
37
  0
DICTIONARY
  5
FB
102
{ACAD_REACTORS
330
C
102
}
330
C
100
AcDbDictionary
281
     1
  3
CANNOSCALE
350
FE
  0
LAYOUT
  5
1E
102
{ACAD_REACTORS
330
1A
102
}
330
1A
100
AcDbPlotSettings
  1

  2
none_device
  4

  6

 40
0.0
 41
0.0
 42
0.0
 43
0.0
 44
0.0
 45
0.0
 46
0.0
 47
0.0
 48
0.0
 49
0.0
140
0.0
141
0.0
142
1.0
143
1.0
 70
   688
 72
     0
 73
     0
 74
     5
  7

 75
    16
147
1.0
148
0.0
149
0.0
100
AcDbLayout
  1
Layout1
 70
     1
 71
     1
 10
0.0
 20
0.0
 11
12.0
 21
9.0
 12
0.0
 22
0.0
 32
0.0
 14
1.00000000000000E+20
 24
1.00000000000000E+20
 34
1.00000000000000E+20
 15
-1.00000000000000E+20
 25
-1.00000000000000E+20
 35
-1.00000000000000E+20
146
0.0
 13
0.0
 23
0.0
 33
0.0
 16
1.0
 26
0.0
 36
0.0
 17
0.0
 27
1.0
 37
0.0
 76
     0
330
1B
  0
LAYOUT
  5
26
102
{ACAD_REACTORS
330
1A
102
}
330
1A
100
AcDbPlotSettings
  1

  2
none_device
  4

  6

 40
0.0
 41
0.0
 42
0.0
 43
0.0
 44
0.0
 45
0.0
 46
0.0
 47
0.0
 48
0.0
 49
0.0
140
0.0
141
0.0
142
1.0
143
1.0
 70
   688
 72
     0
 73
     0
 74
     5
  7

 75
    16
147
1.0
148
0.0
149
0.0
100
AcDbLayout
  1
Layout2
 70
     1
 71
     2
 10
0.0
 20
0.0
 11
0.0
 21
0.0
 12
0.0
 22
0.0
 32
0.0
 14
0.0
 24
0.0
 34
0.0
 15
0.0
 25
0.0
 35
0.0
146
0.0
 13
0.0
 23
0.0
 33
0.0
 16
1.0
 26
0.0
 36
0.0
 17
0.0
 27
1.0
 37
0.0
 76
     0
330
23
  0
LAYOUT
  5
22
102
{ACAD_REACTORS
330
1A
102
}
330
1A
100
AcDbPlotSettings
  1

  2
none_device
  4

  6

 40
0.0
 41
0.0
 42
0.0
 43
0.0
 44
0.0
 45
0.0
 46
0.0
 47
0.0
 48
0.0
 49
0.0
140
0.0
141
0.0
142
1.0
143
1.0
 70
  1712
 72
     0
 73
     0
 74
     0
  7

 75
     0
147
1.0
148
0.0
149
0.0
100
AcDbLayout
  1
Model
 70
     1
 71
     0
 10
0.0
 20
0.0
 11
12.0
 21
9.0
 12
0.0
 22
0.0
 32
0.0
 14
56.27057012850004
 24
231.1246172009127
 34
0.0
 15
250.360967245534
 25
336.586451739332
 35
0.0
146
0.0
 13
0.0
 23
0.0
 33
0.0
 16
1.0
 26
0.0
 36
0.0
 17
0.0
 27
1.0
 37
0.0
 76
     0
330
1F
331
29
  0
MLINESTYLE
  5
18
102
{ACAD_REACTORS
330
17
102
}
330
17
100
AcDbMlineStyle
  2
Standard
 70
     0
  3

 62
   256
 51
90.0
 52
90.0
 71
     2
 49
0.5
 62
   256
  6
BYLAYER
 49
-0.5
 62
   256
  6
BYLAYER
  0
ACDBPLACEHOLDER
  5
F
102
{ACAD_REACTORS
330
E
102
}
330
E
  0
SCALE
  5
4B
102
{ACAD_REACTORS
330
4A
102
}
330
4A
100
AcDbScale
 70
     0
300
1:1
140
1.0
141
1.0
290
     1
  0
SCALE
  5
4C
102
{ACAD_REACTORS
330
4A
102
}
330
4A
100
AcDbScale
 70
     0
300
1:2
140
1.0
141
2.0
290
     0
  0
SCALE
  5
4D
102
{ACAD_REACTORS
330
4A
102
}
330
4A
100
AcDbScale
 70
     0
300
1:4
140
1.0
141
4.0
290
     0
  0
SCALE
  5
4E
102
{ACAD_REACTORS
330
4A
102
}
330
4A
100
AcDbScale
 70
     0
300
1:5
140
1.0
141
5.0
290
     0
  0
SCALE
  5
4F
102
{ACAD_REACTORS
330
4A
102
}
330
4A
100
AcDbScale
 70
     0
300
1:8
140
1.0
141
8.0
290
     0
  0
SCALE
  5
50
102
{ACAD_REACTORS
330
4A
102
}
330
4A
100
AcDbScale
 70
     0
300
1:10
140
1.0
141
10.0
290
     0
  0
SCALE
  5
51
102
{ACAD_REACTORS
330
4A
102
}
330
4A
100
AcDbScale
 70
     0
300
1:16
140
1.0
141
16.0
290
     0
  0
SCALE
  5
52
102
{ACAD_REACTORS
330
4A
102
}
330
4A
100
AcDbScale
 70
     0
300
1:20
140
1.0
141
20.0
290
     0
  0
SCALE
  5
53
102
{ACAD_REACTORS
330
4A
102
}
330
4A
100
AcDbScale
 70
     0
300
1:30
140
1.0
141
30.0
290
     0
  0
SCALE
  5
54
102
{ACAD_REACTORS
330
4A
102
}
330
4A
100
AcDbScale
 70
     0
300
1:40
140
1.0
141
40.0
290
     0
  0
SCALE
  5
55
102
{ACAD_REACTORS
330
4A
102
}
330
4A
100
AcDbScale
 70
     0
300
1:50
140
1.0
141
50.0
290
     0
  0
SCALE
  5
56
102
{ACAD_REACTORS
330
4A
102
}
330
4A
100
AcDbScale
 70
     0
300
1:100
140
1.0
141
100.0
290
     0
  0
SCALE
  5
57
102
{ACAD_REACTORS
330
4A
102
}
330
4A
100
AcDbScale
 70
     0
300
2:1
140
2.0
141
1.0
290
     0
  0
SCALE
  5
58
102
{ACAD_REACTORS
330
4A
102
}
330
4A
100
AcDbScale
 70
     0
300
4:1
140
4.0
141
1.0
290
     0
  0
SCALE
  5
59
102
{ACAD_REACTORS
330
4A
102
}
330
4A
100
AcDbScale
 70
     0
300
8:1
140
8.0
141
1.0
290
     0
  0
SCALE
  5
5A
102
{ACAD_REACTORS
330
4A
102
}
330
4A
100
AcDbScale
 70
     0
300
10:1
140
10.0
141
1.0
290
     0
  0
SCALE
  5
5B
102
{ACAD_REACTORS
330
4A
102
}
330
4A
100
AcDbScale
 70
     0
300
100:1
140
100.0
141
1.0
290
     0
  0
SCALE
  5
5C
102
{ACAD_REACTORS
330
4A
102
}
330
4A
100
AcDbScale
 70
     0
300
1/128" = 1'-0"
140
0.0078125
141
12.0
290
     0
  0
SCALE
  5
5D
102
{ACAD_REACTORS
330
4A
102
}
330
4A
100
AcDbScale
 70
     0
300
1/64" = 1'-0"
140
0.015625
141
12.0
290
     0
  0
SCALE
  5
5E
102
{ACAD_REACTORS
330
4A
102
}
330
4A
100
AcDbScale
 70
     0
300
1/32" = 1'-0"
140
0.03125
141
12.0
290
     0
  0
SCALE
  5
5F
102
{ACAD_REACTORS
330
4A
102
}
330
4A
100
AcDbScale
 70
     0
300
1/16" = 1'-0"
140
0.0625
141
12.0
290
     0
  0
SCALE
  5
60
102
{ACAD_REACTORS
330
4A
102
}
330
4A
100
AcDbScale
 70
     0
300
3/32" = 1'-0"
140
0.09375
141
12.0
290
     0
  0
SCALE
  5
61
102
{ACAD_REACTORS
330
4A
102
}
330
4A
100
AcDbScale
 70
     0
300
1/8" = 1'-0"
140
0.125
141
12.0
290
     0
  0
SCALE
  5
62
102
{ACAD_REACTORS
330
4A
102
}
330
4A
100
AcDbScale
 70
     0
300
3/16" = 1'-0"
140
0.1875
141
12.0
290
     0
  0
SCALE
  5
63
102
{ACAD_REACTORS
330
4A
102
}
330
4A
100
AcDbScale
 70
     0
300
1/4" = 1'-0"
140
0.25
141
12.0
290
     0
  0
SCALE
  5
64
102
{ACAD_REACTORS
330
4A
102
}
330
4A
100
AcDbScale
 70
     0
300
3/8" = 1'-0"
140
0.375
141
12.0
290
     0
  0
SCALE
  5
65
102
{ACAD_REACTORS
330
4A
102
}
330
4A
100
AcDbScale
 70
     0
300
1/2" = 1'-0"
140
0.5
141
12.0
290
     0
  0
SCALE
  5
66
102
{ACAD_REACTORS
330
4A
102
}
330
4A
100
AcDbScale
 70
     0
300
3/4" = 1'-0"
140
0.75
141
12.0
290
     0
  0
SCALE
  5
67
102
{ACAD_REACTORS
330
4A
102
}
330
4A
100
AcDbScale
 70
     0
300
1" = 1'-0"
140
1.0
141
12.0
290
     0
  0
SCALE
  5
68
102
{ACAD_REACTORS
330
4A
102
}
330
4A
100
AcDbScale
 70
     0
300
1-1/2" = 1'-0"
140
1.5
141
12.0
290
     0
  0
SCALE
  5
69
102
{ACAD_REACTORS
330
4A
102
}
330
4A
100
AcDbScale
 70
     0
300
3" = 1'-0"
140
3.0
141
12.0
290
     0
  0
SCALE
  5
6A
102
{ACAD_REACTORS
330
4A
102
}
330
4A
100
AcDbScale
 70
     0
300
6" = 1'-0"
140
6.0
141
12.0
290
     0
  0
SCALE
  5
6B
102
{ACAD_REACTORS
330
4A
102
}
330
4A
100
AcDbScale
 70
     0
300
1'-0" = 1'-0"
140
12.0
141
12.0
290
     0
  0
VISUALSTYLE
  5
2F
102
{ACAD_REACTORS
330
2A
102
}
330
2A
100
AcDbVisualStyle
  2
2dWireframe
 70
     4
 71
     0
 72
     2
 73
     0
 90
        0
 40
-0.6
 41
-30.0
 62
     5
 63
     7
 74
     1
 91
        4
 64
     7
 65
   257
 75
     1
175
     1
 42
1.0
 92
        0
 66
   257
 43
1.0
 76
     1
 77
     6
 78
     2
 67
     7
 79
     5
170
     0
171
     0
290
     0
174
     0
 93
        1
 44
0.0
173
     0
291
     0
 45
0.0
1001
ACAD
1000
AcDbSavedByObjectVersion
1070
     0
  0
VISUALSTYLE
  5
31
102
{ACAD_REACTORS
330
2A
102
}
330
2A
100
AcDbVisualStyle
  2
3D Hidden
 70
     6
 71
     1
 72
     2
 73
     2
 90
        0
 40
-0.6
 41
-30.0
 62
     5
 63
     7
 74
     2
 91
        2
 64
     7
 65
   257
 75
     2
175
     1
 42
40.0
 92
        0
 66
   257
 43
1.0
 76
     1
 77
     6
 78
     2
 67
     7
 79
     3
170
     0
171
     0
290
     0
174
     0
 93
        1
 44
0.0
173
     0
291
     0
 45
0.0
1001
ACAD
1000
AcDbSavedByObjectVersion
1070
     0
  0
VISUALSTYLE
  5
30
102
{ACAD_REACTORS
330
2A
102
}
330
2A
100
AcDbVisualStyle
  2
3dWireframe
 70
     5
 71
     0
 72
     2
 73
     0
 90
        0
 40
-0.6
 41
-30.0
 62
     5
 63
     7
 74
     1
 91
        4
 64
     7
 65
   257
 75
     1
175
     1
 42
1.0
 92
        0
 66
   257
 43
1.0
 76
     1
 77
     6
 78
     2
 67
     7
 79
     5
170
     0
171
     0
290
     0
174
     0
 93
        1
 44
0.0
173
     0
291
     0
 45
0.0
1001
ACAD
1000
AcDbSavedByObjectVersion
1070
     0
  0
VISUALSTYLE
  5
32
102
{ACAD_REACTORS
330
2A
102
}
330
2A
100
AcDbVisualStyle
  2
Basic
 70
     7
 71
     1
 72
     0
 73
     1
 90
        0
 40
-0.6
 41
-30.0
 62
     5
 63
     7
 74
     0
 91
        4
 64
     7
 65
   257
 75
     1
175
     1
 42
1.0
 92
        8
 66
     7
 43
1.0
 76
     1
 77
     6
 78
     2
 67
     7
 79
     5
170
     0
171
     0
290
     0
174
     0
 93
        1
 44
0.0
173
     0
291
     1
 45
0.0
1001
ACAD
1000
AcDbSavedByObjectVersion
1070
     0
  0
VISUALSTYLE
  5
36
102
{ACAD_REACTORS
330
2A
102
}
330
2A
100
AcDbVisualStyle
  2
Brighten
 70
    12
 71
     2
 72
     2
 73
     0
 90
        0
 40
-0.6
 41
-30.0
 62
     5
 63
     7
 74
     1
 91
        4
 64
     7
 65
   257
 75
     1
175
     1
 42
1.0
 92
        8
 66
     7
 43
1.0
 76
     1
 77
     6
 78
     2
 67
     7
 79
     5
170
     0
171
     0
290
     0
174
     0
 93
        1
 44
50.0
173
     0
291
     1
 45
0.0
1001
ACAD
1000
AcDbSavedByObjectVersion
1070
     0
  0
VISUALSTYLE
  5
3A
102
{ACAD_REACTORS
330
2A
102
}
330
2A
100
AcDbVisualStyle
  2
ColorChange
 70
    16
 71
     2
 72
     2
 73
     3
 90
        0
 40
-0.6
 41
-30.0
 62
     5
 63
     8
 74
     1
 91
        4
 64
     7
 65
   257
 75
     1
175
     1
 42
1.0
 92
        8
 66
     8
 43
1.0
 76
     1
 77
     6
 78
     2
 67
     7
 79
     5
170
     0
171
     0
290
     0
174
     0
 93
        1
 44
0.0
173
     0
291
     1
 45
0.0
1001
ACAD
1000
AcDbSavedByObjectVersion
1070
     0
  0
VISUALSTYLE
  5
34
102
{ACAD_REACTORS
330
2A
102
}
330
2A
100
AcDbVisualStyle
  2
Conceptual
 70
     9
 71
     3
 72
     2
 73
     0
 90
        0
 40
-0.6
 41
-30.0
 62
     5
 63
     7
 74
     2
 91
        2
 64
     7
 65
   257
 75
     1
175
     1
 42
40.0
 92
        8
 66
     7
 43
1.0
 76
     1
 77
     6
 78
     2
 67
     7
 79
     3
170
     0
171
     0
290
     0
174
     0
 93
        1
 44
0.0
173
     0
291
     0
 45
0.0
1001
ACAD
1000
AcDbSavedByObjectVersion
1070
     0
  0
VISUALSTYLE
  5
35
102
{ACAD_REACTORS
330
2A
102
}
330
2A
100
AcDbVisualStyle
  2
Dim
 70
    11
 71
     2
 72
     2
 73
     0
 90
        0
 40
-0.6
 41
-30.0
 62
     5
 63
     7
 74
     1
 91
        4
 64
     7
 65
   257
 75
     1
175
     1
 42
1.0
 92
        8
 66
     7
 43
1.0
 76
     1
 77
     6
 78
     2
 67
     7
 79
     5
170
     0
171
     0
290
     0
174
     0
 93
        1
 44
-50.0
173
     0
291
     1
 45
0.0
1001
ACAD
1000
AcDbSavedByObjectVersion
1070
     0
  0
VISUALSTYLE
  5
39
102
{ACAD_REACTORS
330
2A
102
}
330
2A
100
AcDbVisualStyle
  2
Facepattern
 70
    15
 71
     2
 72
     2
 73
     0
 90
        0
 40
-0.6
 41
-30.0
 62
     5
 63
     7
 74
     1
 91
        4
 64
     7
 65
   257
 75
     1
175
     1
 42
1.0
 92
        8
 66
     7
 43
1.0
 76
     1
 77
     6
 78
     2
 67
     7
 79
     5
170
     0
171
     0
290
     0
174
     0
 93
        1
 44
0.0
173
     0
291
     1
 45
0.0
1001
ACAD
1000
AcDbSavedByObjectVersion
1070
     0
  0
VISUALSTYLE
  5
2B
102
{ACAD_REACTORS
330
2A
102
}
330
2A
100
AcDbVisualStyle
  2
Flat
 70
     0
 71
     2
 72
     1
 73
     1
 90
        2
 40
-0.6
 41
30.0
 62
     5
 63
     7
 74
     0
 91
        4
 64
     7
 65
   257
 75
     1
175
     1
 42
1.0
 92
        8
 66
     7
 43
1.0
 76
     1
 77
     6
 78
     2
 67
     7
 79
     5
170
     0
171
     0
290
     0
174
     0
 93
       13
 44
0.0
173
     0
291
     1
 45
0.0
1001
ACAD
1000
AcDbSavedByObjectVersion
1070
     0
  0
VISUALSTYLE
  5
2C
102
{ACAD_REACTORS
330
2A
102
}
330
2A
100
AcDbVisualStyle
  2
FlatWithEdges
 70
     1
 71
     2
 72
     1
 73
     1
 90
        2
 40
-0.6
 41
30.0
 62
     5
 63
     7
 74
     1
 91
        4
 64
     7
 65
   257
 75
     1
175
     1
 42
1.0
 92
        0
 66
   257
 43
1.0
 76
     1
 77
     6
 78
     2
 67
     7
 79
     5
170
     0
171
     0
290
     0
174
     0
 93
       13
 44
0.0
173
     0
291
     1
 45
0.0
1001
ACAD
1000
AcDbSavedByObjectVersion
1070
     0
  0
VISUALSTYLE
  5
2D
102
{ACAD_REACTORS
330
2A
102
}
330
2A
100
AcDbVisualStyle
  2
Gouraud
 70
     2
 71
     2
 72
     2
 73
     1
 90
        2
 40
-0.6
 41
30.0
 62
     5
 63
     7
 74
     0
 91
        4
 64
     7
 65
   257
 75
     1
175
     1
 42
1.0
 92
        0
 66
     7
 43
1.0
 76
     1
 77
     6
 78
     2
 67
     7
 79
     5
170
     0
171
     0
290
     0
174
     0
 93
       13
 44
0.0
173
     0
291
     1
 45
0.0
1001
ACAD
1000
AcDbSavedByObjectVersion
1070
     0
  0
VISUALSTYLE
  5
2E
102
{ACAD_REACTORS
330
2A
102
}
330
2A
100
AcDbVisualStyle
  2
GouraudWithEdges
 70
     3
 71
     2
 72
     2
 73
     1
 90
        2
 40
-0.6
 41
30.0
 62
     5
 63
     7
 74
     1
 91
        4
 64
     7
 65
   257
 75
     1
175
     1
 42
1.0
 92
        0
 66
   257
 43
1.0
 76
     1
 77
     6
 78
     2
 67
     7
 79
     5
170
     0
171
     0
290
     0
174
     0
 93
       13
 44
0.0
173
     0
291
     1
 45
0.0
1001
ACAD
1000
AcDbSavedByObjectVersion
1070
     0
  0
VISUALSTYLE
  5
38
102
{ACAD_REACTORS
330
2A
102
}
330
2A
100
AcDbVisualStyle
  2
Linepattern
 70
    14
 71
     2
 72
     2
 73
     0
 90
        0
 40
-0.6
 41
-30.0
 62
     5
 63
     7
 74
     1
 91
        4
 64
     7
 65
   257
 75
     7
175
     7
 42
1.0
 92
        8
 66
     7
 43
1.0
 76
     1
 77
     6
 78
     2
 67
     7
 79
     5
170
     0
171
     0
290
     0
174
     0
 93
        1
 44
0.0
173
     0
291
     1
 45
0.0
1001
ACAD
1000
AcDbSavedByObjectVersion
1070
     0
  0
VISUALSTYLE
  5
33
102
{ACAD_REACTORS
330
2A
102
}
330
2A
100
AcDbVisualStyle
  2
Realistic
 70
     8
 71
     2
 72
     2
 73
     0
 90
        0
 40
-0.6
 41
-30.0
 62
     5
 63
     7
 74
     1
 91
        0
 64
     7
 65
   257
 75
     1
175
     1
 42
1.0
 92
        8
 66
     8
 43
1.0
 76
     1
 77
     6
 78
     2
 67
     7
 79
     5
170
     0
171
     0
290
     0
174
     0
 93
       13
 44
0.0
173
     0
291
     0
 45
0.0
1001
ACAD
1000
AcDbSavedByObjectVersion
1070
     0
  0
VISUALSTYLE
  5
37
102
{ACAD_REACTORS
330
2A
102
}
330
2A
100
AcDbVisualStyle
  2
Thicken
 70
    13
 71
     2
 72
     2
 73
     0
 90
        0
 40
-0.6
 41
-30.0
 62
     5
 63
     7
 74
     1
 91
        4
 64
     7
 65
   257
 75
     1
175
     1
 42
1.0
 92
       12
 66
     7
 43
1.0
 76
     1
 77
     6
 78
     2
 67
     7
 79
     5
170
     0
171
     0
290
     0
174
     0
 93
        1
 44
0.0
173
     0
291
     1
 45
0.0
1001
ACAD
1000
AcDbSavedByObjectVersion
1070
     0
  0
DICTIONARYVAR
  5
FE
102
{ACAD_REACTORS
330
FB
102
}
330
FB
100
DictionaryVariables
280
     0
  1
1:1
  0
ENDSEC
  0
EOF
