  0
SECTION
  2
HEADER
  9
$ACADVER
  1
AC1015
  9
$ACADMAINTVER
 70
     6
  9
$DWGCODEPAGE
  3
ANSI_1252
  9
$INSBASE
 10
0.0
 20
0.0
 30
0.0
  9
$EXTMIN
 10
87.10036804069998
 20
250.8348634949247
 30
0.0
  9
$EXTMAX
 10
251.836857142675
 20
369.350636998024
 30
0.0
  9
$LIMMIN
 10
0.0
 20
0.0
  9
$LIMMAX
 10
12.0
 20
9.0
  9
$ORTHOMODE
 70
     0
  9
$REGENMODE
 70
     1
  9
$FILLMODE
 70
     1
  9
$QTEXTMODE
 70
     0
  9
$MIRRTEXT
 70
     1
  9
$LTSCALE
 40
1.0
  9
$ATTMODE
 70
     1
  9
$TEXTSIZE
 40
0.2
  9
$TRACEWID
 40
0.05
  9
$TEXTSTYLE
  7
Standard
  9
$CLAYER
  8
0
  9
$CELTYPE
  6
ByLayer
  9
$CECOLOR
 62
   256
  9
$CELTSCALE
 40
1.0
  9
$DISPSILH
 70
     0
  9
$DIMSCALE
 40
1.0
  9
$DIMASZ
 40
0.18
  9
$DIMEXO
 40
0.0625
  9
$DIMDLI
 40
0.38
  9
$DIMRND
 40
0.0
  9
$DIMDLE
 40
0.0
  9
$DIMEXE
 40
0.18
  9
$DIMTP
 40
0.0
  9
$DIMTM
 40
0.0
  9
$DIMTXT
 40
0.18
  9
$DIMCEN
 40
0.09
  9
$DIMTSZ
 40
0.0
  9
$DIMTOL
 70
     0
  9
$DIMLIM
 70
     0
  9
$DIMTIH
 70
     1
  9
$DIMTOH
 70
     1
  9
$DIMSE1
 70
     0
  9
$DIMSE2
 70
     0
  9
$DIMTAD
 70
     0
  9
$DIMZIN
 70
     0
  9
$DIMBLK
  1

  9
$DIMASO
 70
     1
  9
$DIMSHO
 70
     1
  9
$DIMPOST
  1

  9
$DIMAPOST
  1

  9
$DIMALT
 70
     0
  9
$DIMALTD
 70
     2
  9
$DIMALTF
 40
25.4
  9
$DIMLFAC
 40
1.0
  9
$DIMTOFL
 70
     0
  9
$DIMTVP
 40
0.0
  9
$DIMTIX
 70
     0
  9
$DIMSOXD
 70
     0
  9
$DIMSAH
 70
     0
  9
$DIMBLK1
  1

  9
$DIMBLK2
  1

  9
$DIMSTYLE
  2
Standard
  9
$DIMCLRD
 70
     0
  9
$DIMCLRE
 70
     0
  9
$DIMCLRT
 70
     0
  9
$DIMTFAC
 40
1.0
  9
$DIMGAP
 40
0.09
  9
$DIMJUST
 70
     0
  9
$DIMSD1
 70
     0
  9
$DIMSD2
 70
     0
  9
$DIMTOLJ
 70
     1
  9
$DIMTZIN
 70
     0
  9
$DIMALTZ
 70
     0
  9
$DIMALTTZ
 70
     0
  9
$DIMUPT
 70
     0
  9
$DIMDEC
 70
     4
  9
$DIMTDEC
 70
     4
  9
$DIMALTU
 70
     2
  9
$DIMALTTD
 70
     2
  9
$DIMTXSTY
  7
Standard
  9
$DIMAUNIT
 70
     0
  9
$DIMADEC
 70
     0
  9
$DIMALTRND
 40
0.0
  9
$DIMAZIN
 70
     0
  9
$DIMDSEP
 70
    46
  9
$DIMATFIT
 70
     3
  9
$DIMFRAC
 70
     0
  9
$DIMLDRBLK
  1

  9
$DIMLUNIT
 70
     2
  9
$DIMLWD
 70
    -2
  9
$DIMLWE
 70
    -2
  9
$DIMTMOVE
 70
     0
  9
$LUNITS
 70
     2
  9
$LUPREC
 70
     4
  9
$SKETCHINC
 40
0.1
  9
$FILLETRAD
 40
0.5
  9
$AUNITS
 70
     0
  9
$AUPREC
 70
     0
  9
$MENU
  1
.
  9
$ELEVATION
 40
0.0
  9
$PELEVATION
 40
0.0
  9
$THICKNESS
 40
0.0
  9
$LIMCHECK
 70
     0
  9
$CHAMFERA
 40
0.5
  9
$CHAMFERB
 40
0.5
  9
$CHAMFERC
 40
1.0
  9
$CHAMFERD
 40
0.0
  9
$SKPOLY
 70
     0
  9
$TDCREATE
 40
2456820.709554607
  9
$TDUCREATE
 40
2456820.626221273
  9
$TDUPDATE
 40
2456820.709554618
  9
$TDUUPDATE
 40
2456820.626221285
  9
$TDINDWG
 40
0.0000000116
  9
$TDUSRTIMER
 40
0.0000000116
  9
$USRTIMER
 70
     1
  9
$ANGBASE
 50
0.0
  9
$ANGDIR
 70
     0
  9
$PDMODE
 70
     0
  9
$PDSIZE
 40
0.0
  9
$PLINEWID
 40
0.0
  9
$SPLFRAME
 70
     0
  9
$SPLINETYPE
 70
     6
  9
$SPLINESEGS
 70
     8
  9
$HANDSEED
  5
113
  9
$SURFTAB1
 70
     6
  9
$SURFTAB2
 70
     6
  9
$SURFTYPE
 70
     6
  9
$SURFU
 70
     6
  9
$SURFV
 70
     6
  9
$UCSBASE
  2

  9
$UCSNAME
  2

  9
$UCSORG
 10
0.0
 20
0.0
 30
0.0
  9
$UCSXDIR
 10
1.0
 20
0.0
 30
0.0
  9
$UCSYDIR
 10
0.0
 20
1.0
 30
0.0
  9
$UCSORTHOREF
  2

  9
$UCSORTHOVIEW
 70
     0
  9
$UCSORGTOP
 10
0.0
 20
0.0
 30
0.0
  9
$UCSORGBOTTOM
 10
0.0
 20
0.0
 30
0.0
  9
$UCSORGLEFT
 10
0.0
 20
0.0
 30
0.0
  9
$UCSORGRIGHT
 10
0.0
 20
0.0
 30
0.0
  9
$UCSORGFRONT
 10
0.0
 20
0.0
 30
0.0
  9
$UCSORGBACK
 10
0.0
 20
0.0
 30
0.0
  9
$PUCSBASE
  2

  9
$PUCSNAME
  2

  9
$PUCSORG
 10
0.0
 20
0.0
 30
0.0
  9
$PUCSXDIR
 10
1.0
 20
0.0
 30
0.0
  9
$PUCSYDIR
 10
0.0
 20
1.0
 30
0.0
  9
$PUCSORTHOREF
  2

  9
$PUCSORTHOVIEW
 70
     0
  9
$PUCSORGTOP
 10
0.0
 20
0.0
 30
0.0
  9
$PUCSORGBOTTOM
 10
0.0
 20
0.0
 30
0.0
  9
$PUCSORGLEFT
 10
0.0
 20
0.0
 30
0.0
  9
$PUCSORGRIGHT
 10
0.0
 20
0.0
 30
0.0
  9
$PUCSORGFRONT
 10
0.0
 20
0.0
 30
0.0
  9
$PUCSORGBACK
 10
0.0
 20
0.0
 30
0.0
  9
$USERI1
 70
     0
  9
$USERI2
 70
     0
  9
$USERI3
 70
     0
  9
$USERI4
 70
     0
  9
$USERI5
 70
     0
  9
$USERR1
 40
16.5
  9
$USERR2
 40
0.0
  9
$USERR3
 40
0.0
  9
$USERR4
 40
0.0
  9
$USERR5
 40
0.0
  9
$WORLDVIEW
 70
     1
  9
$SHADEDGE
 70
     3
  9
$SHADEDIF
 70
    70
  9
$TILEMODE
 70
     1
  9
$MAXACTVP
 70
    64
  9
$PINSBASE
 10
0.0
 20
0.0
 30
0.0
  9
$PLIMCHECK
 70
     0
  9
$PEXTMIN
 10
1.00000000000000E+20
 20
1.00000000000000E+20
 30
1.00000000000000E+20
  9
$PEXTMAX
 10
-1.00000000000000E+20
 20
-1.00000000000000E+20
 30
-1.00000000000000E+20
  9
$PLIMMIN
 10
0.0
 20
0.0
  9
$PLIMMAX
 10
12.0
 20
9.0
  9
$UNITMODE
 70
     0
  9
$VISRETAIN
 70
     1
  9
$PLINEGEN
 70
     0
  9
$PSLTSCALE
 70
     1
  9
$TREEDEPTH
 70
  3020
  9
$CMLSTYLE
  2
Standard
  9
$CMLJUST
 70
     0
  9
$CMLSCALE
 40
1.0
  9
$PROXYGRAPHICS
 70
     1
  9
$MEASUREMENT
 70
     1
  9
$CELWEIGHT
370
    -1
  9
$ENDCAPS
280
     0
  9
$JOINSTYLE
280
     0
  9
$LWDISPLAY
290
     0
  9
$INSUNITS
 70
     1
  9
$HYPERLINKBASE
  1

  9
$STYLESHEET
  1

  9
$XEDIT
290
     1
  9
$CEPSNTYPE
380
     0
  9
$PSTYLEMODE
290
     1
  9
$FINGERPRINTGUID
  2
{972BFC61-0709-42E8-831D-B72BDE2DE821}
  9
$VERSIONGUID
  2
{FAEB1C32-E019-11D5-929B-00C0DF256EC4}
  9
$EXTNAMES
290
     1
  9
$PSVPSCALE
 40
0.0
  9
$OLESTARTUP
290
     0
  0
ENDSEC
  0
SECTION
  2
CLASSES
  0
CLASS
  1
ACDBDICTIONARYWDFLT
  2
AcDbDictionaryWithDefault
  3
ObjectDBX Classes
 90
        0
280
     0
281
     0
  0
CLASS
  1
VISUALSTYLE
  2
AcDbVisualStyle
  3
ObjectDBX Classes
 90
     4095
280
     0
281
     0
  0
CLASS
  1
SCALE
  2
AcDbScale
  3
ObjectDBX Classes
 90
     1153
280
     0
281
     0
  0
CLASS
  1

  2
exOdDbPolyline
  3

 90
        0
280
     0
281
     1
  0
CLASS
  1

  2
exOdDbSpline
  3

 90
        0
280
     0
281
     1
  0
CLASS
  1
DICTIONARYVAR
  2
AcDbDictionaryVar
  3
ObjectDBX Classes
 90
        0
280
     0
281
     0
  0
CLASS
  1
ACDBPLACEHOLDER
  2
AcDbPlaceHolder
  3
ObjectDBX Classes
 90
        0
280
     0
281
     0
  0
CLASS
  1
LAYOUT
  2
AcDbLayout
  3
ObjectDBX Classes
 90
        0
280
     0
281
     0
  0
ENDSEC
  0
SECTION
  2
TABLES
  0
TABLE
  2
VPORT
  5
8
330
0
100
AcDbSymbolTable
 70
     1
  0
VPORT
  5
29
330
8
100
AcDbSymbolTableRecord
100
AcDbViewportTableRecord
  2
*Active
 70
     0
 10
0.0
 20
0.0
 11
1.0
 21
1.0
 12
169.4686125916875
 22
310.0927502464743
 13
0.0
 23
0.0
 14
0.5
 24
0.5
 15
0.5
 25
0.5
 16
0.0
 26
0.0
 36
1.0
 17
0.0
 27
0.0
 37
0.0
 40
130.3673508534093
 41
1.60267857142857
 42
50.0
 43
0.0
 44
0.0
 50
0.0
 51
0.0
 71
     0
 72
   100
 73
     1
 74
     3
 75
     0
 76
     0
 77
     0
 78
     0
281
     0
 65
     1
110
0.0
120
0.0
130
0.0
111
1.0
121
0.0
131
0.0
112
0.0
122
1.0
132
0.0
 79
     0
146
0.0
  0
ENDTAB
  0
TABLE
  2
LTYPE
  5
5
330
0
100
AcDbSymbolTable
 70
     8
  0
LTYPE
  5
14
330
5
100
AcDbSymbolTableRecord
100
AcDbLinetypeTableRecord
  2
ByBlock
 70
     0
  3

 72
    65
 73
     0
 40
0.0
  0
LTYPE
  5
15
330
5
100
AcDbSymbolTableRecord
100
AcDbLinetypeTableRecord
  2
ByLayer
 70
     0
  3

 72
    65
 73
     0
 40
0.0
  0
LTYPE
  5
16
330
5
100
AcDbSymbolTableRecord
100
AcDbLinetypeTableRecord
  2
Continuous
 70
     0
  3
Solid line
 72
    65
 73
     0
 40
0.0
  0
LTYPE
  5
3B
330
5
100
AcDbSymbolTableRecord
100
AcDbLinetypeTableRecord
  2
DASHED
 70
     0
  3
Dashed
 72
    65
 73
     2
 40
15.0
 49
7.0
 74
     0
 49
-8.0
 74
     0
  0
LTYPE
  5
3C
330
5
100
AcDbSymbolTableRecord
100
AcDbLinetypeTableRecord
  2
DOTTED
 70
     0
  3
Dotted
 72
    65
 73
     2
 40
1.0
 49
0.0
 74
     0
 49
-1.0
 74
     0
  0
LTYPE
  5
3D
330
5
100
AcDbSymbolTableRecord
100
AcDbLinetypeTableRecord
  2
DOT_CENTER
 70
     0
  3
Dot_Center
 72
    65
 73
     4
 40
14.0
 49
12.0
 74
     0
 49
-1.0
 74
     0
 49
0.0
 74
     0
 49
-1.0
 74
     0
  0
LTYPE
  5
3E
330
5
100
AcDbSymbolTableRecord
100
AcDbLinetypeTableRecord
  2
LONG_DASHED
 70
     0
  3
Long_Dashed
 72
    65
 73
     2
 40
15.0
 49
10.0
 74
     0
 49
-5.0
 74
     0
  0
LTYPE
  5
3F
330
5
100
AcDbSymbolTableRecord
100
AcDbLinetypeTableRecord
  2
DASH_CENTER
 70
     0
  3
Dash_Center
 72
    65
 73
     4
 40
14.0
 49
11.0
 74
     0
 49
-1.0
 74
     0
 49
1.0
 74
     0
 49
-1.0
 74
     0
  0
LTYPE
  5
40
330
5
100
AcDbSymbolTableRecord
100
AcDbLinetypeTableRecord
  2
PHANTOM
 70
     0
  3
Phantom
 72
    65
 73
     6
 40
13.0
 49
10.0
 74
     0
 49
-1.0
 74
     0
 49
0.0
 74
     0
 49
-1.0
 74
     0
 49
0.0
 74
     0
 49
-1.0
 74
     0
  0
LTYPE
  5
41
330
5
100
AcDbSymbolTableRecord
100
AcDbLinetypeTableRecord
  2
CENTER_DASH_DASH
 70
     0
  3
Center_Dash_Dash
 72
    65
 73
     6
 40
14.0
 49
9.0
 74
     0
 49
-1.0
 74
     0
 49
1.0
 74
     0
 49
-1.0
 74
     0
 49
1.0
 74
     0
 49
-1.0
 74
     0
  0
ENDTAB
  0
TABLE
  2
LAYER
  5
2
330
0
100
AcDbSymbolTable
 70
     6
  0
LAYER
  5
10
330
2
100
AcDbSymbolTableRecord
100
AcDbLayerTableRecord
  2
0
 70
     0
 62
     7
  6
Continuous
370
    -3
390
F
  0
LAYER
  5
42
330
2
100
AcDbSymbolTableRecord
100
AcDbLayerTableRecord
  2
1
 70
     0
 62
     7
  6
Continuous
370
    -3
390
F
  0
LAYER
  5
43
330
2
100
AcDbSymbolTableRecord
100
AcDbLayerTableRecord
  2
BEZUGSACHSEN
 70
     0
 62
     7
  6
Continuous
370
    -3
390
F
  0
LAYER
  5
44
330
2
100
AcDbSymbolTableRecord
100
AcDbLayerTableRecord
  2
DEFAULT_2
 70
     0
 62
     7
  6
Continuous
370
    -3
390
F
  0
LAYER
  5
45
330
2
100
AcDbSymbolTableRecord
100
AcDbLayerTableRecord
  2
RUNDUNGEN
 70
     0
 62
     7
  6
Continuous
370
    -3
390
F
  0
LAYER
  5
46
330
2
100
AcDbSymbolTableRecord
100
AcDbLayerTableRecord
  2
TEIL_STARTBEZUEGE
 70
     0
 62
     7
  6
Continuous
370
    -3
390
F
  0
ENDTAB
  0
TABLE
  2
STYLE
  5
3
330
0
100
AcDbSymbolTable
 70
     2
  0
STYLE
  5
11
330
3
100
AcDbSymbolTableRecord
100
AcDbTextStyleTableRecord
  2
Standard
 70
     0
 40
0.0
 41
1.0
 50
0.0
 71
     0
 42
0.2
  3
txt
  4

  0
STYLE
  5
6D
330
3
100
AcDbSymbolTableRecord
100
AcDbTextStyleTableRecord
  2
CONVERTER_11
 70
     0
 40
0.0
 41
0.72
 50
0.0
 71
     0
 42
0.2
  3
txt.shx
  4

  0
ENDTAB
  0
TABLE
  2
VIEW
  5
6
330
0
100
AcDbSymbolTable
 70
     0
  0
ENDTAB
  0
TABLE
  2
UCS
  5
7
330
0
100
AcDbSymbolTable
 70
     0
  0
ENDTAB
  0
TABLE
  2
APPID
  5
9
330
0
100
AcDbSymbolTable
 70
     1
  0
APPID
  5
12
330
9
100
AcDbSymbolTableRecord
100
AcDbRegAppTableRecord
  2
ACAD
 70
     0
  0
ENDTAB
  0
TABLE
  2
DIMSTYLE
  5
A
330
0
100
AcDbSymbolTable
 70
     6
100
AcDbDimStyleTable
  0
DIMSTYLE
105
27
330
A
100
AcDbSymbolTableRecord
100
AcDbDimStyleTableRecord
  2
Standard
 70
     0
340
11
  0
DIMSTYLE
105
DA
102
{ACAD_REACTORS
330
DB
102
}
330
A
100
AcDbSymbolTableRecord
100
AcDbDimStyleTableRecord
  2
ME10_DIM_10
 70
     0
  3
\U+2300<>
 41
3.5
 42
2.0
 44
2.0
 71
     1
 73
     0
 74
     0
 77
     1
 78
     8
140
3.5
146
0.7
147
2.0
172
     1
173
     1
176
     2
177
     2
178
     3
271
     2
272
     0
340
6D
  0
DIMSTYLE
105
E5
102
{ACAD_REACTORS
330
E6
102
}
330
A
100
AcDbSymbolTableRecord
100
AcDbDimStyleTableRecord
  2
ME10_DIM_11
 70
     0
  3
\U+2300<>
 41
3.5
 42
2.0
 44
2.0
 71
     1
 73
     0
 74
     0
 77
     1
 78
     8
140
3.5
146
0.7
147
2.0
172
     1
173
     1
176
     2
177
     2
178
     3
271
     2
272
     0
340
6D
  0
DIMSTYLE
105
F0
102
{ACAD_REACTORS
330
F1
102
}
330
A
100
AcDbSymbolTableRecord
100
AcDbDimStyleTableRecord
  2
ME10_DIM_12
 70
     0
  3
<>
 41
3.5
 42
2.0
 44
2.0
 71
     1
 73
     0
 74
     0
 77
     1
 78
     8
140
3.5
146
0.7
147
2.0
172
     1
173
     1
176
     2
177
     2
178
     3
271
     2
272
     0
340
6D
  0
DIMSTYLE
105
FB
102
{ACAD_REACTORS
330
FC
102
}
330
A
100
AcDbSymbolTableRecord
100
AcDbDimStyleTableRecord
  2
ME10_DIM_13
 70
     0
  3
<>
 41
3.5
 42
2.0
 44
2.0
 71
     1
 73
     0
 74
     0
 77
     1
 78
     8
140
3.5
146
0.7
147
2.0
172
     1
173
     1
176
     2
177
     2
178
     3
271
     2
272
     0
340
6D
  0
DIMSTYLE
105
106
102
{ACAD_REACTORS
330
107
102
}
330
A
100
AcDbSymbolTableRecord
100
AcDbDimStyleTableRecord
  2
ME10_DIM_14
 70
     0
  3
<>
 41
3.5
 42
2.0
 44
2.0
 71
     1
 73
     0
 74
     0
 77
     1
 78
     8
140
3.5
146
0.7
147
2.0
172
     1
173
     1
176
     2
177
     2
178
     3
271
     2
272
     0
340
6D
  0
ENDTAB
  0
TABLE
  2
BLOCK_RECORD
  5
1
330
0
100
AcDbSymbolTable
 70
     8
  0
BLOCK_RECORD
  5
1F
330
1
100
AcDbSymbolTableRecord
100
AcDbBlockTableRecord
  2
*Model_Space
340
22
  0
BLOCK_RECORD
  5
1B
330
1
100
AcDbSymbolTableRecord
100
AcDbBlockTableRecord
  2
*Paper_Space
340
1E
  0
BLOCK_RECORD
  5
23
330
1
100
AcDbSymbolTableRecord
100
AcDbBlockTableRecord
  2
*Paper_Space0
340
26
  0
BLOCK_RECORD
  5
47
330
1
100
AcDbSymbolTableRecord
100
AcDbBlockTableRecord
  2
Urheberrecht_DE-EN_horizontal
340
0
102
{BLKREFS
331
6C
102
}
  0
BLOCK_RECORD
  5
D1
330
1
100
AcDbSymbolTableRecord
100
AcDbBlockTableRecord
  2
*D2
340
0
  0
BLOCK_RECORD
  5
DC
330
1
100
AcDbSymbolTableRecord
100
AcDbBlockTableRecord
  2
*D3
340
0
  0
BLOCK_RECORD
  5
E7
330
1
100
AcDbSymbolTableRecord
100
AcDbBlockTableRecord
  2
*D4
340
0
  0
BLOCK_RECORD
  5
F2
330
1
100
AcDbSymbolTableRecord
100
AcDbBlockTableRecord
  2
*D5
340
0
  0
BLOCK_RECORD
  5
FD
330
1
100
AcDbSymbolTableRecord
100
AcDbBlockTableRecord
  2
*D6
340
0
  0
BLOCK_RECORD
  5
108
330
1
100
AcDbSymbolTableRecord
100
AcDbBlockTableRecord
  2
*D7
340
0
102
{BLKREFS
331
10E
102
}
  0
ENDTAB
  0
ENDSEC
  0
SECTION
  2
BLOCKS
  0
BLOCK
  5
20
330
1F
100
AcDbEntity
  8
0
100
AcDbBlockBegin
  2
*Model_Space
 70
     0
 10
0.0
 20
0.0
 30
0.0
  3
*Model_Space
  1

  0
ENDBLK
  5
21
330
1F
100
AcDbEntity
  8
0
100
AcDbBlockEnd
  0
BLOCK
  5
1C
330
1B
100
AcDbEntity
 67
     1
  8
0
100
AcDbBlockBegin
  2
*Paper_Space
 70
     0
 10
0.0
 20
0.0
 30
0.0
  3
*Paper_Space
  1

  0
ENDBLK
  5
1D
330
1B
100
AcDbEntity
 67
     1
  8
0
100
AcDbBlockEnd
  0
BLOCK
  5
24
330
23
100
AcDbEntity
  8
0
100
AcDbBlockBegin
  2
*Paper_Space0
 70
     0
 10
0.0
 20
0.0
 30
0.0
  3
*Paper_Space0
  1

  0
ENDBLK
  5
25
330
23
100
AcDbEntity
  8
0
100
AcDbBlockEnd
  0
BLOCK
  5
48
330
47
100
AcDbEntity
  8
0
100
AcDbBlockBegin
  2
Urheberrecht_DE-EN_horizontal
 70
     0
 10
164.541581665614
 20
258.232871504829
 30
0.0
  3
Urheberrecht_DE-EN_horizontal
  1

  0
MTEXT
  5
6E
330
47
100
AcDbEntity
  8
1
 62
     1
100
AcDbMText
 10
111.0877992762548
 20
251.4348634949247
 30
0.0
 40
2.0
 41
0.0
 71
     7
 72
     1
  1
F\U+00fcr diese Unterlage behalten wir das Ur-\Pheberrecht. Sie darf nur f\U+00fcr den von uns \Pbestimmten Zweck benutzt und ohne unsere \PZustimmung weder vervielf\U+00e4ltigt noch\PDritten zug\U+00e4nglich gemacht werden.
  7
CONVERTER_11
 73
     1
 44
0.90036014405762
  0
MTEXT
  5
6F
330
47
100
AcDbEntity
  8
1
 62
     1
100
AcDbMText
 10
167.3771861935609
 20
251.4348634949247
 30
0.0
 40
2.0
 41
0.0
 71
     7
 72
     1
  1
We own the copyright of this document. It \Pdetermined and may neither be copied or \Pmade accessible to outsiders without our\Ppermission.
  7
CONVERTER_11
 73
     1
 44
0.90036014405762
  0
ENDBLK
  5
49
330
47
100
AcDbEntity
  8
0
100
AcDbBlockEnd
  0
BLOCK
  5
D8
330
D1
100
AcDbEntity
  8
0
100
AcDbBlockBegin
  2
*D2
 70
     1
 10
0.0
 20
0.0
 30
0.0
  3
*D2
  1

  0
LINE
  5
D2
330
D1
100
AcDbEntity
  8
1
  6
Continuous
 62
     2
100
AcDbLine
 10
241.144055249059
 20
321.1530135614
 30
0.0
 11
241.144055249059
 21
289.1530135614
 31
0.0
  0
LINE
  5
D3
330
D1
100
AcDbEntity
  8
1
  6
Continuous
 62
     2
100
AcDbLine
 10
230.6253680407
 20
321.1530135614
 30
0.0
 11
243.144055249059
 21
321.1530135614
 31
0.0
  0
LINE
  5
D4
330
D1
100
AcDbEntity
  8
1
  6
Continuous
 62
     2
100
AcDbLine
 10
230.6253680407
 20
289.1530135614
 30
0.0
 11
243.144055249059
 21
289.1530135614
 31
0.0
  0
SOLID
  5
D5
330
D1
100
AcDbEntity
  8
1
 62
     2
100
AcDbTrace
 10
241.6048389906149
 20
317.6530135614
 30
0.0
 11
240.6832715075031
 21
317.6530135614
 31
0.0
 12
241.144055249059
 22
321.1530135614
 32
0.0
 13
241.144055249059
 23
321.1530135614
 33
0.0
  0
SOLID
  5
D6
330
D1
100
AcDbEntity
  8
1
 62
     2
100
AcDbTrace
 10
240.6832715075031
 20
292.6530135614
 30
0.0
 11
241.6048389906149
 21
292.6530135614
 31
0.0
 12
241.144055249059
 22
289.1530135614
 32
0.0
 13
241.144055249059
 23
289.1530135614
 33
0.0
  0
MTEXT
  5
D7
330
D1
100
AcDbEntity
  8
1
 62
     3
100
AcDbMText
 10
239.144055249059
 20
295.843806041776
 30
0.0
 40
3.5
 41
0.0
 71
     7
 72
     1
  1
\C3;%%c\C3;\C3;32\C2;\H2.45;\S^ ;\C3;
  7
CONVERTER_11
 11
0.0
 21
1.0
 31
0.0
 73
     1
 44
0.60024009603842
  0
ENDBLK
  5
D9
330
D1
100
AcDbEntity
  8
0
100
AcDbBlockEnd
  0
BLOCK
  5
E3
330
DC
100
AcDbEntity
  8
0
100
AcDbBlockBegin
  2
*D3
 70
     1
 10
0.0
 20
0.0
 30
0.0
  3
*D3
  1

  0
LINE
  5
DD
330
DC
100
AcDbEntity
  8
1
  6
Continuous
 62
     2
100
AcDbLine
 10
249.836857142675
 20
341.1530135614
 30
0.0
 11
249.836857142675
 21
269.1530135614
 31
0.0
  0
LINE
  5
DE
330
DC
100
AcDbEntity
  8
1
  6
Continuous
 62
     2
100
AcDbLine
 10
220.3574188483
 20
341.1530135614
 30
0.0
 11
251.836857142675
 21
341.1530135614
 31
0.0
  0
LINE
  5
DF
330
DC
100
AcDbEntity
  8
1
  6
Continuous
 62
     2
100
AcDbLine
 10
220.3574188483
 20
269.1530135614
 30
0.0
 11
251.836857142675
 21
269.1530135614
 31
0.0
  0
SOLID
  5
E0
330
DC
100
AcDbEntity
  8
1
 62
     2
100
AcDbTrace
 10
250.2976408842309
 20
337.6530135614
 30
0.0
 11
249.3760734011191
 21
337.6530135614
 31
0.0
 12
249.836857142675
 22
341.1530135614
 32
0.0
 13
249.836857142675
 23
341.1530135614
 33
0.0
  0
SOLID
  5
E1
330
DC
100
AcDbEntity
  8
1
 62
     2
100
AcDbTrace
 10
249.3760734011191
 20
272.6530135614
 30
0.0
 11
250.2976408842309
 21
272.6530135614
 31
0.0
 12
249.836857142675
 22
269.1530135614
 32
0.0
 13
249.836857142675
 23
269.1530135614
 33
0.0
  0
MTEXT
  5
E2
330
DC
100
AcDbEntity
  8
1
 62
     3
100
AcDbMText
 10
247.836857142675
 20
295.660799686121
 30
0.0
 40
3.5
 41
0.0
 71
     7
 72
     1
  1
\C3;%%c\C3;\C3;72\C2;\H2.45;\S^ ;\C3;
  7
CONVERTER_11
 11
0.0
 21
1.0
 31
0.0
 73
     1
 44
0.60024009603842
  0
ENDBLK
  5
E4
330
DC
100
AcDbEntity
  8
0
100
AcDbBlockEnd
  0
BLOCK
  5
EE
330
E7
100
AcDbEntity
  8
0
100
AcDbBlockBegin
  2
*D4
 70
     1
 10
0.0
 20
0.0
 30
0.0
  3
*D4
  1

  0
LINE
  5
E8
330
E7
100
AcDbEntity
  8
1
  6
Continuous
 62
     2
100
AcDbLine
 10
228.6253680407
 20
348.782972981587
 30
0.0
 11
177.7253680407
 21
348.782972981587
 31
0.0
  0
LINE
  5
E9
330
E7
100
AcDbEntity
  8
1
  6
Continuous
 62
     2
100
AcDbLine
 10
228.6253680407
 20
336.8021606003
 30
0.0
 11
228.6253680407
 21
350.782972981587
 31
0.0
  0
LINE
  5
EA
330
E7
100
AcDbEntity
  8
1
  6
Continuous
 62
     2
100
AcDbLine
 10
177.7253680407
 20
336.8299643187
 30
0.0
 11
177.7253680407
 21
350.782972981587
 31
0.0
  0
SOLID
  5
EB
330
E7
100
AcDbEntity
  8
1
 62
     2
100
AcDbTrace
 10
225.1253680407
 20
348.3221892400312
 30
0.0
 11
225.1253680407
 21
349.2437567231429
 31
0.0
 12
228.6253680407
 22
348.782972981587
 32
0.0
 13
228.6253680407
 23
348.782972981587
 33
0.0
  0
SOLID
  5
EC
330
E7
100
AcDbEntity
  8
1
 62
     2
100
AcDbTrace
 10
181.2253680407
 20
349.2437567231429
 30
0.0
 11
181.2253680407
 21
348.3221892400312
 31
0.0
 12
177.7253680407
 22
348.782972981587
 32
0.0
 13
177.7253680407
 23
348.782972981587
 33
0.0
  0
MTEXT
  5
ED
330
E7
100
AcDbEntity
  8
1
 62
     3
100
AcDbMText
 10
199.893758093312
 20
350.782972981587
 30
0.0
 40
3.5
 41
0.0
 71
     7
 72
     1
  1
\C3;\C3;\C3;50.9\C2;\H2.45;\S^ ;\C3;
  7
CONVERTER_11
 11
0.9999999999970619
 21
2.424068405545306E-6
 31
0.0
 73
     1
 44
0.60024009603842
  0
ENDBLK
  5
EF
330
E7
100
AcDbEntity
  8
0
100
AcDbBlockEnd
  0
BLOCK
  5
F9
330
F2
100
AcDbEntity
  8
0
100
AcDbBlockBegin
  2
*D5
 70
     1
 10
0.0
 20
0.0
 30
0.0
  3
*D5
  1

  0
LINE
  5
F3
330
F2
100
AcDbEntity
  8
1
  6
Continuous
 62
     2
100
AcDbLine
 10
228.6253680407
 20
356.270029344741
 30
0.0
 11
158.6253680407
 21
356.270029344741
 31
0.0
  0
LINE
  5
F4
330
F2
100
AcDbEntity
  8
1
  6
Continuous
 62
     2
100
AcDbLine
 10
228.6253680407
 20
336.8021606003
 30
0.0
 11
228.6253680407
 21
358.270029344741
 31
0.0
  0
LINE
  5
F5
330
F2
100
AcDbEntity
  8
1
  6
Continuous
 62
     2
100
AcDbLine
 10
158.6253680407
 20
333.9558119228
 30
0.0
 11
158.6253680407
 21
358.270029344741
 31
0.0
  0
SOLID
  5
F6
330
F2
100
AcDbEntity
  8
1
 62
     2
100
AcDbTrace
 10
225.1253680407
 20
355.8092456031851
 30
0.0
 11
225.1253680407
 21
356.7308130862968
 31
0.0
 12
228.6253680407
 22
356.270029344741
 32
0.0
 13
228.6253680407
 23
356.270029344741
 33
0.0
  0
SOLID
  5
F7
330
F2
100
AcDbEntity
  8
1
 62
     2
100
AcDbTrace
 10
162.1253680407
 20
356.7308130862968
 30
0.0
 11
162.1253680407
 21
355.8092456031851
 31
0.0
 12
158.6253680407
 22
356.270029344741
 32
0.0
 13
158.6253680407
 23
356.270029344741
 33
0.0
  0
MTEXT
  5
F8
330
F2
100
AcDbEntity
  8
1
 62
     3
100
AcDbMText
 10
193.841811772656
 20
358.270029344741
 30
0.0
 40
3.5
 41
0.0
 71
     7
 72
     1
  1
\C3;\C3;\C3;70\C2;\H2.45;\S^ ;\C3;
  7
CONVERTER_11
 11
0.9999999999970619
 21
2.424068405545306E-6
 31
0.0
 73
     1
 44
0.60024009603842
  0
ENDBLK
  5
FA
330
F2
100
AcDbEntity
  8
0
100
AcDbBlockEnd
  0
BLOCK
  5
104
330
FD
100
AcDbEntity
  8
0
100
AcDbBlockBegin
  2
*D6
 70
     1
 10
0.0
 20
0.0
 30
0.0
  3
*D6
  1

  0
LINE
  5
FE
330
FD
100
AcDbEntity
  8
1
  6
Continuous
 62
     2
100
AcDbLine
 10
228.6253680407
 20
363.850636998024
 30
0.0
 11
90.22536804069999
 21
363.850636998024
 31
0.0
  0
LINE
  5
FF
330
FD
100
AcDbEntity
  8
1
  6
Continuous
 62
     2
100
AcDbLine
 10
228.6253680407
 20
336.8021606003
 30
0.0
 11
228.6253680407
 21
365.850636998024
 31
0.0
  0
LINE
  5
100
330
FD
100
AcDbEntity
  8
1
  6
Continuous
 62
     2
100
AcDbLine
 10
90.22536804069999
 20
318.6025617623
 30
0.0
 11
90.22536804069999
 21
365.850636998024
 31
0.0
  0
SOLID
  5
101
330
FD
100
AcDbEntity
  8
1
 62
     2
100
AcDbTrace
 10
225.1253680407
 20
363.3898532564681
 30
0.0
 11
225.1253680407
 21
364.3114207395799
 31
0.0
 12
228.6253680407
 22
363.850636998024
 32
0.0
 13
228.6253680407
 23
363.850636998024
 33
0.0
  0
SOLID
  5
102
330
FD
100
AcDbEntity
  8
1
 62
     2
100
AcDbTrace
 10
93.72536804069999
 20
364.3114207395799
 30
0.0
 11
93.72536804069999
 21
363.3898532564681
 31
0.0
 12
90.22536804069999
 22
363.850636998024
 32
0.0
 13
90.22536804069999
 23
363.850636998024
 33
0.0
  0
MTEXT
  5
103
330
FD
100
AcDbEntity
  8
1
 62
     3
100
AcDbMText
 10
161.805433037475
 20
365.850636998024
 30
0.0
 40
3.5
 41
0.0
 71
     7
 72
     1
  1
\C3;\C3;\C3;138.4\C2;\H2.45;\S^ ;\C3;
  7
CONVERTER_11
 11
0.9999999999970619
 21
2.424068405545306E-6
 31
0.0
 73
     1
 44
0.60024009603842
  0
ENDBLK
  5
105
330
FD
100
AcDbEntity
  8
0
100
AcDbBlockEnd
  0
BLOCK
  5
10C
330
108
100
AcDbEntity
  8
0
100
AcDbBlockBegin
  2
*D7
 70
     1
 10
0.0
 20
0.0
 30
0.0
  3
*D7
  1

  0
LINE
  5
109
330
108
100
AcDbEntity
  8
1
  6
Continuous
 62
     2
100
AcDbLine
 10
187.1186747946275
 20
337.3882650733014
 30
0.0
 11
177.967942113134
 21
329.5000924603083
 31
0.0
  0
SOLID
  5
10A
330
108
100
AcDbEntity
  8
1
 62
     2
100
AcDbTrace
 10
180.318077431713
 20
332.1343258669847
 30
0.0
 11
180.9197882875167
 21
331.4363067612742
 31
0.0
 12
177.967942113134
 22
329.5000924603083
 32
0.0
 13
177.967942113134
 23
329.5000924603083
 33
0.0
  0
MTEXT
  5
10B
330
108
100
AcDbEntity
  8
1
 62
     3
100
AcDbMText
 10
180.8289699890599
 20
334.6068960832498
 30
0.0
 40
3.5
 41
0.0
 71
     7
 72
     1
  1
\C3; R\C3;\C3;1\C2;\H2.45;\S^ ;\C3;
  7
CONVERTER_11
 11
0.757425927565968
 21
0.6529211010917269
 31
0.0
 73
     1
 44
0.60024009603842
  0
ENDBLK
  5
10D
330
108
100
AcDbEntity
  8
0
100
AcDbBlockEnd
  0
ENDSEC
  0
SECTION
  2
ENTITIES
  0
INSERT
  5
6C
330
1F
100
AcDbEntity
  8
0
100
AcDbBlockReference
  2
Urheberrecht_DE-EN_horizontal
 10
164.541581665614
 20
258.232871504829
 30
0.0
  0
LINE
  5
70
330
1F
100
AcDbEntity
  8
0
  6
Continuous
 62
     7
100
AcDbLine
 10
90.22536804069999
 20
316.6025617623
 30
0.0
 11
90.22536804069999
 21
293.7034653606
 31
0.0
  0
LINE
  5
71
330
1F
100
AcDbEntity
  8
0
  6
Continuous
 62
     9
100
AcDbLine
 10
91.03826530499997
 20
317.5426164627
 30
0.0
 11
91.03826530499998
 21
292.7634106601
 31
0.0
  0
LINE
  5
72
330
1F
100
AcDbEntity
  8
0
  6
Continuous
 62
     7
100
AcDbLine
 10
194.6753680407
 20
269.1530135614
 30
0.0
 11
218.3574188483
 21
269.1530135614
 31
0.0
  0
LINE
  5
73
330
1F
100
AcDbEntity
  8
0
  6
Continuous
 62
     7
100
AcDbLine
 10
162.8253680407
 20
274.4406967122
 30
0.0
 11
166.2713145203
 21
274.4406967122
 31
0.0
  0
LINE
  5
74
330
1F
100
AcDbEntity
  8
0
  6
Continuous
 62
     7
100
AcDbLine
 10
173.3294215611
 20
274.4406967122
 30
0.0
 11
176.7253680407
 21
274.4406967122
 31
0.0
  0
LINE
  5
75
330
1F
100
AcDbEntity
  8
0
  6
Continuous
 62
     7
100
AcDbLine
 10
168.6378680407
 20
278.3502152001
 30
0.0
 11
170.9628680407
 21
278.3502152001
 31
0.0
  0
LINE
  5
76
330
1F
100
AcDbEntity
  8
0
  6
Continuous
 62
     7
100
AcDbLine
 10
159.1753680407
 20
283.2780135614
 30
0.0
 11
158.1356857075
 21
282.9994315199
 31
0.0
  0
LINE
  5
77
330
1F
100
AcDbEntity
  8
RUNDUNGEN
  6
Continuous
 62
     7
100
AcDbLine
 10
177.735414653
 20
280.3030135614
 30
0.0
 11
177.7253680407
 21
280.3030135614
 31
0.0
  0
LINE
  5
78
330
1F
100
AcDbEntity
  8
0
  6
Continuous
 62
     7
100
AcDbLine
 10
178.7253680407
 20
281.1530135614
 30
0.0
 11
192.6753680407
 21
281.1530135614
 31
0.0
  0
LINE
  5
79
330
1F
100
AcDbEntity
  8
0
  6
Continuous
 62
     7
100
AcDbLine
 10
160.8253680407
 20
283.2780135614
 30
0.0
 11
159.1753680407
 21
283.2780135614
 31
0.0
  0
LINE
  5
7A
330
1F
100
AcDbEntity
  8
0
  6
Continuous
 62
     7
100
AcDbLine
 10
158.1356857075
 20
282.9994315199
 30
0.0
 11
91.03826530499998
 21
292.7634106601
 31
0.0
  0
LWPOLYLINE
  5
7B
330
1F
100
AcDbEntity
  8
DEFAULT_2
  6
DASHED
 62
     8
100
AcDbPolyline
 90
        2
 70
     0
 43
0.35
 10
228.6253680407
 20
289.1530135614
 10
163.5253680407
 20
289.1530135614
  0
LINE
  5
7C
330
1F
100
AcDbEntity
  8
0
  6
Continuous
 62
     7
100
AcDbLine
 10
158.1356857075
 20
327.306595603
 30
0.0
 11
158.1356857075
 21
282.9994315199
 31
0.0
  0
LWPOLYLINE
  5
7D
330
1F
100
AcDbEntity
  8
TEIL_STARTBEZUEGE
  6
DOT_CENTER
 62
     7
100
AcDbPolyline
 90
        2
 70
     0
 43
0.25
 10
158.6253680407
 20
278.3502152001
 10
158.6253680407
 20
331.9558119228
  0
LINE
  5
7E
330
1F
100
AcDbEntity
  8
0
  6
Continuous
 62
     7
100
AcDbLine
 10
159.1753680407
 20
327.0280135614
 30
0.0
 11
159.1753680407
 21
283.2780135614
 31
0.0
  0
LWPOLYLINE
  5
7F
330
1F
100
AcDbEntity
  8
TEIL_STARTBEZUEGE
  6
DOT_CENTER
 62
     7
100
AcDbPolyline
 90
        2
 70
     0
 43
0.25
 10
231.6253680407
 20
305.1530135614
 10
87.22536804069998
 20
305.1530135614
  0
LINE
  5
80
330
1F
100
AcDbEntity
  8
0
  6
Continuous
 62
     9
100
AcDbLine
 10
160.8253680407
 20
327.0280135614
 30
0.0
 11
160.8253680407
 21
283.2780135614
 31
0.0
  0
LINE
  5
81
330
1F
100
AcDbEntity
  8
0
  6
Continuous
 62
     7
100
AcDbLine
 10
161.8253680407
 20
334.8299643187
 30
0.0
 11
161.8253680407
 21
275.4760628041
 31
0.0
  0
LINE
  5
82
330
1F
100
AcDbEntity
  8
0
  6
Continuous
 62
     9
100
AcDbLine
 10
162.8253680407
 20
335.8653304107
 30
0.0
 11
162.8253680407
 21
274.4406967122
 31
0.0
  0
LWPOLYLINE
  5
83
330
1F
100
AcDbEntity
  8
DEFAULT_2
  6
DASHED
 62
     8
100
AcDbPolyline
 90
        2
 70
     0
 43
0.35
 10
163.5253680407
 20
321.1530135614
 10
163.5253680407
 20
289.1530135614
  0
LINE
  5
84
330
1F
100
AcDbEntity
  8
0
  6
Continuous
 62
     7
100
AcDbLine
 10
166.2713145203
 20
335.8653304107
 30
0.0
 11
166.2713145203
 21
274.4406967122
 31
0.0
  0
LINE
  5
85
330
1F
100
AcDbEntity
  8
0
  6
Continuous
 62
     7
100
AcDbLine
 10
167.8878680407
 20
332.9598317639
 30
0.0
 11
167.8878680407
 21
277.346195359
 31
0.0
  0
LINE
  5
86
330
1F
100
AcDbEntity
  8
0
  6
Continuous
 62
     9
100
AcDbLine
 10
168.6378680407
 20
331.9558119228
 30
0.0
 11
168.6378680407
 21
278.3502152001
 31
0.0
  0
LINE
  5
87
330
1F
100
AcDbEntity
  8
0
  6
Continuous
 62
     9
100
AcDbLine
 10
170.9628680407
 20
331.9558119228
 30
0.0
 11
170.9628680407
 21
278.3502152001
 31
0.0
  0
LINE
  5
88
330
1F
100
AcDbEntity
  8
0
  6
Continuous
 62
     7
100
AcDbLine
 10
171.7128680407
 20
332.9598317639
 30
0.0
 11
171.7128680407
 21
277.346195359
 31
0.0
  0
LINE
  5
89
330
1F
100
AcDbEntity
  8
0
  6
Continuous
 62
     7
100
AcDbLine
 10
173.3294215611
 20
335.8653304107
 30
0.0
 11
173.3294215611
 21
274.4406967122
 31
0.0
  0
LWPOLYLINE
  5
8A
330
1F
100
AcDbEntity
  8
BEZUGSACHSEN
  6
DASHED
 62
     8
100
AcDbPolyline
 90
        2
 70
     0
 43
0.35
 10
228.6253680407
 20
321.1530135614
 10
197.8753680407
 20
321.1530135614
  0
LWPOLYLINE
  5
8B
330
1F
100
AcDbEntity
  8
DEFAULT_2
  6
DASHED
 62
     8
100
AcDbPolyline
 90
        2
 70
     0
 43
0.35
 10
163.5253680407
 20
321.1530135614
 10
180.7253680407
 20
321.1530135614
  0
LWPOLYLINE
  5
8C
330
1F
100
AcDbEntity
  8
DEFAULT_2
  6
DASHED
 62
     8
100
AcDbPolyline
 90
        2
 70
     0
 43
0.35
 10
180.7253680407
 20
321.1530135614
 10
197.8753680407
 20
321.1530135614
  0
LINE
  5
8D
330
1F
100
AcDbEntity
  8
0
  6
Continuous
 62
     9
100
AcDbLine
 10
176.7253680407
 20
335.8653304107
 30
0.0
 11
176.7253680407
 21
274.4406967122
 31
0.0
  0
LINE
  5
8E
330
1F
100
AcDbEntity
  8
0
  6
Continuous
 62
     7
100
AcDbLine
 10
177.7253680407
 20
334.8299643187
 30
0.0
 11
177.7253680407
 21
275.4760628041
 31
0.0
  0
LWPOLYLINE
  5
8F
330
1F
100
AcDbEntity
  8
BEZUGSACHSEN
  6
DASHED
 62
     8
100
AcDbPolyline
 90
        2
 70
     0
 43
0.35
 10
180.7253680407
 20
321.1530135614
 10
180.7253680407
 20
329.1530135614
  0
LINE
  5
90
330
1F
100
AcDbEntity
  8
0
  6
Continuous
 62
     7
100
AcDbLine
 10
159.1753680407
 20
327.0280135614
 30
0.0
 11
158.1356857075
 21
327.306595603
 31
0.0
  0
LWPOLYLINE
  5
91
330
1F
100
AcDbEntity
  8
BEZUGSACHSEN
  6
DOT_CENTER
 62
     7
100
AcDbPolyline
 90
        2
 70
     0
 43
0.25
 10
184.1253680407
 20
332.1530135614
 10
184.1253680407
 20
317.787586371
  0
LINE
  5
92
330
1F
100
AcDbEntity
  8
0
  6
Continuous
 62
     7
100
AcDbLine
 10
158.1356857075
 20
327.306595603
 30
0.0
 11
91.03826530499997
 21
317.5426164627
 31
0.0
  0
LINE
  5
93
330
1F
100
AcDbEntity
  8
0
  6
Continuous
 62
     7
100
AcDbLine
 10
160.8253680407
 20
327.0280135614
 30
0.0
 11
159.1753680407
 21
327.0280135614
 31
0.0
  0
LINE
  5
94
330
1F
100
AcDbEntity
  8
0
  6
Continuous
 62
     7
100
AcDbLine
 10
161.8253680407
 20
327.7030135614
 30
0.0
 11
161.7710820567
 21
327.7030135614
 31
0.0
  0
LINE
  5
95
330
1F
100
AcDbEntity
  8
BEZUGSACHSEN
  6
Continuous
 62
     7
100
AcDbLine
 10
192.6753680407
 20
329.1530135614
 30
0.0
 11
187.5253680407
 21
329.1530135614
 31
0.0
  0
LINE
  5
96
330
1F
100
AcDbEntity
  8
0
  6
Continuous
 62
     7
100
AcDbLine
 10
178.7253680407
 20
329.1530135614001
 30
0.0
 11
180.7253680407
 21
329.1530135614
 31
0.0
  0
LINE
  5
97
330
1F
100
AcDbEntity
  8
0
  6
Continuous
 62
     7
100
AcDbLine
 10
187.5253680407
 20
329.1530135614
 30
0.0
 11
192.6753680407
 21
329.1530135614
 31
0.0
  0
LWPOLYLINE
  5
98
330
1F
100
AcDbEntity
  8
BEZUGSACHSEN
  6
DASHED
 62
     8
100
AcDbPolyline
 90
        2
 70
     0
 43
0.35
 10
187.5253680407
 20
321.1530135614
 10
187.5253680407
 20
329.1530135614
  0
LINE
  5
99
330
1F
100
AcDbEntity
  8
0
  6
Continuous
 62
     7
100
AcDbLine
 10
168.6378680407
 20
331.9558119228
 30
0.0
 11
170.9628680407
 21
331.9558119228
 31
0.0
  0
LINE
  5
9A
330
1F
100
AcDbEntity
  8
0
  6
Continuous
 62
     7
100
AcDbLine
 10
162.8253680407
 20
335.8653304107
 30
0.0
 11
166.2713145203
 21
335.8653304107
 31
0.0
  0
LINE
  5
9B
330
1F
100
AcDbEntity
  8
0
  6
Continuous
 62
     7
100
AcDbLine
 10
173.3294215611
 20
335.8653304107
 30
0.0
 11
176.7253680407
 21
335.8653304107
 31
0.0
  0
LINE
  5
9C
330
1F
100
AcDbEntity
  8
RUNDUNGEN
  6
Continuous
 62
     9
100
AcDbLine
 10
192.6753680407
 20
329.1530135614
 30
0.0
 11
192.6753680407
 21
281.1530135614
 31
0.0
  0
LINE
  5
9D
330
1F
100
AcDbEntity
  8
RUNDUNGEN
  6
Continuous
 62
     7
100
AcDbLine
 10
193.6753680407
 20
270.1530135614
 30
0.0
 11
193.6753680407
 21
340.1530135614
 31
0.0
  0
LINE
  5
9E
330
1F
100
AcDbEntity
  8
RUNDUNGEN
  6
Continuous
 62
     9
100
AcDbLine
 10
194.6753680407
 20
269.1530135614
 30
0.0
 11
194.6753680407
 21
341.1530135614
 31
0.0
  0
LINE
  5
9F
330
1F
100
AcDbEntity
  8
BEZUGSACHSEN
  6
Continuous
 62
     7
100
AcDbLine
 10
218.3574188483
 20
341.1530135614
 30
0.0
 11
215.3753680407
 21
341.1530135614
 31
0.0
  0
LINE
  5
A0
330
1F
100
AcDbEntity
  8
BEZUGSACHSEN
  6
Continuous
 62
     7
100
AcDbLine
 10
197.8753680407
 20
341.1530135614
 30
0.0
 11
194.6753680407
 21
341.1530135614
 31
0.0
  0
LINE
  5
A1
330
1F
100
AcDbEntity
  8
0
  6
Continuous
 62
     7
100
AcDbLine
 10
194.6753680407
 20
341.1530135614
 30
0.0
 11
197.8753680407
 21
341.1530135614
 31
0.0
  0
LINE
  5
A2
330
1F
100
AcDbEntity
  8
0
  6
Continuous
 62
     7
100
AcDbLine
 10
215.3753680407
 20
341.1530135614
 30
0.0
 11
218.3574188483
 21
341.1530135614
 31
0.0
  0
LWPOLYLINE
  5
A3
330
1F
100
AcDbEntity
  8
BEZUGSACHSEN
  6
DASHED
 62
     8
100
AcDbPolyline
 90
        2
 70
     0
 43
0.35
 10
197.8753680407
 20
321.1530135614
 10
197.8753680407
 20
341.1530135614
  0
LWPOLYLINE
  5
A4
330
1F
100
AcDbEntity
  8
BEZUGSACHSEN
  6
DOT_CENTER
 62
     7
100
AcDbPolyline
 90
        2
 70
     0
 43
0.25
 10
206.6253680407
 20
344.1530135614
 10
206.6253680407
 20
315.5443491319
  0
LWPOLYLINE
  5
A5
330
1F
100
AcDbEntity
  8
BEZUGSACHSEN
  6
DASHED
 62
     8
100
AcDbPolyline
 90
        2
 70
     0
 43
0.35
 10
215.3753680407
 20
321.1530135614
 10
215.3753680407
 20
341.1530135614
  0
LINE
  5
A6
330
1F
100
AcDbEntity
  8
RUNDUNGEN
  6
Continuous
 62
     9
100
AcDbLine
 10
218.3574188483
 20
269.1530135614
 30
0.0
 11
218.3574188483
 21
341.1530135614
 31
0.0
  0
LINE
  5
A7
330
1F
100
AcDbEntity
  8
RUNDUNGEN
  6
Continuous
 62
     9
100
AcDbLine
 10
218.8574188483
 20
269.2869881576
 30
0.0
 11
218.8574188483
 21
341.0190389652
 31
0.0
  0
LINE
  5
A8
330
1F
100
AcDbEntity
  8
0
  6
Continuous
 62
     7
100
AcDbLine
 10
218.8574188483
 20
269.2869881576
 30
0.0
 11
228.1253680407
 21
274.6378411187
 31
0.0
  0
LINE
  5
A9
330
1F
100
AcDbEntity
  8
RUNDUNGEN
  6
Continuous
 62
     7
100
AcDbLine
 10
228.1253680407
 20
335.6681860041
 30
0.0
 11
218.8574188483
 21
341.0190389652
 31
0.0
  0
LINE
  5
AA
330
1F
100
AcDbEntity
  8
0
  6
Continuous
 62
     7
100
AcDbLine
 10
218.8574188483
 20
341.0190389652
 30
0.0
 11
228.1253680407
 21
335.6681860041
 31
0.0
  0
LINE
  5
AB
330
1F
100
AcDbEntity
  8
RUNDUNGEN
  6
Continuous
 62
     9
100
AcDbLine
 10
228.1253680407
 20
274.6378411187
 30
0.0
 11
228.1253680407
 21
335.6681860041
 31
0.0
  0
LINE
  5
AC
330
1F
100
AcDbEntity
  8
RUNDUNGEN
  6
Continuous
 62
     7
100
AcDbLine
 10
228.6253680407
 20
275.5038665225
 30
0.0
 11
228.6253680407
 21
334.8021606003
 31
0.0
  0
LINE
  5
AD
330
1F
100
AcDbEntity
  8
RUNDUNGEN
  6
Continuous
 62
     9
100
AcDbLine
 10
178.7253680407
 20
329.1530135614001
 30
0.0
 11
178.7253680407
 21
281.1530135711
 31
0.0
  0
LWPOLYLINE
  5
AE
330
1F
100
AcDbEntity
  8
BEZUGSACHSEN
  6
DASHED
 62
     8
100
AcDbPolyline
 90
        2
 70
     0
 43
0.35
 10
216.6253680407
 20
321.1530135614
 10
216.6253680407
 20
341.1530135614
  0
LWPOLYLINE
  5
AF
330
1F
100
AcDbEntity
  8
BEZUGSACHSEN
  6
DASHED
 62
     8
100
AcDbPolyline
 90
        2
 70
     0
 43
0.35
 10
196.6253680407
 20
321.1530135614
 10
196.6253680407
 20
341.1530135614
  0
LWPOLYLINE
  5
B0
330
1F
100
AcDbEntity
  8
BEZUGSACHSEN
  6
DASHED
 62
     8
100
AcDbPolyline
 90
        2
 70
     0
 43
0.35
 10
188.1253680407
 20
321.1530135614
 10
188.1253680407
 20
329.1530135614
  0
LWPOLYLINE
  5
B1
330
1F
100
AcDbEntity
  8
BEZUGSACHSEN
  6
DASHED
 62
     8
100
AcDbPolyline
 90
        2
 70
     0
 43
0.35
 10
180.1253680407
 20
321.1530135614
 10
180.1253680407
 20
329.1530135614
  0
LINE
  5
B2
330
1F
100
AcDbEntity
  8
RUNDUNGEN
  6
Continuous
 62
     7
100
AcDbLine
 10
177.7253680407
 20
330.0030135614001
 30
0.0
 11
177.735414653
 21
330.0030135614001
 31
0.0
  0
ARC
  5
B3
330
1F
100
AcDbEntity
  8
0
  6
Continuous
 62
     7
100
AcDbCircle
 10
-796.2498467499
 20
-201.5620599877
 30
0.0
 40
1102.395204018663
100
AcDbArc
 50
29.00416524305547
 51
29.17697495598663
  0
ARC
  5
B4
330
1F
100
AcDbEntity
  8
0
  6
Continuous
 62
     7
100
AcDbCircle
 10
160.8253680407
 20
282.2780135614
 30
0.0
 40
1.0
100
AcDbArc
 50
0.0
 51
90.0
  0
ARC
  5
B5
330
1F
100
AcDbEntity
  8
0
  6
Continuous
 62
     7
100
AcDbCircle
 10
91.1753680407
 20
293.7034653606
 30
0.0
 40
0.9500000000000028
100
AcDbArc
 50
180.0
 51
261.7021731728407
  0
ARC
  5
B6
330
1F
100
AcDbEntity
  8
0
  6
Continuous
 62
     7
100
AcDbCircle
 10
-796.2498467436
 20
811.8680871071
 30
0.0
 40
1102.395204011465
100
AcDbArc
 50
330.8230250440126
 51
330.9958347569449
  0
ARC
  5
B7
330
1F
100
AcDbEntity
  8
0
  6
Continuous
 62
     7
100
AcDbCircle
 10
160.8253680407
 20
328.0280135614
 30
0.0
 40
1.0
100
AcDbArc
 50
270.0
 51
341.0344250117316
  0
ARC
  5
B8
330
1F
100
AcDbEntity
  8
0
  6
Continuous
 62
     7
100
AcDbCircle
 10
91.1753680407
 20
316.6025617623
 30
0.0
 40
0.9499999999371088
100
AcDbArc
 50
98.29782682803048
 51
180.0
  0
ARC
  5
B9
330
1F
100
AcDbEntity
  8
0
  6
Continuous
 62
     7
100
AcDbCircle
 10
1135.850582854
 20
-201.5620600003
 30
0.0
 40
1102.395204044634
100
AcDbArc
 50
150.8230250440168
 51
150.9958347569439
  0
ARC
  5
BA
330
1F
100
AcDbEntity
  8
RUNDUNGEN
  6
Continuous
 62
     7
100
AcDbCircle
 10
227.6253680407
 20
275.5038665225
 30
0.0
 40
1.000000000013472
100
AcDbArc
 50
299.9999999995543
 51
0.0
  0
ARC
  5
BB
330
1F
100
AcDbEntity
  8
RUNDUNGEN
  6
Continuous
 62
     7
100
AcDbCircle
 10
218.3574188483
 20
270.1530135614
 30
0.0
 40
1.0
100
AcDbArc
 50
270.0
 51
299.9999999995543
  0
ARC
  5
BC
330
1F
100
AcDbEntity
  8
RUNDUNGEN
  6
Continuous
 62
     7
100
AcDbCircle
 10
192.6753680407
 20
280.1530135614
 30
0.0
 40
1.0
100
AcDbArc
 50
0.0
 51
90.0
  0
ARC
  5
BD
330
1F
100
AcDbEntity
  8
RUNDUNGEN
  6
Continuous
 62
     7
100
AcDbCircle
 10
178.7253680407
 20
280.1530135614
 30
0.0
 40
1.0
100
AcDbArc
 50
90.0
 51
172.3370688951269
  0
ARC
  5
BE
330
1F
100
AcDbEntity
  8
RUNDUNGEN
  6
Continuous
 62
     7
100
AcDbCircle
 10
194.6753680407
 20
270.1530135614
 30
0.0
 40
1.0
100
AcDbArc
 50
180.0
 51
270.0
  0
ARC
  5
BF
330
1F
100
AcDbEntity
  8
0
  6
Continuous
 62
     7
100
AcDbCircle
 10
1135.850582825
 20
811.868087107
 30
0.0
 40
1102.395204011407
100
AcDbArc
 50
209.0041652430506
 51
209.1769749559829
  0
ARC
  5
C0
330
1F
100
AcDbEntity
  8
BEZUGSACHSEN
  6
Continuous
 62
     7
100
AcDbCircle
 10
184.1253680406
 20
352.9112169609
 30
0.0
 40
24.00001139389977
100
AcDbArc
 50
261.8557864850006
 51
278.1442135151007
  0
ARC
  5
C1
330
1F
100
AcDbEntity
  8
RUNDUNGEN
  6
Continuous
 62
     7
100
AcDbCircle
 10
227.6253680407
 20
334.8021606003
 30
0.0
 40
1.0
100
AcDbArc
 50
0.0
 51
60.00000000044565
  0
ARC
  5
C2
330
1F
100
AcDbEntity
  8
RUNDUNGEN
  6
Continuous
 62
     7
100
AcDbCircle
 10
218.3574188483
 20
340.1530135614
 30
0.0
 40
1.000000000013521
100
AcDbArc
 50
60.00000000044728
 51
90.0
  0
ARC
  5
C3
330
1F
100
AcDbEntity
  8
RUNDUNGEN
  6
Continuous
 62
     7
100
AcDbCircle
 10
192.6753680407
 20
330.1530135614
 30
0.0
 40
1.0
100
AcDbArc
 50
270.0
 51
0.0
  0
ARC
  5
C4
330
1F
100
AcDbEntity
  8
RUNDUNGEN
  6
Continuous
 62
     7
100
AcDbCircle
 10
194.6753680407
 20
340.1530135614
 30
0.0
 40
1.0
100
AcDbArc
 50
90.0
 51
180.0
  0
ARC
  5
C5
330
1F
100
AcDbEntity
  8
RUNDUNGEN
  6
Continuous
 62
     7
100
AcDbCircle
 10
178.7253680407
 20
330.1530135614001
 30
0.0
 40
0.9999999999994519
100
AcDbArc
 50
187.6629311048731
 51
270.0
  0
SPLINE
  5
C6
330
1F
100
AcDbEntity
  8
0
  6
Continuous
 62
     2
100
AcDbSpline
210
0.0
220
0.0
230
1.0
 70
     8
 71
     3
 72
    39
 73
    35
 74
    33
 42
0.0000000001
 43
0.0000000001
 44
0.00000001
 40
0.0
 40
0.0
 40
0.0
 40
0.0
 40
0.0195498943652659
 40
0.0779018161723516
 40
0.1744688241026086
 40
0.3081028303775734
 40
0.4774065139146277
 40
0.6805381576957801
 40
0.9154728048749021
 40
1.179873861824656
 40
1.471260696119831
 40
1.786849469129317
 40
2.123756682929463
 40
2.478953889109124
 40
2.849269977364455
 40
3.231056071607045
 40
3.620535104746217
 40
4.013854352917379
 40
4.407160978079707
 40
4.79666286977329
 40
5.178610179636407
 40
5.549376213910635
 40
5.905413106501578
 40
6.243404345836678
 40
6.560140195894983
 40
6.852658144922509
 40
7.118121255302725
 40
7.353997974873348
 40
7.557915003845794
 40
7.727865848195212
 40
7.862031677684929
 40
7.959000884694611
 40
8.017603791738765
 40
8.037239911489966
 40
8.037239911489966
 40
8.037239911489966
 40
8.037239911489966
 10
180.1253680407
 20
329.1530148676
 30
0.0
 10
180.131795730355
 20
329.1519418783458
 30
0.0
 10
180.1574085898698
 20
329.1476662638551
 30
0.0
 10
180.2147964356799
 20
329.1382430748973
 30
0.0
 10
180.3097441993274
 20
329.1228684554717
 30
0.0
 10
180.4413054269764
 20
329.102238306974
 30
0.0
 10
180.6081055664886
 20
329.0770519177839
 30
0.0
 10
180.8085171224145
 20
329.0483321832303
 30
0.0
 10
181.0405869125796
 20
329.0171211203987
 30
0.0
 10
181.3021546916705
 20
328.9846201282637
 30
0.0
 10
181.5907889359943
 20
328.9520539724093
 30
0.0
 10
181.9038532584706
 20
328.9206402803769
 30
0.0
 10
182.2385055574538
 20
328.8916165112947
 30
0.0
 10
182.5917347901283
 20
328.8660516213744
 30
0.0
 10
182.960250095208
 20
328.8450281927001
 30
0.0
 10
183.3404680024998
 20
328.8292903328305
 30
0.0
 10
183.7285593921035
 20
328.8196038021533
 30
0.0
 10
184.1205979290918
 20
328.8162321167608
 30
0.0
 10
184.5126454283755
 20
328.8194453747554
 30
0.0
 10
184.9007977839929
 20
328.8289783178905
 30
0.0
 10
185.2812331964626
 20
328.8445714250888
 30
0.0
 10
185.6502393464168
 20
328.8654829588616
 30
0.0
 10
186.0042666358708
 20
328.8909826961478
 30
0.0
 10
186.3399480978331
 20
328.9199875348783
 30
0.0
 10
186.6541359468644
 20
328.9514305441402
 30
0.0
 10
186.943883620416
 20
328.9840598402117
 30
0.0
 10
187.2064940061351
 20
329.0166458829139
 30
0.0
 10
187.4394894020164
 20
329.0479509355432
 30
0.0
 10
187.6406872252403
 20
329.076764081512
 30
0.0
 10
187.8081363593998
 20
329.1020381029844
 30
0.0
 10
187.9402190959439
 20
329.1227447788276
 30
0.0
 10
188.0355571188663
 20
329.1381804773373
 30
0.0
 10
188.0931882846219
 20
329.1476429576991
 30
0.0
 10
188.1189120039408
 20
329.1519371376868
 30
0.0
 10
188.1253680407
 20
329.1530148739
 30
0.0
 11
180.1253680407
 21
329.1530148676
 31
0.0
 11
180.1446518214813
 21
329.1498001874489
 31
0.0
 11
180.20222900435
 21
329.1403231208417
 31
0.0
 11
180.2975580257812
 21
329.1249099870406
 31
0.0
 11
180.429576025
 21
329.1041905392834
 31
0.0
 11
180.5969841222979
 21
329.0789266081105
 31
0.0
 11
180.7980606594834
 21
329.0501048993001
 31
0.0
 11
181.0309000390417
 21
329.0187981624521
 31
0.0
 11
181.29328368465
 21
328.9861984472167
 31
0.0
 11
181.5828335358437
 21
328.9535308658209
 31
0.0
 11
181.8968465744
 21
328.92203348075
 31
0.0
 11
182.2324935743208
 21
328.8929205599979
 31
0.0
 11
182.5867654362667
 21
328.8672982433334
 31
0.0
 11
182.9564796800042
 21
328.8461941395063
 31
0.0
 11
183.3379401750667
 21
328.8304298614167
 31
0.0
 11
183.7272974552104
 21
328.8206920149354
 31
0.0
 11
184.1206023613167
 21
328.8173331736667
 31
0.0
 11
184.5138959680521
 21
328.8205332201729
 31
0.0
 11
184.9032799781
 21
328.8301153051167
 31
0.0
 11
185.2849078290792
 21
328.8457335914729
 31
0.0
 11
185.6550792703334
 21
328.8667230233667
 31
0.0
 11
186.0101975678062
 21
328.8922820469354
 31
0.0
 11
186.3469337421167
 21
328.9213823352167
 31
0.0
 11
186.6620964692083
 21
328.9529109597395
 31
0.0
 11
186.95277729165
 21
328.9856433591
 31
0.0
 11
187.2162203670208
 21
329.0183298855583
 31
0.0
 11
187.4499974463167
 21
329.0497321789667
 31
0.0
 11
187.6518541128875
 21
329.0786465502354
 31
0.0
 11
187.8199036860834
 21
329.1039967069167
 31
0.0
 11
187.9524478846125
 21
329.1247934672157
 31
0.0
 11
188.0481742886167
 21
329.1402686953084
 31
0.0
 11
188.1059992118021
 21
329.1497859939074
 31
0.0
 11
188.1253680407
 21
329.1530148739
 31
0.0
  0
SPLINE
  5
C7
330
1F
100
AcDbEntity
  8
0
  6
Continuous
 62
     2
100
AcDbSpline
210
0.0
220
0.0
230
1.0
 70
     8
 71
     3
 72
    47
 73
    43
 74
    41
 42
0.0000000001
 43
0.0000000001
 44
0.00000001
 40
0.0
 40
0.0
 40
0.0
 40
0.0
 40
0.0323755901788836
 40
0.1286623730324366
 40
0.2875344689547704
 40
0.5074017850714061
 40
0.7865783511103123
 40
1.123246687728376
 40
1.515532837863344
 40
1.961431353928437
 40
2.458685922438237
 40
3.004096464082419
 40
3.5941548517587
 40
4.224951989667835
 40
4.892200566778524
 40
5.590351469544039
 40
6.313577183177732
 40
7.056034890594798
 40
7.812275851913506
 40
8.578320790745915
 40
9.350662904300634
 40
10.12614572952591
 40
10.90169454228107
 40
11.67418417073042
 40
12.44039319118603
 40
13.19679172580963
 40
13.93940287697413
 40
14.66284077243182
 40
15.36134417568254
 40
16.02918156049655
 40
16.6608595350723
 40
17.2519696872454
 40
17.79845602048148
 40
18.29673698695058
 40
18.7435637911475
 40
19.13665775308506
 40
19.47400343541186
 40
19.7537405437111
 40
19.97406523177269
 40
20.13328162385343
 40
20.22978439413389
 40
20.26223472739213
 40
20.26223472739213
 40
20.26223472739213
 40
20.26223472739213
 10
196.6253680407
 20
341.1530623652
 30
0.0
 10
196.6357638109499
 20
341.1501654142645
 30
0.0
 10
196.6770771727286
 20
341.1386527721828
 30
0.0
 10
196.7694795097737
 20
341.1131955695608
 30
0.0
 10
196.9222344887345
 20
341.0715035974724
 30
0.0
 10
197.1340827039216
 20
341.0147971352561
 30
0.0
 10
197.4035740206863
 20
340.9442482783259
 30
0.0
 10
197.7292942325563
 20
340.8615792168764
 30
0.0
 10
198.109696055261
 20
340.7685019059933
 30
0.0
 10
198.5431657902763
 20
340.6671741446947
 30
0.0
 10
199.0276170552777
 20
340.5598341384313
 30
0.0
 10
199.5604907551374
 20
340.449095194603
 30
0.0
 10
200.1386336637613
 20
340.3376931907404
 30
0.0
 10
200.7584800299095
 20
340.22846233204
 30
0.0
 10
201.4157180658003
 20
340.1243436159453
 30
0.0
 10
202.1052756560592
 20
340.0280348144337
 30
0.0
 10
202.8214945066244
 20
339.9423481280405
 30
0.0
 10
203.5585774252056
 20
339.869287344233
 30
0.0
 10
204.3112847632622
 20
339.8108440962835
 30
0.0
 10
205.0750285666198
 20
339.7681282829199
 30
0.0
 10
205.8459454372229
 20
339.7421725593839
 30
0.0
 10
206.6204178598817
 20
339.7333331679608
 30
0.0
 10
207.3949419335177
 20
339.7419525518072
 30
0.0
 10
208.1659919958683
 20
339.7676928809207
 30
0.0
 10
208.9299037775441
 20
339.8102065024346
 30
0.0
 10
209.6827847589961
 20
339.8684593045097
 30
0.0
 10
210.4200604755627
 20
339.9413434377354
 30
0.0
 10
211.1365386557186
 20
340.0268778787356
 30
0.0
 10
211.8265006406018
 20
340.123071349225
 30
0.0
 10
212.4843620124518
 20
340.22713792348
 30
0.0
 10
213.1050578419521
 20
340.3363918302297
 30
0.0
 10
213.6842053410397
 20
340.4478808632743
 30
0.0
 10
214.218124311544
 20
340.5587575610045
 30
0.0
 10
214.7035741079514
 20
340.6662609686713
 30
0.0
 10
215.1379495131652
 20
340.7677600370101
 30
0.0
 10
215.5191389637241
 20
340.8610033681082
 30
0.0
 10
215.8455241306439
 20
340.943824470706
 30
0.0
 10
216.1155643493109
 20
341.0145079399341
 30
0.0
 10
216.3278523347689
 20
341.071327569013
 30
0.0
 10
216.480935010888
 20
341.1131072216218
 30
0.0
 10
216.573541563353
 20
341.1386201318069
 30
0.0
 10
216.6149482721072
 20
341.1501588110648
 30
0.0
 10
216.6253680407
 20
341.1530624557
 30
0.0
 11
196.6253680407
 21
341.1530623652
 31
0.0
 11
196.6565574849625
 21
341.1443791972281
 31
0.0
 11
196.749374696
 21
341.118764555175
 31
0.0
 11
196.9026486219333
 21
341.076962085251
 31
0.0
 11
197.1150307338667
 21
341.0200808473334
 31
0.0
 11
197.385113687
 21
340.9494072776479
 31
0.0
 11
197.7114323499333
 21
340.86657190415
 31
0.0
 11
198.0924844917958
 21
340.7733641321042
 31
0.0
 11
198.5266772704334
 21
340.6718647842833
 31
0.0
 11
199.0121634568333
 21
340.5643228449354
 31
0.0
 11
199.5461688858333
 21
340.4533685267
 31
0.0
 11
200.1255741808146
 21
340.3417513012603
 31
0.0
 11
200.7468060554833
 21
340.2323164480833
 31
0.0
 11
201.405838361052
 21
340.1279273496437
 31
0.0
 11
202.0972874084333
 21
340.0314239926666
 31
0.0
 11
202.8153916557188
 21
339.9455070392083
 31
0.0
 11
203.5542356900166
 21
339.8723432483999
 31
0.0
 11
204.3082070966396
 21
339.8137983120583
 31
0.0
 11
205.0730593247
 21
339.7710675556666
 31
0.0
 11
205.8449635857375
 21
339.7450646296333
 31
0.0
 11
206.6203962772
 21
339.7362468504
 31
0.0
 11
207.3958974363541
 21
339.7448441241833
 31
0.0
 11
208.1679564738333
 21
339.7706330502667
 31
0.0
 11
208.9329843141396
 21
339.8131614711625
 31
0.0
 11
209.6871285638833
 21
339.8715155092333
 31
0.0
 11
210.4261444653771
 21
339.9445005705354
 31
0.0
 11
211.1444811216334
 21
340.03026091605
 31
0.0
 11
211.836302726298
 21
340.1266448964209
 31
0.0
 11
212.49593997485
 21
340.2309783660166
 31
0.0
 11
213.1180612136063
 21
340.3404417290771
 31
0.0
 11
213.6985188904
 21
340.4521560856
 31
0.0
 11
214.2335935623875
 21
340.5632524753312
 31
0.0
 11
214.7200941225
 21
340.67096100125
 31
0.0
 11
215.1551997963542
 21
340.7726332468667
 31
0.0
 11
215.5370428045333
 21
340.8660076545834
 31
0.0
 11
215.8640219606229
 21
340.9489940442354
 31
0.0
 11
216.13464945525
 21
341.0198008865
 31
0.0
 11
216.3474745052615
 21
341.0767962043521
 31
0.0
 11
216.5010810553417
 21
341.1186875791167
 31
0.0
 11
216.5941065919365
 21
341.1443592407896
 31
0.0
 11
216.6253680407
 21
341.1530624557
 31
0.0
  0
SPLINE
  5
C8
330
1F
100
AcDbEntity
  8
0
  6
Continuous
 62
     7
100
AcDbSpline
210
0.0
220
0.0
230
1.0
 70
     8
 71
     3
 72
    15
 73
    11
 74
     9
 42
0.0000000001
 43
0.0000000001
 44
0.00000001
 40
0.0
 40
0.0
 40
0.0
 40
0.0
 40
0.1991720573594497
 40
0.3990536357192357
 40
0.5986807642896989
 40
0.7980988307833115
 40
0.9975253742461494
 40
1.197147976138819
 40
1.397095164895281
 40
1.59619254239453
 40
1.59619254239453
 40
1.59619254239453
 40
1.59619254239453
 10
177.7253680407
 20
334.8299643187
 30
0.0
 10
177.7217429425331
 20
334.896443110354
 30
0.0
 10
177.7144798323231
 20
335.0296375145261
 30
0.0
 10
177.6571876528009
 20
335.2226406669961
 30
0.0
 10
177.5668807043731
 20
335.4017833702833
 30
0.0
 10
177.4435223690734
 20
335.5602297508906
 30
0.0
 10
177.2916706362731
 20
335.6917204554273
 30
0.0
 10
177.1165942862773
 20
335.7899462914773
 30
0.0
 10
176.9250547032373
 20
335.8530937975346
 30
0.0
 10
176.7918356931492
 20
335.8612573347084
 30
0.0
 10
176.7253680407
 20
335.8653304107
 30
0.0
 11
177.7253680407
 21
334.8299643187
 31
0.0
 11
177.7067888953472
 21
335.0282679338732
 31
0.0
 11
177.6516546672678
 21
335.2203951372091
 31
0.0
 11
177.5613225098047
 21
335.3984150568511
 31
0.0
 11
177.4387768525039
 21
335.5557367880925
 31
0.0
 11
177.2878784827414
 21
335.6861232453668
 31
0.0
 11
177.1139305681271
 21
335.7840584596042
 31
0.0
 11
176.9233900605507
 21
335.8446653343309
 31
0.0
 11
176.7253680407
 21
335.8653304107
 31
0.0
  0
SPLINE
  5
C9
330
1F
100
AcDbEntity
  8
0
  6
Continuous
 62
     7
100
AcDbSpline
210
0.0
220
0.0
230
1.0
 70
     8
 71
     3
 72
    15
 73
    11
 74
     9
 42
0.0000000001
 43
0.0000000001
 44
0.00000001
 40
0.0
 40
0.0
 40
0.0
 40
0.0
 40
0.1991000959061665
 40
0.3990500500806902
 40
0.5986741601994114
 40
0.7981021741947061
 40
0.9975186421998249
 40
1.197144165113958
 40
1.397023090626005
 40
1.596192517386478
 40
1.596192517386478
 40
1.596192517386478
 40
1.596192517386478
 10
176.7253680407
 20
274.4406967122
 30
0.0
 10
176.7918366029241
 20
274.4447699155923
 30
0.0
 10
176.9250574482662
 20
274.4529337088354
 30
0.0
 10
177.116599025632
 20
274.5160828689927
 30
0.0
 10
177.2916764652654
 20
274.6143107044888
 30
0.0
 10
177.4435276045634
 20
274.7458028436323
 30
0.0
 10
177.5668843784732
 20
274.9042496728064
 30
0.0
 10
177.6571893665368
 20
275.0833911515699
 30
0.0
 10
177.7144801272748
 20
275.2763922558996
 30
0.0
 10
177.7217430406557
 20
275.4095848925102
 30
0.0
 10
177.7253680407
 20
275.4760628041
 30
0.0
 11
176.7253680407
 21
274.4406967122
 31
0.0
 11
176.9233927297444
 21
274.4613624016083
 31
0.0
 11
177.1139356047603
 21
274.5219709567394
 31
0.0
 11
177.2878842338951
 21
274.619907976108
 31
0.0
 11
177.4387827517762
 21
274.7502965111385
 31
0.0
 11
177.5613262511866
 21
274.9076178970461
 31
0.0
 11
177.651656622041
 21
275.0856369227148
 31
0.0
 11
177.706789392254
 21
275.2777617844909
 31
0.0
 11
177.7253680407
 21
275.4760628041
 31
0.0
  0
SPLINE
  5
CA
330
1F
100
AcDbEntity
  8
0
  6
Continuous
 62
     7
100
AcDbSpline
210
0.0
220
0.0
230
1.0
 70
     8
 71
     3
 72
    15
 73
    11
 74
     9
 42
0.0000000001
 43
0.0000000001
 44
0.00000001
 40
0.0
 40
0.0
 40
0.0
 40
0.0
 40
0.1991002754502924
 40
0.3990504136623084
 40
0.5986744171471424
 40
0.798102320322571
 40
0.9975187550527183
 40
1.197144245782767
 40
1.397023128137004
 40
1.596192512823455
 40
1.596192512823455
 40
1.596192512823455
 40
1.596192512823455
 10
162.8253680407
 20
335.8653304107
 30
0.0
 10
162.7588994184059
 20
335.8612571966772
 30
0.0
 10
162.6256784514231
 20
335.8530933820514
 30
0.0
 10
162.4341368125315
 20
335.7899441205335
 30
0.0
 10
162.2590594112901
 20
335.6917162469997
 30
0.0
 10
162.1072083528532
 20
335.5602241445164
 30
0.0
 10
161.9838516296777
 20
335.4017773508577
 30
0.0
 10
161.8935466734225
 20
335.2226358964084
 30
0.0
 10
161.8362559451326
 20
335.0296348243109
 30
0.0
 10
161.828993037756
 20
334.8964422162139
 30
0.0
 10
161.8253680407
 20
334.8299643187
 30
0.0
 11
162.8253680407
 21
335.8653304107
 31
0.0
 11
162.6273431761748
 21
335.8446646730124
 31
0.0
 11
162.4368001462997
 21
335.7840559975855
 31
0.0
 11
162.2628516375364
 21
335.6861189817727
 31
0.0
 11
162.1119532212813
 21
335.5557304986283
 31
0.0
 11
161.9894097564182
 21
335.3984091279891
 31
0.0
 11
161.8990794164858
 21
335.2203901227202
 31
0.0
 11
161.8439466761588
 21
335.0282652972676
 31
0.0
 11
161.8253680407
 21
334.8299643187
 31
0.0
  0
SPLINE
  5
CB
330
1F
100
AcDbEntity
  8
0
  6
Continuous
 62
     7
100
AcDbSpline
210
0.0
220
0.0
230
1.0
 70
     8
 71
     3
 72
    15
 73
    11
 74
     9
 42
0.0000000001
 43
0.0000000001
 44
0.00000001
 40
0.0
 40
0.0
 40
0.0
 40
0.0
 40
0.1991719800662607
 40
0.399053479624326
 40
0.5986806085075618
 40
0.7980986750410582
 40
0.9975251470174333
 40
1.197147680699566
 40
1.397095016830852
 40
1.596192537772122
 40
1.596192537772122
 40
1.596192537772122
 40
1.596192537772122
 10
161.8253680407
 20
275.4760628041
 30
0.0
 10
161.8289931344411
 20
275.4095840382994
 30
0.0
 10
161.8362562357613
 20
275.2763896863378
 30
0.0
 10
161.8935483686339
 20
275.0833865760217
 30
0.0
 10
161.9838552821436
 20
274.9042438835419
 30
0.0
 10
162.1072135860312
 20
274.7457975084445
 30
0.0
 10
162.2590652674147
 20
274.6143068170744
 30
0.0
 10
162.4341415960404
 20
274.5160809435881
 30
0.0
 10
162.6256812328696
 20
274.4529333521004
 30
0.0
 10
162.7589003402576
 20
274.444769797068
 30
0.0
 10
162.8253680407
 20
274.4406967122
 30
0.0
 11
161.8253680407
 21
275.4760628041
 31
0.0
 11
161.8439471660457
 21
275.2777592646841
 31
0.0
 11
161.8990813447681
 21
275.0856321291665
 31
0.0
 11
161.9894134778125
 21
274.907612196783
 31
0.0
 11
162.1119591183244
 21
274.7502904524134
 31
0.0
 11
162.2628574174433
 21
274.6199040227208
 31
0.0
 11
162.4368052497874
 21
274.5219688013935
 31
0.0
 11
162.6273458807983
 21
274.4613618285276
 31
0.0
 11
162.8253680407
 21
274.4406967122
 31
0.0
  0
SPLINE
  5
CC
330
1F
100
AcDbEntity
  8
0
  6
Continuous
 62
     7
100
AcDbSpline
210
0.0
220
0.0
230
1.0
 70
     8
 71
     3
 72
    15
 73
    11
 74
     9
 42
0.0000000001
 43
0.0000000001
 44
0.00000001
 40
0.0
 40
0.0
 40
0.0
 40
0.0
 40
0.1498887298089261
 40
0.3004335479932878
 40
0.450720737381604
 40
0.6008657480987277
 40
0.7509990952810692
 40
0.9012888186867911
 40
1.051768450198397
 40
1.201718090863114
 40
1.201718090863114
 40
1.201718090863114
 40
1.201718090863114
 10
168.6378680407
 20
331.9558119228
 30
0.0
 10
168.5878271454862
 20
331.9589276853787
 30
0.0
 10
168.4875263175787
 20
331.9651728487568
 30
0.0
 10
168.343482456602
 20
332.0133167923206
 30
0.0
 10
168.2120891686714
 20
332.0880279366571
 30
0.0
 10
168.0983927498179
 20
332.187742361108
 30
0.0
 10
168.0061878757849
 20
332.3075326535156
 30
0.0
 10
167.938780728529
 20
332.4426771224323
 30
0.0
 10
167.8960001965405
 20
332.5880584965574
 30
0.0
 10
167.8905755694304
 20
332.6883325033078
 30
0.0
 10
167.8878680407
 20
332.7383810594
 30
0.0
 11
168.6378680407
 21
331.9558119228
 31
0.0
 11
168.488812327069
 21
331.9715924664437
 31
0.0
 11
168.345527115151
 21
332.0177778572917
 31
0.0
 11
168.2149805541818
 21
332.0922347892279
 31
0.0
 11
168.1019709186815
 21
332.1910899687954
 31
0.0
 11
168.0103574692619
 21
332.3100311215628
 31
0.0
 11
167.9429077538061
 21
332.4443350189235
 31
0.0
 11
167.9017430213775
 21
332.5890747311796
 31
0.0
 11
167.8878680407
 21
332.7383810594
 31
0.0
  0
SPLINE
  5
CD
330
1F
100
AcDbEntity
  8
0
  6
Continuous
 62
     7
100
AcDbSpline
210
0.0
220
0.0
230
1.0
 70
     8
 71
     3
 72
    15
 73
    11
 74
     9
 42
0.0000000001
 43
0.0000000001
 44
0.00000001
 40
0.0
 40
0.0
 40
0.0
 40
0.0
 40
0.1499521789460308
 40
0.3004343667432677
 40
0.4507255054275037
 40
0.6008602661888033
 40
0.7510040236358086
 40
0.9012899196277759
 40
1.051832040716985
 40
1.201718121815968
 40
1.201718121815968
 40
1.201718121815968
 40
1.201718121815968
 10
167.8878680407
 20
277.5676460634
 30
0.0
 10
167.8905756611266
 20
277.6176954686161
 30
0.0
 10
167.896000472116
 20
277.7179711796306
 30
0.0
 10
167.9387823361587
 20
277.8633544939404
 30
0.0
 10
168.0061913197966
 20
277.9985000771936
 30
0.0
 10
168.0983976555288
 20
278.1182899367974
 30
0.0
 10
168.2120946777864
 20
278.218003059118
 30
0.0
 10
168.343487009516
 20
278.2927123296255
 30
0.0
 10
168.4875289931254
 20
278.3408546573724
 30
0.0
 10
168.5878280319474
 20
278.3470995648237
 30
0.0
 10
168.6378680407
 20
278.3502152001
 30
0.0
 11
167.8878680407
 21
277.5676460634
 31
0.0
 11
167.9017434893636
 21
277.7169548973484
 31
0.0
 11
167.942909608295
 21
277.8616968729339
 31
0.0
 11
168.0103609710728
 21
277.9960015267118
 31
0.0
 11
168.1019763939931
 21
278.1149429436867
 31
0.0
 11
168.214985996084
 21
278.2137962579233
 31
0.0
 11
168.3455320139013
 21
278.2882515315185
 31
0.0
 11
168.4888149260875
 21
278.3344352656408
 31
0.0
 11
168.6378680407
 21
278.3502152001
 31
0.0
  0
SPLINE
  5
CE
330
1F
100
AcDbEntity
  8
0
  6
Continuous
 62
     7
100
AcDbSpline
210
0.0
220
0.0
230
1.0
 70
     8
 71
     3
 72
    15
 73
    11
 74
     9
 42
0.0000000001
 43
0.0000000001
 44
0.00000001
 40
0.0
 40
0.0
 40
0.0
 40
0.0
 40
0.1498890554581853
 40
0.3004342038473752
 40
0.4507212547821249
 40
0.600866122841877
 40
0.7509994133126107
 40
0.9012890816538921
 40
1.051768580306928
 40
1.201718088811397
 40
1.201718088811397
 40
1.201718088811397
 40
1.201718088811397
 10
170.9628680407
 20
278.3502152001
 30
0.0
 10
171.0129090448714
 20
278.347099422075
 30
0.0
 10
171.113210092216
 20
278.3408542276715
 30
0.0
 10
171.2572540894716
 20
278.2927101191976
 30
0.0
 10
171.3886473335819
 20
278.2179988720978
 30
0.0
 10
171.5023436115563
 20
278.1182844608297
 30
0.0
 10
171.5945483780153
 20
277.9984941940442
 30
0.0
 10
171.6619554361774
 20
277.8633497728352
 30
0.0
 10
171.7047358996883
 20
277.7179684933856
 30
0.0
 10
171.7101605169052
 20
277.6176945752842
 30
0.0
 10
171.7128680407
 20
277.5676460634
 30
0.0
 11
170.9628680407
 21
278.3502152001
 31
0.0
 11
171.111924073954
 21
278.334434582345
 31
0.0
 11
171.2552095678575
 21
278.2882489899991
 31
0.0
 11
171.3857559523443
 21
278.2137920280943
 31
0.0
 11
171.498765425452
 21
278.1149368795557
 31
0.0
 11
171.5903787863103
 21
277.9959957301589
 31
0.0
 11
171.6578284253948
 21
277.8616918560618
 31
0.0
 11
171.6989930849487
 21
277.7169522612072
 31
0.0
 11
171.7128680407
 21
277.5676460634
 31
0.0
  0
SPLINE
  5
CF
330
1F
100
AcDbEntity
  8
0
  6
Continuous
 62
     7
100
AcDbSpline
210
0.0
220
0.0
230
1.0
 70
     8
 71
     3
 72
    15
 73
    11
 74
     9
 42
0.0000000001
 43
0.0000000001
 44
0.00000001
 40
0.0
 40
0.0
 40
0.0
 40
0.0
 40
0.1499520084746427
 40
0.3004340248028747
 40
0.4507251465004111
 40
0.6008598893869141
 40
0.7510035493159888
 40
0.9012893510273947
 40
1.05183175727331
 40
1.201718119592594
 40
1.201718119592594
 40
1.201718119592594
 40
1.201718119592594
 10
171.7128680407
 20
332.7383810594
 30
0.0
 10
171.7101604267074
 20
332.688331711203
 30
0.0
 10
171.7047356286157
 20
332.5880561145598
 30
0.0
 10
171.6619538478311
 20
332.4426729049312
 30
0.0
 10
171.5945449558355
 20
332.3075273531064
 30
0.0
 10
171.502338704784
 20
332.1877374846335
 30
0.0
 10
171.388641788648
 20
332.0880243492298
 30
0.0
 10
171.2572494812716
 20
332.0133149783696
 30
0.0
 10
171.1132073718732
 20
331.9651725055694
 30
0.0
 10
171.0129081435471
 20
331.9589275713854
 30
0.0
 10
170.9628680407
 20
331.9558119228
 30
0.0
 11
171.7128680407
 21
332.7383810594
 31
0.0
 11
171.6989926243635
 21
332.5890723936533
 31
0.0
 11
171.6578265991033
 21
332.444330569696
 31
0.0
 11
171.5903753043764
 21
332.3100259007497
 31
0.0
 11
171.4987599487674
 21
332.1910844544905
 31
0.0
 11
171.3857504728002
 21
332.0922311441842
 31
0.0
 11
171.2552045870079
 21
332.0177758294059
 31
0.0
 11
171.1119214313377
 21
331.9715919211746
 31
0.0
 11
170.9628680407
 21
331.9558119228
 31
0.0
  0
SPLINE
  5
D0
330
1F
100
AcDbEntity
  8
BEZUGSACHSEN
  6
Continuous
 62
     7
100
AcDbSpline
210
0.0
220
0.0
230
1.0
 70
     8
 71
     3
 72
    23
 73
    19
 74
    17
 42
0.0000000001
 43
0.0000000001
 44
0.00000001
 40
0.0
 40
0.0
 40
0.0
 40
0.0
 40
0.3437058049399572
 40
0.6874225023268041
 40
1.653089374244057
 40
2.618811262751045
 40
4.047377129590601
 40
5.476029681353968
 40
7.156439717185903
 40
8.836888087643894
 40
10.51734080908373
 40
12.19775520340852
 40
13.62642164205276
 40
15.05500138968691
 40
16.02074345186748
 40
16.98643049734191
 40
17.330155114875
 40
17.67386883832656
 40
17.67386883832656
 40
17.67386883832656
 40
17.67386883832656
 10
215.3753680407
 20
341.1530135614
 30
0.0
 10
215.2639760183806
 20
341.1262188260878
 30
0.0
 10
215.0411884435958
 20
341.0726285063063
 30
0.0
 10
214.5041095772753
 20
340.9493901849515
 30
0.0
 10
213.762330695394
 20
340.7912500525783
 30
0.0
 10
212.6614166986271
 20
340.5848833403993
 30
0.0
 10
211.4018650154296
 20
340.3893441710992
 30
0.0
 10
209.8990001505461
 20
340.2152368300465
 30
0.0
 10
208.3060038658748
 20
340.1005809953906
 30
0.0
 10
206.625412944949
 20
340.0598987688558
 30
0.0
 10
204.944820466439
 20
340.1005768561034
 30
0.0
 10
203.3518163891799
 20
340.2152293746921
 30
0.0
 10
201.8489404800175
 20
340.3893345224878
 30
0.0
 10
200.5893726359161
 20
340.5848738500071
 30
0.0
 10
199.4884406271645
 20
340.7912426263105
 30
0.0
 10
198.7466459208978
 20
340.9493857219426
 30
0.0
 10
198.2095553322974
 20
341.0726266330187
 30
0.0
 10
197.9867626276739
 20
341.1262182017011
 30
0.0
 10
197.8753680407
 20
341.1530135614
 30
0.0
 11
215.3753680407
 21
341.1530135614
 31
0.0
 11
215.0410540052895
 21
341.0732150270967
 31
0.0
 11
214.7060739392261
 21
340.9962116284528
 31
0.0
 11
213.7615684630373
 21
340.7951596128751
 31
0.0
 11
212.8123641439991
 21
340.6173115691391
 31
0.0
 11
211.4006589471682
 21
340.3984763042943
 31
0.0
 11
209.9814629398558
 21
340.2343702212615
 31
0.0
 11
208.3053756936044
 21
340.1139151197581
 31
0.0
 11
206.6254143779723
 21
340.0734589242568
 31
0.0
 11
204.9454486117101
 21
340.113911033989
 31
0.0
 11
203.2693567252476
 21
340.2343623718332
 31
0.0
 11
201.8501465535626
 21
340.3984668553011
 31
0.0
 11
200.4384272473384
 21
340.6173017149198
 31
0.0
 11
199.4892028923007
 21
340.7951523670639
 31
0.0
 11
198.5446775743634
 21
340.9962080647514
 31
0.0
 11
198.2096897763852
 21
341.0732131808408
 31
0.0
 11
197.8753680407
 21
341.1530135614
 31
0.0
  0
DIMENSION
  5
DB
330
1F
100
AcDbEntity
  8
1
100
AcDbDimension
  2
*D2
 10
241.144055249059
 20
321.1530135614
 30
0.0
 11
237.394055249059
 21
304.698806041776
 31
0.0
 70
    32
  1
<>
 71
     5
 42
-1.0
 53
90.0
  3
ME10_DIM_10
100
AcDbAlignedDimension
 13
228.6253680407
 23
289.1530135614
 33
0.0
 14
228.6253680407
 24
321.1530135614
 34
0.0
 50
90.0
100
AcDbRotatedDimension
  0
DIMENSION
  5
E6
330
1F
100
AcDbEntity
  8
1
100
AcDbDimension
  2
*D3
 10
249.836857142675
 20
341.1530135614
 30
0.0
 11
246.086857142675
 21
304.515799686121
 31
0.0
 70
    32
  1
<>
 71
     5
 42
-1.0
 53
90.0
  3
ME10_DIM_11
100
AcDbAlignedDimension
 13
218.3574188483
 23
269.1530135614
 33
0.0
 14
218.3574188483
 24
341.1530135614
 34
0.0
 50
90.0
100
AcDbRotatedDimension
  0
DIMENSION
  5
F1
330
1F
100
AcDbEntity
  8
1
100
AcDbDimension
  2
*D4
 10
228.6253680407
 20
348.782972981587
 30
0.0
 11
203.708758093312
 21
352.532972981587
 31
0.0
 70
    32
  1
<>
 71
     5
 42
-1.0
 53
0.00013888888889
  3
ME10_DIM_12
100
AcDbAlignedDimension
 13
177.7253680407
 23
334.8299643187
 33
0.0
 14
228.6253680407
 24
334.8021606003
 34
0.0
100
AcDbRotatedDimension
  0
DIMENSION
  5
FC
330
1F
100
AcDbEntity
  8
1
100
AcDbDimension
  2
*D5
 10
228.6253680407
 20
356.270029344741
 30
0.0
 11
195.941811772656
 21
360.020029344741
 31
0.0
 70
    32
  1
<>
 71
     5
 42
-1.0
 53
0.00013888888889
  3
ME10_DIM_13
100
AcDbAlignedDimension
 13
158.6253680407
 23
331.9558119228
 33
0.0
 14
228.6253680407
 24
334.8021606003
 34
0.0
100
AcDbRotatedDimension
  0
DIMENSION
  5
107
330
1F
100
AcDbEntity
  8
1
100
AcDbDimension
  2
*D6
 10
228.6253680407
 20
363.850636998024
 30
0.0
 11
166.460433037475
 21
367.600636998024
 31
0.0
 70
    32
  1
<>
 71
     5
 42
-1.0
 53
0.00013888888889
  3
ME10_DIM_14
100
AcDbAlignedDimension
 13
90.22536804069999
 23
316.6025617623
 33
0.0
 14
228.6253680407
 24
334.8021606003
 34
0.0
100
AcDbRotatedDimension
  0
INSERT
  5
10E
330
1F
100
AcDbEntity
  8
1
100
AcDbBlockReference
  2
*D7
 10
0.0
 20
0.0
 30
0.0
  0
ENDSEC
  0
SECTION
  2
OBJECTS
  0
DICTIONARY
  5
C
330
0
100
AcDbDictionary
281
     1
  3
ACAD_GROUP
350
D
  3
ACAD_LAYOUT
350
1A
  3
ACAD_MLEADERSTYLE
350
111
  3
ACAD_MLINESTYLE
350
17
  3
ACAD_PLOTSETTINGS
350
19
  3
ACAD_PLOTSTYLENAME
350
E
  3
ACAD_SCALELIST
350
4A
  3
ACAD_VISUALSTYLE
350
2A
  3
AcDbVariableDictionary
350
10F
  0
DICTIONARY
  5
D
102
{ACAD_REACTORS
330
C
102
}
330
C
100
AcDbDictionary
281
     1
  0
DICTIONARY
  5
1A
102
{ACAD_REACTORS
330
C
102
}
330
C
100
AcDbDictionary
281
     1
  3
Layout1
350
1E
  3
Layout2
350
26
  3
Model
350
22
  0
DICTIONARY
  5
111
102
{ACAD_REACTORS
330
C
102
}
330
C
100
AcDbDictionary
281
     1
  0
DICTIONARY
  5
17
102
{ACAD_REACTORS
330
C
102
}
330
C
100
AcDbDictionary
281
     1
  3
Standard
350
18
  0
DICTIONARY
  5
19
102
{ACAD_REACTORS
330
C
102
}
330
C
100
AcDbDictionary
281
     1
  0
ACDBDICTIONARYWDFLT
  5
E
102
{ACAD_REACTORS
330
C
102
}
330
C
100
AcDbDictionary
281
     1
  3
Normal
350
F
100
AcDbDictionaryWithDefault
340
F
  0
DICTIONARY
  5
4A
102
{ACAD_REACTORS
330
C
102
}
330
C
100
AcDbDictionary
281
     1
  3
A0
350
4B
  3
A1
350
4C
  3
A2
350
4D
  3
A3
350
4E
  3
A4
350
4F
  3
A5
350
50
  3
A6
350
51
  3
A7
350
52
  3
A8
350
53
  3
A9
350
54
  3
B0
350
55
  3
B1
350
56
  3
B2
350
57
  3
B3
350
58
  3
B4
350
59
  3
B5
350
5A
  3
B6
350
5B
  3
B7
350
5C
  3
B8
350
5D
  3
B9
350
5E
  3
C0
350
5F
  3
C1
350
60
  3
C2
350
61
  3
C3
350
62
  3
C4
350
63
  3
C5
350
64
  3
C6
350
65
  3
C7
350
66
  3
C8
350
67
  3
C9
350
68
  3
D0
350
69
  3
D1
350
6A
  3
D2
350
6B
  0
DICTIONARY
  5
2A
102
{ACAD_REACTORS
330
C
102
}
330
C
100
AcDbDictionary
281
     1
  3
2dWireframe
350
2F
  3
3D Hidden
350
31
  3
3dWireframe
350
30
  3
Basic
350
32
  3
Brighten
350
36
  3
ColorChange
350
3A
  3
Conceptual
350
34
  3
Dim
350
35
  3
Facepattern
350
39
  3
Flat
350
2B
  3
FlatWithEdges
350
2C
  3
Gouraud
350
2D
  3
GouraudWithEdges
350
2E
  3
Linepattern
350
38
  3
Realistic
350
33
  3
Thicken
350
37
  0
DICTIONARY
  5
10F
102
{ACAD_REACTORS
330
C
102
}
330
C
100
AcDbDictionary
281
     1
  3
CANNOSCALE
350
112
  0
LAYOUT
  5
1E
102
{ACAD_REACTORS
330
1A
102
}
330
1A
100
AcDbPlotSettings
  1

  2
none_device
  4

  6

 40
0.0
 41
0.0
 42
0.0
 43
0.0
 44
0.0
 45
0.0
 46
0.0
 47
0.0
 48
0.0
 49
0.0
140
0.0
141
0.0
142
1.0
143
1.0
 70
   688
 72
     0
 73
     0
 74
     5
  7

 75
    16
147
1.0
148
0.0
149
0.0
100
AcDbLayout
  1
Layout1
 70
     1
 71
     1
 10
0.0
 20
0.0
 11
12.0
 21
9.0
 12
0.0
 22
0.0
 32
0.0
 14
1.00000000000000E+20
 24
1.00000000000000E+20
 34
1.00000000000000E+20
 15
-1.00000000000000E+20
 25
-1.00000000000000E+20
 35
-1.00000000000000E+20
146
0.0
 13
0.0
 23
0.0
 33
0.0
 16
1.0
 26
0.0
 36
0.0
 17
0.0
 27
1.0
 37
0.0
 76
     0
330
1B
  0
LAYOUT
  5
26
102
{ACAD_REACTORS
330
1A
102
}
330
1A
100
AcDbPlotSettings
  1

  2
none_device
  4

  6

 40
0.0
 41
0.0
 42
0.0
 43
0.0
 44
0.0
 45
0.0
 46
0.0
 47
0.0
 48
0.0
 49
0.0
140
0.0
141
0.0
142
1.0
143
1.0
 70
   688
 72
     0
 73
     0
 74
     5
  7

 75
    16
147
1.0
148
0.0
149
0.0
100
AcDbLayout
  1
Layout2
 70
     1
 71
     2
 10
0.0
 20
0.0
 11
0.0
 21
0.0
 12
0.0
 22
0.0
 32
0.0
 14
0.0
 24
0.0
 34
0.0
 15
0.0
 25
0.0
 35
0.0
146
0.0
 13
0.0
 23
0.0
 33
0.0
 16
1.0
 26
0.0
 36
0.0
 17
0.0
 27
1.0
 37
0.0
 76
     0
330
23
  0
LAYOUT
  5
22
102
{ACAD_REACTORS
330
1A
102
}
330
1A
100
AcDbPlotSettings
  1

  2
none_device
  4

  6

 40
0.0
 41
0.0
 42
0.0
 43
0.0
 44
0.0
 45
0.0
 46
0.0
 47
0.0
 48
0.0
 49
0.0
140
0.0
141
0.0
142
1.0
143
1.0
 70
  1712
 72
     0
 73
     0
 74
     0
  7

 75
     0
147
1.0
148
0.0
149
0.0
100
AcDbLayout
  1
Model
 70
     1
 71
     0
 10
0.0
 20
0.0
 11
12.0
 21
9.0
 12
0.0
 22
0.0
 32
0.0
 14
87.10036804069998
 24
250.8348634949247
 34
0.0
 15
251.836857142675
 25
369.350636998024
 35
0.0
146
0.0
 13
0.0
 23
0.0
 33
0.0
 16
1.0
 26
0.0
 36
0.0
 17
0.0
 27
1.0
 37
0.0
 76
     0
330
1F
331
29
  0
MLINESTYLE
  5
18
102
{ACAD_REACTORS
330
17
102
}
330
17
100
AcDbMlineStyle
  2
Standard
 70
     0
  3

 62
   256
 51
90.0
 52
90.0
 71
     2
 49
0.5
 62
   256
  6
BYLAYER
 49
-0.5
 62
   256
  6
BYLAYER
  0
ACDBPLACEHOLDER
  5
F
102
{ACAD_REACTORS
330
E
102
}
330
E
  0
SCALE
  5
4B
102
{ACAD_REACTORS
330
4A
102
}
330
4A
100
AcDbScale
 70
     0
300
1:1
140
1.0
141
1.0
290
     1
  0
SCALE
  5
4C
102
{ACAD_REACTORS
330
4A
102
}
330
4A
100
AcDbScale
 70
     0
300
1:2
140
1.0
141
2.0
290
     0
  0
SCALE
  5
4D
102
{ACAD_REACTORS
330
4A
102
}
330
4A
100
AcDbScale
 70
     0
300
1:4
140
1.0
141
4.0
290
     0
  0
SCALE
  5
4E
102
{ACAD_REACTORS
330
4A
102
}
330
4A
100
AcDbScale
 70
     0
300
1:5
140
1.0
141
5.0
290
     0
  0
SCALE
  5
4F
102
{ACAD_REACTORS
330
4A
102
}
330
4A
100
AcDbScale
 70
     0
300
1:8
140
1.0
141
8.0
290
     0
  0
SCALE
  5
50
102
{ACAD_REACTORS
330
4A
102
}
330
4A
100
AcDbScale
 70
     0
300
1:10
140
1.0
141
10.0
290
     0
  0
SCALE
  5
51
102
{ACAD_REACTORS
330
4A
102
}
330
4A
100
AcDbScale
 70
     0
300
1:16
140
1.0
141
16.0
290
     0
  0
SCALE
  5
52
102
{ACAD_REACTORS
330
4A
102
}
330
4A
100
AcDbScale
 70
     0
300
1:20
140
1.0
141
20.0
290
     0
  0
SCALE
  5
53
102
{ACAD_REACTORS
330
4A
102
}
330
4A
100
AcDbScale
 70
     0
300
1:30
140
1.0
141
30.0
290
     0
  0
SCALE
  5
54
102
{ACAD_REACTORS
330
4A
102
}
330
4A
100
AcDbScale
 70
     0
300
1:40
140
1.0
141
40.0
290
     0
  0
SCALE
  5
55
102
{ACAD_REACTORS
330
4A
102
}
330
4A
100
AcDbScale
 70
     0
300
1:50
140
1.0
141
50.0
290
     0
  0
SCALE
  5
56
102
{ACAD_REACTORS
330
4A
102
}
330
4A
100
AcDbScale
 70
     0
300
1:100
140
1.0
141
100.0
290
     0
  0
SCALE
  5
57
102
{ACAD_REACTORS
330
4A
102
}
330
4A
100
AcDbScale
 70
     0
300
2:1
140
2.0
141
1.0
290
     0
  0
SCALE
  5
58
102
{ACAD_REACTORS
330
4A
102
}
330
4A
100
AcDbScale
 70
     0
300
4:1
140
4.0
141
1.0
290
     0
  0
SCALE
  5
59
102
{ACAD_REACTORS
330
4A
102
}
330
4A
100
AcDbScale
 70
     0
300
8:1
140
8.0
141
1.0
290
     0
  0
SCALE
  5
5A
102
{ACAD_REACTORS
330
4A
102
}
330
4A
100
AcDbScale
 70
     0
300
10:1
140
10.0
141
1.0
290
     0
  0
SCALE
  5
5B
102
{ACAD_REACTORS
330
4A
102
}
330
4A
100
AcDbScale
 70
     0
300
100:1
140
100.0
141
1.0
290
     0
  0
SCALE
  5
5C
102
{ACAD_REACTORS
330
4A
102
}
330
4A
100
AcDbScale
 70
     0
300
1/128" = 1'-0"
140
0.0078125
141
12.0
290
     0
  0
SCALE
  5
5D
102
{ACAD_REACTORS
330
4A
102
}
330
4A
100
AcDbScale
 70
     0
300
1/64" = 1'-0"
140
0.015625
141
12.0
290
     0
  0
SCALE
  5
5E
102
{ACAD_REACTORS
330
4A
102
}
330
4A
100
AcDbScale
 70
     0
300
1/32" = 1'-0"
140
0.03125
141
12.0
290
     0
  0
SCALE
  5
5F
102
{ACAD_REACTORS
330
4A
102
}
330
4A
100
AcDbScale
 70
     0
300
1/16" = 1'-0"
140
0.0625
141
12.0
290
     0
  0
SCALE
  5
60
102
{ACAD_REACTORS
330
4A
102
}
330
4A
100
AcDbScale
 70
     0
300
3/32" = 1'-0"
140
0.09375
141
12.0
290
     0
  0
SCALE
  5
61
102
{ACAD_REACTORS
330
4A
102
}
330
4A
100
AcDbScale
 70
     0
300
1/8" = 1'-0"
140
0.125
141
12.0
290
     0
  0
SCALE
  5
62
102
{ACAD_REACTORS
330
4A
102
}
330
4A
100
AcDbScale
 70
     0
300
3/16" = 1'-0"
140
0.1875
141
12.0
290
     0
  0
SCALE
  5
63
102
{ACAD_REACTORS
330
4A
102
}
330
4A
100
AcDbScale
 70
     0
300
1/4" = 1'-0"
140
0.25
141
12.0
290
     0
  0
SCALE
  5
64
102
{ACAD_REACTORS
330
4A
102
}
330
4A
100
AcDbScale
 70
     0
300
3/8" = 1'-0"
140
0.375
141
12.0
290
     0
  0
SCALE
  5
65
102
{ACAD_REACTORS
330
4A
102
}
330
4A
100
AcDbScale
 70
     0
300
1/2" = 1'-0"
140
0.5
141
12.0
290
     0
  0
SCALE
  5
66
102
{ACAD_REACTORS
330
4A
102
}
330
4A
100
AcDbScale
 70
     0
300
3/4" = 1'-0"
140
0.75
141
12.0
290
     0
  0
SCALE
  5
67
102
{ACAD_REACTORS
330
4A
102
}
330
4A
100
AcDbScale
 70
     0
300
1" = 1'-0"
140
1.0
141
12.0
290
     0
  0
SCALE
  5
68
102
{ACAD_REACTORS
330
4A
102
}
330
4A
100
AcDbScale
 70
     0
300
1-1/2" = 1'-0"
140
1.5
141
12.0
290
     0
  0
SCALE
  5
69
102
{ACAD_REACTORS
330
4A
102
}
330
4A
100
AcDbScale
 70
     0
300
3" = 1'-0"
140
3.0
141
12.0
290
     0
  0
SCALE
  5
6A
102
{ACAD_REACTORS
330
4A
102
}
330
4A
100
AcDbScale
 70
     0
300
6" = 1'-0"
140
6.0
141
12.0
290
     0
  0
SCALE
  5
6B
102
{ACAD_REACTORS
330
4A
102
}
330
4A
100
AcDbScale
 70
     0
300
1'-0" = 1'-0"
140
12.0
141
12.0
290
     0
  0
VISUALSTYLE
  5
2F
102
{ACAD_REACTORS
330
2A
102
}
330
2A
100
AcDbVisualStyle
  2
2dWireframe
 70
     4
 71
     0
 72
     2
 73
     0
 90
        0
 40
-0.6
 41
-30.0
 62
     5
 63
     7
 74
     1
 91
        4
 64
     7
 65
   257
 75
     1
175
     1
 42
1.0
 92
        0
 66
   257
 43
1.0
 76
     1
 77
     6
 78
     2
 67
     7
 79
     5
170
     0
171
     0
290
     0
174
     0
 93
        1
 44
0.0
173
     0
291
     0
 45
0.0
1001
ACAD
1000
AcDbSavedByObjectVersion
1070
     0
  0
VISUALSTYLE
  5
31
102
{ACAD_REACTORS
330
2A
102
}
330
2A
100
AcDbVisualStyle
  2
3D Hidden
 70
     6
 71
     1
 72
     2
 73
     2
 90
        0
 40
-0.6
 41
-30.0
 62
     5
 63
     7
 74
     2
 91
        2
 64
     7
 65
   257
 75
     2
175
     1
 42
40.0
 92
        0
 66
   257
 43
1.0
 76
     1
 77
     6
 78
     2
 67
     7
 79
     3
170
     0
171
     0
290
     0
174
     0
 93
        1
 44
0.0
173
     0
291
     0
 45
0.0
1001
ACAD
1000
AcDbSavedByObjectVersion
1070
     0
  0
VISUALSTYLE
  5
30
102
{ACAD_REACTORS
330
2A
102
}
330
2A
100
AcDbVisualStyle
  2
3dWireframe
 70
     5
 71
     0
 72
     2
 73
     0
 90
        0
 40
-0.6
 41
-30.0
 62
     5
 63
     7
 74
     1
 91
        4
 64
     7
 65
   257
 75
     1
175
     1
 42
1.0
 92
        0
 66
   257
 43
1.0
 76
     1
 77
     6
 78
     2
 67
     7
 79
     5
170
     0
171
     0
290
     0
174
     0
 93
        1
 44
0.0
173
     0
291
     0
 45
0.0
1001
ACAD
1000
AcDbSavedByObjectVersion
1070
     0
  0
VISUALSTYLE
  5
32
102
{ACAD_REACTORS
330
2A
102
}
330
2A
100
AcDbVisualStyle
  2
Basic
 70
     7
 71
     1
 72
     0
 73
     1
 90
        0
 40
-0.6
 41
-30.0
 62
     5
 63
     7
 74
     0
 91
        4
 64
     7
 65
   257
 75
     1
175
     1
 42
1.0
 92
        8
 66
     7
 43
1.0
 76
     1
 77
     6
 78
     2
 67
     7
 79
     5
170
     0
171
     0
290
     0
174
     0
 93
        1
 44
0.0
173
     0
291
     1
 45
0.0
1001
ACAD
1000
AcDbSavedByObjectVersion
1070
     0
  0
VISUALSTYLE
  5
36
102
{ACAD_REACTORS
330
2A
102
}
330
2A
100
AcDbVisualStyle
  2
Brighten
 70
    12
 71
     2
 72
     2
 73
     0
 90
        0
 40
-0.6
 41
-30.0
 62
     5
 63
     7
 74
     1
 91
        4
 64
     7
 65
   257
 75
     1
175
     1
 42
1.0
 92
        8
 66
     7
 43
1.0
 76
     1
 77
     6
 78
     2
 67
     7
 79
     5
170
     0
171
     0
290
     0
174
     0
 93
        1
 44
50.0
173
     0
291
     1
 45
0.0
1001
ACAD
1000
AcDbSavedByObjectVersion
1070
     0
  0
VISUALSTYLE
  5
3A
102
{ACAD_REACTORS
330
2A
102
}
330
2A
100
AcDbVisualStyle
  2
ColorChange
 70
    16
 71
     2
 72
     2
 73
     3
 90
        0
 40
-0.6
 41
-30.0
 62
     5
 63
     8
 74
     1
 91
        4
 64
     7
 65
   257
 75
     1
175
     1
 42
1.0
 92
        8
 66
     8
 43
1.0
 76
     1
 77
     6
 78
     2
 67
     7
 79
     5
170
     0
171
     0
290
     0
174
     0
 93
        1
 44
0.0
173
     0
291
     1
 45
0.0
1001
ACAD
1000
AcDbSavedByObjectVersion
1070
     0
  0
VISUALSTYLE
  5
34
102
{ACAD_REACTORS
330
2A
102
}
330
2A
100
AcDbVisualStyle
  2
Conceptual
 70
     9
 71
     3
 72
     2
 73
     0
 90
        0
 40
-0.6
 41
-30.0
 62
     5
 63
     7
 74
     2
 91
        2
 64
     7
 65
   257
 75
     1
175
     1
 42
40.0
 92
        8
 66
     7
 43
1.0
 76
     1
 77
     6
 78
     2
 67
     7
 79
     3
170
     0
171
     0
290
     0
174
     0
 93
        1
 44
0.0
173
     0
291
     0
 45
0.0
1001
ACAD
1000
AcDbSavedByObjectVersion
1070
     0
  0
VISUALSTYLE
  5
35
102
{ACAD_REACTORS
330
2A
102
}
330
2A
100
AcDbVisualStyle
  2
Dim
 70
    11
 71
     2
 72
     2
 73
     0
 90
        0
 40
-0.6
 41
-30.0
 62
     5
 63
     7
 74
     1
 91
        4
 64
     7
 65
   257
 75
     1
175
     1
 42
1.0
 92
        8
 66
     7
 43
1.0
 76
     1
 77
     6
 78
     2
 67
     7
 79
     5
170
     0
171
     0
290
     0
174
     0
 93
        1
 44
-50.0
173
     0
291
     1
 45
0.0
1001
ACAD
1000
AcDbSavedByObjectVersion
1070
     0
  0
VISUALSTYLE
  5
39
102
{ACAD_REACTORS
330
2A
102
}
330
2A
100
AcDbVisualStyle
  2
Facepattern
 70
    15
 71
     2
 72
     2
 73
     0
 90
        0
 40
-0.6
 41
-30.0
 62
     5
 63
     7
 74
     1
 91
        4
 64
     7
 65
   257
 75
     1
175
     1
 42
1.0
 92
        8
 66
     7
 43
1.0
 76
     1
 77
     6
 78
     2
 67
     7
 79
     5
170
     0
171
     0
290
     0
174
     0
 93
        1
 44
0.0
173
     0
291
     1
 45
0.0
1001
ACAD
1000
AcDbSavedByObjectVersion
1070
     0
  0
VISUALSTYLE
  5
2B
102
{ACAD_REACTORS
330
2A
102
}
330
2A
100
AcDbVisualStyle
  2
Flat
 70
     0
 71
     2
 72
     1
 73
     1
 90
        2
 40
-0.6
 41
30.0
 62
     5
 63
     7
 74
     0
 91
        4
 64
     7
 65
   257
 75
     1
175
     1
 42
1.0
 92
        8
 66
     7
 43
1.0
 76
     1
 77
     6
 78
     2
 67
     7
 79
     5
170
     0
171
     0
290
     0
174
     0
 93
       13
 44
0.0
173
     0
291
     1
 45
0.0
1001
ACAD
1000
AcDbSavedByObjectVersion
1070
     0
  0
VISUALSTYLE
  5
2C
102
{ACAD_REACTORS
330
2A
102
}
330
2A
100
AcDbVisualStyle
  2
FlatWithEdges
 70
     1
 71
     2
 72
     1
 73
     1
 90
        2
 40
-0.6
 41
30.0
 62
     5
 63
     7
 74
     1
 91
        4
 64
     7
 65
   257
 75
     1
175
     1
 42
1.0
 92
        0
 66
   257
 43
1.0
 76
     1
 77
     6
 78
     2
 67
     7
 79
     5
170
     0
171
     0
290
     0
174
     0
 93
       13
 44
0.0
173
     0
291
     1
 45
0.0
1001
ACAD
1000
AcDbSavedByObjectVersion
1070
     0
  0
VISUALSTYLE
  5
2D
102
{ACAD_REACTORS
330
2A
102
}
330
2A
100
AcDbVisualStyle
  2
Gouraud
 70
     2
 71
     2
 72
     2
 73
     1
 90
        2
 40
-0.6
 41
30.0
 62
     5
 63
     7
 74
     0
 91
        4
 64
     7
 65
   257
 75
     1
175
     1
 42
1.0
 92
        0
 66
     7
 43
1.0
 76
     1
 77
     6
 78
     2
 67
     7
 79
     5
170
     0
171
     0
290
     0
174
     0
 93
       13
 44
0.0
173
     0
291
     1
 45
0.0
1001
ACAD
1000
AcDbSavedByObjectVersion
1070
     0
  0
VISUALSTYLE
  5
2E
102
{ACAD_REACTORS
330
2A
102
}
330
2A
100
AcDbVisualStyle
  2
GouraudWithEdges
 70
     3
 71
     2
 72
     2
 73
     1
 90
        2
 40
-0.6
 41
30.0
 62
     5
 63
     7
 74
     1
 91
        4
 64
     7
 65
   257
 75
     1
175
     1
 42
1.0
 92
        0
 66
   257
 43
1.0
 76
     1
 77
     6
 78
     2
 67
     7
 79
     5
170
     0
171
     0
290
     0
174
     0
 93
       13
 44
0.0
173
     0
291
     1
 45
0.0
1001
ACAD
1000
AcDbSavedByObjectVersion
1070
     0
  0
VISUALSTYLE
  5
38
102
{ACAD_REACTORS
330
2A
102
}
330
2A
100
AcDbVisualStyle
  2
Linepattern
 70
    14
 71
     2
 72
     2
 73
     0
 90
        0
 40
-0.6
 41
-30.0
 62
     5
 63
     7
 74
     1
 91
        4
 64
     7
 65
   257
 75
     7
175
     7
 42
1.0
 92
        8
 66
     7
 43
1.0
 76
     1
 77
     6
 78
     2
 67
     7
 79
     5
170
     0
171
     0
290
     0
174
     0
 93
        1
 44
0.0
173
     0
291
     1
 45
0.0
1001
ACAD
1000
AcDbSavedByObjectVersion
1070
     0
  0
VISUALSTYLE
  5
33
102
{ACAD_REACTORS
330
2A
102
}
330
2A
100
AcDbVisualStyle
  2
Realistic
 70
     8
 71
     2
 72
     2
 73
     0
 90
        0
 40
-0.6
 41
-30.0
 62
     5
 63
     7
 74
     1
 91
        0
 64
     7
 65
   257
 75
     1
175
     1
 42
1.0
 92
        8
 66
     8
 43
1.0
 76
     1
 77
     6
 78
     2
 67
     7
 79
     5
170
     0
171
     0
290
     0
174
     0
 93
       13
 44
0.0
173
     0
291
     0
 45
0.0
1001
ACAD
1000
AcDbSavedByObjectVersion
1070
     0
  0
VISUALSTYLE
  5
37
102
{ACAD_REACTORS
330
2A
102
}
330
2A
100
AcDbVisualStyle
  2
Thicken
 70
    13
 71
     2
 72
     2
 73
     0
 90
        0
 40
-0.6
 41
-30.0
 62
     5
 63
     7
 74
     1
 91
        4
 64
     7
 65
   257
 75
     1
175
     1
 42
1.0
 92
       12
 66
     7
 43
1.0
 76
     1
 77
     6
 78
     2
 67
     7
 79
     5
170
     0
171
     0
290
     0
174
     0
 93
        1
 44
0.0
173
     0
291
     1
 45
0.0
1001
ACAD
1000
AcDbSavedByObjectVersion
1070
     0
  0
DICTIONARYVAR
  5
112
102
{ACAD_REACTORS
330
10F
102
}
330
10F
100
DictionaryVariables
280
     0
  1
1:1
  0
ENDSEC
  0
EOF
