  0
SECTION
  2
HEADER
  9
$ACADVER
  1
AC1015
  9
$ACADMAINTVER
 70
     6
  9
$DWGCODEPAGE
  3
ANSI_1252
  9
$INSBASE
 10
0.0
 20
0.0
 30
0.0
  9
$EXTMIN
 10
36.3002226750044
 20
236.0762557910672
 30
0.0
  9
$EXTMAX
 10
248.509874529651
 20
356.807521390615
 30
0.0
  9
$LIMMIN
 10
0.0
 20
0.0
  9
$LIMMAX
 10
12.0
 20
9.0
  9
$ORTHOMODE
 70
     0
  9
$REGENMODE
 70
     1
  9
$FILLMODE
 70
     1
  9
$QTEXTMODE
 70
     0
  9
$MIRRTEXT
 70
     1
  9
$LTSCALE
 40
1.0
  9
$ATTMODE
 70
     1
  9
$TEXTSIZE
 40
0.2
  9
$TRACEWID
 40
0.05
  9
$TEXTSTYLE
  7
Standard
  9
$CLAYER
  8
0
  9
$CELTYPE
  6
ByLayer
  9
$CECOLOR
 62
   256
  9
$CELTSCALE
 40
1.0
  9
$DISPSILH
 70
     0
  9
$DIMSCALE
 40
1.0
  9
$DIMASZ
 40
0.18
  9
$DIMEXO
 40
0.0625
  9
$DIMDLI
 40
0.38
  9
$DIMRND
 40
0.0
  9
$DIMDLE
 40
0.0
  9
$DIMEXE
 40
0.18
  9
$DIMTP
 40
0.0
  9
$DIMTM
 40
0.0
  9
$DIMTXT
 40
0.18
  9
$DIMCEN
 40
0.09
  9
$DIMTSZ
 40
0.0
  9
$DIMTOL
 70
     0
  9
$DIMLIM
 70
     0
  9
$DIMTIH
 70
     1
  9
$DIMTOH
 70
     1
  9
$DIMSE1
 70
     0
  9
$DIMSE2
 70
     0
  9
$DIMTAD
 70
     0
  9
$DIMZIN
 70
     0
  9
$DIMBLK
  1

  9
$DIMASO
 70
     1
  9
$DIMSHO
 70
     1
  9
$DIMPOST
  1

  9
$DIMAPOST
  1

  9
$DIMALT
 70
     0
  9
$DIMALTD
 70
     2
  9
$DIMALTF
 40
25.4
  9
$DIMLFAC
 40
1.0
  9
$DIMTOFL
 70
     0
  9
$DIMTVP
 40
0.0
  9
$DIMTIX
 70
     0
  9
$DIMSOXD
 70
     0
  9
$DIMSAH
 70
     0
  9
$DIMBLK1
  1

  9
$DIMBLK2
  1

  9
$DIMSTYLE
  2
Standard
  9
$DIMCLRD
 70
     0
  9
$DIMCLRE
 70
     0
  9
$DIMCLRT
 70
     0
  9
$DIMTFAC
 40
1.0
  9
$DIMGAP
 40
0.09
  9
$DIMJUST
 70
     0
  9
$DIMSD1
 70
     0
  9
$DIMSD2
 70
     0
  9
$DIMTOLJ
 70
     1
  9
$DIMTZIN
 70
     0
  9
$DIMALTZ
 70
     0
  9
$DIMALTTZ
 70
     0
  9
$DIMUPT
 70
     0
  9
$DIMDEC
 70
     4
  9
$DIMTDEC
 70
     4
  9
$DIMALTU
 70
     2
  9
$DIMALTTD
 70
     2
  9
$DIMTXSTY
  7
Standard
  9
$DIMAUNIT
 70
     0
  9
$DIMADEC
 70
     0
  9
$DIMALTRND
 40
0.0
  9
$DIMAZIN
 70
     0
  9
$DIMDSEP
 70
    46
  9
$DIMATFIT
 70
     3
  9
$DIMFRAC
 70
     0
  9
$DIMLDRBLK
  1

  9
$DIMLUNIT
 70
     2
  9
$DIMLWD
 70
    -2
  9
$DIMLWE
 70
    -2
  9
$DIMTMOVE
 70
     0
  9
$LUNITS
 70
     2
  9
$LUPREC
 70
     4
  9
$SKETCHINC
 40
0.1
  9
$FILLETRAD
 40
0.5
  9
$AUNITS
 70
     0
  9
$AUPREC
 70
     0
  9
$MENU
  1
.
  9
$ELEVATION
 40
0.0
  9
$PELEVATION
 40
0.0
  9
$THICKNESS
 40
0.0
  9
$LIMCHECK
 70
     0
  9
$CHAMFERA
 40
0.5
  9
$CHAMFERB
 40
0.5
  9
$CHAMFERC
 40
1.0
  9
$CHAMFERD
 40
0.0
  9
$SKPOLY
 70
     0
  9
$TDCREATE
 40
2456821.368751713
  9
$TDUCREATE
 40
2456821.28541838
  9
$TDUPDATE
 40
2456821.368751725
  9
$TDUUPDATE
 40
2456821.285418391
  9
$TDINDWG
 40
0.0000000116
  9
$TDUSRTIMER
 40
0.0000000116
  9
$USRTIMER
 70
     1
  9
$ANGBASE
 50
0.0
  9
$ANGDIR
 70
     0
  9
$PDMODE
 70
     0
  9
$PDSIZE
 40
0.0
  9
$PLINEWID
 40
0.0
  9
$SPLFRAME
 70
     0
  9
$SPLINETYPE
 70
     6
  9
$SPLINESEGS
 70
     8
  9
$HANDSEED
  5
FF
  9
$SURFTAB1
 70
     6
  9
$SURFTAB2
 70
     6
  9
$SURFTYPE
 70
     6
  9
$SURFU
 70
     6
  9
$SURFV
 70
     6
  9
$UCSBASE
  2

  9
$UCSNAME
  2

  9
$UCSORG
 10
0.0
 20
0.0
 30
0.0
  9
$UCSXDIR
 10
1.0
 20
0.0
 30
0.0
  9
$UCSYDIR
 10
0.0
 20
1.0
 30
0.0
  9
$UCSORTHOREF
  2

  9
$UCSORTHOVIEW
 70
     0
  9
$UCSORGTOP
 10
0.0
 20
0.0
 30
0.0
  9
$UCSORGBOTTOM
 10
0.0
 20
0.0
 30
0.0
  9
$UCSORGLEFT
 10
0.0
 20
0.0
 30
0.0
  9
$UCSORGRIGHT
 10
0.0
 20
0.0
 30
0.0
  9
$UCSORGFRONT
 10
0.0
 20
0.0
 30
0.0
  9
$UCSORGBACK
 10
0.0
 20
0.0
 30
0.0
  9
$PUCSBASE
  2

  9
$PUCSNAME
  2

  9
$PUCSORG
 10
0.0
 20
0.0
 30
0.0
  9
$PUCSXDIR
 10
1.0
 20
0.0
 30
0.0
  9
$PUCSYDIR
 10
0.0
 20
1.0
 30
0.0
  9
$PUCSORTHOREF
  2

  9
$PUCSORTHOVIEW
 70
     0
  9
$PUCSORGTOP
 10
0.0
 20
0.0
 30
0.0
  9
$PUCSORGBOTTOM
 10
0.0
 20
0.0
 30
0.0
  9
$PUCSORGLEFT
 10
0.0
 20
0.0
 30
0.0
  9
$PUCSORGRIGHT
 10
0.0
 20
0.0
 30
0.0
  9
$PUCSORGFRONT
 10
0.0
 20
0.0
 30
0.0
  9
$PUCSORGBACK
 10
0.0
 20
0.0
 30
0.0
  9
$USERI1
 70
     0
  9
$USERI2
 70
     0
  9
$USERI3
 70
     0
  9
$USERI4
 70
     0
  9
$USERI5
 70
     0
  9
$USERR1
 40
16.5
  9
$USERR2
 40
0.0
  9
$USERR3
 40
0.0
  9
$USERR4
 40
0.0
  9
$USERR5
 40
0.0
  9
$WORLDVIEW
 70
     1
  9
$SHADEDGE
 70
     3
  9
$SHADEDIF
 70
    70
  9
$TILEMODE
 70
     1
  9
$MAXACTVP
 70
    64
  9
$PINSBASE
 10
0.0
 20
0.0
 30
0.0
  9
$PLIMCHECK
 70
     0
  9
$PEXTMIN
 10
1.00000000000000E+20
 20
1.00000000000000E+20
 30
1.00000000000000E+20
  9
$PEXTMAX
 10
-1.00000000000000E+20
 20
-1.00000000000000E+20
 30
-1.00000000000000E+20
  9
$PLIMMIN
 10
0.0
 20
0.0
  9
$PLIMMAX
 10
12.0
 20
9.0
  9
$UNITMODE
 70
     0
  9
$VISRETAIN
 70
     1
  9
$PLINEGEN
 70
     0
  9
$PSLTSCALE
 70
     1
  9
$TREEDEPTH
 70
  3020
  9
$CMLSTYLE
  2
Standard
  9
$CMLJUST
 70
     0
  9
$CMLSCALE
 40
1.0
  9
$PROXYGRAPHICS
 70
     1
  9
$MEASUREMENT
 70
     1
  9
$CELWEIGHT
370
    -1
  9
$ENDCAPS
280
     0
  9
$JOINSTYLE
280
     0
  9
$LWDISPLAY
290
     0
  9
$INSUNITS
 70
     1
  9
$HYPERLINKBASE
  1

  9
$STYLESHEET
  1

  9
$XEDIT
290
     1
  9
$CEPSNTYPE
380
     0
  9
$PSTYLEMODE
290
     1
  9
$FINGERPRINTGUID
  2
{9D213A96-4978-42C1-B7C9-B7F6B5268885}
  9
$VERSIONGUID
  2
{FAEB1C32-E019-11D5-929B-00C0DF256EC4}
  9
$EXTNAMES
290
     1
  9
$PSVPSCALE
 40
0.0
  9
$OLESTARTUP
290
     0
  0
ENDSEC
  0
SECTION
  2
CLASSES
  0
CLASS
  1
ACDBDICTIONARYWDFLT
  2
AcDbDictionaryWithDefault
  3
ObjectDBX Classes
 90
        0
280
     0
281
     0
  0
CLASS
  1
VISUALSTYLE
  2
AcDbVisualStyle
  3
ObjectDBX Classes
 90
     4095
280
     0
281
     0
  0
CLASS
  1
SCALE
  2
AcDbScale
  3
ObjectDBX Classes
 90
     1153
280
     0
281
     0
  0
CLASS
  1

  2
exOdDbPolyline
  3

 90
        0
280
     0
281
     1
  0
CLASS
  1

  2
exOdDbSpline
  3

 90
        0
280
     0
281
     1
  0
CLASS
  1
DICTIONARYVAR
  2
AcDbDictionaryVar
  3
ObjectDBX Classes
 90
        0
280
     0
281
     0
  0
CLASS
  1
ACDBPLACEHOLDER
  2
AcDbPlaceHolder
  3
ObjectDBX Classes
 90
        0
280
     0
281
     0
  0
CLASS
  1
LAYOUT
  2
AcDbLayout
  3
ObjectDBX Classes
 90
        0
280
     0
281
     0
  0
ENDSEC
  0
SECTION
  2
TABLES
  0
TABLE
  2
VPORT
  5
8
330
0
100
AcDbSymbolTable
 70
     1
  0
VPORT
  5
29
330
8
100
AcDbSymbolTableRecord
100
AcDbViewportTableRecord
  2
*Active
 70
     0
 10
0.0
 20
0.0
 11
1.0
 21
1.0
 12
142.4050486023277
 22
296.4418885908411
 13
0.0
 23
0.0
 14
0.5
 24
0.5
 15
0.5
 25
0.5
 16
0.0
 26
0.0
 36
1.0
 17
0.0
 27
0.0
 37
0.0
 40
145.6503014400695
 41
1.60267857142857
 42
50.0
 43
0.0
 44
0.0
 50
0.0
 51
0.0
 71
     0
 72
   100
 73
     1
 74
     3
 75
     0
 76
     0
 77
     0
 78
     0
281
     0
 65
     1
110
0.0
120
0.0
130
0.0
111
1.0
121
0.0
131
0.0
112
0.0
122
1.0
132
0.0
 79
     0
146
0.0
  0
ENDTAB
  0
TABLE
  2
LTYPE
  5
5
330
0
100
AcDbSymbolTable
 70
     8
  0
LTYPE
  5
14
330
5
100
AcDbSymbolTableRecord
100
AcDbLinetypeTableRecord
  2
ByBlock
 70
     0
  3

 72
    65
 73
     0
 40
0.0
  0
LTYPE
  5
15
330
5
100
AcDbSymbolTableRecord
100
AcDbLinetypeTableRecord
  2
ByLayer
 70
     0
  3

 72
    65
 73
     0
 40
0.0
  0
LTYPE
  5
16
330
5
100
AcDbSymbolTableRecord
100
AcDbLinetypeTableRecord
  2
Continuous
 70
     0
  3
Solid line
 72
    65
 73
     0
 40
0.0
  0
LTYPE
  5
3B
330
5
100
AcDbSymbolTableRecord
100
AcDbLinetypeTableRecord
  2
DASHED
 70
     0
  3
Dashed
 72
    65
 73
     2
 40
15.0
 49
7.0
 74
     0
 49
-8.0
 74
     0
  0
LTYPE
  5
3C
330
5
100
AcDbSymbolTableRecord
100
AcDbLinetypeTableRecord
  2
DOTTED
 70
     0
  3
Dotted
 72
    65
 73
     2
 40
1.0
 49
0.0
 74
     0
 49
-1.0
 74
     0
  0
LTYPE
  5
3D
330
5
100
AcDbSymbolTableRecord
100
AcDbLinetypeTableRecord
  2
DOT_CENTER
 70
     0
  3
Dot_Center
 72
    65
 73
     4
 40
14.0
 49
12.0
 74
     0
 49
-1.0
 74
     0
 49
0.0
 74
     0
 49
-1.0
 74
     0
  0
LTYPE
  5
3E
330
5
100
AcDbSymbolTableRecord
100
AcDbLinetypeTableRecord
  2
LONG_DASHED
 70
     0
  3
Long_Dashed
 72
    65
 73
     2
 40
15.0
 49
10.0
 74
     0
 49
-5.0
 74
     0
  0
LTYPE
  5
3F
330
5
100
AcDbSymbolTableRecord
100
AcDbLinetypeTableRecord
  2
DASH_CENTER
 70
     0
  3
Dash_Center
 72
    65
 73
     4
 40
14.0
 49
11.0
 74
     0
 49
-1.0
 74
     0
 49
1.0
 74
     0
 49
-1.0
 74
     0
  0
LTYPE
  5
40
330
5
100
AcDbSymbolTableRecord
100
AcDbLinetypeTableRecord
  2
PHANTOM
 70
     0
  3
Phantom
 72
    65
 73
     6
 40
13.0
 49
10.0
 74
     0
 49
-1.0
 74
     0
 49
0.0
 74
     0
 49
-1.0
 74
     0
 49
0.0
 74
     0
 49
-1.0
 74
     0
  0
LTYPE
  5
41
330
5
100
AcDbSymbolTableRecord
100
AcDbLinetypeTableRecord
  2
CENTER_DASH_DASH
 70
     0
  3
Center_Dash_Dash
 72
    65
 73
     6
 40
14.0
 49
9.0
 74
     0
 49
-1.0
 74
     0
 49
1.0
 74
     0
 49
-1.0
 74
     0
 49
1.0
 74
     0
 49
-1.0
 74
     0
  0
ENDTAB
  0
TABLE
  2
LAYER
  5
2
330
0
100
AcDbSymbolTable
 70
     6
  0
LAYER
  5
10
330
2
100
AcDbSymbolTableRecord
100
AcDbLayerTableRecord
  2
0
 70
     0
 62
     7
  6
Continuous
370
    -3
390
F
  0
LAYER
  5
42
330
2
100
AcDbSymbolTableRecord
100
AcDbLayerTableRecord
  2
1
 70
     0
 62
     7
  6
Continuous
370
    -3
390
F
  0
LAYER
  5
43
330
2
100
AcDbSymbolTableRecord
100
AcDbLayerTableRecord
  2
BEZUGSACHSEN
 70
     0
 62
     7
  6
Continuous
370
    -3
390
F
  0
LAYER
  5
44
330
2
100
AcDbSymbolTableRecord
100
AcDbLayerTableRecord
  2
DEFAULT_2
 70
     0
 62
     7
  6
Continuous
370
    -3
390
F
  0
LAYER
  5
45
330
2
100
AcDbSymbolTableRecord
100
AcDbLayerTableRecord
  2
RUNDUNGEN
 70
     0
 62
     7
  6
Continuous
370
    -3
390
F
  0
LAYER
  5
46
330
2
100
AcDbSymbolTableRecord
100
AcDbLayerTableRecord
  2
TEIL_STARTBEZUEGE
 70
     0
 62
     7
  6
Continuous
370
    -3
390
F
  0
ENDTAB
  0
TABLE
  2
STYLE
  5
3
330
0
100
AcDbSymbolTable
 70
     2
  0
STYLE
  5
11
330
3
100
AcDbSymbolTableRecord
100
AcDbTextStyleTableRecord
  2
Standard
 70
     0
 40
0.0
 41
1.0
 50
0.0
 71
     0
 42
0.2
  3
txt
  4

  0
STYLE
  5
6D
330
3
100
AcDbSymbolTableRecord
100
AcDbTextStyleTableRecord
  2
CONVERTER_11
 70
     0
 40
0.0
 41
0.72
 50
0.0
 71
     0
 42
0.2
  3
txt.shx
  4

  0
ENDTAB
  0
TABLE
  2
VIEW
  5
6
330
0
100
AcDbSymbolTable
 70
     0
  0
ENDTAB
  0
TABLE
  2
UCS
  5
7
330
0
100
AcDbSymbolTable
 70
     0
  0
ENDTAB
  0
TABLE
  2
APPID
  5
9
330
0
100
AcDbSymbolTable
 70
     1
  0
APPID
  5
12
330
9
100
AcDbSymbolTableRecord
100
AcDbRegAppTableRecord
  2
ACAD
 70
     0
  0
ENDTAB
  0
TABLE
  2
DIMSTYLE
  5
A
330
0
100
AcDbSymbolTable
 70
     6
100
AcDbDimStyleTable
  0
DIMSTYLE
105
27
330
A
100
AcDbSymbolTableRecord
100
AcDbDimStyleTableRecord
  2
Standard
 70
     0
340
11
  0
DIMSTYLE
105
C6
102
{ACAD_REACTORS
330
C7
102
}
330
A
100
AcDbSymbolTableRecord
100
AcDbDimStyleTableRecord
  2
ME10_DIM_10
 70
     0
  3
\U+2300<>
 41
3.5
 42
2.0
 44
2.0
 71
     1
 73
     0
 74
     0
 77
     1
 78
     8
140
3.5
146
0.7
147
2.0
172
     1
173
     1
176
     2
177
     2
178
     3
271
     2
272
     0
340
6D
  0
DIMSTYLE
105
D1
102
{ACAD_REACTORS
330
D2
102
}
330
A
100
AcDbSymbolTableRecord
100
AcDbDimStyleTableRecord
  2
ME10_DIM_11
 70
     0
  3
\U+2300<>
 41
3.5
 42
2.0
 44
2.0
 71
     1
 73
     0
 74
     0
 77
     1
 78
     8
140
3.5
146
0.7
147
2.0
172
     1
173
     1
176
     2
177
     2
178
     3
271
     2
272
     0
340
6D
  0
DIMSTYLE
105
DC
102
{ACAD_REACTORS
330
DD
102
}
330
A
100
AcDbSymbolTableRecord
100
AcDbDimStyleTableRecord
  2
ME10_DIM_12
 70
     0
  3
<>
 41
3.5
 42
2.0
 44
2.0
 71
     1
 73
     0
 74
     0
 77
     1
 78
     8
140
3.5
146
0.7
147
2.0
172
     1
173
     1
176
     2
177
     2
178
     3
271
     2
272
     0
340
6D
  0
DIMSTYLE
105
E7
102
{ACAD_REACTORS
330
E8
102
}
330
A
100
AcDbSymbolTableRecord
100
AcDbDimStyleTableRecord
  2
ME10_DIM_13
 70
     0
  3
<>
 41
3.5
 42
2.0
 44
2.0
 71
     1
 73
     0
 74
     0
 77
     1
 78
     8
140
3.5
146
0.7
147
2.0
172
     1
173
     1
176
     2
177
     2
178
     3
271
     2
272
     0
340
6D
  0
DIMSTYLE
105
F2
102
{ACAD_REACTORS
330
F3
102
}
330
A
100
AcDbSymbolTableRecord
100
AcDbDimStyleTableRecord
  2
ME10_DIM_14
 70
     0
  3
<>
 41
3.5
 42
2.0
 44
2.0
 71
     1
 73
     0
 74
     0
 77
     1
 78
     8
140
3.5
146
0.7
147
2.0
172
     1
173
     1
176
     2
177
     2
178
     3
271
     2
272
     0
340
6D
  0
ENDTAB
  0
TABLE
  2
BLOCK_RECORD
  5
1
330
0
100
AcDbSymbolTable
 70
     8
  0
BLOCK_RECORD
  5
1F
330
1
100
AcDbSymbolTableRecord
100
AcDbBlockTableRecord
  2
*Model_Space
340
22
  0
BLOCK_RECORD
  5
1B
330
1
100
AcDbSymbolTableRecord
100
AcDbBlockTableRecord
  2
*Paper_Space
340
1E
  0
BLOCK_RECORD
  5
23
330
1
100
AcDbSymbolTableRecord
100
AcDbBlockTableRecord
  2
*Paper_Space0
340
26
  0
BLOCK_RECORD
  5
47
330
1
100
AcDbSymbolTableRecord
100
AcDbBlockTableRecord
  2
Urheberrecht_DE-EN
340
0
102
{BLKREFS
331
6C
102
}
  0
BLOCK_RECORD
  5
BD
330
1
100
AcDbSymbolTableRecord
100
AcDbBlockTableRecord
  2
*D2
340
0
  0
BLOCK_RECORD
  5
C8
330
1
100
AcDbSymbolTableRecord
100
AcDbBlockTableRecord
  2
*D3
340
0
  0
BLOCK_RECORD
  5
D3
330
1
100
AcDbSymbolTableRecord
100
AcDbBlockTableRecord
  2
*D4
340
0
  0
BLOCK_RECORD
  5
DE
330
1
100
AcDbSymbolTableRecord
100
AcDbBlockTableRecord
  2
*D5
340
0
  0
BLOCK_RECORD
  5
E9
330
1
100
AcDbSymbolTableRecord
100
AcDbBlockTableRecord
  2
*D6
340
0
  0
BLOCK_RECORD
  5
F4
330
1
100
AcDbSymbolTableRecord
100
AcDbBlockTableRecord
  2
*D7
340
0
102
{BLKREFS
331
FA
102
}
  0
ENDTAB
  0
ENDSEC
  0
SECTION
  2
BLOCKS
  0
BLOCK
  5
20
330
1F
100
AcDbEntity
  8
0
100
AcDbBlockBegin
  2
*Model_Space
 70
     0
 10
0.0
 20
0.0
 30
0.0
  3
*Model_Space
  1

  0
ENDBLK
  5
21
330
1F
100
AcDbEntity
  8
0
100
AcDbBlockEnd
  0
BLOCK
  5
1C
330
1B
100
AcDbEntity
 67
     1
  8
0
100
AcDbBlockBegin
  2
*Paper_Space
 70
     0
 10
0.0
 20
0.0
 30
0.0
  3
*Paper_Space
  1

  0
ENDBLK
  5
1D
330
1B
100
AcDbEntity
 67
     1
  8
0
100
AcDbBlockEnd
  0
BLOCK
  5
24
330
23
100
AcDbEntity
  8
0
100
AcDbBlockBegin
  2
*Paper_Space0
 70
     0
 10
0.0
 20
0.0
 30
0.0
  3
*Paper_Space0
  1

  0
ENDBLK
  5
25
330
23
100
AcDbEntity
  8
0
100
AcDbBlockEnd
  0
BLOCK
  5
48
330
47
100
AcDbEntity
  8
0
100
AcDbBlockBegin
  2
Urheberrecht_DE-EN
 70
     0
 10
50.3002226750044
 20
296.03025772722
 30
0.0
  3
Urheberrecht_DE-EN
  1

  0
MTEXT
  5
6E
330
47
100
AcDbEntity
  8
1
 62
     1
100
AcDbMText
 10
50.3002226750044
 20
296.03025772722
 30
0.0
 40
2.0
 41
0.0
 71
     7
 72
     1
  1
We own the copyright of this document. It \Pdetermined and may neither be copied or \Pmade accessible to outsiders without our\Ppermission.
  7
CONVERTER_11
 11
0.0
 21
1.0
 31
0.0
 73
     1
 44
0.90036014405762
  0
MTEXT
  5
6F
330
47
100
AcDbEntity
  8
1
 62
     1
100
AcDbMText
 10
50.3002226750044
 20
239.7408708099138
 30
0.0
 40
2.0
 41
0.0
 71
     7
 72
     1
  1
F\U+00fcr diese Unterlage behalten wir das Ur-\Pheberrecht. Sie darf nur f\U+00fcr den von uns \Pbestimmten Zweck benutzt und ohne unsere \PZustimmung weder vervielf\U+00e4ltigt noch\PDritten zug\U+00e4nglich gemacht werden.
  7
CONVERTER_11
 11
0.0
 21
1.0
 31
0.0
 73
     1
 44
0.90036014405762
  0
ENDBLK
  5
49
330
47
100
AcDbEntity
  8
0
100
AcDbBlockEnd
  0
BLOCK
  5
C4
330
BD
100
AcDbEntity
  8
0
100
AcDbBlockBegin
  2
*D2
 70
     1
 10
0.0
 20
0.0
 30
0.0
  3
*D2
  1

  0
LINE
  5
BE
330
BD
100
AcDbEntity
  8
1
  6
Continuous
 62
     2
100
AcDbLine
 10
238.636413108769
 20
291.0892209401
 30
0.0
 11
238.636413108769
 21
275.0892209401
 31
0.0
  0
LINE
  5
BF
330
BD
100
AcDbEntity
  8
1
  6
Continuous
 62
     2
100
AcDbLine
 10
229.1531055094
 20
291.0892209401
 30
0.0
 11
240.636413108769
 21
291.0892209401
 31
0.0
  0
LINE
  5
C0
330
BD
100
AcDbEntity
  8
1
  6
Continuous
 62
     2
100
AcDbLine
 10
229.1531055094
 20
275.0892209401
 30
0.0
 11
240.636413108769
 21
275.0892209401
 31
0.0
  0
SOLID
  5
C1
330
BD
100
AcDbEntity
  8
1
 62
     2
100
AcDbTrace
 10
239.0971968503249
 20
287.5892209401
 30
0.0
 11
238.1756293672131
 21
287.5892209401
 31
0.0
 12
238.636413108769
 22
291.0892209401
 32
0.0
 13
238.636413108769
 23
291.0892209401
 33
0.0
  0
SOLID
  5
C2
330
BD
100
AcDbEntity
  8
1
 62
     2
100
AcDbTrace
 10
238.1756293672131
 20
278.5892209401
 30
0.0
 11
239.0971968503249
 21
278.5892209401
 31
0.0
 12
238.636413108769
 22
275.0892209401
 32
0.0
 13
238.636413108769
 23
275.0892209401
 33
0.0
  0
MTEXT
  5
C3
330
BD
100
AcDbEntity
  8
1
 62
     3
100
AcDbMText
 10
236.636413108769
 20
274.135953430532
 30
0.0
 40
3.5
 41
0.0
 71
     7
 72
     1
  1
\C3;%%c\C3;\C3;16\C2;\H2.45;\S^ ;\C3;
  7
CONVERTER_11
 11
0.0
 21
1.0
 31
0.0
 73
     1
 44
0.60024009603842
  0
ENDBLK
  5
C5
330
BD
100
AcDbEntity
  8
0
100
AcDbBlockEnd
  0
BLOCK
  5
CF
330
C8
100
AcDbEntity
  8
0
100
AcDbBlockBegin
  2
*D3
 70
     1
 10
0.0
 20
0.0
 30
0.0
  3
*D3
  1

  0
LINE
  5
C9
330
C8
100
AcDbEntity
  8
1
  6
Continuous
 62
     2
100
AcDbLine
 10
246.509874529651
 20
307.0892209401
 30
0.0
 11
246.509874529651
 21
259.0892209401
 31
0.0
  0
LINE
  5
CA
330
C8
100
AcDbEntity
  8
1
  6
Continuous
 62
     2
100
AcDbLine
 10
215.8851563169
 20
307.0892209401
 30
0.0
 11
248.509874529651
 21
307.0892209401
 31
0.0
  0
LINE
  5
CB
330
C8
100
AcDbEntity
  8
1
  6
Continuous
 62
     2
100
AcDbLine
 10
215.8851563169
 20
259.0892209401
 30
0.0
 11
248.509874529651
 21
259.0892209401
 31
0.0
  0
SOLID
  5
CC
330
C8
100
AcDbEntity
  8
1
 62
     2
100
AcDbTrace
 10
246.9706582712069
 20
303.5892209401
 30
0.0
 11
246.0490907880951
 21
303.5892209401
 31
0.0
 12
246.509874529651
 22
307.0892209401
 32
0.0
 13
246.509874529651
 23
307.0892209401
 33
0.0
  0
SOLID
  5
CD
330
C8
100
AcDbEntity
  8
1
 62
     2
100
AcDbTrace
 10
246.0490907880951
 20
262.5892209401
 30
0.0
 11
246.9706582712069
 21
262.5892209401
 31
0.0
 12
246.509874529651
 22
259.0892209401
 32
0.0
 13
246.509874529651
 23
259.0892209401
 33
0.0
  0
MTEXT
  5
CE
330
C8
100
AcDbEntity
  8
1
 62
     3
100
AcDbMText
 10
244.509874529651
 20
274.09088016486
 30
0.0
 40
3.5
 41
0.0
 71
     7
 72
     1
  1
\C3;%%c\C3;\C3;48\C2;\H2.45;\S^ ;\C3;
  7
CONVERTER_11
 11
0.0
 21
1.0
 31
0.0
 73
     1
 44
0.60024009603842
  0
ENDBLK
  5
D0
330
C8
100
AcDbEntity
  8
0
100
AcDbBlockEnd
  0
BLOCK
  5
DA
330
D3
100
AcDbEntity
  8
0
100
AcDbBlockBegin
  2
*D4
 70
     1
 10
0.0
 20
0.0
 30
0.0
  3
*D4
  1

  0
LINE
  5
D4
330
D3
100
AcDbEntity
  8
1
  6
Continuous
 62
     2
100
AcDbLine
 10
227.1531055094
 20
336.310452017506
 30
0.0
 11
183.2531055094
 21
336.310452017506
 31
0.0
  0
LINE
  5
D5
330
D3
100
AcDbEntity
  8
1
  6
Continuous
 62
     2
100
AcDbLine
 10
227.1531055094
 20
301.0063171714
 30
0.0
 11
227.1531055094
 21
338.310452017506
 31
0.0
  0
LINE
  5
D6
330
D3
100
AcDbEntity
  8
1
  6
Continuous
 62
     2
100
AcDbLine
 10
183.2531055094
 20
331.050714674
 30
0.0
 11
183.2531055094
 21
338.310452017506
 31
0.0
  0
SOLID
  5
D7
330
D3
100
AcDbEntity
  8
1
 62
     2
100
AcDbTrace
 10
223.6531055094
 20
335.8496682759501
 30
0.0
 11
223.6531055094
 21
336.7712357590619
 31
0.0
 12
227.1531055094
 22
336.310452017506
 32
0.0
 13
227.1531055094
 23
336.310452017506
 33
0.0
  0
SOLID
  5
D8
330
D3
100
AcDbEntity
  8
1
 62
     2
100
AcDbTrace
 10
186.7531055094
 20
336.7712357590619
 30
0.0
 11
186.7531055094
 21
335.8496682759501
 31
0.0
 12
183.2531055094
 22
336.310452017506
 32
0.0
 13
183.2531055094
 23
336.310452017506
 33
0.0
  0
MTEXT
  5
D9
330
D3
100
AcDbEntity
  8
1
 62
     3
100
AcDbMText
 10
200.7288311668851
 20
338.310452017506
 30
0.0
 40
3.5
 41
0.0
 71
     7
 72
     1
  1
\C3;\C3;\C3;43.9\C2;\H2.45;\S^ ;\C3;
  7
CONVERTER_11
 11
0.9999999999970619
 21
2.424068405545306E-6
 31
0.0
 73
     1
 44
0.60024009603842
  0
ENDBLK
  5
DB
330
D3
100
AcDbEntity
  8
0
100
AcDbBlockEnd
  0
BLOCK
  5
E5
330
DE
100
AcDbEntity
  8
0
100
AcDbBlockBegin
  2
*D5
 70
     1
 10
0.0
 20
0.0
 30
0.0
  3
*D5
  1

  0
LINE
  5
DF
330
DE
100
AcDbEntity
  8
1
  6
Continuous
 62
     2
100
AcDbLine
 10
227.1531055094
 20
343.684011125951
 30
0.0
 11
164.1531055094
 21
343.684011125951
 31
0.0
  0
LINE
  5
E0
330
DE
100
AcDbEntity
  8
1
  6
Continuous
 62
     2
100
AcDbLine
 10
227.1531055094
 20
301.0063171714
 30
0.0
 11
227.1531055094
 21
345.684011125951
 31
0.0
  0
LINE
  5
E1
330
DE
100
AcDbEntity
  8
1
  6
Continuous
 62
     2
100
AcDbLine
 10
164.1531055094
 20
326.312796519019
 30
0.0
 11
164.1531055094
 21
345.684011125951
 31
0.0
  0
SOLID
  5
E2
330
DE
100
AcDbEntity
  8
1
 62
     2
100
AcDbTrace
 10
223.6531055094
 20
343.2232273843951
 30
0.0
 11
223.6531055094
 21
344.1447948675068
 31
0.0
 12
227.1531055094
 22
343.684011125951
 32
0.0
 13
227.1531055094
 23
343.684011125951
 33
0.0
  0
SOLID
  5
E3
330
DE
100
AcDbEntity
  8
1
 62
     2
100
AcDbTrace
 10
167.6531055094
 20
344.1447948675068
 30
0.0
 11
167.6531055094
 21
343.2232273843951
 31
0.0
 12
164.1531055094
 22
343.684011125951
 32
0.0
 13
164.1531055094
 23
343.684011125951
 33
0.0
  0
MTEXT
  5
E4
330
DE
100
AcDbEntity
  8
1
 62
     3
100
AcDbMText
 10
194.419643285955
 20
345.684011125951
 30
0.0
 40
3.5
 41
0.0
 71
     7
 72
     1
  1
\C3;\C3;\C3;63\C2;\H2.45;\S^ ;\C3;
  7
CONVERTER_11
 11
0.9999999999970619
 21
2.424068405545306E-6
 31
0.0
 73
     1
 44
0.60024009603842
  0
ENDBLK
  5
E6
330
DE
100
AcDbEntity
  8
0
100
AcDbBlockEnd
  0
BLOCK
  5
F0
330
E9
100
AcDbEntity
  8
0
100
AcDbBlockBegin
  2
*D6
 70
     1
 10
0.0
 20
0.0
 30
0.0
  3
*D6
  1

  0
LINE
  5
EA
330
E9
100
AcDbEntity
  8
1
  6
Continuous
 62
     2
100
AcDbLine
 10
227.1531055094
 20
351.307521390615
 30
0.0
 11
62.40310550939998
 21
351.307521390615
 31
0.0
  0
LINE
  5
EB
330
E9
100
AcDbEntity
  8
1
  6
Continuous
 62
     2
100
AcDbLine
 10
227.1531055094
 20
301.0063171714
 30
0.0
 11
227.1531055094
 21
353.307521390615
 31
0.0
  0
LINE
  5
EC
330
E9
100
AcDbEntity
  8
1
  6
Continuous
 62
     2
100
AcDbLine
 10
62.40310550939996
 20
303.2506679412
 30
0.0
 11
62.40310550939996
 21
353.307521390615
 31
0.0
  0
SOLID
  5
ED
330
E9
100
AcDbEntity
  8
1
 62
     2
100
AcDbTrace
 10
223.6531055094
 20
350.8467376490592
 30
0.0
 11
223.6531055094
 21
351.7683051321709
 31
0.0
 12
227.1531055094
 22
351.307521390615
 32
0.0
 13
227.1531055094
 23
351.307521390615
 33
0.0
  0
SOLID
  5
EE
330
E9
100
AcDbEntity
  8
1
 62
     2
100
AcDbTrace
 10
65.90310550939998
 20
351.7683051321709
 30
0.0
 11
65.90310550939998
 21
350.8467376490592
 31
0.0
 12
62.40310550939998
 22
351.307521390615
 32
0.0
 13
62.40310550939998
 23
351.307521390615
 33
0.0
  0
MTEXT
  5
EF
330
E9
100
AcDbEntity
  8
1
 62
     3
100
AcDbMText
 10
150.1728287249998
 20
353.307521390615
 30
0.0
 40
3.5
 41
0.0
 71
     7
 72
     1
  1
\C3;\C3;\C3;164.75\C2;\H2.45;\S^ ;\C3;
  7
CONVERTER_11
 11
0.9999999999970619
 21
2.424068405545306E-6
 31
0.0
 73
     1
 44
0.60024009603842
  0
ENDBLK
  5
F1
330
E9
100
AcDbEntity
  8
0
100
AcDbBlockEnd
  0
BLOCK
  5
F8
330
F4
100
AcDbEntity
  8
0
100
AcDbBlockBegin
  2
*D7
 70
     1
 10
0.0
 20
0.0
 30
0.0
  3
*D7
  1

  0
LINE
  5
F5
330
F4
100
AcDbEntity
  8
1
  6
Continuous
 62
     2
100
AcDbLine
 10
194.4260213287376
 20
316.7807817381602
 30
0.0
 11
184.3691962196953
 21
309.6039045914832
 31
0.0
  0
SOLID
  5
F6
330
F4
100
AcDbEntity
  8
1
 62
     2
100
AcDbTrace
 10
186.9504804540861
 20
312.0120767941646
 30
0.0
 11
187.4858061566266
 21
311.2619347955214
 31
0.0
 12
184.3691962196953
 22
309.6039045914832
 32
0.0
 13
184.3691962196953
 23
309.6039045914832
 33
0.0
  0
MTEXT
  5
F7
330
F4
100
AcDbEntity
  8
1
 62
     3
100
AcDbMText
 10
187.2244813909305
 20
314.0985769502723
 30
0.0
 40
3.5
 41
0.0
 71
     7
 72
     1
  1
\C3; R\C3;\C3;6\C2;\H2.45;\S^ ;\C3;
  7
CONVERTER_11
 11
0.8139848816174561
 21
0.5808860581028058
 31
0.0
 73
     1
 44
0.60024009603842
  0
ENDBLK
  5
F9
330
F4
100
AcDbEntity
  8
0
100
AcDbBlockEnd
  0
ENDSEC
  0
SECTION
  2
ENTITIES
  0
INSERT
  5
6C
330
1F
100
AcDbEntity
  8
0
100
AcDbBlockReference
  2
Urheberrecht_DE-EN
 10
50.3002226750044
 20
296.03025772722
 30
0.0
  0
LINE
  5
70
330
1F
100
AcDbEntity
  8
0
  6
Continuous
 62
     7
100
AcDbLine
 10
62.40310550939999
 20
301.2506679412
 30
0.0
 11
62.40310550939999
 21
264.9277739389
 31
0.0
  0
LINE
  5
71
330
1F
100
AcDbEntity
  8
0
  6
Continuous
 62
     9
100
AcDbLine
 10
64.32838850369997
 20
303.4771132844001
 30
0.0
 11
64.32838850369997
 21
262.7013285957
 31
0.0
  0
LINE
  5
72
330
1F
100
AcDbEntity
  8
0
  6
Continuous
 62
     7
100
AcDbLine
 10
168.3531055094
 20
236.0899240703
 30
0.0
 11
172.0877271235
 21
236.0899240703
 31
0.0
  0
LINE
  5
73
330
1F
100
AcDbEntity
  8
0
  6
Continuous
 62
     7
100
AcDbLine
 10
178.5684838952
 20
236.0899240703
 30
0.0
 11
182.2531055094
 21
236.0899240703
 31
0.0
  0
LINE
  5
74
330
1F
100
AcDbEntity
  8
0
  6
Continuous
 62
     7
100
AcDbLine
 10
174.1656055094
 20
239.456205917
 30
0.0
 11
176.4906055094
 21
239.456205917
 31
0.0
  0
LINE
  5
75
330
1F
100
AcDbEntity
  8
0
  6
Continuous
 62
     7
100
AcDbLine
 10
164.7031055094
 20
248.5142209401
 30
0.0
 11
163.6634231761
 21
248.2356388985
 31
0.0
  0
LINE
  5
76
330
1F
100
AcDbEntity
  8
0
  6
Continuous
 62
     7
100
AcDbLine
 10
166.3531055094
 20
248.5142209401
 30
0.0
 11
164.7031055094
 21
248.5142209401
 31
0.0
  0
LINE
  5
77
330
1F
100
AcDbEntity
  8
0
  6
Continuous
 62
     7
100
AcDbLine
 10
163.6634231761
 20
248.2356388985
 30
0.0
 11
64.32838850369997
 21
262.7013285957
 31
0.0
  0
LINE
  5
78
330
1F
100
AcDbEntity
  8
RUNDUNGEN
  6
Continuous
 62
     7
100
AcDbLine
 10
213.8851563169
 20
259.0892209401
 30
0.0
 11
189.2531055094
 21
259.0892209401
 31
0.0
  0
LINE
  5
79
330
1F
100
AcDbEntity
  8
0
  6
Continuous
 62
     7
100
AcDbLine
 10
189.2531055094
 20
259.0892209401
 30
0.0
 11
213.8851563169
 21
259.0892209401
 31
0.0
  0
LWPOLYLINE
  5
7A
330
1F
100
AcDbEntity
  8
DEFAULT_2
  6
DASHED
 62
     8
100
AcDbPolyline
 90
        2
 70
     0
 43
0.35
 10
227.1531055094
 20
275.0892209401
 10
169.0531055094
 20
275.0892209401
  0
LWPOLYLINE
  5
7B
330
1F
100
AcDbEntity
  8
TEIL_STARTBEZUEGE
  6
DOT_CENTER
 62
     7
100
AcDbPolyline
 90
        2
 70
     0
 43
0.25
 10
230.1531055094
 20
283.0892209401
 10
59.40310550940002
 20
283.0892209401
  0
LWPOLYLINE
  5
7C
330
1F
100
AcDbEntity
  8
DEFAULT_2
  6
DASHED
 62
     8
100
AcDbPolyline
 90
        2
 70
     0
 43
0.35
 10
169.0531055094
 20
291.0892209401
 10
197.1531055094
 20
291.0892209401
  0
LWPOLYLINE
  5
7D
330
1F
100
AcDbEntity
  8
DEFAULT_2
  6
DASHED
 62
     8
100
AcDbPolyline
 90
        2
 70
     0
 43
0.35
 10
197.1531055094
 20
291.0892209401
 10
227.1531055094
 20
291.0892209401
  0
LINE
  5
7E
330
1F
100
AcDbEntity
  8
0
  6
Continuous
 62
     7
100
AcDbLine
 10
163.6634231761
 20
317.9428029816
 30
0.0
 11
163.6634231761
 21
248.2356388985
 31
0.0
  0
LINE
  5
7F
330
1F
100
AcDbEntity
  8
0
  6
Continuous
 62
     7
100
AcDbLine
 10
164.7031055094
 20
317.6642209401
 30
0.0
 11
164.7031055094
 21
248.5142209401
 31
0.0
  0
LINE
  5
80
330
1F
100
AcDbEntity
  8
0
  6
Continuous
 62
     9
100
AcDbLine
 10
166.3531055094
 20
317.6642209401
 30
0.0
 11
166.3531055094
 21
248.5142209401
 31
0.0
  0
LINE
  5
81
330
1F
100
AcDbEntity
  8
0
  6
Continuous
 62
     7
100
AcDbLine
 10
167.3531055094
 20
329.050714674
 30
0.0
 11
167.3531055094
 21
237.1277272062
 31
0.0
  0
LINE
  5
82
330
1F
100
AcDbEntity
  8
0
  6
Continuous
 62
     9
100
AcDbLine
 10
168.3531055094
 20
330.0885178098
 30
0.0
 11
168.3531055094
 21
236.0899240703
 31
0.0
  0
LWPOLYLINE
  5
83
330
1F
100
AcDbEntity
  8
DEFAULT_2
  6
DASHED
 62
     8
100
AcDbPolyline
 90
        2
 70
     0
 43
0.35
 10
169.0531055094
 20
291.0892209401
 10
169.0531055094
 20
275.0892209401
  0
LINE
  5
84
330
1F
100
AcDbEntity
  8
BEZUGSACHSEN
  6
Continuous
 62
     7
100
AcDbLine
 10
213.8851563169
 20
307.0892209401
 30
0.0
 11
209.1531055094
 21
307.0892209401
 31
0.0
  0
LINE
  5
85
330
1F
100
AcDbEntity
  8
BEZUGSACHSEN
  6
Continuous
 62
     7
100
AcDbLine
 10
197.1531055094
 20
307.0892209401
 30
0.0
 11
189.2531055094
 21
307.0892209401
 31
0.0
  0
LINE
  5
86
330
1F
100
AcDbEntity
  8
0
  6
Continuous
 62
     7
100
AcDbLine
 10
189.2531055094
 20
307.0892209401
 30
0.0
 11
197.1531055094
 21
307.0892209401
 31
0.0
  0
LINE
  5
87
330
1F
100
AcDbEntity
  8
0
  6
Continuous
 62
     7
100
AcDbLine
 10
209.1531055094
 20
307.0892209401
 30
0.0
 11
213.8851563169
 21
307.0892209401
 31
0.0
  0
LINE
  5
88
330
1F
100
AcDbEntity
  8
0
  6
Continuous
 62
     7
100
AcDbLine
 10
172.0877271235
 20
330.0885178098
 30
0.0
 11
172.0877271235
 21
236.0899240703
 31
0.0
  0
LINE
  5
89
330
1F
100
AcDbEntity
  8
0
  6
Continuous
 62
     7
100
AcDbLine
 10
173.4156055094
 20
327.6990381008
 30
0.0
 11
173.4156055094
 21
238.4794037793
 31
0.0
  0
LINE
  5
8A
330
1F
100
AcDbEntity
  8
0
  6
Continuous
 62
     9
100
AcDbLine
 10
174.1656055094
 20
326.7222359631
 30
0.0
 11
174.1656055094
 21
239.456205917
 31
0.0
  0
LINE
  5
8B
330
1F
100
AcDbEntity
  8
0
  6
Continuous
 62
     9
100
AcDbLine
 10
176.4906055094
 20
326.7222359631
 30
0.0
 11
176.4906055094
 21
239.456205917
 31
0.0
  0
LINE
  5
8C
330
1F
100
AcDbEntity
  8
0
  6
Continuous
 62
     7
100
AcDbLine
 10
177.2406055094
 20
327.6990381008
 30
0.0
 11
177.2406055094
 21
238.4794037793
 31
0.0
  0
LINE
  5
8D
330
1F
100
AcDbEntity
  8
0
  6
Continuous
 62
     7
100
AcDbLine
 10
163.6634231761
 20
317.9428029816
 30
0.0
 11
64.32838850369997
 21
303.4771132844001
 31
0.0
  0
LINE
  5
8E
330
1F
100
AcDbEntity
  8
0
  6
Continuous
 62
     7
100
AcDbLine
 10
178.5684838952
 20
330.0885178098
 30
0.0
 11
178.5684838952
 21
236.0899240703
 31
0.0
  0
LINE
  5
8F
330
1F
100
AcDbEntity
  8
0
  6
Continuous
 62
     9
100
AcDbLine
 10
182.2531055094
 20
330.0885178098
 30
0.0
 11
182.2531055094
 21
236.0899240703
 31
0.0
  0
LINE
  5
90
330
1F
100
AcDbEntity
  8
0
  6
Continuous
 62
     7
100
AcDbLine
 10
183.2531055094
 20
329.050714674
 30
0.0
 11
183.2531055094
 21
237.1277272062
 31
0.0
  0
LINE
  5
91
330
1F
100
AcDbEntity
  8
0
  6
Continuous
 62
     7
100
AcDbLine
 10
166.3531055094
 20
317.6642209401
 30
0.0
 11
164.7031055094
 21
317.6642209401
 31
0.0
  0
LINE
  5
92
330
1F
100
AcDbEntity
  8
0
  6
Continuous
 62
     7
100
AcDbLine
 10
167.3531055094
 20
318.3892209401
 30
0.0
 11
167.3145497355
 21
318.3892209401
 31
0.0
  0
LINE
  5
93
330
1F
100
AcDbEntity
  8
0
  6
Continuous
 62
     7
100
AcDbLine
 10
164.7031055094
 20
317.6642209401
 30
0.0
 11
163.6634231761
 21
317.9428029816
 31
0.0
  0
LINE
  5
94
330
1F
100
AcDbEntity
  8
RUNDUNGEN
  6
Continuous
 62
     9
100
AcDbLine
 10
189.2531055094
 20
307.0892209401
 30
0.0
 11
189.2531055094
 21
259.0892209401
 31
0.0
  0
LINE
  5
95
330
1F
100
AcDbEntity
  8
0
  6
Continuous
 62
     7
100
AcDbLine
 10
174.1656055094
 20
326.7222359631
 30
0.0
 11
176.4906055094
 21
326.7222359631
 31
0.0
  0
LINE
  5
96
330
1F
100
AcDbEntity
  8
0
  6
Continuous
 62
     7
100
AcDbLine
 10
168.3531055094
 20
330.0885178098
 30
0.0
 11
172.0877271235
 21
330.0885178098
 31
0.0
  0
LINE
  5
97
330
1F
100
AcDbEntity
  8
0
  6
Continuous
 62
     7
100
AcDbLine
 10
178.5684838952
 20
330.0885178098
 30
0.0
 11
182.2531055094
 21
330.0885178098
 31
0.0
  0
LWPOLYLINE
  5
98
330
1F
100
AcDbEntity
  8
BEZUGSACHSEN
  6
DASHED
 62
     8
100
AcDbPolyline
 90
        2
 70
     0
 43
0.35
 10
197.1531055094
 20
291.0892209401
 10
197.1531055094
 20
307.0892209401
  0
LINE
  5
99
330
1F
100
AcDbEntity
  8
0
  6
Continuous
 62
     7
100
AcDbLine
 10
214.3851563169
 20
259.2231955363
 30
0.0
 11
226.6531055094
 21
266.3060993049
 31
0.0
  0
LINE
  5
9A
330
1F
100
AcDbEntity
  8
RUNDUNGEN
  6
Continuous
 62
     7
100
AcDbLine
 10
226.6531055094
 20
299.8723425752
 30
0.0
 11
214.3851563169
 21
306.9552463439
 31
0.0
  0
LINE
  5
9B
330
1F
100
AcDbEntity
  8
0
  6
Continuous
 62
     7
100
AcDbLine
 10
214.3851563169
 20
306.9552463439
 30
0.0
 11
226.6531055094
 21
299.8723425752
 31
0.0
  0
LWPOLYLINE
  5
9C
330
1F
100
AcDbEntity
  8
BEZUGSACHSEN
  6
DOT_CENTER
 62
     7
100
AcDbPolyline
 90
        2
 70
     0
 43
0.25
 10
203.1531055094
 20
310.0892209401
 10
203.1531055094
 20
285.3792916156
  0
LWPOLYLINE
  5
9D
330
1F
100
AcDbEntity
  8
BEZUGSACHSEN
  6
DASHED
 62
     8
100
AcDbPolyline
 90
        2
 70
     0
 43
0.35
 10
209.1531055094
 20
291.0892209401
 10
209.1531055094
 20
307.0892209401
  0
LINE
  5
9E
330
1F
100
AcDbEntity
  8
RUNDUNGEN
  6
Continuous
 62
     9
100
AcDbLine
 10
213.8851563169
 20
259.0892209401
 30
0.0
 11
213.8851563169
 21
307.0892209401
 31
0.0
  0
LINE
  5
9F
330
1F
100
AcDbEntity
  8
RUNDUNGEN
  6
Continuous
 62
     9
100
AcDbLine
 10
214.3851563169
 20
259.2231955363
 30
0.0
 11
214.3851563169
 21
306.9552463439
 31
0.0
  0
LINE
  5
A0
330
1F
100
AcDbEntity
  8
RUNDUNGEN
  6
Continuous
 62
     9
100
AcDbLine
 10
226.6531055094
 20
266.3060993049
 30
0.0
 11
226.6531055094
 21
299.8723425752
 31
0.0
  0
LINE
  5
A1
330
1F
100
AcDbEntity
  8
RUNDUNGEN
  6
Continuous
 62
     7
100
AcDbLine
 10
227.1531055094
 20
267.1721247087
 30
0.0
 11
227.1531055094
 21
299.0063171714
 31
0.0
  0
LWPOLYLINE
  5
A2
330
1F
100
AcDbEntity
  8
1
  6
DOT_CENTER
 62
     7
100
AcDbPolyline
 90
        2
 70
     0
 43
0.25
 10
164.1531055094
 20
324.312796519019
 10
164.1531055094
 20
241.912796519019
  0
LWPOLYLINE
  5
A3
330
1F
100
AcDbEntity
  8
BEZUGSACHSEN
  6
DASHED
 62
     8
100
AcDbPolyline
 90
        2
 70
     0
 43
0.35
 10
210.1531055094
 20
291.0892209401
 10
210.1531055094
 20
307.0892209401
  0
LWPOLYLINE
  5
A4
330
1F
100
AcDbEntity
  8
BEZUGSACHSEN
  6
DASHED
 62
     8
100
AcDbPolyline
 90
        2
 70
     0
 43
0.35
 10
196.1531055094
 20
291.0892209401
 10
196.1531055094
 20
307.0892209401
  0
ARC
  5
A5
330
1F
100
AcDbEntity
  8
RUNDUNGEN
  6
Continuous
 62
     7
100
AcDbCircle
 10
189.2531055094
 20
313.0892209401
 30
0.0
 40
6.0
100
AcDbArc
 50
180.0
 51
270.0
  0
ARC
  5
A6
330
1F
100
AcDbEntity
  8
RUNDUNGEN
  6
Continuous
 62
     7
100
AcDbCircle
 10
189.2531055094
 20
253.0892209401
 30
0.0
 40
6.0
100
AcDbArc
 50
90.0
 51
180.0
  0
ARC
  5
A7
330
1F
100
AcDbEntity
  8
0
  6
Continuous
 62
     7
100
AcDbCircle
 10
64.65310550939999
 20
264.9277739389
 30
0.0
 40
2.25
100
AcDbArc
 50
180.0
 51
261.7021731701251
  0
ARC
  5
A8
330
1F
100
AcDbEntity
  8
0
  6
Continuous
 62
     7
100
AcDbCircle
 10
64.65310550939999
 20
301.2506679412
 30
0.0
 40
2.250000000010723
100
AcDbArc
 50
98.29782682987447
 51
180.0
  0
ARC
  5
A9
330
1F
100
AcDbEntity
  8
RUNDUNGEN
  6
Continuous
 62
     7
100
AcDbCircle
 10
226.1531055094
 20
299.0063171714
 30
0.0
 40
1.0
100
AcDbArc
 50
0.0
 51
60.00000000044565
  0
ARC
  5
AA
330
1F
100
AcDbEntity
  8
RUNDUNGEN
  6
Continuous
 62
     7
100
AcDbCircle
 10
226.1531055094
 20
267.1721247087
 30
0.0
 40
1.000000000013472
100
AcDbArc
 50
299.9999999995543
 51
0.0
  0
ARC
  5
AB
330
1F
100
AcDbEntity
  8
RUNDUNGEN
  6
Continuous
 62
     7
100
AcDbCircle
 10
213.8851563169
 20
306.0892209401
 30
0.0
 40
1.000000000013472
100
AcDbArc
 50
60.00000000044565
 51
90.0
  0
ARC
  5
AC
330
1F
100
AcDbEntity
  8
RUNDUNGEN
  6
Continuous
 62
     7
100
AcDbCircle
 10
213.8851563169
 20
260.0892209401
 30
0.0
 40
1.0
100
AcDbArc
 50
270.0
 51
299.9999999995543
  0
ARC
  5
AD
330
1F
100
AcDbEntity
  8
0
  6
Continuous
 62
     7
100
AcDbCircle
 10
166.3531055094
 20
318.6642209401
 30
0.0
 40
1.0
100
AcDbArc
 50
270.0
 51
344.0379858363432
  0
ARC
  5
AE
330
1F
100
AcDbEntity
  8
0
  6
Continuous
 62
     7
100
AcDbCircle
 10
166.3531055094
 20
247.5142209401
 30
0.0
 40
1.0
100
AcDbArc
 50
0.0
 51
90.0
  0
SPLINE
  5
AF
330
1F
100
AcDbEntity
  8
0
  6
Continuous
 62
     2
100
AcDbSpline
210
0.0
220
0.0
230
1.0
 70
     8
 71
     3
 72
    47
 73
    43
 74
    41
 42
0.0000000001
 43
0.0000000001
 44
0.00000001
 40
0.0
 40
0.0
 40
0.0
 40
0.0
 40
0.0227304069074608
 40
0.0903150600898949
 40
0.2017979435511668
 40
0.3560380612770641
 40
0.5518340629819461
 40
0.7879188918306478
 40
1.062995852419654
 40
1.375687681826785
 40
1.724437389479368
 40
2.1069951883743
 40
2.520891005973292
 40
2.963380201783762
 40
3.431436156344227
 40
3.921062352042629
 40
4.428056173083952
 40
4.948232233296384
 40
5.477717447911466
 40
6.013775932892099
 40
6.554037430603716
 40
7.096403353900402
 40
7.638835769700013
 40
8.179246603462598
 40
8.715472314647332
 40
9.245117636408468
 40
9.765447215931491
 40
10.272651335545
 40
10.76262732459714
 40
11.2312699113998
 40
11.67463976076683
 40
12.08959068458627
 40
12.47323198271694
 40
12.82301815705305
 40
13.13664837785088
 40
13.41254262115415
 40
13.64931333192331
 40
13.84567702519818
 40
14.00037992536272
 40
14.11221099501091
 40
14.18001422733686
 40
14.20282034424036
 40
14.20282034424036
 40
14.20282034424036
 40
14.20282034424036
 10
196.1531055094
 20
307.0892478143
 30
0.0
 10
196.1603777595442
 20
307.0871212360933
 30
0.0
 10
196.1892726980043
 20
307.078671671626
 30
0.0
 10
196.2538901334203
 20
307.0599817168322
 30
0.0
 10
196.3606922765119
 20
307.0293691635795
 30
0.0
 10
196.5087901064651
 20
306.9877288063562
 30
0.0
 10
196.6971704817481
 20
306.9359190243554
 30
0.0
 10
196.9248663067513
 20
306.8751896331108
 30
0.0
 10
197.1908315744196
 20
306.806780215129
 30
0.0
 10
197.4939866510937
 20
306.732260976873
 30
0.0
 10
197.8329112057648
 20
306.6532632520456
 30
0.0
 10
198.205844992167
 20
306.571705013485
 30
0.0
 10
198.6105992680546
 20
306.4895978860872
 30
0.0
 10
199.0446901759094
 20
306.4090387710356
 30
0.0
 10
199.505074178053
 20
306.3322079342465
 30
0.0
 10
199.988128692635
 20
306.2611147495465
 30
0.0
 10
200.4897925672595
 20
306.1978601414546
 30
0.0
 10
201.005909073447
 20
306.1439295465119
 30
0.0
 10
201.5327648531099
 20
306.1007961300928
 30
0.0
 10
202.0671518654034
 20
306.069271647858
 30
0.0
 10
202.6064227967456
 20
306.0501046274813
 30
0.0
 10
203.1481202466365
 20
306.0435550461334
 30
0.0
 10
203.6898702482034
 20
306.0498711318972
 30
0.0
 10
204.2292770588715
 20
306.068809704362
 30
0.0
 10
204.7638359030843
 20
306.1001199336472
 30
0.0
 10
205.2908690240359
 20
306.1430515981369
 30
0.0
 10
205.8071806990297
 20
306.1967951107995
 30
0.0
 10
206.3091046951449
 20
306.2598884003436
 30
0.0
 10
206.7925636353749
 20
306.3308592024547
 30
0.0
 10
207.2535711195997
 20
306.40763438644
 30
0.0
 10
207.6885128595138
 20
306.4882173833439
 30
0.0
 10
208.0942755280371
 20
306.5704164443687
 30
0.0
 10
208.4682608774451
 20
306.6521207103839
 30
0.0
 10
208.8081918582241
 20
306.7312919213098
 30
0.0
 10
209.1122606799918
 20
306.8059931590564
 30
0.0
 10
209.3790209617858
 20
306.8745789588352
 30
0.0
 10
209.6073881612371
 20
306.9354698227401
 30
0.0
 10
209.7963226266166
 20
306.9874224460216
 30
0.0
 10
209.9448641082286
 20
307.029182761184
 30
0.0
 10
210.0519966398503
 20
307.0598881701388
 30
0.0
 10
210.1168199557202
 20
307.0786370982166
 30
0.0
 10
210.1458090391094
 20
307.0871142243345
 30
0.0
 10
210.1531055094
 20
307.089247893
 30
0.0
 11
196.1531055094
 21
307.0892478143
 31
0.0
 11
196.1749238256416
 21
307.0828734535823
 31
0.0
 11
196.2398392190333
 21
307.0640671502084
 31
0.0
 11
196.3470130924104
 21
307.0333719686615
 31
0.0
 11
196.49548979195
 21
306.9916025586834
 31
0.0
 11
196.6842816272375
 21
306.9397015258187
 31
0.0
 11
196.91238981815
 21
306.8788517135666
 31
0.0
 11
197.1788008004021
 21
306.8103497224834
 31
0.0
 11
197.4824529627667
 21
306.7357069434
 31
0.0
 11
197.8221033633333
 21
306.6565617351895
 31
0.0
 11
198.1958317844
 21
306.5748455386167
 31
0.0
 11
198.6014702034146
 21
306.4925824190229
 31
0.0
 11
199.0365366542167
 21
306.4118738581667
 31
0.0
 11
199.4982099534896
 21
306.3348404800896
 31
0.0
 11
199.9826259929
 21
306.26360206155
 31
0.0
 11
200.4856367967833
 21
306.2001759963188
 31
0.0
 11
201.0030018451666
 21
306.1461709934999
 31
0.0
 11
201.5307214387417
 21
306.1029665602438
 31
0.0
 11
202.0658517051667
 21
306.07143408055
 31
0.0
 11
202.6057719726375
 21
306.0522353648687
 31
0.0
 11
203.1480985445333
 21
306.0457020526
 31
0.0
 11
203.6904943817083
 21
306.0520013799813
 31
0.0
 11
204.2305720997334
 21
306.07097314165
 31
0.0
 11
204.7658824670166
 21
306.1022912516604
 31
0.0
 11
205.2937792086
 21
306.1452935433334
 31
0.0
 11
205.8113183281146
 21
306.1991092575688
 31
0.0
 11
206.3145619869167
 21
306.2623693463167
 31
0.0
 11
206.7993501843813
 21
306.3334810432917
 31
0.0
 11
207.2616281142333
 21
306.4104549982166
 31
0.0
 11
207.6975847456604
 21
306.4911930861459
 31
0.0
 11
208.10427895535
 21
306.57355866745
 31
0.0
 11
208.4790835193375
 21
306.6554255377063
 31
0.0
 11
208.81975690355
 21
306.734747748
 31
0.0
 11
209.1243302301584
 21
306.8095742414125
 31
0.0
 11
209.3915395564167
 21
306.8782532735
 31
0.0
 11
209.6203148158896
 21
306.9392635196167
 31
0.0
 11
209.8096565123
 21
306.9913060218333
 31
0.0
 11
209.9585799483364
 21
307.0331963252272
 31
0.0
 11
210.0660890523917
 21
307.0639856201834
 31
0.0
 11
210.1312145224802
 21
307.0828522960854
 31
0.0
 11
210.1531055094
 21
307.089247893
 31
0.0
  0
SPLINE
  5
B0
330
1F
100
AcDbEntity
  8
0
  6
Continuous
 62
     7
100
AcDbSpline
210
0.0
220
0.0
230
1.0
 70
     8
 71
     3
 72
    15
 73
    11
 74
     9
 42
0.0000000001
 43
0.0000000001
 44
0.00000001
 40
0.0
 40
0.0
 40
0.0
 40
0.0
 40
0.1994115816801964
 40
0.3995307346260142
 40
0.5993951286263894
 40
0.7990503740845429
 40
0.9987117984146058
 40
1.198567836601115
 40
1.398751217244408
 40
1.598077981673919
 40
1.598077981673919
 40
1.598077981673919
 40
1.598077981673919
 10
183.2531055094
 20
329.050714674
 30
0.0
 10
183.2494872847936
 20
329.1172729894114
 30
0.0
 10
183.2422379970498
 20
329.2506257888211
 30
0.0
 10
183.1850414114283
 20
329.4438968017
 30
0.0
 10
183.0948744529476
 20
329.6233718948724
 30
0.0
 10
182.971642075404
 20
329.7822128775814
 30
0.0
 10
182.8198539491084
 20
329.9141394335617
 30
0.0
 10
182.6447297938812
 20
330.0127689209357
 30
0.0
 10
182.4530256798225
 20
330.0762131478884
 30
0.0
 10
182.3196502398303
 20
330.0844221229655
 30
0.0
 10
182.2531055094
 20
330.0885178098
 30
0.0
 11
183.2531055094
 21
329.050714674
 31
0.0
 11
183.234559284273
 21
329.2492619390069
 31
0.0
 11
183.1795158315907
 21
329.4416622864405
 31
0.0
 11
183.0893139377537
 21
329.6200141699107
 31
0.0
 11
182.9668854860394
 21
329.7777274897344
 31
0.0
 11
182.8160427132055
 21
329.9085370545578
 31
0.0
 11
182.6420471086186
 21
330.0068628679745
 31
0.0
 11
182.4513471351933
 21
330.0677472339592
 31
0.0
 11
182.2531055094
 21
330.0885178098
 31
0.0
  0
SPLINE
  5
B1
330
1F
100
AcDbEntity
  8
0
  6
Continuous
 62
     7
100
AcDbSpline
210
0.0
220
0.0
230
1.0
 70
     8
 71
     3
 72
    15
 73
    11
 74
     9
 42
0.0000000001
 43
0.0000000001
 44
0.00000001
 40
0.0
 40
0.0
 40
0.0
 40
0.0
 40
0.1993272357220835
 40
0.3995110957185738
 40
0.599367392731438
 40
0.7990290697168254
 40
0.9986840388354152
 40
1.198548154927208
 40
1.398666849415966
 40
1.598077976716274
 40
1.598077976716274
 40
1.598077976716274
 40
1.598077976716274
 10
182.2531055094
 20
236.0899240703
 30
0.0
 10
182.3196503975601
 20
236.0940197792311
 30
0.0
 10
182.4530261557047
 20
236.1022287987204
 30
0.0
 10
182.6447306144186
 20
236.1656733127059
 30
0.0
 10
182.8198549558018
 20
236.264303147574
 30
0.0
 10
182.971642977114
 20
236.3962299515793
 30
0.0
 10
183.0948750852018
 20
236.5550710099507
 30
0.0
 10
183.1850417067712
 20
236.7345458901183
 30
0.0
 10
183.242238047957
 20
236.9278165487688
 30
0.0
 10
183.2494873017277
 20
237.0611690427979
 30
0.0
 10
183.2531055094
 20
237.1277272062
 30
0.0
 11
182.2531055094
 21
236.0899240703
 31
0.0
 11
182.4513475979166
 21
236.1106947525513
 31
0.0
 11
182.6420479812763
 21
236.1715794106315
 31
0.0
 11
182.8160437063463
 21
236.269905536931
 31
0.0
 11
182.9668865022899
 21
236.4007154607463
 31
0.0
 11
183.0893145818413
 21
236.5584287196406
 31
0.0
 11
183.1795161682739
 21
236.7367804471518
 31
0.0
 11
183.2345593699377
 21
236.9291803895491
 31
0.0
 11
183.2531055094
 21
237.1277272062
 31
0.0
  0
SPLINE
  5
B2
330
1F
100
AcDbEntity
  8
0
  6
Continuous
 62
     7
100
AcDbSpline
210
0.0
220
0.0
230
1.0
 70
     8
 71
     3
 72
    15
 73
    11
 74
     9
 42
0.0000000001
 43
0.0000000001
 44
0.00000001
 40
0.0
 40
0.0
 40
0.0
 40
0.0
 40
0.1993272936912576
 40
0.3995112141848317
 40
0.5993674460552507
 40
0.7990290559716382
 40
0.9986840827647627
 40
1.198548256418088
 40
1.398666897454777
 40
1.598077972499127
 40
1.598077972499127
 40
1.598077972499127
 40
1.598077972499127
 10
168.3531055094
 20
330.0885178098
 30
0.0
 10
168.2865606018466
 20
330.0844220959708
 30
0.0
 10
168.1531848040713
 20
330.0762130666174
 30
0.0
 10
167.9614803382924
 20
330.0127685134972
 30
0.0
 10
167.7863560252541
 20
329.9141386820615
 30
0.0
 10
167.6345680185203
 20
329.7822119006654
 30
0.0
 10
167.5113358951217
 20
329.623370832557
 30
0.0
 10
167.4211692719818
 20
329.4438959282186
 30
0.0
 10
167.3639729601255
 20
329.2506252786095
 30
0.0
 10
167.3567237135101
 20
329.117272819928
 30
0.0
 10
167.3531055094
 20
329.050714674
 30
0.0
 11
168.3531055094
 21
330.0885178098
 31
0.0
 11
168.1548633647784
 21
330.0677471067281
 31
0.0
 11
167.9641629325389
 21
330.0068624028375
 31
0.0
 11
167.7901672709555
 21
329.908536296601
 31
0.0
 11
167.6393245216776
 21
329.7777264213444
 31
0.0
 11
167.5168964022415
 21
329.6200131203989
 31
0.0
 11
167.4266947997229
 21
329.4416613365188
 31
0.0
 11
167.3716516333771
 21
329.249261439614
 31
0.0
 11
167.3531055094
 21
329.050714674
 31
0.0
  0
SPLINE
  5
B3
330
1F
100
AcDbEntity
  8
BEZUGSACHSEN
  6
Continuous
 62
     7
100
AcDbSpline
210
0.0
220
0.0
230
1.0
 70
     8
 71
     3
 72
    23
 73
    19
 74
    17
 42
0.0000000001
 43
0.0000000001
 44
0.00000001
 40
0.0
 40
0.0
 40
0.0
 40
0.0
 40
0.236090260818197
 40
0.4721884313429155
 40
1.134986846705964
 40
1.797824884596329
 40
2.777721706144937
 40
3.757680471652874
 40
4.910357902071041
 40
6.063063545978197
 40
7.215775682840754
 40
8.368459594681918
 40
9.348442318541089
 40
10.32836312021804
 40
10.99122356142207
 40
11.65404436914389
 40
11.89015102433391
 40
12.1262497705132
 40
12.1262497705132
 40
12.1262497705132
 40
12.1262497705132
 10
209.1531055094
 20
307.0892209401
 30
0.0
 10
209.0767118885583
 20
307.0703190742255
 30
0.0
 10
208.9239220874678
 20
307.0325147092094
 30
0.0
 10
208.5557085302408
 20
306.9455935321783
 30
0.0
 10
208.0471664485585
 20
306.83402951418
 30
0.0
 10
207.2925016822858
 20
306.6884086017371
 30
0.0
 10
206.4290017889684
 20
306.5503506205351
 30
0.0
 10
205.3985345251084
 20
306.4273498749334
 30
0.0
 10
204.3059749507292
 20
306.3463195069373
 30
0.0
 10
203.1531646544539
 20
306.3175534260505
 30
0.0
 10
202.0003520111611
 20
306.3463125549725
 30
0.0
 10
200.9077797120457
 20
306.4273381874017
 30
0.0
 10
199.8772939938441
 20
306.5503376394183
 30
0.0
 10
199.0137706403559
 20
306.6883974878389
 30
0.0
 10
198.2590831090305
 20
306.834021448728
 30
0.0
 10
197.7505235541886
 20
306.9455887248868
 30
0.0
 10
197.3822971775067
 20
307.0325127085688
 30
0.0
 10
197.2295018790415
 20
307.0703184073266
 30
0.0
 10
197.1531055094
 20
307.0892209401
 30
0.0
 11
209.1531055094
 21
307.0892209401
 31
0.0
 11
208.9238251408094
 21
307.032925968458
 31
0.0
 11
208.6940642942766
 21
306.9785909012763
 31
0.0
 11
208.0466155902829
 21
306.8367744173804
 31
0.0
 11
207.3957718866933
 21
306.7112485715473
 31
0.0
 11
206.4281262483325
 21
306.5567827195205
 31
0.0
 11
205.4550476218624
 21
306.4408639168913
 31
0.0
 11
204.3055175839075
 21
306.3557407682481
 31
0.0
 11
203.1531667879268
 21
306.3271410392639
 31
0.0
 11
202.0008093301882
 21
306.3557340465297
 31
0.0
 11
200.8512723976262
 21
306.4408518548501
 31
0.0
 11
199.8781695762722
 21
306.5567700938612
 31
0.0
 11
198.9104999065315
 21
306.7112375267496
 31
0.0
 11
198.259633992877
 21
306.8367665152576
 31
0.0
 11
197.6121632646192
 21
306.9785871033199
 31
0.0
 11
197.3823941315501
 21
307.0329239979102
 31
0.0
 11
197.1531055094
 21
307.0892209401
 31
0.0
  0
SPLINE
  5
B4
330
1F
100
AcDbEntity
  8
0
  6
Continuous
 62
     7
100
AcDbSpline
210
0.0
220
0.0
230
1.0
 70
     8
 71
     3
 72
    15
 73
    11
 74
     9
 42
0.0000000001
 43
0.0000000001
 44
0.00000001
 40
0.0
 40
0.0
 40
0.0
 40
0.0
 40
0.1498536492842858
 40
0.3002375261618839
 40
0.4504311697420208
 40
0.6004682482931301
 40
0.750515376067467
 40
0.9007056145078931
 40
1.051151259672683
 40
1.20094418905855
 40
1.20094418905855
 40
1.20094418905855
 40
1.20094418905855
 10
177.2406055094
 20
327.5037737353
 30
0.0
 10
177.2378964172752
 20
327.4537570547293
 30
0.0
 10
177.2324686474371
 20
327.3535467194246
 30
0.0
 10
177.1896592072843
 20
327.2082704952655
 30
0.0
 10
177.1221991581157
 20
327.0732577514917
 30
0.0
 10
177.0299411648516
 20
326.9536285495106
 30
0.0
 10
176.9162097007363
 20
326.8541020337713
 30
0.0
 10
176.7848286723909
 20
326.7795712708258
 30
0.0
 10
176.6408494806018
 20
326.7315644360877
 30
0.0
 10
176.5406141962853
 20
326.7253409441586
 30
0.0
 10
176.4906055094
 20
326.7222359631
 30
0.0
 11
177.2406055094
 21
327.5037737353
 31
0.0
 11
177.2267218407887
 21
327.3545646204655
 31
0.0
 11
177.1855281037049
 21
327.2099327206307
 31
0.0
 11
177.1180293776437
 21
327.0757609927891
 31
0.0
 11
177.026365612847
 21
326.9569801897802
 31
0.0
 11
176.913326360201
 21
326.8583076611081
 31
0.0
 11
176.7827922125032
 21
326.7840247962764
 31
0.0
 11
176.6395701312375
 21
326.7379669241265
 31
0.0
 11
176.4906055094
 21
326.7222359631
 31
0.0
  0
SPLINE
  5
B5
330
1F
100
AcDbEntity
  8
0
  6
Continuous
 62
     7
100
AcDbSpline
210
0.0
220
0.0
230
1.0
 70
     8
 71
     3
 72
    15
 73
    11
 74
     9
 42
0.0000000001
 43
0.0000000001
 44
0.00000001
 40
0.0
 40
0.0
 40
0.0
 40
0.0
 40
0.149793559081634
 40
0.3002398467629732
 40
0.4504306630891086
 40
0.600478358312957
 40
0.7505149758296641
 40
0.9007081564193355
 40
1.051091279625118
 40
1.200944180884415
 40
1.200944180884415
 40
1.200944180884415
 40
1.200944180884415
 10
174.1656055094
 20
326.7222359631
 30
0.0
 10
174.115596611745
 20
326.7253409745394
 30
0.0
 10
174.0153609016063
 20
326.7315645275713
 30
0.0
 10
173.8713811772038
 20
326.7795717763388
 30
0.0
 10
173.7399997739579
 20
326.8541030996452
 30
0.0
 10
173.6262683964559
 20
326.953630077974
 30
0.0
 10
173.5340108227362
 20
327.0732594440125
 30
0.0
 10
173.4665513335841
 20
327.2082718345309
 30
0.0
 10
173.4237422904304
 20
327.3535474720386
 30
0.0
 10
173.4183145745972
 20
327.4537573049716
 30
0.0
 10
173.4156055094
 20
327.5037737353
 30
0.0
 11
174.1656055094
 21
326.7222359631
 31
0.0
 11
174.0166402697021
 21
326.7379670693579
 31
0.0
 11
173.8734176405735
 21
326.7840253366135
 31
0.0
 11
173.7428831417538
 21
326.8583087528421
 31
0.0
 11
173.6298437289852
 21
326.9569819609733
 31
0.0
 11
173.5381805836884
 21
327.0757626597007
 31
0.0
 11
173.4706823684248
 21
327.2099341262347
 31
0.0
 11
173.4294890403261
 21
327.3545653589103
 31
0.0
 11
173.4156055094
 21
327.5037737353
 31
0.0
  0
SPLINE
  5
B6
330
1F
100
AcDbEntity
  8
0
  6
Continuous
 62
     7
100
AcDbSpline
210
0.0
220
0.0
230
1.0
 70
     8
 71
     3
 72
    15
 73
    11
 74
     9
 42
0.0000000001
 43
0.0000000001
 44
0.00000001
 40
0.0
 40
0.0
 40
0.0
 40
0.0
 40
0.1498537524866392
 40
0.3002377329509712
 40
0.4504313876739936
 40
0.6004684787200449
 40
0.7505157524031825
 40
0.9007061337664435
 40
1.051151518438819
 40
1.200944190634688
 40
1.200944190634688
 40
1.200944190634688
 40
1.200944190634688
 10
173.4156055094
 20
238.6746681448
 30
0.0
 10
173.4183146054676
 20
238.7246848598899
 30
0.0
 10
173.4237423832054
 20
238.8248952643613
 30
0.0
 10
173.4665518741905
 20
238.9701715519925
 30
0.0
 10
173.5340119797569
 20
239.1051843152192
 30
0.0
 10
173.6262700431889
 20
239.2248135349535
 30
0.0
 10
173.7400016215627
 20
239.3243400759626
 30
0.0
 10
173.8713827027562
 20
239.3988707717641
 30
0.0
 10
174.0153617974465
 20
239.4468774804464
 30
0.0
 10
174.1155969085631
 20
239.4531009480534
 30
0.0
 10
174.1656055094
 20
239.456205917
 30
0.0
 11
173.4156055094
 21
238.6746681448
 31
0.0
 11
173.4294891977682
 21
238.8238773614443
 31
0.0
 11
173.4706829918704
 21
238.9685093527456
 31
0.0
 11
173.5381817600121
 21
239.1026810718909
 31
0.0
 11
173.6298455670178
 21
239.2214618581098
 31
0.0
 11
173.742884966775
 21
239.3201344401287
 31
0.0
 11
173.8734192814207
 21
239.3944173005611
 31
0.0
 11
174.0166411400355
 21
239.4404750141838
 31
0.0
 11
174.1656055094
 21
239.456205917
 31
0.0
  0
SPLINE
  5
B7
330
1F
100
AcDbEntity
  8
0
  6
Continuous
 62
     7
100
AcDbSpline
210
0.0
220
0.0
230
1.0
 70
     8
 71
     3
 72
    15
 73
    11
 74
     9
 42
0.0000000001
 43
0.0000000001
 44
0.00000001
 40
0.0
 40
0.0
 40
0.0
 40
0.0
 40
0.1497938276634366
 40
0.300240387423857
 40
0.4504310444104852
 40
0.6004785770526093
 40
0.7505151708614837
 40
0.9007083293403699
 40
1.051091365132422
 40
1.200944179374686
 40
1.200944179374686
 40
1.200944179374686
 40
1.200944179374686
 10
176.4906055094
 20
239.456205917
 30
0.0
 10
176.5406144969137
 20
239.4531008929117
 30
0.0
 10
176.6408503879381
 20
239.4468773144788
 30
0.0
 10
176.7848302105524
 20
239.3988699351941
 30
0.0
 10
176.9162115532159
 20
239.3243385463063
 30
0.0
 10
177.0299428055705
 20
239.2248116036579
 30
0.0
 10
177.1222003033196
 20
239.1051822674767
 30
0.0
 10
177.1896597392924
 20
238.9701699004778
 30
0.0
 10
177.2324687383386
 20
238.8248943206112
 30
0.0
 10
177.2378964475214
 20
238.7246845460225
 30
0.0
 10
177.2406055094
 20
238.6746681448
 30
0.0
 11
176.4906055094
 21
239.456205917
 31
0.0
 11
176.6395710127546
 21
239.4404747499623
 31
0.0
 11
176.7827938744693
 21
239.3944163172274
 31
0.0
 11
176.9133281907828
 21
239.3201329024523
 31
0.0
 11
177.0263674442586
 21
239.2214597590665
 31
0.0
 11
177.1180305427384
 21
239.1026790541568
 31
0.0
 11
177.1855287152532
 21
238.9685075908681
 31
0.0
 11
177.2267219951216
 21
238.8238764353458
 31
0.0
 11
177.2406055094
 21
238.6746681448
 31
0.0
  0
SPLINE
  5
B8
330
1F
100
AcDbEntity
  8
0
  6
Continuous
 62
     7
100
AcDbSpline
210
0.0
220
0.0
230
1.0
 70
     8
 71
     3
 72
     9
 73
     5
 74
     3
 42
0.0000000001
 43
0.0000000001
 44
0.00000001
 40
0.0
 40
0.0
 40
0.0
 40
0.0
 40
1.366828047866222
 40
2.733656073394708
 40
2.733656073394708
 40
2.733656073394708
 40
2.733656073394708
 10
178.5684838952
 20
330.0885178098
 30
0.0
 10
178.3469274505966
 20
329.6904064383424
 30
0.0
 10
177.9038145650108
 20
328.8941837019335
 30
0.0
 10
177.4616751933993
 20
328.0974199656742
 30
0.0
 10
177.2406055094
 20
327.6990381008
 30
0.0
 11
178.5684838952
 21
330.0885178098
 31
0.0
 11
177.9040579398875
 21
328.8940484454625
 31
0.0
 11
177.2406055094
 21
327.6990381008
 31
0.0
  0
SPLINE
  5
B9
330
1F
100
AcDbEntity
  8
0
  6
Continuous
 62
     7
100
AcDbSpline
210
0.0
220
0.0
230
1.0
 70
     8
 71
     3
 72
     9
 73
     5
 74
     3
 42
0.0000000001
 43
0.0000000001
 44
0.00000001
 40
0.0
 40
0.0
 40
0.0
 40
0.0
 40
1.366828025528486
 40
2.733656073394708
 40
2.733656073394708
 40
2.733656073394708
 40
2.733656073394708
 10
177.2406055094
 20
238.4794037793
 30
0.0
 10
177.4616751933993
 20
238.0810219144257
 30
0.0
 10
177.9038145650108
 20
237.2842581781665
 30
0.0
 10
178.3469274505966
 20
236.4880354417576
 30
0.0
 10
178.5684838952
 20
236.0899240703
 30
0.0
 11
177.2406055094
 21
238.4794037793
 31
0.0
 11
177.9040579398875
 21
237.2843934346375
 31
0.0
 11
178.5684838952
 21
236.0899240703
 31
0.0
  0
SPLINE
  5
BA
330
1F
100
AcDbEntity
  8
0
  6
Continuous
 62
     7
100
AcDbSpline
210
0.0
220
0.0
230
1.0
 70
     8
 71
     3
 72
     9
 73
     5
 74
     3
 42
0.0000000001
 43
0.0000000001
 44
0.00000001
 40
0.0
 40
0.0
 40
0.0
 40
0.0
 40
1.366828047872301
 40
2.733656073443264
 40
2.733656073443264
 40
2.733656073443264
 40
2.733656073443264
 10
172.0877271235
 20
330.0885178098
 30
0.0
 10
172.3092835681028
 20
329.6904064383398
 30
0.0
 10
172.7523964536933
 20
328.894183701915
 30
0.0
 10
173.1945358253668
 20
328.0974199656716
 30
0.0
 10
173.4156055094
 20
327.6990381008
 30
0.0
 11
172.0877271235
 21
330.0885178098
 31
0.0
 11
172.752153078825
 21
328.8940484454625
 31
0.0
 11
173.4156055094
 21
327.6990381008
 31
0.0
  0
SPLINE
  5
BB
330
1F
100
AcDbEntity
  8
0
  6
Continuous
 62
     7
100
AcDbSpline
210
0.0
220
0.0
230
1.0
 70
     8
 71
     3
 72
     9
 73
     5
 74
     3
 42
0.0000000001
 43
0.0000000001
 44
0.00000001
 40
0.0
 40
0.0
 40
0.0
 40
0.0
 40
1.366828025570977
 40
2.733656073443264
 40
2.733656073443264
 40
2.733656073443264
 40
2.733656073443264
 10
173.4156055094
 20
238.4794037793
 30
0.0
 10
173.1945358253668
 20
238.0810219144284
 30
0.0
 10
172.7523964536932
 20
237.284258178185
 30
0.0
 10
172.3092835681028
 20
236.4880354417603
 30
0.0
 10
172.0877271235
 20
236.0899240703
 30
0.0
 11
173.4156055094
 21
238.4794037793
 31
0.0
 11
172.752153078825
 21
237.2843934346375
 31
0.0
 11
172.0877271235
 21
236.0899240703
 31
0.0
  0
SPLINE
  5
BC
330
1F
100
AcDbEntity
  8
0
  6
Continuous
 62
     7
100
AcDbSpline
210
0.0
220
0.0
230
1.0
 70
     8
 71
     3
 72
    15
 73
    11
 74
     9
 42
0.0000000001
 43
0.0000000001
 44
0.00000001
 40
0.0
 40
0.0
 40
0.0
 40
0.0
 40
0.1994115198642115
 40
0.3995306095162795
 40
0.5993950644582412
 40
0.7990503711385919
 40
0.9987117371675677
 40
1.198567718893093
 40
1.398751157621664
 40
1.598077977536862
 40
1.598077977536862
 40
1.598077977536862
 40
1.598077977536862
 10
167.3531055094
 20
237.1277272062
 30
0.0
 10
167.3567237300584
 20
237.0611689114593
 30
0.0
 10
167.3639730098693
 20
236.9278161538843
 30
0.0
 10
167.4211695618005
 20
236.7345451545625
 30
0.0
 10
167.5113365186142
 20
236.5550700366028
 30
0.0
 10
167.6345689126141
 20
236.3962290383627
 30
0.0
 10
167.7863570285714
 20
236.2643024989729
 30
0.0
 10
167.9614811598911
 20
236.1656730123681
 30
0.0
 10
168.1531852824215
 20
236.102228746646
 30
0.0
 10
168.2865607604071
 20
236.0940197619229
 30
0.0
 10
168.3531055094
 20
236.0899240703
 30
0.0
 11
167.3531055094
 21
237.1277272062
 31
0.0
 11
167.3716517171561
 21
236.9291800016555
 31
0.0
 11
167.4266951291723
 21
236.7367797084209
 31
0.0
 11
167.5168970377517
 21
236.5584277641144
 31
0.0
 11
167.6393255294277
 21
236.4007143978085
 31
0.0
 11
167.7901682611003
 21
236.269904874508
 31
0.0
 11
167.9641638097201
 21
236.1715790768149
 31
0.0
 11
168.1548638299427
 21
236.110694666427
 31
0.0
 11
168.3531055094
 21
236.0899240703
 31
0.0
  0
DIMENSION
  5
C7
330
1F
100
AcDbEntity
  8
1
100
AcDbDimension
  2
*D2
 10
238.636413108769
 20
291.0892209401
 30
0.0
 11
234.886413108769
 21
282.570953430532
 31
0.0
 70
    32
  1
<>
 71
     5
 42
-1.0
 53
90.0
  3
ME10_DIM_10
100
AcDbAlignedDimension
 13
227.1531055094
 23
275.0892209401
 33
0.0
 14
227.1531055094
 24
291.0892209401
 34
0.0
 50
90.0
100
AcDbRotatedDimension
  0
DIMENSION
  5
D2
330
1F
100
AcDbEntity
  8
1
100
AcDbDimension
  2
*D3
 10
246.509874529651
 20
307.0892209401
 30
0.0
 11
242.759874529651
 21
282.94588016486
 31
0.0
 70
    32
  1
<>
 71
     5
 42
-1.0
 53
90.0
  3
ME10_DIM_11
100
AcDbAlignedDimension
 13
213.8851563169
 23
259.0892209401
 33
0.0
 14
213.8851563169
 24
307.0892209401
 34
0.0
 50
90.0
100
AcDbRotatedDimension
  0
DIMENSION
  5
DD
330
1F
100
AcDbEntity
  8
1
100
AcDbDimension
  2
*D4
 10
227.1531055094
 20
336.310452017506
 30
0.0
 11
204.5438311668851
 21
340.060452017506
 31
0.0
 70
    32
  1
<>
 71
     5
 42
-1.0
 53
0.00013888888889
  3
ME10_DIM_12
100
AcDbAlignedDimension
 13
183.2531055094
 23
329.050714674
 33
0.0
 14
227.1531055094
 24
299.0063171714
 34
0.0
100
AcDbRotatedDimension
  0
DIMENSION
  5
E8
330
1F
100
AcDbEntity
  8
1
100
AcDbDimension
  2
*D5
 10
227.1531055094
 20
343.684011125951
 30
0.0
 11
196.519643285955
 21
347.434011125951
 31
0.0
 70
    32
  1
<>
 71
     5
 42
-1.0
 53
0.00013888888889
  3
ME10_DIM_13
100
AcDbAlignedDimension
 13
164.1531055094
 23
324.312796519019
 33
0.0
 14
227.1531055094
 24
299.0063171714
 34
0.0
100
AcDbRotatedDimension
  0
DIMENSION
  5
F3
330
1F
100
AcDbEntity
  8
1
100
AcDbDimension
  2
*D6
 10
227.1531055094
 20
351.307521390615
 30
0.0
 11
156.0878287249998
 21
355.057521390615
 31
0.0
 70
    32
  1
<>
 71
     5
 42
-1.0
 53
0.00013888888889
  3
ME10_DIM_14
100
AcDbAlignedDimension
 13
62.40310550939999
 23
301.2506679412
 33
0.0
 14
227.1531055094
 24
299.0063171714
 34
0.0
100
AcDbRotatedDimension
  0
INSERT
  5
FA
330
1F
100
AcDbEntity
  8
1
100
AcDbBlockReference
  2
*D7
 10
0.0
 20
0.0
 30
0.0
  0
ENDSEC
  0
SECTION
  2
OBJECTS
  0
DICTIONARY
  5
C
330
0
100
AcDbDictionary
281
     1
  3
ACAD_GROUP
350
D
  3
ACAD_LAYOUT
350
1A
  3
ACAD_MLEADERSTYLE
350
FD
  3
ACAD_MLINESTYLE
350
17
  3
ACAD_PLOTSETTINGS
350
19
  3
ACAD_PLOTSTYLENAME
350
E
  3
ACAD_SCALELIST
350
4A
  3
ACAD_VISUALSTYLE
350
2A
  3
AcDbVariableDictionary
350
FB
  0
DICTIONARY
  5
D
102
{ACAD_REACTORS
330
C
102
}
330
C
100
AcDbDictionary
281
     1
  0
DICTIONARY
  5
1A
102
{ACAD_REACTORS
330
C
102
}
330
C
100
AcDbDictionary
281
     1
  3
Layout1
350
1E
  3
Layout2
350
26
  3
Model
350
22
  0
DICTIONARY
  5
FD
102
{ACAD_REACTORS
330
C
102
}
330
C
100
AcDbDictionary
281
     1
  0
DICTIONARY
  5
17
102
{ACAD_REACTORS
330
C
102
}
330
C
100
AcDbDictionary
281
     1
  3
Standard
350
18
  0
DICTIONARY
  5
19
102
{ACAD_REACTORS
330
C
102
}
330
C
100
AcDbDictionary
281
     1
  0
ACDBDICTIONARYWDFLT
  5
E
102
{ACAD_REACTORS
330
C
102
}
330
C
100
AcDbDictionary
281
     1
  3
Normal
350
F
100
AcDbDictionaryWithDefault
340
F
  0
DICTIONARY
  5
4A
102
{ACAD_REACTORS
330
C
102
}
330
C
100
AcDbDictionary
281
     1
  3
A0
350
4B
  3
A1
350
4C
  3
A2
350
4D
  3
A3
350
4E
  3
A4
350
4F
  3
A5
350
50
  3
A6
350
51
  3
A7
350
52
  3
A8
350
53
  3
A9
350
54
  3
B0
350
55
  3
B1
350
56
  3
B2
350
57
  3
B3
350
58
  3
B4
350
59
  3
B5
350
5A
  3
B6
350
5B
  3
B7
350
5C
  3
B8
350
5D
  3
B9
350
5E
  3
C0
350
5F
  3
C1
350
60
  3
C2
350
61
  3
C3
350
62
  3
C4
350
63
  3
C5
350
64
  3
C6
350
65
  3
C7
350
66
  3
C8
350
67
  3
C9
350
68
  3
D0
350
69
  3
D1
350
6A
  3
D2
350
6B
  0
DICTIONARY
  5
2A
102
{ACAD_REACTORS
330
C
102
}
330
C
100
AcDbDictionary
281
     1
  3
2dWireframe
350
2F
  3
3D Hidden
350
31
  3
3dWireframe
350
30
  3
Basic
350
32
  3
Brighten
350
36
  3
ColorChange
350
3A
  3
Conceptual
350
34
  3
Dim
350
35
  3
Facepattern
350
39
  3
Flat
350
2B
  3
FlatWithEdges
350
2C
  3
Gouraud
350
2D
  3
GouraudWithEdges
350
2E
  3
Linepattern
350
38
  3
Realistic
350
33
  3
Thicken
350
37
  0
DICTIONARY
  5
FB
102
{ACAD_REACTORS
330
C
102
}
330
C
100
AcDbDictionary
281
     1
  3
CANNOSCALE
350
FE
  0
LAYOUT
  5
1E
102
{ACAD_REACTORS
330
1A
102
}
330
1A
100
AcDbPlotSettings
  1

  2
none_device
  4

  6

 40
0.0
 41
0.0
 42
0.0
 43
0.0
 44
0.0
 45
0.0
 46
0.0
 47
0.0
 48
0.0
 49
0.0
140
0.0
141
0.0
142
1.0
143
1.0
 70
   688
 72
     0
 73
     0
 74
     5
  7

 75
    16
147
1.0
148
0.0
149
0.0
100
AcDbLayout
  1
Layout1
 70
     1
 71
     1
 10
0.0
 20
0.0
 11
12.0
 21
9.0
 12
0.0
 22
0.0
 32
0.0
 14
1.00000000000000E+20
 24
1.00000000000000E+20
 34
1.00000000000000E+20
 15
-1.00000000000000E+20
 25
-1.00000000000000E+20
 35
-1.00000000000000E+20
146
0.0
 13
0.0
 23
0.0
 33
0.0
 16
1.0
 26
0.0
 36
0.0
 17
0.0
 27
1.0
 37
0.0
 76
     0
330
1B
  0
LAYOUT
  5
26
102
{ACAD_REACTORS
330
1A
102
}
330
1A
100
AcDbPlotSettings
  1

  2
none_device
  4

  6

 40
0.0
 41
0.0
 42
0.0
 43
0.0
 44
0.0
 45
0.0
 46
0.0
 47
0.0
 48
0.0
 49
0.0
140
0.0
141
0.0
142
1.0
143
1.0
 70
   688
 72
     0
 73
     0
 74
     5
  7

 75
    16
147
1.0
148
0.0
149
0.0
100
AcDbLayout
  1
Layout2
 70
     1
 71
     2
 10
0.0
 20
0.0
 11
0.0
 21
0.0
 12
0.0
 22
0.0
 32
0.0
 14
0.0
 24
0.0
 34
0.0
 15
0.0
 25
0.0
 35
0.0
146
0.0
 13
0.0
 23
0.0
 33
0.0
 16
1.0
 26
0.0
 36
0.0
 17
0.0
 27
1.0
 37
0.0
 76
     0
330
23
  0
LAYOUT
  5
22
102
{ACAD_REACTORS
330
1A
102
}
330
1A
100
AcDbPlotSettings
  1

  2
none_device
  4

  6

 40
0.0
 41
0.0
 42
0.0
 43
0.0
 44
0.0
 45
0.0
 46
0.0
 47
0.0
 48
0.0
 49
0.0
140
0.0
141
0.0
142
1.0
143
1.0
 70
  1712
 72
     0
 73
     0
 74
     0
  7

 75
     0
147
1.0
148
0.0
149
0.0
100
AcDbLayout
  1
Model
 70
     1
 71
     0
 10
0.0
 20
0.0
 11
12.0
 21
9.0
 12
0.0
 22
0.0
 32
0.0
 14
36.3002226750044
 24
236.0762557910672
 34
0.0
 15
248.509874529651
 25
356.807521390615
 35
0.0
146
0.0
 13
0.0
 23
0.0
 33
0.0
 16
1.0
 26
0.0
 36
0.0
 17
0.0
 27
1.0
 37
0.0
 76
     0
330
1F
331
29
  0
MLINESTYLE
  5
18
102
{ACAD_REACTORS
330
17
102
}
330
17
100
AcDbMlineStyle
  2
Standard
 70
     0
  3

 62
   256
 51
90.0
 52
90.0
 71
     2
 49
0.5
 62
   256
  6
BYLAYER
 49
-0.5
 62
   256
  6
BYLAYER
  0
ACDBPLACEHOLDER
  5
F
102
{ACAD_REACTORS
330
E
102
}
330
E
  0
SCALE
  5
4B
102
{ACAD_REACTORS
330
4A
102
}
330
4A
100
AcDbScale
 70
     0
300
1:1
140
1.0
141
1.0
290
     1
  0
SCALE
  5
4C
102
{ACAD_REACTORS
330
4A
102
}
330
4A
100
AcDbScale
 70
     0
300
1:2
140
1.0
141
2.0
290
     0
  0
SCALE
  5
4D
102
{ACAD_REACTORS
330
4A
102
}
330
4A
100
AcDbScale
 70
     0
300
1:4
140
1.0
141
4.0
290
     0
  0
SCALE
  5
4E
102
{ACAD_REACTORS
330
4A
102
}
330
4A
100
AcDbScale
 70
     0
300
1:5
140
1.0
141
5.0
290
     0
  0
SCALE
  5
4F
102
{ACAD_REACTORS
330
4A
102
}
330
4A
100
AcDbScale
 70
     0
300
1:8
140
1.0
141
8.0
290
     0
  0
SCALE
  5
50
102
{ACAD_REACTORS
330
4A
102
}
330
4A
100
AcDbScale
 70
     0
300
1:10
140
1.0
141
10.0
290
     0
  0
SCALE
  5
51
102
{ACAD_REACTORS
330
4A
102
}
330
4A
100
AcDbScale
 70
     0
300
1:16
140
1.0
141
16.0
290
     0
  0
SCALE
  5
52
102
{ACAD_REACTORS
330
4A
102
}
330
4A
100
AcDbScale
 70
     0
300
1:20
140
1.0
141
20.0
290
     0
  0
SCALE
  5
53
102
{ACAD_REACTORS
330
4A
102
}
330
4A
100
AcDbScale
 70
     0
300
1:30
140
1.0
141
30.0
290
     0
  0
SCALE
  5
54
102
{ACAD_REACTORS
330
4A
102
}
330
4A
100
AcDbScale
 70
     0
300
1:40
140
1.0
141
40.0
290
     0
  0
SCALE
  5
55
102
{ACAD_REACTORS
330
4A
102
}
330
4A
100
AcDbScale
 70
     0
300
1:50
140
1.0
141
50.0
290
     0
  0
SCALE
  5
56
102
{ACAD_REACTORS
330
4A
102
}
330
4A
100
AcDbScale
 70
     0
300
1:100
140
1.0
141
100.0
290
     0
  0
SCALE
  5
57
102
{ACAD_REACTORS
330
4A
102
}
330
4A
100
AcDbScale
 70
     0
300
2:1
140
2.0
141
1.0
290
     0
  0
SCALE
  5
58
102
{ACAD_REACTORS
330
4A
102
}
330
4A
100
AcDbScale
 70
     0
300
4:1
140
4.0
141
1.0
290
     0
  0
SCALE
  5
59
102
{ACAD_REACTORS
330
4A
102
}
330
4A
100
AcDbScale
 70
     0
300
8:1
140
8.0
141
1.0
290
     0
  0
SCALE
  5
5A
102
{ACAD_REACTORS
330
4A
102
}
330
4A
100
AcDbScale
 70
     0
300
10:1
140
10.0
141
1.0
290
     0
  0
SCALE
  5
5B
102
{ACAD_REACTORS
330
4A
102
}
330
4A
100
AcDbScale
 70
     0
300
100:1
140
100.0
141
1.0
290
     0
  0
SCALE
  5
5C
102
{ACAD_REACTORS
330
4A
102
}
330
4A
100
AcDbScale
 70
     0
300
1/128" = 1'-0"
140
0.0078125
141
12.0
290
     0
  0
SCALE
  5
5D
102
{ACAD_REACTORS
330
4A
102
}
330
4A
100
AcDbScale
 70
     0
300
1/64" = 1'-0"
140
0.015625
141
12.0
290
     0
  0
SCALE
  5
5E
102
{ACAD_REACTORS
330
4A
102
}
330
4A
100
AcDbScale
 70
     0
300
1/32" = 1'-0"
140
0.03125
141
12.0
290
     0
  0
SCALE
  5
5F
102
{ACAD_REACTORS
330
4A
102
}
330
4A
100
AcDbScale
 70
     0
300
1/16" = 1'-0"
140
0.0625
141
12.0
290
     0
  0
SCALE
  5
60
102
{ACAD_REACTORS
330
4A
102
}
330
4A
100
AcDbScale
 70
     0
300
3/32" = 1'-0"
140
0.09375
141
12.0
290
     0
  0
SCALE
  5
61
102
{ACAD_REACTORS
330
4A
102
}
330
4A
100
AcDbScale
 70
     0
300
1/8" = 1'-0"
140
0.125
141
12.0
290
     0
  0
SCALE
  5
62
102
{ACAD_REACTORS
330
4A
102
}
330
4A
100
AcDbScale
 70
     0
300
3/16" = 1'-0"
140
0.1875
141
12.0
290
     0
  0
SCALE
  5
63
102
{ACAD_REACTORS
330
4A
102
}
330
4A
100
AcDbScale
 70
     0
300
1/4" = 1'-0"
140
0.25
141
12.0
290
     0
  0
SCALE
  5
64
102
{ACAD_REACTORS
330
4A
102
}
330
4A
100
AcDbScale
 70
     0
300
3/8" = 1'-0"
140
0.375
141
12.0
290
     0
  0
SCALE
  5
65
102
{ACAD_REACTORS
330
4A
102
}
330
4A
100
AcDbScale
 70
     0
300
1/2" = 1'-0"
140
0.5
141
12.0
290
     0
  0
SCALE
  5
66
102
{ACAD_REACTORS
330
4A
102
}
330
4A
100
AcDbScale
 70
     0
300
3/4" = 1'-0"
140
0.75
141
12.0
290
     0
  0
SCALE
  5
67
102
{ACAD_REACTORS
330
4A
102
}
330
4A
100
AcDbScale
 70
     0
300
1" = 1'-0"
140
1.0
141
12.0
290
     0
  0
SCALE
  5
68
102
{ACAD_REACTORS
330
4A
102
}
330
4A
100
AcDbScale
 70
     0
300
1-1/2" = 1'-0"
140
1.5
141
12.0
290
     0
  0
SCALE
  5
69
102
{ACAD_REACTORS
330
4A
102
}
330
4A
100
AcDbScale
 70
     0
300
3" = 1'-0"
140
3.0
141
12.0
290
     0
  0
SCALE
  5
6A
102
{ACAD_REACTORS
330
4A
102
}
330
4A
100
AcDbScale
 70
     0
300
6" = 1'-0"
140
6.0
141
12.0
290
     0
  0
SCALE
  5
6B
102
{ACAD_REACTORS
330
4A
102
}
330
4A
100
AcDbScale
 70
     0
300
1'-0" = 1'-0"
140
12.0
141
12.0
290
     0
  0
VISUALSTYLE
  5
2F
102
{ACAD_REACTORS
330
2A
102
}
330
2A
100
AcDbVisualStyle
  2
2dWireframe
 70
     4
 71
     0
 72
     2
 73
     0
 90
        0
 40
-0.6
 41
-30.0
 62
     5
 63
     7
 74
     1
 91
        4
 64
     7
 65
   257
 75
     1
175
     1
 42
1.0
 92
        0
 66
   257
 43
1.0
 76
     1
 77
     6
 78
     2
 67
     7
 79
     5
170
     0
171
     0
290
     0
174
     0
 93
        1
 44
0.0
173
     0
291
     0
 45
0.0
1001
ACAD
1000
AcDbSavedByObjectVersion
1070
     0
  0
VISUALSTYLE
  5
31
102
{ACAD_REACTORS
330
2A
102
}
330
2A
100
AcDbVisualStyle
  2
3D Hidden
 70
     6
 71
     1
 72
     2
 73
     2
 90
        0
 40
-0.6
 41
-30.0
 62
     5
 63
     7
 74
     2
 91
        2
 64
     7
 65
   257
 75
     2
175
     1
 42
40.0
 92
        0
 66
   257
 43
1.0
 76
     1
 77
     6
 78
     2
 67
     7
 79
     3
170
     0
171
     0
290
     0
174
     0
 93
        1
 44
0.0
173
     0
291
     0
 45
0.0
1001
ACAD
1000
AcDbSavedByObjectVersion
1070
     0
  0
VISUALSTYLE
  5
30
102
{ACAD_REACTORS
330
2A
102
}
330
2A
100
AcDbVisualStyle
  2
3dWireframe
 70
     5
 71
     0
 72
     2
 73
     0
 90
        0
 40
-0.6
 41
-30.0
 62
     5
 63
     7
 74
     1
 91
        4
 64
     7
 65
   257
 75
     1
175
     1
 42
1.0
 92
        0
 66
   257
 43
1.0
 76
     1
 77
     6
 78
     2
 67
     7
 79
     5
170
     0
171
     0
290
     0
174
     0
 93
        1
 44
0.0
173
     0
291
     0
 45
0.0
1001
ACAD
1000
AcDbSavedByObjectVersion
1070
     0
  0
VISUALSTYLE
  5
32
102
{ACAD_REACTORS
330
2A
102
}
330
2A
100
AcDbVisualStyle
  2
Basic
 70
     7
 71
     1
 72
     0
 73
     1
 90
        0
 40
-0.6
 41
-30.0
 62
     5
 63
     7
 74
     0
 91
        4
 64
     7
 65
   257
 75
     1
175
     1
 42
1.0
 92
        8
 66
     7
 43
1.0
 76
     1
 77
     6
 78
     2
 67
     7
 79
     5
170
     0
171
     0
290
     0
174
     0
 93
        1
 44
0.0
173
     0
291
     1
 45
0.0
1001
ACAD
1000
AcDbSavedByObjectVersion
1070
     0
  0
VISUALSTYLE
  5
36
102
{ACAD_REACTORS
330
2A
102
}
330
2A
100
AcDbVisualStyle
  2
Brighten
 70
    12
 71
     2
 72
     2
 73
     0
 90
        0
 40
-0.6
 41
-30.0
 62
     5
 63
     7
 74
     1
 91
        4
 64
     7
 65
   257
 75
     1
175
     1
 42
1.0
 92
        8
 66
     7
 43
1.0
 76
     1
 77
     6
 78
     2
 67
     7
 79
     5
170
     0
171
     0
290
     0
174
     0
 93
        1
 44
50.0
173
     0
291
     1
 45
0.0
1001
ACAD
1000
AcDbSavedByObjectVersion
1070
     0
  0
VISUALSTYLE
  5
3A
102
{ACAD_REACTORS
330
2A
102
}
330
2A
100
AcDbVisualStyle
  2
ColorChange
 70
    16
 71
     2
 72
     2
 73
     3
 90
        0
 40
-0.6
 41
-30.0
 62
     5
 63
     8
 74
     1
 91
        4
 64
     7
 65
   257
 75
     1
175
     1
 42
1.0
 92
        8
 66
     8
 43
1.0
 76
     1
 77
     6
 78
     2
 67
     7
 79
     5
170
     0
171
     0
290
     0
174
     0
 93
        1
 44
0.0
173
     0
291
     1
 45
0.0
1001
ACAD
1000
AcDbSavedByObjectVersion
1070
     0
  0
VISUALSTYLE
  5
34
102
{ACAD_REACTORS
330
2A
102
}
330
2A
100
AcDbVisualStyle
  2
Conceptual
 70
     9
 71
     3
 72
     2
 73
     0
 90
        0
 40
-0.6
 41
-30.0
 62
     5
 63
     7
 74
     2
 91
        2
 64
     7
 65
   257
 75
     1
175
     1
 42
40.0
 92
        8
 66
     7
 43
1.0
 76
     1
 77
     6
 78
     2
 67
     7
 79
     3
170
     0
171
     0
290
     0
174
     0
 93
        1
 44
0.0
173
     0
291
     0
 45
0.0
1001
ACAD
1000
AcDbSavedByObjectVersion
1070
     0
  0
VISUALSTYLE
  5
35
102
{ACAD_REACTORS
330
2A
102
}
330
2A
100
AcDbVisualStyle
  2
Dim
 70
    11
 71
     2
 72
     2
 73
     0
 90
        0
 40
-0.6
 41
-30.0
 62
     5
 63
     7
 74
     1
 91
        4
 64
     7
 65
   257
 75
     1
175
     1
 42
1.0
 92
        8
 66
     7
 43
1.0
 76
     1
 77
     6
 78
     2
 67
     7
 79
     5
170
     0
171
     0
290
     0
174
     0
 93
        1
 44
-50.0
173
     0
291
     1
 45
0.0
1001
ACAD
1000
AcDbSavedByObjectVersion
1070
     0
  0
VISUALSTYLE
  5
39
102
{ACAD_REACTORS
330
2A
102
}
330
2A
100
AcDbVisualStyle
  2
Facepattern
 70
    15
 71
     2
 72
     2
 73
     0
 90
        0
 40
-0.6
 41
-30.0
 62
     5
 63
     7
 74
     1
 91
        4
 64
     7
 65
   257
 75
     1
175
     1
 42
1.0
 92
        8
 66
     7
 43
1.0
 76
     1
 77
     6
 78
     2
 67
     7
 79
     5
170
     0
171
     0
290
     0
174
     0
 93
        1
 44
0.0
173
     0
291
     1
 45
0.0
1001
ACAD
1000
AcDbSavedByObjectVersion
1070
     0
  0
VISUALSTYLE
  5
2B
102
{ACAD_REACTORS
330
2A
102
}
330
2A
100
AcDbVisualStyle
  2
Flat
 70
     0
 71
     2
 72
     1
 73
     1
 90
        2
 40
-0.6
 41
30.0
 62
     5
 63
     7
 74
     0
 91
        4
 64
     7
 65
   257
 75
     1
175
     1
 42
1.0
 92
        8
 66
     7
 43
1.0
 76
     1
 77
     6
 78
     2
 67
     7
 79
     5
170
     0
171
     0
290
     0
174
     0
 93
       13
 44
0.0
173
     0
291
     1
 45
0.0
1001
ACAD
1000
AcDbSavedByObjectVersion
1070
     0
  0
VISUALSTYLE
  5
2C
102
{ACAD_REACTORS
330
2A
102
}
330
2A
100
AcDbVisualStyle
  2
FlatWithEdges
 70
     1
 71
     2
 72
     1
 73
     1
 90
        2
 40
-0.6
 41
30.0
 62
     5
 63
     7
 74
     1
 91
        4
 64
     7
 65
   257
 75
     1
175
     1
 42
1.0
 92
        0
 66
   257
 43
1.0
 76
     1
 77
     6
 78
     2
 67
     7
 79
     5
170
     0
171
     0
290
     0
174
     0
 93
       13
 44
0.0
173
     0
291
     1
 45
0.0
1001
ACAD
1000
AcDbSavedByObjectVersion
1070
     0
  0
VISUALSTYLE
  5
2D
102
{ACAD_REACTORS
330
2A
102
}
330
2A
100
AcDbVisualStyle
  2
Gouraud
 70
     2
 71
     2
 72
     2
 73
     1
 90
        2
 40
-0.6
 41
30.0
 62
     5
 63
     7
 74
     0
 91
        4
 64
     7
 65
   257
 75
     1
175
     1
 42
1.0
 92
        0
 66
     7
 43
1.0
 76
     1
 77
     6
 78
     2
 67
     7
 79
     5
170
     0
171
     0
290
     0
174
     0
 93
       13
 44
0.0
173
     0
291
     1
 45
0.0
1001
ACAD
1000
AcDbSavedByObjectVersion
1070
     0
  0
VISUALSTYLE
  5
2E
102
{ACAD_REACTORS
330
2A
102
}
330
2A
100
AcDbVisualStyle
  2
GouraudWithEdges
 70
     3
 71
     2
 72
     2
 73
     1
 90
        2
 40
-0.6
 41
30.0
 62
     5
 63
     7
 74
     1
 91
        4
 64
     7
 65
   257
 75
     1
175
     1
 42
1.0
 92
        0
 66
   257
 43
1.0
 76
     1
 77
     6
 78
     2
 67
     7
 79
     5
170
     0
171
     0
290
     0
174
     0
 93
       13
 44
0.0
173
     0
291
     1
 45
0.0
1001
ACAD
1000
AcDbSavedByObjectVersion
1070
     0
  0
VISUALSTYLE
  5
38
102
{ACAD_REACTORS
330
2A
102
}
330
2A
100
AcDbVisualStyle
  2
Linepattern
 70
    14
 71
     2
 72
     2
 73
     0
 90
        0
 40
-0.6
 41
-30.0
 62
     5
 63
     7
 74
     1
 91
        4
 64
     7
 65
   257
 75
     7
175
     7
 42
1.0
 92
        8
 66
     7
 43
1.0
 76
     1
 77
     6
 78
     2
 67
     7
 79
     5
170
     0
171
     0
290
     0
174
     0
 93
        1
 44
0.0
173
     0
291
     1
 45
0.0
1001
ACAD
1000
AcDbSavedByObjectVersion
1070
     0
  0
VISUALSTYLE
  5
33
102
{ACAD_REACTORS
330
2A
102
}
330
2A
100
AcDbVisualStyle
  2
Realistic
 70
     8
 71
     2
 72
     2
 73
     0
 90
        0
 40
-0.6
 41
-30.0
 62
     5
 63
     7
 74
     1
 91
        0
 64
     7
 65
   257
 75
     1
175
     1
 42
1.0
 92
        8
 66
     8
 43
1.0
 76
     1
 77
     6
 78
     2
 67
     7
 79
     5
170
     0
171
     0
290
     0
174
     0
 93
       13
 44
0.0
173
     0
291
     0
 45
0.0
1001
ACAD
1000
AcDbSavedByObjectVersion
1070
     0
  0
VISUALSTYLE
  5
37
102
{ACAD_REACTORS
330
2A
102
}
330
2A
100
AcDbVisualStyle
  2
Thicken
 70
    13
 71
     2
 72
     2
 73
     0
 90
        0
 40
-0.6
 41
-30.0
 62
     5
 63
     7
 74
     1
 91
        4
 64
     7
 65
   257
 75
     1
175
     1
 42
1.0
 92
       12
 66
     7
 43
1.0
 76
     1
 77
     6
 78
     2
 67
     7
 79
     5
170
     0
171
     0
290
     0
174
     0
 93
        1
 44
0.0
173
     0
291
     1
 45
0.0
1001
ACAD
1000
AcDbSavedByObjectVersion
1070
     0
  0
DICTIONARYVAR
  5
FE
102
{ACAD_REACTORS
330
FB
102
}
330
FB
100
DictionaryVariables
280
     0
  1
1:1
  0
ENDSEC
  0
EOF
