  0
SECTION
  2
HEADER
  9
$ACADVER
  1
AC1015
  9
$ACADMAINTVER
 70
     6
  9
$DWGCODEPAGE
  3
ANSI_1252
  9
$INSBASE
 10
0.0
 20
0.0
 30
0.0
  9
$EXTMIN
 10
46.64597566396481
 20
243.8910296996679
 30
0.0
  9
$EXTMAX
 10
254.030980849186
 20
363.893936239143
 30
0.0
  9
$LIMMIN
 10
0.0
 20
0.0
  9
$LIMMAX
 10
12.0
 20
9.0
  9
$ORTHOMODE
 70
     0
  9
$REGENMODE
 70
     1
  9
$FILLMODE
 70
     1
  9
$QTEXTMODE
 70
     0
  9
$MIRRTEXT
 70
     1
  9
$LTSCALE
 40
1.0
  9
$ATTMODE
 70
     1
  9
$TEXTSIZE
 40
0.2
  9
$TRACEWID
 40
0.05
  9
$TEXTSTYLE
  7
Standard
  9
$CLAYER
  8
0
  9
$CELTYPE
  6
ByLayer
  9
$CECOLOR
 62
   256
  9
$CELTSCALE
 40
1.0
  9
$DISPSILH
 70
     0
  9
$DIMSCALE
 40
1.0
  9
$DIMASZ
 40
0.18
  9
$DIMEXO
 40
0.0625
  9
$DIMDLI
 40
0.38
  9
$DIMRND
 40
0.0
  9
$DIMDLE
 40
0.0
  9
$DIMEXE
 40
0.18
  9
$DIMTP
 40
0.0
  9
$DIMTM
 40
0.0
  9
$DIMTXT
 40
0.18
  9
$DIMCEN
 40
0.09
  9
$DIMTSZ
 40
0.0
  9
$DIMTOL
 70
     0
  9
$DIMLIM
 70
     0
  9
$DIMTIH
 70
     1
  9
$DIMTOH
 70
     1
  9
$DIMSE1
 70
     0
  9
$DIMSE2
 70
     0
  9
$DIMTAD
 70
     0
  9
$DIMZIN
 70
     0
  9
$DIMBLK
  1

  9
$DIMASO
 70
     1
  9
$DIMSHO
 70
     1
  9
$DIMPOST
  1

  9
$DIMAPOST
  1

  9
$DIMALT
 70
     0
  9
$DIMALTD
 70
     2
  9
$DIMALTF
 40
25.4
  9
$DIMLFAC
 40
1.0
  9
$DIMTOFL
 70
     0
  9
$DIMTVP
 40
0.0
  9
$DIMTIX
 70
     0
  9
$DIMSOXD
 70
     0
  9
$DIMSAH
 70
     0
  9
$DIMBLK1
  1

  9
$DIMBLK2
  1

  9
$DIMSTYLE
  2
Standard
  9
$DIMCLRD
 70
     0
  9
$DIMCLRE
 70
     0
  9
$DIMCLRT
 70
     0
  9
$DIMTFAC
 40
1.0
  9
$DIMGAP
 40
0.09
  9
$DIMJUST
 70
     0
  9
$DIMSD1
 70
     0
  9
$DIMSD2
 70
     0
  9
$DIMTOLJ
 70
     1
  9
$DIMTZIN
 70
     0
  9
$DIMALTZ
 70
     0
  9
$DIMALTTZ
 70
     0
  9
$DIMUPT
 70
     0
  9
$DIMDEC
 70
     4
  9
$DIMTDEC
 70
     4
  9
$DIMALTU
 70
     2
  9
$DIMALTTD
 70
     2
  9
$DIMTXSTY
  7
Standard
  9
$DIMAUNIT
 70
     0
  9
$DIMADEC
 70
     0
  9
$DIMALTRND
 40
0.0
  9
$DIMAZIN
 70
     0
  9
$DIMDSEP
 70
    46
  9
$DIMATFIT
 70
     3
  9
$DIMFRAC
 70
     0
  9
$DIMLDRBLK
  1

  9
$DIMLUNIT
 70
     2
  9
$DIMLWD
 70
    -2
  9
$DIMLWE
 70
    -2
  9
$DIMTMOVE
 70
     0
  9
$LUNITS
 70
     2
  9
$LUPREC
 70
     4
  9
$SKETCHINC
 40
0.1
  9
$FILLETRAD
 40
0.5
  9
$AUNITS
 70
     0
  9
$AUPREC
 70
     0
  9
$MENU
  1
.
  9
$ELEVATION
 40
0.0
  9
$PELEVATION
 40
0.0
  9
$THICKNESS
 40
0.0
  9
$LIMCHECK
 70
     0
  9
$CHAMFERA
 40
0.5
  9
$CHAMFERB
 40
0.5
  9
$CHAMFERC
 40
1.0
  9
$CHAMFERD
 40
0.0
  9
$SKPOLY
 70
     0
  9
$TDCREATE
 40
2456821.368897396
  9
$TDUCREATE
 40
2456821.285564063
  9
$TDUPDATE
 40
2456821.368897407
  9
$TDUUPDATE
 40
2456821.285564074
  9
$TDINDWG
 40
0.0000000116
  9
$TDUSRTIMER
 40
0.0000000116
  9
$USRTIMER
 70
     1
  9
$ANGBASE
 50
0.0
  9
$ANGDIR
 70
     0
  9
$PDMODE
 70
     0
  9
$PDSIZE
 40
0.0
  9
$PLINEWID
 40
0.0
  9
$SPLFRAME
 70
     0
  9
$SPLINETYPE
 70
     6
  9
$SPLINESEGS
 70
     8
  9
$HANDSEED
  5
FF
  9
$SURFTAB1
 70
     6
  9
$SURFTAB2
 70
     6
  9
$SURFTYPE
 70
     6
  9
$SURFU
 70
     6
  9
$SURFV
 70
     6
  9
$UCSBASE
  2

  9
$UCSNAME
  2

  9
$UCSORG
 10
0.0
 20
0.0
 30
0.0
  9
$UCSXDIR
 10
1.0
 20
0.0
 30
0.0
  9
$UCSYDIR
 10
0.0
 20
1.0
 30
0.0
  9
$UCSORTHOREF
  2

  9
$UCSORTHOVIEW
 70
     0
  9
$UCSORGTOP
 10
0.0
 20
0.0
 30
0.0
  9
$UCSORGBOTTOM
 10
0.0
 20
0.0
 30
0.0
  9
$UCSORGLEFT
 10
0.0
 20
0.0
 30
0.0
  9
$UCSORGRIGHT
 10
0.0
 20
0.0
 30
0.0
  9
$UCSORGFRONT
 10
0.0
 20
0.0
 30
0.0
  9
$UCSORGBACK
 10
0.0
 20
0.0
 30
0.0
  9
$PUCSBASE
  2

  9
$PUCSNAME
  2

  9
$PUCSORG
 10
0.0
 20
0.0
 30
0.0
  9
$PUCSXDIR
 10
1.0
 20
0.0
 30
0.0
  9
$PUCSYDIR
 10
0.0
 20
1.0
 30
0.0
  9
$PUCSORTHOREF
  2

  9
$PUCSORTHOVIEW
 70
     0
  9
$PUCSORGTOP
 10
0.0
 20
0.0
 30
0.0
  9
$PUCSORGBOTTOM
 10
0.0
 20
0.0
 30
0.0
  9
$PUCSORGLEFT
 10
0.0
 20
0.0
 30
0.0
  9
$PUCSORGRIGHT
 10
0.0
 20
0.0
 30
0.0
  9
$PUCSORGFRONT
 10
0.0
 20
0.0
 30
0.0
  9
$PUCSORGBACK
 10
0.0
 20
0.0
 30
0.0
  9
$USERI1
 70
     0
  9
$USERI2
 70
     0
  9
$USERI3
 70
     0
  9
$USERI4
 70
     0
  9
$USERI5
 70
     0
  9
$USERR1
 40
16.5
  9
$USERR2
 40
0.0
  9
$USERR3
 40
0.0
  9
$USERR4
 40
0.0
  9
$USERR5
 40
0.0
  9
$WORLDVIEW
 70
     1
  9
$SHADEDGE
 70
     3
  9
$SHADEDIF
 70
    70
  9
$TILEMODE
 70
     1
  9
$MAXACTVP
 70
    64
  9
$PINSBASE
 10
0.0
 20
0.0
 30
0.0
  9
$PLIMCHECK
 70
     0
  9
$PEXTMIN
 10
1.00000000000000E+20
 20
1.00000000000000E+20
 30
1.00000000000000E+20
  9
$PEXTMAX
 10
-1.00000000000000E+20
 20
-1.00000000000000E+20
 30
-1.00000000000000E+20
  9
$PLIMMIN
 10
0.0
 20
0.0
  9
$PLIMMAX
 10
12.0
 20
9.0
  9
$UNITMODE
 70
     0
  9
$VISRETAIN
 70
     1
  9
$PLINEGEN
 70
     0
  9
$PSLTSCALE
 70
     1
  9
$TREEDEPTH
 70
  3020
  9
$CMLSTYLE
  2
Standard
  9
$CMLJUST
 70
     0
  9
$CMLSCALE
 40
1.0
  9
$PROXYGRAPHICS
 70
     1
  9
$MEASUREMENT
 70
     1
  9
$CELWEIGHT
370
    -1
  9
$ENDCAPS
280
     0
  9
$JOINSTYLE
280
     0
  9
$LWDISPLAY
290
     0
  9
$INSUNITS
 70
     1
  9
$HYPERLINKBASE
  1

  9
$STYLESHEET
  1

  9
$XEDIT
290
     1
  9
$CEPSNTYPE
380
     0
  9
$PSTYLEMODE
290
     1
  9
$FINGERPRINTGUID
  2
{ECB037A1-FC0A-4098-B14F-E5954B2162F1}
  9
$VERSIONGUID
  2
{FAEB1C32-E019-11D5-929B-00C0DF256EC4}
  9
$EXTNAMES
290
     1
  9
$PSVPSCALE
 40
0.0
  9
$OLESTARTUP
290
     0
  0
ENDSEC
  0
SECTION
  2
CLASSES
  0
CLASS
  1
ACDBDICTIONARYWDFLT
  2
AcDbDictionaryWithDefault
  3
ObjectDBX Classes
 90
        0
280
     0
281
     0
  0
CLASS
  1
VISUALSTYLE
  2
AcDbVisualStyle
  3
ObjectDBX Classes
 90
     4095
280
     0
281
     0
  0
CLASS
  1
SCALE
  2
AcDbScale
  3
ObjectDBX Classes
 90
     1153
280
     0
281
     0
  0
CLASS
  1

  2
exOdDbPolyline
  3

 90
        0
280
     0
281
     1
  0
CLASS
  1

  2
exOdDbSpline
  3

 90
        0
280
     0
281
     1
  0
CLASS
  1
DICTIONARYVAR
  2
AcDbDictionaryVar
  3
ObjectDBX Classes
 90
        0
280
     0
281
     0
  0
CLASS
  1
ACDBPLACEHOLDER
  2
AcDbPlaceHolder
  3
ObjectDBX Classes
 90
        0
280
     0
281
     0
  0
CLASS
  1
LAYOUT
  2
AcDbLayout
  3
ObjectDBX Classes
 90
        0
280
     0
281
     0
  0
ENDSEC
  0
SECTION
  2
TABLES
  0
TABLE
  2
VPORT
  5
8
330
0
100
AcDbSymbolTable
 70
     1
  0
VPORT
  5
29
330
8
100
AcDbSymbolTableRecord
100
AcDbViewportTableRecord
  2
*Active
 70
     0
 10
0.0
 20
0.0
 11
1.0
 21
1.0
 12
150.3384782565754
 22
303.8924829694055
 13
0.0
 23
0.0
 14
0.5
 24
0.5
 15
0.5
 25
0.5
 16
0.0
 26
0.0
 36
1.0
 17
0.0
 27
0.0
 37
0.0
 40
142.3389004948148
 41
1.60267857142857
 42
50.0
 43
0.0
 44
0.0
 50
0.0
 51
0.0
 71
     0
 72
   100
 73
     1
 74
     3
 75
     0
 76
     0
 77
     0
 78
     0
281
     0
 65
     1
110
0.0
120
0.0
130
0.0
111
1.0
121
0.0
131
0.0
112
0.0
122
1.0
132
0.0
 79
     0
146
0.0
  0
ENDTAB
  0
TABLE
  2
LTYPE
  5
5
330
0
100
AcDbSymbolTable
 70
     8
  0
LTYPE
  5
14
330
5
100
AcDbSymbolTableRecord
100
AcDbLinetypeTableRecord
  2
ByBlock
 70
     0
  3

 72
    65
 73
     0
 40
0.0
  0
LTYPE
  5
15
330
5
100
AcDbSymbolTableRecord
100
AcDbLinetypeTableRecord
  2
ByLayer
 70
     0
  3

 72
    65
 73
     0
 40
0.0
  0
LTYPE
  5
16
330
5
100
AcDbSymbolTableRecord
100
AcDbLinetypeTableRecord
  2
Continuous
 70
     0
  3
Solid line
 72
    65
 73
     0
 40
0.0
  0
LTYPE
  5
3B
330
5
100
AcDbSymbolTableRecord
100
AcDbLinetypeTableRecord
  2
DASHED
 70
     0
  3
Dashed
 72
    65
 73
     2
 40
15.0
 49
7.0
 74
     0
 49
-8.0
 74
     0
  0
LTYPE
  5
3C
330
5
100
AcDbSymbolTableRecord
100
AcDbLinetypeTableRecord
  2
DOTTED
 70
     0
  3
Dotted
 72
    65
 73
     2
 40
1.0
 49
0.0
 74
     0
 49
-1.0
 74
     0
  0
LTYPE
  5
3D
330
5
100
AcDbSymbolTableRecord
100
AcDbLinetypeTableRecord
  2
DOT_CENTER
 70
     0
  3
Dot_Center
 72
    65
 73
     4
 40
14.0
 49
12.0
 74
     0
 49
-1.0
 74
     0
 49
0.0
 74
     0
 49
-1.0
 74
     0
  0
LTYPE
  5
3E
330
5
100
AcDbSymbolTableRecord
100
AcDbLinetypeTableRecord
  2
LONG_DASHED
 70
     0
  3
Long_Dashed
 72
    65
 73
     2
 40
15.0
 49
10.0
 74
     0
 49
-5.0
 74
     0
  0
LTYPE
  5
3F
330
5
100
AcDbSymbolTableRecord
100
AcDbLinetypeTableRecord
  2
DASH_CENTER
 70
     0
  3
Dash_Center
 72
    65
 73
     4
 40
14.0
 49
11.0
 74
     0
 49
-1.0
 74
     0
 49
1.0
 74
     0
 49
-1.0
 74
     0
  0
LTYPE
  5
40
330
5
100
AcDbSymbolTableRecord
100
AcDbLinetypeTableRecord
  2
PHANTOM
 70
     0
  3
Phantom
 72
    65
 73
     6
 40
13.0
 49
10.0
 74
     0
 49
-1.0
 74
     0
 49
0.0
 74
     0
 49
-1.0
 74
     0
 49
0.0
 74
     0
 49
-1.0
 74
     0
  0
LTYPE
  5
41
330
5
100
AcDbSymbolTableRecord
100
AcDbLinetypeTableRecord
  2
CENTER_DASH_DASH
 70
     0
  3
Center_Dash_Dash
 72
    65
 73
     6
 40
14.0
 49
9.0
 74
     0
 49
-1.0
 74
     0
 49
1.0
 74
     0
 49
-1.0
 74
     0
 49
1.0
 74
     0
 49
-1.0
 74
     0
  0
ENDTAB
  0
TABLE
  2
LAYER
  5
2
330
0
100
AcDbSymbolTable
 70
     6
  0
LAYER
  5
10
330
2
100
AcDbSymbolTableRecord
100
AcDbLayerTableRecord
  2
0
 70
     0
 62
     7
  6
Continuous
370
    -3
390
F
  0
LAYER
  5
42
330
2
100
AcDbSymbolTableRecord
100
AcDbLayerTableRecord
  2
1
 70
     0
 62
     7
  6
Continuous
370
    -3
390
F
  0
LAYER
  5
43
330
2
100
AcDbSymbolTableRecord
100
AcDbLayerTableRecord
  2
BEZUGSACHSEN
 70
     0
 62
     7
  6
Continuous
370
    -3
390
F
  0
LAYER
  5
44
330
2
100
AcDbSymbolTableRecord
100
AcDbLayerTableRecord
  2
DEFAULT_2
 70
     0
 62
     7
  6
Continuous
370
    -3
390
F
  0
LAYER
  5
45
330
2
100
AcDbSymbolTableRecord
100
AcDbLayerTableRecord
  2
RUNDUNGEN
 70
     0
 62
     7
  6
Continuous
370
    -3
390
F
  0
LAYER
  5
46
330
2
100
AcDbSymbolTableRecord
100
AcDbLayerTableRecord
  2
TEIL_STARTBEZUEGE
 70
     0
 62
     7
  6
Continuous
370
    -3
390
F
  0
ENDTAB
  0
TABLE
  2
STYLE
  5
3
330
0
100
AcDbSymbolTable
 70
     2
  0
STYLE
  5
11
330
3
100
AcDbSymbolTableRecord
100
AcDbTextStyleTableRecord
  2
Standard
 70
     0
 40
0.0
 41
1.0
 50
0.0
 71
     0
 42
0.2
  3
txt
  4

  0
STYLE
  5
6D
330
3
100
AcDbSymbolTableRecord
100
AcDbTextStyleTableRecord
  2
CONVERTER_11
 70
     0
 40
0.0
 41
0.72
 50
0.0
 71
     0
 42
0.2
  3
txt.shx
  4

  0
ENDTAB
  0
TABLE
  2
VIEW
  5
6
330
0
100
AcDbSymbolTable
 70
     0
  0
ENDTAB
  0
TABLE
  2
UCS
  5
7
330
0
100
AcDbSymbolTable
 70
     0
  0
ENDTAB
  0
TABLE
  2
APPID
  5
9
330
0
100
AcDbSymbolTable
 70
     1
  0
APPID
  5
12
330
9
100
AcDbSymbolTableRecord
100
AcDbRegAppTableRecord
  2
ACAD
 70
     0
  0
ENDTAB
  0
TABLE
  2
DIMSTYLE
  5
A
330
0
100
AcDbSymbolTable
 70
     6
100
AcDbDimStyleTable
  0
DIMSTYLE
105
27
330
A
100
AcDbSymbolTableRecord
100
AcDbDimStyleTableRecord
  2
Standard
 70
     0
340
11
  0
DIMSTYLE
105
C6
102
{ACAD_REACTORS
330
C7
102
}
330
A
100
AcDbSymbolTableRecord
100
AcDbDimStyleTableRecord
  2
ME10_DIM_10
 70
     0
  3
\U+2300<>
 41
3.5
 42
2.0
 44
2.0
 71
     1
 73
     0
 74
     0
 77
     1
 78
     8
140
3.5
146
0.7
147
2.0
172
     1
173
     1
176
     2
177
     2
178
     3
271
     2
272
     0
340
6D
  0
DIMSTYLE
105
D1
102
{ACAD_REACTORS
330
D2
102
}
330
A
100
AcDbSymbolTableRecord
100
AcDbDimStyleTableRecord
  2
ME10_DIM_11
 70
     0
  3
\U+2300<>
 41
3.5
 42
2.0
 44
2.0
 71
     1
 73
     0
 74
     0
 77
     1
 78
     8
140
3.5
146
0.7
147
2.0
172
     1
173
     1
176
     2
177
     2
178
     3
271
     2
272
     0
340
6D
  0
DIMSTYLE
105
DC
102
{ACAD_REACTORS
330
DD
102
}
330
A
100
AcDbSymbolTableRecord
100
AcDbDimStyleTableRecord
  2
ME10_DIM_12
 70
     0
  3
<>
 41
3.5
 42
2.0
 44
2.0
 71
     1
 73
     0
 74
     0
 77
     1
 78
     8
140
3.5
146
0.7
147
2.0
172
     1
173
     1
176
     2
177
     2
178
     3
271
     2
272
     0
340
6D
  0
DIMSTYLE
105
E7
102
{ACAD_REACTORS
330
E8
102
}
330
A
100
AcDbSymbolTableRecord
100
AcDbDimStyleTableRecord
  2
ME10_DIM_13
 70
     0
  3
<>
 41
3.5
 42
2.0
 44
2.0
 71
     1
 73
     0
 74
     0
 77
     1
 78
     8
140
3.5
146
0.7
147
2.0
172
     1
173
     1
176
     2
177
     2
178
     3
271
     2
272
     0
340
6D
  0
DIMSTYLE
105
F2
102
{ACAD_REACTORS
330
F3
102
}
330
A
100
AcDbSymbolTableRecord
100
AcDbDimStyleTableRecord
  2
ME10_DIM_14
 70
     0
  3
<>
 41
3.5
 42
2.0
 44
2.0
 71
     1
 73
     0
 74
     0
 77
     1
 78
     8
140
3.5
146
0.7
147
2.0
172
     1
173
     1
176
     2
177
     2
178
     3
271
     2
272
     0
340
6D
  0
ENDTAB
  0
TABLE
  2
BLOCK_RECORD
  5
1
330
0
100
AcDbSymbolTable
 70
     8
  0
BLOCK_RECORD
  5
1F
330
1
100
AcDbSymbolTableRecord
100
AcDbBlockTableRecord
  2
*Model_Space
340
22
  0
BLOCK_RECORD
  5
1B
330
1
100
AcDbSymbolTableRecord
100
AcDbBlockTableRecord
  2
*Paper_Space
340
1E
  0
BLOCK_RECORD
  5
23
330
1
100
AcDbSymbolTableRecord
100
AcDbBlockTableRecord
  2
*Paper_Space0
340
26
  0
BLOCK_RECORD
  5
47
330
1
100
AcDbSymbolTableRecord
100
AcDbBlockTableRecord
  2
Urheberrecht_DE-EN
340
0
102
{BLKREFS
331
6C
102
}
  0
BLOCK_RECORD
  5
BD
330
1
100
AcDbSymbolTableRecord
100
AcDbBlockTableRecord
  2
*D2
340
0
  0
BLOCK_RECORD
  5
C8
330
1
100
AcDbSymbolTableRecord
100
AcDbBlockTableRecord
  2
*D3
340
0
  0
BLOCK_RECORD
  5
D3
330
1
100
AcDbSymbolTableRecord
100
AcDbBlockTableRecord
  2
*D4
340
0
  0
BLOCK_RECORD
  5
DE
330
1
100
AcDbSymbolTableRecord
100
AcDbBlockTableRecord
  2
*D5
340
0
  0
BLOCK_RECORD
  5
E9
330
1
100
AcDbSymbolTableRecord
100
AcDbBlockTableRecord
  2
*D6
340
0
  0
BLOCK_RECORD
  5
F4
330
1
100
AcDbSymbolTableRecord
100
AcDbBlockTableRecord
  2
*D7
340
0
102
{BLKREFS
331
FA
102
}
  0
ENDTAB
  0
ENDSEC
  0
SECTION
  2
BLOCKS
  0
BLOCK
  5
20
330
1F
100
AcDbEntity
  8
0
100
AcDbBlockBegin
  2
*Model_Space
 70
     0
 10
0.0
 20
0.0
 30
0.0
  3
*Model_Space
  1

  0
ENDBLK
  5
21
330
1F
100
AcDbEntity
  8
0
100
AcDbBlockEnd
  0
BLOCK
  5
1C
330
1B
100
AcDbEntity
 67
     1
  8
0
100
AcDbBlockBegin
  2
*Paper_Space
 70
     0
 10
0.0
 20
0.0
 30
0.0
  3
*Paper_Space
  1

  0
ENDBLK
  5
1D
330
1B
100
AcDbEntity
 67
     1
  8
0
100
AcDbBlockEnd
  0
BLOCK
  5
24
330
23
100
AcDbEntity
  8
0
100
AcDbBlockBegin
  2
*Paper_Space0
 70
     0
 10
0.0
 20
0.0
 30
0.0
  3
*Paper_Space0
  1

  0
ENDBLK
  5
25
330
23
100
AcDbEntity
  8
0
100
AcDbBlockEnd
  0
BLOCK
  5
48
330
47
100
AcDbEntity
  8
0
100
AcDbBlockBegin
  2
Urheberrecht_DE-EN
 70
     0
 10
60.64597566396481
 20
302.998294832252
 30
0.0
  3
Urheberrecht_DE-EN
  1

  0
MTEXT
  5
6E
330
47
100
AcDbEntity
  8
1
 62
     1
100
AcDbMText
 10
60.64597566396481
 20
302.998294832252
 30
0.0
 40
2.0
 41
0.0
 71
     7
 72
     1
  1
We own the copyright of this document. It \Pdetermined and may neither be copied or \Pmade accessible to outsiders without our\Ppermission.
  7
CONVERTER_11
 11
0.0
 21
1.0
 31
0.0
 73
     1
 44
0.90036014405762
  0
MTEXT
  5
6F
330
47
100
AcDbEntity
  8
1
 62
     1
100
AcDbMText
 10
60.64597566396481
 20
246.7089079149458
 30
0.0
 40
2.0
 41
0.0
 71
     7
 72
     1
  1
F\U+00fcr diese Unterlage behalten wir das Ur-\Pheberrecht. Sie darf nur f\U+00fcr den von uns \Pbestimmten Zweck benutzt und ohne unsere \PZustimmung weder vervielf\U+00e4ltigt noch\PDritten zug\U+00e4nglich gemacht werden.
  7
CONVERTER_11
 11
0.0
 21
1.0
 31
0.0
 73
     1
 44
0.90036014405762
  0
ENDBLK
  5
49
330
47
100
AcDbEntity
  8
0
100
AcDbBlockEnd
  0
BLOCK
  5
C4
330
BD
100
AcDbEntity
  8
0
100
AcDbBlockBegin
  2
*D2
 70
     1
 10
0.0
 20
0.0
 30
0.0
  3
*D2
  1

  0
LINE
  5
BE
330
BD
100
AcDbEntity
  8
1
  6
Continuous
 62
     2
100
AcDbLine
 10
242.798232414698
 20
296.9039948486
 30
0.0
 11
242.798232414698
 21
284.9039948486
 31
0.0
  0
LINE
  5
BF
330
BD
100
AcDbEntity
  8
1
  6
Continuous
 62
     2
100
AcDbLine
 10
232.8
 20
296.9039948486
 30
0.0
 11
244.798232414698
 21
296.9039948486
 31
0.0
  0
LINE
  5
C0
330
BD
100
AcDbEntity
  8
1
  6
Continuous
 62
     2
100
AcDbLine
 10
232.8
 20
284.9039948486
 30
0.0
 11
244.798232414698
 21
284.9039948486
 31
0.0
  0
SOLID
  5
C1
330
BD
100
AcDbEntity
  8
1
 62
     2
100
AcDbTrace
 10
243.2590161562539
 20
293.4039948486
 30
0.0
 11
242.3374486731421
 21
293.4039948486
 31
0.0
 12
242.798232414698
 22
296.9039948486
 32
0.0
 13
242.798232414698
 23
296.9039948486
 33
0.0
  0
SOLID
  5
C2
330
BD
100
AcDbEntity
  8
1
 62
     2
100
AcDbTrace
 10
242.3374486731421
 20
288.4039948486
 30
0.0
 11
243.2590161562539
 21
288.4039948486
 31
0.0
 12
242.798232414698
 22
284.9039948486
 32
0.0
 13
242.798232414698
 23
284.9039948486
 33
0.0
  0
MTEXT
  5
C3
330
BD
100
AcDbEntity
  8
1
 62
     3
100
AcDbMText
 10
240.798232414698
 20
282.335292300049
 30
0.0
 40
3.5
 41
0.0
 71
     7
 72
     1
  1
\C3;%%c\C3;\C3;12\C2;\H2.45;\S^ ;\C3;
  7
CONVERTER_11
 11
0.0
 21
1.0
 31
0.0
 73
     1
 44
0.60024009603842
  0
ENDBLK
  5
C5
330
BD
100
AcDbEntity
  8
0
100
AcDbBlockEnd
  0
BLOCK
  5
CF
330
C8
100
AcDbEntity
  8
0
100
AcDbBlockBegin
  2
*D3
 70
     1
 10
0.0
 20
0.0
 30
0.0
  3
*D3
  1

  0
LINE
  5
C9
330
C8
100
AcDbEntity
  8
1
  6
Continuous
 62
     2
100
AcDbLine
 10
252.030980849186
 20
311.9039948486
 30
0.0
 11
252.030980849186
 21
269.9039948486
 31
0.0
  0
LINE
  5
CA
330
C8
100
AcDbEntity
  8
1
  6
Continuous
 62
     2
100
AcDbLine
 10
219.5320508076
 20
311.9039948486
 30
0.0
 11
254.030980849186
 21
311.9039948486
 31
0.0
  0
LINE
  5
CB
330
C8
100
AcDbEntity
  8
1
  6
Continuous
 62
     2
100
AcDbLine
 10
219.5320508076
 20
269.9039948486
 30
0.0
 11
254.030980849186
 21
269.9039948486
 31
0.0
  0
SOLID
  5
CC
330
C8
100
AcDbEntity
  8
1
 62
     2
100
AcDbTrace
 10
252.4917645907419
 20
308.4039948486
 30
0.0
 11
251.5701971076301
 21
308.4039948486
 31
0.0
 12
252.030980849186
 22
311.9039948486
 32
0.0
 13
252.030980849186
 23
311.9039948486
 33
0.0
  0
SOLID
  5
CD
330
C8
100
AcDbEntity
  8
1
 62
     2
100
AcDbTrace
 10
251.5701971076301
 20
273.4039948486
 30
0.0
 11
252.4917645907419
 21
273.4039948486
 31
0.0
 12
252.030980849186
 22
269.9039948486
 32
0.0
 13
252.030980849186
 23
269.9039948486
 33
0.0
  0
MTEXT
  5
CE
330
C8
100
AcDbEntity
  8
1
 62
     3
100
AcDbMText
 10
250.030980849186
 20
282.539126653731
 30
0.0
 40
3.5
 41
0.0
 71
     7
 72
     1
  1
\C3;%%c\C3;\C3;42\C2;\H2.45;\S^ ;\C3;
  7
CONVERTER_11
 11
0.0
 21
1.0
 31
0.0
 73
     1
 44
0.60024009603842
  0
ENDBLK
  5
D0
330
C8
100
AcDbEntity
  8
0
100
AcDbBlockEnd
  0
BLOCK
  5
DA
330
D3
100
AcDbEntity
  8
0
100
AcDbBlockBegin
  2
*D4
 70
     1
 10
0.0
 20
0.0
 30
0.0
  3
*D4
  1

  0
LINE
  5
D4
330
D3
100
AcDbEntity
  8
1
  6
Continuous
 62
     2
100
AcDbLine
 10
230.8
 20
342.922844267838
 30
0.0
 11
186.9
 21
342.922844267838
 31
0.0
  0
LINE
  5
D5
330
D3
100
AcDbEntity
  8
1
  6
Continuous
 62
     2
100
AcDbLine
 10
230.8
 20
305.8210910799
 30
0.0
 11
230.8
 21
344.922844267838
 31
0.0
  0
LINE
  5
D6
330
D3
100
AcDbEntity
  8
1
  6
Continuous
 62
     2
100
AcDbLine
 10
186.9
 20
338.8654885825
 30
0.0
 11
186.9
 21
344.922844267838
 31
0.0
  0
SOLID
  5
D7
330
D3
100
AcDbEntity
  8
1
 62
     2
100
AcDbTrace
 10
227.3
 20
342.4620605262821
 30
0.0
 11
227.3
 21
343.3836280093939
 31
0.0
 12
230.8
 22
342.922844267838
 32
0.0
 13
230.8
 23
342.922844267838
 33
0.0
  0
SOLID
  5
D8
330
D3
100
AcDbEntity
  8
1
 62
     2
100
AcDbTrace
 10
190.4
 20
343.3836280093939
 30
0.0
 11
190.4
 21
342.4620605262821
 31
0.0
 12
186.9
 22
342.922844267838
 32
0.0
 13
186.9
 23
342.922844267838
 33
0.0
  0
MTEXT
  5
D9
330
D3
100
AcDbEntity
  8
1
 62
     3
100
AcDbMText
 10
203.9499775264812
 20
344.922844267838
 30
0.0
 40
3.5
 41
0.0
 71
     7
 72
     1
  1
\C3;\C3;\C3;43.9\C2;\H2.45;\S^ ;\C3;
  7
CONVERTER_11
 11
0.9999999999970619
 21
2.424068405545306E-6
 31
0.0
 73
     1
 44
0.60024009603842
  0
ENDBLK
  5
DB
330
D3
100
AcDbEntity
  8
0
100
AcDbBlockEnd
  0
BLOCK
  5
E5
330
DE
100
AcDbEntity
  8
0
100
AcDbBlockBegin
  2
*D5
 70
     1
 10
0.0
 20
0.0
 30
0.0
  3
*D5
  1

  0
LINE
  5
DF
330
DE
100
AcDbEntity
  8
1
  6
Continuous
 62
     2
100
AcDbLine
 10
230.8
 20
350.907923994963
 30
0.0
 11
167.8
 21
350.907923994963
 31
0.0
  0
LINE
  5
E0
330
DE
100
AcDbEntity
  8
1
  6
Continuous
 62
     2
100
AcDbLine
 10
230.8
 20
305.8210910799
 30
0.0
 11
230.8
 21
352.907923994963
 31
0.0
  0
LINE
  5
E1
330
DE
100
AcDbEntity
  8
1
  6
Continuous
 62
     2
100
AcDbLine
 10
167.8
 20
333.8414948486
 30
0.0
 11
167.8
 21
352.907923994963
 31
0.0
  0
SOLID
  5
E2
330
DE
100
AcDbEntity
  8
1
 62
     2
100
AcDbTrace
 10
227.3
 20
350.4471402534072
 30
0.0
 11
227.3
 21
351.3687077365189
 31
0.0
 12
230.8
 22
350.907923994963
 32
0.0
 13
230.8
 23
350.907923994963
 33
0.0
  0
SOLID
  5
E3
330
DE
100
AcDbEntity
  8
1
 62
     2
100
AcDbTrace
 10
171.3
 20
351.3687077365189
 30
0.0
 11
171.3
 21
350.4471402534072
 31
0.0
 12
167.8
 22
350.907923994963
 32
0.0
 13
167.8
 23
350.907923994963
 33
0.0
  0
MTEXT
  5
E4
330
DE
100
AcDbEntity
  8
1
 62
     3
100
AcDbMText
 10
198.901330718025
 20
352.907923994963
 30
0.0
 40
3.5
 41
0.0
 71
     7
 72
     1
  1
\C3;\C3;\C3;63\C2;\H2.45;\S^ ;\C3;
  7
CONVERTER_11
 11
0.9999999999970619
 21
2.424068405545306E-6
 31
0.0
 73
     1
 44
0.60024009603842
  0
ENDBLK
  5
E6
330
DE
100
AcDbEntity
  8
0
100
AcDbBlockEnd
  0
BLOCK
  5
F0
330
E9
100
AcDbEntity
  8
0
100
AcDbBlockBegin
  2
*D6
 70
     1
 10
0.0
 20
0.0
 30
0.0
  3
*D6
  1

  0
LINE
  5
EA
330
E9
100
AcDbEntity
  8
1
  6
Continuous
 62
     2
100
AcDbLine
 10
230.8
 20
358.393936239143
 30
0.0
 11
66.04999999999998
 21
358.393936239143
 31
0.0
  0
LINE
  5
EB
330
E9
100
AcDbEntity
  8
1
  6
Continuous
 62
     2
100
AcDbLine
 10
230.8
 20
305.8210910799
 30
0.0
 11
230.8
 21
360.393936239143
 31
0.0
  0
LINE
  5
EC
330
E9
100
AcDbEntity
  8
1
  6
Continuous
 62
     2
100
AcDbLine
 10
66.05
 20
311.0654418498
 30
0.0
 11
66.05
 21
360.393936239143
 31
0.0
  0
SOLID
  5
ED
330
E9
100
AcDbEntity
  8
1
 62
     2
100
AcDbTrace
 10
227.3
 20
357.9331524975871
 30
0.0
 11
227.3
 21
358.8547199806989
 31
0.0
 12
230.8
 22
358.393936239143
 32
0.0
 13
230.8
 23
358.393936239143
 33
0.0
  0
SOLID
  5
EE
330
E9
100
AcDbEntity
  8
1
 62
     2
100
AcDbTrace
 10
69.54999999999998
 20
358.8547199806989
 30
0.0
 11
69.54999999999998
 21
357.9331524975871
 31
0.0
 12
66.04999999999998
 22
358.393936239143
 32
0.0
 13
66.04999999999998
 23
358.393936239143
 33
0.0
  0
MTEXT
  5
EF
330
E9
100
AcDbEntity
  8
1
 62
     3
100
AcDbMText
 10
150.7265725528046
 20
360.393936239143
 30
0.0
 40
3.5
 41
0.0
 71
     7
 72
     1
  1
\C3;\C3;\C3;164.75\C2;\H2.45;\S^ ;\C3;
  7
CONVERTER_11
 11
0.9999999999970619
 21
2.424068405545306E-6
 31
0.0
 73
     1
 44
0.60024009603842
  0
ENDBLK
  5
F1
330
E9
100
AcDbEntity
  8
0
100
AcDbBlockEnd
  0
BLOCK
  5
F8
330
F4
100
AcDbEntity
  8
0
100
AcDbBlockBegin
  2
*D7
 70
     1
 10
0.0
 20
0.0
 30
0.0
  3
*D7
  1

  0
LINE
  5
F5
330
F4
100
AcDbEntity
  8
1
  6
Continuous
 62
     2
100
AcDbLine
 10
197.8762280412465
 20
321.8960067039422
 30
0.0
 11
188.2198515031227
 21
314.1495028660307
 31
0.0
  0
SOLID
  5
F6
330
F4
100
AcDbEntity
  8
1
 62
     2
100
AcDbTrace
 10
190.6616033157395
 20
316.6990459117675
 30
0.0
 11
191.2382729368628
 21
315.9802004666248
 31
0.0
 12
188.2198515031227
 22
314.1495028660307
 32
0.0
 13
188.2198515031227
 23
314.1495028660307
 33
0.0
  0
MTEXT
  5
F7
330
F4
100
AcDbEntity
  8
1
 62
     3
100
AcDbMText
 10
190.8369470725851
 20
318.8130011177907
 30
0.0
 40
3.5
 41
0.0
 71
     7
 72
     1
  1
\C3; R\C3;\C3;6\C2;\H2.45;\S^ ;\C3;
  7
CONVERTER_11
 11
0.7800247494795521
 21
0.6257486637615473
 31
0.0
 73
     1
 44
0.60024009603842
  0
ENDBLK
  5
F9
330
F4
100
AcDbEntity
  8
0
100
AcDbBlockEnd
  0
ENDSEC
  0
SECTION
  2
ENTITIES
  0
INSERT
  5
6C
330
1F
100
AcDbEntity
  8
0
100
AcDbBlockReference
  2
Urheberrecht_DE-EN
 10
60.64597566396481
 20
302.998294832252
 30
0.0
  0
LINE
  5
70
330
1F
100
AcDbEntity
  8
0
  6
Continuous
 62
     7
100
AcDbLine
 10
66.04999999999997
 20
309.0654418498
 30
0.0
 11
66.04999999999997
 21
272.7425478474
 31
0.0
  0
LINE
  5
71
330
1F
100
AcDbEntity
  8
0
  6
Continuous
 62
     9
100
AcDbLine
 10
67.97528299439998
 20
311.291887193
 30
0.0
 11
67.97528299439999
 21
270.5161025042
 31
0.0
  0
LINE
  5
72
330
1F
100
AcDbEntity
  8
0
  6
Continuous
 62
     7
100
AcDbLine
 10
172.0
 20
243.9046979789
 30
0.0
 11
175.7346216142
 21
243.9046979789
 31
0.0
  0
LINE
  5
73
330
1F
100
AcDbEntity
  8
0
  6
Continuous
 62
     7
100
AcDbLine
 10
182.2153783858
 20
243.9046979789
 30
0.0
 11
185.9
 21
243.9046979789
 31
0.0
  0
LINE
  5
74
330
1F
100
AcDbEntity
  8
0
  6
Continuous
 62
     7
100
AcDbLine
 10
177.8125
 20
247.2709798256
 30
0.0
 11
180.1375
 21
247.2709798256
 31
0.0
  0
LINE
  5
75
330
1F
100
AcDbEntity
  8
0
  6
Continuous
 62
     7
100
AcDbLine
 10
168.35
 20
256.3289948486
 30
0.0
 11
167.3103176668
 21
256.050412807
 31
0.0
  0
LINE
  5
76
330
1F
100
AcDbEntity
  8
0
  6
Continuous
 62
     7
100
AcDbLine
 10
170.0
 20
256.3289948486
 30
0.0
 11
168.35
 21
256.3289948486
 31
0.0
  0
LINE
  5
77
330
1F
100
AcDbEntity
  8
0
  6
Continuous
 62
     7
100
AcDbLine
 10
167.3103176668
 20
256.050412807
 30
0.0
 11
67.97528299439999
 21
270.5161025042
 31
0.0
  0
LINE
  5
78
330
1F
100
AcDbEntity
  8
RUNDUNGEN
  6
Continuous
 62
     7
100
AcDbLine
 10
217.5320508076
 20
269.9039948486
 30
0.0
 11
192.9
 21
269.9039948486
 31
0.0
  0
LINE
  5
79
330
1F
100
AcDbEntity
  8
0
  6
Continuous
 62
     7
100
AcDbLine
 10
192.9
 20
269.9039948486
 30
0.0
 11
217.5320508076
 21
269.9039948486
 31
0.0
  0
LWPOLYLINE
  5
7A
330
1F
100
AcDbEntity
  8
DEFAULT_2
  6
DASHED
 62
     8
100
AcDbPolyline
 90
        2
 70
     0
 43
0.35
 10
230.8
 20
284.9039948486
 10
186.07
 20
284.9039948486
  0
LWPOLYLINE
  5
7B
330
1F
100
AcDbEntity
  8
TEIL_STARTBEZUEGE
  6
DOT_CENTER
 62
     7
100
AcDbPolyline
 90
        2
 70
     0
 43
0.25
 10
233.8
 20
290.9039948486
 10
63.04999999999998
 20
290.9039948486
  0
LWPOLYLINE
  5
7C
330
1F
100
AcDbEntity
  8
DEFAULT_2
  6
DASHED
 62
     8
100
AcDbPolyline
 90
        2
 70
     0
 43
0.35
 10
186.07
 20
296.9039948486
 10
203.2
 20
296.9039948486
  0
LWPOLYLINE
  5
7D
330
1F
100
AcDbEntity
  8
DEFAULT_2
  6
DASHED
 62
     8
100
AcDbPolyline
 90
        2
 70
     0
 43
0.35
 10
203.2
 20
296.9039948486
 10
230.8
 20
296.9039948486
  0
LINE
  5
7E
330
1F
100
AcDbEntity
  8
0
  6
Continuous
 62
     7
100
AcDbLine
 10
167.3103176668
 20
325.7575768902
 30
0.0
 11
167.3103176668
 21
256.050412807
 31
0.0
  0
LWPOLYLINE
  5
7F
330
1F
100
AcDbEntity
  8
TEIL_STARTBEZUEGE
  6
DOT_CENTER
 62
     7
100
AcDbPolyline
 90
        2
 70
     0
 43
0.25
 10
167.8
 20
247.8046979789
 10
167.8
 20
331.8414948486
  0
LINE
  5
80
330
1F
100
AcDbEntity
  8
0
  6
Continuous
 62
     7
100
AcDbLine
 10
168.35
 20
325.4789948486
 30
0.0
 11
168.35
 21
256.3289948486
 31
0.0
  0
LINE
  5
81
330
1F
100
AcDbEntity
  8
0
  6
Continuous
 62
     9
100
AcDbLine
 10
170.0
 20
325.4789948486
 30
0.0
 11
170.0
 21
256.3289948486
 31
0.0
  0
LINE
  5
82
330
1F
100
AcDbEntity
  8
0
  6
Continuous
 62
     7
100
AcDbLine
 10
171.0
 20
336.8654885825
 30
0.0
 11
171.0
 21
244.9425011147
 31
0.0
  0
LINE
  5
83
330
1F
100
AcDbEntity
  8
0
  6
Continuous
 62
     9
100
AcDbLine
 10
172.0
 20
337.9032917183
 30
0.0
 11
172.0
 21
243.9046979789
 31
0.0
  0
LINE
  5
84
330
1F
100
AcDbEntity
  8
BEZUGSACHSEN
  6
Continuous
 62
     7
100
AcDbLine
 10
217.5320508076
 20
311.9039948486
 30
0.0
 11
213.4
 21
311.9039948486
 31
0.0
  0
LINE
  5
85
330
1F
100
AcDbEntity
  8
BEZUGSACHSEN
  6
Continuous
 62
     7
100
AcDbLine
 10
203.2
 20
311.9039948486
 30
0.0
 11
192.9
 21
311.9039948486
 31
0.0
  0
LINE
  5
86
330
1F
100
AcDbEntity
  8
0
  6
Continuous
 62
     7
100
AcDbLine
 10
192.9
 20
311.9039948486
 30
0.0
 11
203.2
 21
311.9039948486
 31
0.0
  0
LINE
  5
87
330
1F
100
AcDbEntity
  8
0
  6
Continuous
 62
     7
100
AcDbLine
 10
213.4
 20
311.9039948486
 30
0.0
 11
217.5320508076
 21
311.9039948486
 31
0.0
  0
LINE
  5
88
330
1F
100
AcDbEntity
  8
0
  6
Continuous
 62
     7
100
AcDbLine
 10
175.7346216142
 20
337.9032917183
 30
0.0
 11
175.7346216142
 21
243.9046979789
 31
0.0
  0
LINE
  5
89
330
1F
100
AcDbEntity
  8
0
  6
Continuous
 62
     7
100
AcDbLine
 10
177.0625
 20
335.5138120094
 30
0.0
 11
177.0625
 21
246.2941776878
 31
0.0
  0
LINE
  5
8A
330
1F
100
AcDbEntity
  8
0
  6
Continuous
 62
     9
100
AcDbLine
 10
177.8125
 20
334.5370098716
 30
0.0
 11
177.8125
 21
247.2709798256
 31
0.0
  0
LINE
  5
8B
330
1F
100
AcDbEntity
  8
0
  6
Continuous
 62
     9
100
AcDbLine
 10
180.1375
 20
334.5370098716
 30
0.0
 11
180.1375
 21
247.2709798256
 31
0.0
  0
LINE
  5
8C
330
1F
100
AcDbEntity
  8
0
  6
Continuous
 62
     7
100
AcDbLine
 10
180.8875
 20
335.5138120094
 30
0.0
 11
180.8875
 21
246.2941776878
 31
0.0
  0
LINE
  5
8D
330
1F
100
AcDbEntity
  8
0
  6
Continuous
 62
     7
100
AcDbLine
 10
167.3103176668
 20
325.7575768902
 30
0.0
 11
67.97528299439998
 21
311.291887193
 31
0.0
  0
LINE
  5
8E
330
1F
100
AcDbEntity
  8
0
  6
Continuous
 62
     7
100
AcDbLine
 10
182.2153783858
 20
337.9032917183
 30
0.0
 11
182.2153783858
 21
243.9046979789
 31
0.0
  0
LINE
  5
8F
330
1F
100
AcDbEntity
  8
0
  6
Continuous
 62
     9
100
AcDbLine
 10
185.9
 20
337.9032917183
 30
0.0
 11
185.9
 21
243.9046979789
 31
0.0
  0
LWPOLYLINE
  5
90
330
1F
100
AcDbEntity
  8
DEFAULT_2
  6
DASHED
 62
     8
100
AcDbPolyline
 90
        2
 70
     0
 43
0.35
 10
186.07
 20
296.9039948486
 10
186.07
 20
284.9039948486
  0
LINE
  5
91
330
1F
100
AcDbEntity
  8
0
  6
Continuous
 62
     7
100
AcDbLine
 10
186.9
 20
336.8654885825
 30
0.0
 11
186.9
 21
244.9425011147
 31
0.0
  0
LINE
  5
92
330
1F
100
AcDbEntity
  8
0
  6
Continuous
 62
     7
100
AcDbLine
 10
170.0
 20
325.4789948486
 30
0.0
 11
168.35
 21
325.4789948486
 31
0.0
  0
LINE
  5
93
330
1F
100
AcDbEntity
  8
0
  6
Continuous
 62
     7
100
AcDbLine
 10
171.0
 20
326.2039948486
 30
0.0
 11
170.9614442262
 21
326.2039948486
 31
0.0
  0
LINE
  5
94
330
1F
100
AcDbEntity
  8
0
  6
Continuous
 62
     7
100
AcDbLine
 10
168.35
 20
325.4789948486
 30
0.0
 11
167.3103176668
 21
325.7575768902
 31
0.0
  0
LINE
  5
95
330
1F
100
AcDbEntity
  8
RUNDUNGEN
  6
Continuous
 62
     9
100
AcDbLine
 10
192.9
 20
311.9039948486
 30
0.0
 11
192.9
 21
269.9039948486
 31
0.0
  0
LINE
  5
96
330
1F
100
AcDbEntity
  8
0
  6
Continuous
 62
     7
100
AcDbLine
 10
177.8125
 20
334.5370098716
 30
0.0
 11
180.1375
 21
334.5370098716
 31
0.0
  0
LINE
  5
97
330
1F
100
AcDbEntity
  8
0
  6
Continuous
 62
     7
100
AcDbLine
 10
172.0
 20
337.9032917183
 30
0.0
 11
175.7346216142
 21
337.9032917183
 31
0.0
  0
LINE
  5
98
330
1F
100
AcDbEntity
  8
0
  6
Continuous
 62
     7
100
AcDbLine
 10
182.2153783858
 20
337.9032917183
 30
0.0
 11
185.9
 21
337.9032917183
 31
0.0
  0
LWPOLYLINE
  5
99
330
1F
100
AcDbEntity
  8
BEZUGSACHSEN
  6
DASHED
 62
     8
100
AcDbPolyline
 90
        2
 70
     0
 43
0.35
 10
203.2
 20
296.9039948486
 10
203.2
 20
311.9039948486
  0
LINE
  5
9A
330
1F
100
AcDbEntity
  8
0
  6
Continuous
 62
     7
100
AcDbLine
 10
218.0320508076
 20
270.0379694448
 30
0.0
 11
230.3
 21
277.1208732135
 31
0.0
  0
LINE
  5
9B
330
1F
100
AcDbEntity
  8
RUNDUNGEN
  6
Continuous
 62
     7
100
AcDbLine
 10
230.3
 20
304.6871164837
 30
0.0
 11
218.0320508076
 21
311.7700202524
 31
0.0
  0
LINE
  5
9C
330
1F
100
AcDbEntity
  8
0
  6
Continuous
 62
     7
100
AcDbLine
 10
218.0320508076
 20
311.7700202524
 30
0.0
 11
230.3
 21
304.6871164837
 31
0.0
  0
LWPOLYLINE
  5
9D
330
1F
100
AcDbEntity
  8
BEZUGSACHSEN
  6
DOT_CENTER
 62
     7
100
AcDbPolyline
 90
        2
 70
     0
 43
0.25
 10
208.3
 20
314.9039948486
 10
208.3
 20
291.0621003355
  0
LWPOLYLINE
  5
9E
330
1F
100
AcDbEntity
  8
BEZUGSACHSEN
  6
DASHED
 62
     8
100
AcDbPolyline
 90
        2
 70
     0
 43
0.35
 10
213.4
 20
296.9039948486
 10
213.4
 20
311.9039948486
  0
LINE
  5
9F
330
1F
100
AcDbEntity
  8
RUNDUNGEN
  6
Continuous
 62
     9
100
AcDbLine
 10
217.5320508076
 20
269.9039948486
 30
0.0
 11
217.5320508076
 21
311.9039948486
 31
0.0
  0
LINE
  5
A0
330
1F
100
AcDbEntity
  8
RUNDUNGEN
  6
Continuous
 62
     9
100
AcDbLine
 10
218.0320508076
 20
270.0379694448
 30
0.0
 11
218.0320508076
 21
311.7700202524
 31
0.0
  0
LINE
  5
A1
330
1F
100
AcDbEntity
  8
RUNDUNGEN
  6
Continuous
 62
     9
100
AcDbLine
 10
230.3
 20
277.1208732135
 30
0.0
 11
230.3
 21
304.6871164837
 31
0.0
  0
LINE
  5
A2
330
1F
100
AcDbEntity
  8
RUNDUNGEN
  6
Continuous
 62
     7
100
AcDbLine
 10
230.8
 20
303.8210910799
 30
0.0
 11
230.8
 21
277.9868986172
 31
0.0
  0
LWPOLYLINE
  5
A3
330
1F
100
AcDbEntity
  8
BEZUGSACHSEN
  6
DASHED
 62
     8
100
AcDbPolyline
 90
        2
 70
     0
 43
0.35
 10
214.3
 20
296.9039948486
 10
214.3
 20
311.9039948486
  0
LWPOLYLINE
  5
A4
330
1F
100
AcDbEntity
  8
BEZUGSACHSEN
  6
DASHED
 62
     8
100
AcDbPolyline
 90
        2
 70
     0
 43
0.35
 10
202.3
 20
296.9039948486
 10
202.3
 20
311.9039948486
  0
ARC
  5
A5
330
1F
100
AcDbEntity
  8
RUNDUNGEN
  6
Continuous
 62
     7
100
AcDbCircle
 10
192.9
 20
317.9039948486
 30
0.0
 40
6.0
100
AcDbArc
 50
180.0
 51
270.0
  0
ARC
  5
A6
330
1F
100
AcDbEntity
  8
RUNDUNGEN
  6
Continuous
 62
     7
100
AcDbCircle
 10
192.9
 20
263.9039948486
 30
0.0
 40
6.0
100
AcDbArc
 50
90.0
 51
180.0
  0
ARC
  5
A7
330
1F
100
AcDbEntity
  8
0
  6
Continuous
 62
     7
100
AcDbCircle
 10
68.29999999999997
 20
272.7425478474
 30
0.0
 40
2.25
100
AcDbArc
 50
180.0
 51
261.7021731726461
  0
ARC
  5
A8
330
1F
100
AcDbEntity
  8
0
  6
Continuous
 62
     7
100
AcDbCircle
 10
68.29999999999997
 20
309.0654418498
 30
0.0
 40
2.249999999996174
100
AcDbArc
 50
98.29782682735429
 51
180.0
  0
ARC
  5
A9
330
1F
100
AcDbEntity
  8
RUNDUNGEN
  6
Continuous
 62
     7
100
AcDbCircle
 10
217.5320508076
 20
310.9039948486
 30
0.0
 40
1.000000000013472
100
AcDbArc
 50
60.00000000044565
 51
90.0
  0
ARC
  5
AA
330
1F
100
AcDbEntity
  8
RUNDUNGEN
  6
Continuous
 62
     7
100
AcDbCircle
 10
217.5320508076
 20
270.9039948486
 30
0.0
 40
1.0
100
AcDbArc
 50
270.0
 51
299.9999999995543
  0
ARC
  5
AB
330
1F
100
AcDbEntity
  8
0
  6
Continuous
 62
     7
100
AcDbCircle
 10
170.0
 20
326.4789948486
 30
0.0
 40
1.0
100
AcDbArc
 50
270.0
 51
344.0379858379187
  0
ARC
  5
AC
330
1F
100
AcDbEntity
  8
0
  6
Continuous
 62
     7
100
AcDbCircle
 10
170.0
 20
255.3289948486
 30
0.0
 40
1.0
100
AcDbArc
 50
0.0
 51
90.0
  0
ARC
  5
AD
330
1F
100
AcDbEntity
  8
RUNDUNGEN
  6
Continuous
 62
     7
100
AcDbCircle
 10
229.8
 20
277.9868986172
 30
0.0
 40
0.9999999999268803
100
AcDbArc
 50
300.0000000024187
 51
0.0
  0
ARC
  5
AE
330
1F
100
AcDbEntity
  8
RUNDUNGEN
  6
Continuous
 62
     7
100
AcDbCircle
 10
229.8
 20
303.8210910799
 30
0.0
 40
1.0
100
AcDbArc
 50
0.0
 51
60.00000000044565
  0
SPLINE
  5
AF
330
1F
100
AcDbEntity
  8
0
  6
Continuous
 62
     2
100
AcDbSpline
210
0.0
220
0.0
230
1.0
 70
     8
 71
     3
 72
    45
 73
    41
 74
    39
 42
0.0000000001
 43
0.0000000001
 44
0.00000001
 40
0.0
 40
0.0
 40
0.0
 40
0.0
 40
0.0205861583060512
 40
0.0822609945943205
 40
0.1847403870020784
 40
0.3271053422748276
 40
0.5080092161889262
 40
0.7250192935232639
 40
0.9756608337163686
 40
1.258347858033167
 40
1.571856809756478
 40
1.915476534049332
 40
2.288356364569249
 40
2.688495362863069
 40
3.113376995097537
 40
3.559444134577118
 40
4.024102139822926
 40
4.509544629006808
 40
5.01741343522206
 40
5.542187653200591
 40
6.07623224948956
 40
6.610400551820391
 40
7.135541617446465
 40
7.643997582588545
 40
8.13022062799691
 40
8.595826345232652
 40
9.04297809920457
 40
9.46903391259681
 40
9.870384513382977
 40
10.24445929194386
 40
10.58921246451415
 40
10.90378861012669
 40
11.18747437696339
 40
11.4390150007783
 40
11.65679363980866
 40
11.8383356094694
 40
11.98121247843629
 40
12.08406822875888
 40
12.14597255848201
 40
12.16663605594735
 40
12.16663605594735
 40
12.16663605594735
 40
12.16663605594735
 10
202.3
 20
311.9040225187
 30
0.0
 10
202.3065965681949
 20
311.9021322598838
 30
0.0
 10
202.3329560400572
 20
311.8945789044711
 30
0.0
 10
202.3922063291305
 20
311.8778000597758
 30
0.0
 10
202.4905836704825
 20
311.8502087525336
 30
0.0
 10
202.627434139001
 20
311.8126273493023
 30
0.0
 10
202.8013863513941
 20
311.7659944081302
 30
0.0
 10
203.0106501322997
 20
311.7117180100025
 30
0.0
 10
203.2533403932147
 20
311.6512191621755
 30
0.0
 10
203.5279906623685
 20
311.5860080492155
 30
0.0
 10
203.8336792789786
 20
311.5174543235166
 30
0.0
 10
204.1697462045685
 20
311.4471152551956
 30
0.0
 10
204.5352304616857
 20
311.376573202099
 30
0.0
 10
204.9285736731826
 20
311.3077284105758
 30
0.0
 10
205.3472680526507
 20
311.2426422305455
 30
0.0
 10
205.7884985821679
 20
311.1830703618913
 30
0.0
 10
206.2509740269109
 20
311.1307253009678
 30
0.0
 10
206.7350710111676
 20
311.0873516323301
 30
0.0
 10
207.2400762892111
 20
311.0544065359726
 30
0.0
 10
207.761943775999
 20
311.0334318440189
 30
0.0
 10
208.2929543766237
 20
311.0263346578568
 30
0.0
 10
208.8240921593634
 20
311.0330609203413
 30
0.0
 10
209.3463329745823
 20
311.0536925950437
 30
0.0
 10
209.8519370339971
 20
311.0863422798562
 30
0.0
 10
210.336829648742
 20
311.1294863944049
 30
0.0
 10
210.8002667207074
 20
311.1816740427092
 30
0.0
 10
211.2425869948511
 20
311.2411643736093
 30
0.0
 10
211.6624539950646
 20
311.3062394939351
 30
0.0
 10
212.0569995736206
 20
311.3751388521187
 30
0.0
 10
212.4236656289723
 20
311.4457852124789
 30
0.0
 10
212.7608594492941
 20
311.5162658258554
 30
0.0
 10
213.0676034885582
 20
311.584987330976
 30
0.0
 10
213.3432263247203
 20
311.6503808924581
 30
0.0
 10
213.5867867369639
 20
311.7110638346816
 30
0.0
 10
213.7967994732729
 20
311.7655140742654
 30
0.0
 10
213.9713721757436
 20
311.8123023117647
 30
0.0
 10
214.1087146837353
 20
311.8500133318955
 30
0.0
 10
214.207451300572
 20
311.8777033751549
 30
0.0
 10
214.2669208715338
 20
311.8945436807356
 30
0.0
 10
214.2933786523663
 20
311.9021252506157
 30
0.0
 10
214.3
 20
311.904022621
 30
0.0
 11
202.3
 21
311.9040225187
 31
0.0
 11
202.3197911720099
 21
311.8983568833183
 31
0.0
 11
202.379124700204
 21
311.8815248346248
 31
0.0
 11
202.4778032084795
 21
311.8538738333267
 31
0.0
 11
202.6150797421316
 21
311.8161520385885
 31
0.0
 11
202.7898183994282
 21
311.7693266902896
 31
0.0
 11
202.9998770705938
 21
311.7148406523277
 31
0.0
 11
203.2430796578834
 21
311.6542297357695
 31
0.0
 11
203.5181203183734
 21
311.5889259166291
 31
0.0
 11
203.8240365993795
 21
311.5203468248734
 31
0.0
 11
204.1603693555624
 21
311.4499565411581
 31
0.0
 11
204.526497716947
 21
311.3793209198442
 31
0.0
 11
204.9206506065134
 21
311.3103664594955
 31
0.0
 11
205.3404887946233
 21
311.2450955071902
 31
0.0
 11
205.782550649273
 21
311.1854531599259
 31
0.0
 11
206.2442684813203
 21
311.1332640287919
 31
0.0
 11
206.7277727745897
 21
311.0899280311094
 31
0.0
 11
207.2345632334454
 21
311.0568500151572
 31
0.0
 11
207.7589182722732
 21
311.0358792471483
 31
0.0
 11
208.2929139605438
 21
311.0286518178766
 31
0.0
 11
208.827038277377
 21
311.0355066980647
 31
0.0
 11
209.3517741208296
 21
311.0561327350822
 31
0.0
 11
209.8591721550595
 21
311.088915403493
 31
0.0
 11
210.3434805384026
 21
311.1320227080919
 31
0.0
 11
210.8061696404614
 21
311.1840561469425
 31
0.0
 11
211.249336733785
 21
311.2436180347173
 31
0.0
 11
211.6703644906186
 21
311.3088804595955
 31
0.0
 11
212.0657374399551
 21
311.3778915868463
 31
0.0
 11
212.4330621389222
 21
311.4486341163748
 31
0.0
 11
212.7705232215893
 21
311.5191661493984
 31
0.0
 11
213.0774956005922
 21
311.5879128578122
 31
0.0
 11
213.3535189398686
 21
311.6534012573987
 31
0.0
 11
213.5976016311571
 21
311.7141986688779
 31
0.0
 11
213.8084092057906
 21
311.7688585453417
 31
0.0
 11
213.9837670244678
 21
311.815838564255
 31
0.0
 11
214.1215385755997
 21
311.853690900834
 31
0.0
 11
214.2205800304297
 21
311.8814414972165
 31
0.0
 11
214.2801344787194
 21
311.8983356893361
 31
0.0
 11
214.3
 21
311.904022621
 31
0.0
  0
SPLINE
  5
B0
330
1F
100
AcDbEntity
  8
0
  6
Continuous
 62
     7
100
AcDbSpline
210
0.0
220
0.0
230
1.0
 70
     8
 71
     3
 72
    15
 73
    11
 74
     9
 42
0.0000000001
 43
0.0000000001
 44
0.00000001
 40
0.0
 40
0.0
 40
0.0
 40
0.0
 40
0.1994115816775768
 40
0.3995307346104411
 40
0.5993951286029054
 40
0.7990503740705919
 40
0.9987117984228822
 40
1.198567836634087
 40
1.398751217312163
 40
1.598077981766922
 40
1.598077981766922
 40
1.598077981766922
 40
1.598077981766922
 10
186.9
 20
336.8654885825
 30
0.0
 10
186.8963817754011
 20
336.9320468979104
 30
0.0
 10
186.8891324876726
 20
337.065399697315
 30
0.0
 10
186.83193590211
 20
337.2586707102026
 30
0.0
 10
186.7417689436424
 20
337.4381458033804
 30
0.0
 10
186.6185365660991
 20
337.5969867860983
 30
0.0
 10
186.4667484398084
 20
337.7289133421119
 30
0.0
 10
186.2916242845568
 20
337.8275428295078
 30
0.0
 10
186.0999201704504
 20
337.8909870564086
 30
0.0
 10
185.9665447304385
 20
337.8991960314723
 30
0.0
 10
185.9
 20
337.9032917183
 30
0.0
 11
186.9
 21
336.8654885825
 31
0.0
 11
186.8814537749011
 21
337.0640358475069
 31
0.0
 11
186.8264103222658
 21
337.2564361949405
 31
0.0
 11
186.7362084284505
 21
337.4347880784128
 31
0.0
 11
186.6137799767394
 21
337.592501398251
 31
0.0
 11
186.4629372039024
 21
337.7233109631047
 31
0.0
 11
186.2889415992936
 21
337.8216367765328
 31
0.0
 11
186.0982416258214
 21
337.8825211424851
 31
0.0
 11
185.9
 21
337.9032917183
 31
0.0
  0
SPLINE
  5
B1
330
1F
100
AcDbEntity
  8
0
  6
Continuous
 62
     7
100
AcDbSpline
210
0.0
220
0.0
230
1.0
 70
     8
 71
     3
 72
    15
 73
    11
 74
     9
 42
0.0000000001
 43
0.0000000001
 44
0.00000001
 40
0.0
 40
0.0
 40
0.0
 40
0.0
 40
0.1993272358061572
 40
0.3995110958003062
 40
0.5993673928006218
 40
0.7990290697729614
 40
0.9986840388735502
 40
1.198548154969826
 40
1.398666849487595
 40
1.598077976728597
 40
1.598077976728597
 40
1.598077976728597
 40
1.598077976728597
 10
185.9
 20
243.9046979789
 30
0.0
 10
185.9665448881885
 20
243.9087936878214
 30
0.0
 10
186.0999206463611
 20
243.9170027072894
 30
0.0
 10
186.291625105117
 20
243.9804472212212
 30
0.0
 10
186.4667494465016
 20
244.0790770560748
 30
0.0
 10
186.6185374677989
 20
244.2110038600762
 30
0.0
 10
186.7417695758589
 20
244.36984491846
 30
0.0
 10
186.8319361973883
 20
244.5493197986535
 30
0.0
 10
186.8891325385476
 20
244.7425904573004
 30
0.0
 10
186.8963817923251
 20
244.8759429513183
 30
0.0
 10
186.9
 20
244.9425011147
 30
0.0
 11
185.9
 21
243.9046979789
 31
0.0
 11
186.0982420886041
 21
243.9254686611232
 31
0.0
 11
186.2889424719763
 21
243.9863533191565
 31
0.0
 11
186.4629381970443
 21
244.0846794454341
 31
0.0
 11
186.6137809929732
 21
244.2154893692463
 31
0.0
 11
186.7362090724914
 21
244.3732026281438
 31
0.0
 11
186.8264106588906
 21
244.5515543556768
 31
0.0
 11
186.8814538605398
 21
244.7439542981084
 31
0.0
 11
186.9
 21
244.9425011147
 31
0.0
  0
SPLINE
  5
B2
330
1F
100
AcDbEntity
  8
0
  6
Continuous
 62
     7
100
AcDbSpline
210
0.0
220
0.0
230
1.0
 70
     8
 71
     3
 72
    15
 73
    11
 74
     9
 42
0.0000000001
 43
0.0000000001
 44
0.00000001
 40
0.0
 40
0.0
 40
0.0
 40
0.0
 40
0.1993272936063153
 40
0.3995112141018832
 40
0.5993674459994399
 40
0.7990290559300148
 40
0.9986840827111017
 40
1.198548256340678
 40
1.398666897353176
 40
1.598077972459094
 40
1.598077972459094
 40
1.598077972459094
 40
1.598077972459094
 10
172.0
 20
337.9032917183
 30
0.0
 10
171.9334550924754
 20
337.8991960044686
 30
0.0
 10
171.8000792947284
 20
337.8909869751087
 30
0.0
 10
171.6083748289695
 20
337.8275424219905
 30
0.0
 10
171.4332505159103
 20
337.7289125905654
 30
0.0
 10
171.2814625091552
 20
337.5969858091762
 30
0.0
 10
171.1582303857741
 20
337.438144741061
 30
0.0
 10
171.0680637626514
 20
337.2586698367406
 30
0.0
 10
171.0108674507389
 20
337.0653991871439
 30
0.0
 10
171.003618204115
 20
336.9320467284489
 30
0.0
 10
171.0
 20
336.8654885825
 30
0.0
 11
172.0
 21
337.9032917183
 31
0.0
 11
171.8017578554638
 21
337.8825210152281
 31
0.0
 11
171.6110574232222
 21
337.8216363113374
 31
0.0
 11
171.4370617616077
 21
337.7233102051011
 31
0.0
 11
171.2862190123109
 21
337.5925003298444
 31
0.0
 11
171.1637908928905
 21
337.434787028902
 31
0.0
 11
171.0735892903812
 21
337.2564352450439
 31
0.0
 11
171.0185461240032
 21
337.0640353481734
 31
0.0
 11
171.0
 21
336.8654885825
 31
0.0
  0
SPLINE
  5
B3
330
1F
100
AcDbEntity
  8
BEZUGSACHSEN
  6
Continuous
 62
     7
100
AcDbSpline
210
0.0
220
0.0
230
1.0
 70
     8
 71
     3
 72
    19
 73
    15
 74
    13
 42
0.0000000001
 43
0.0000000001
 44
0.00000001
 40
0.0
 40
0.0
 40
0.0
 40
0.0
 40
0.7630072245770827
 40
1.52610631949974
 40
2.358695943597611
 40
3.19128575559066
 40
4.170864485381375
 40
5.150488660654049
 40
6.130117758997642
 40
7.109701401740966
 40
7.942314439646267
 40
8.774927318644156
 40
9.538057622445288
 40
10.30109599547302
 40
10.30109599547302
 40
10.30109599547302
 40
10.30109599547302
 10
213.4
 20
311.9039948486
 30
0.0
 10
213.1523012324441
 20
311.8461714731167
 30
0.0
 10
212.6568738730127
 20
311.7305177598916
 30
0.0
 10
211.8842484943455
 20
311.5837207682772
 30
0.0
 10
211.0842874741128
 20
311.4592324814614
 30
0.0
 10
210.2083083438109
 20
311.3579048949077
 30
0.0
 10
209.2797597682443
 20
311.2910961603495
 30
0.0
 10
208.3000576759909
 20
311.2674274066507
 30
0.0
 10
207.3203537804492
 20
311.2910897093649
 30
0.0
 10
206.3917938037425
 20
311.3578938518542
 30
0.0
 10
205.5157972205851
 20
311.4592198892245
 30
0.0
 10
204.7158102808024
 20
311.5837101319926
 30
0.0
 10
203.9431566263541
 20
311.7305112836096
 30
0.0
 10
203.4477089274706
 20
311.8461693158744
 30
0.0
 10
203.2
 20
311.9039948486
 30
0.0
 11
213.4
 21
311.9039948486
 31
0.0
 11
212.6557860564278
 21
311.7356926473385
 31
0.0
 11
211.9063284132295
 21
311.5920490964094
 31
0.0
 11
211.083547416643
 21
311.4646249471618
 31
0.0
 11
210.2564628169008
 21
311.3690380238725
 31
0.0
 11
209.2794001811861
 21
311.2988732624275
 31
0.0
 11
208.3000592895867
 21
311.275316038059
 31
0.0
 11
207.3207133225836
 21
311.2988669878552
 31
0.0
 11
206.3436453867577
 21
311.3690265339714
 31
0.0
 11
205.5165373202055
 21
311.4646127104514
 31
0.0
 11
204.6937330060928
 21
311.5920382453758
 31
0.0
 11
203.9442444824432
 21
311.7356864736875
 31
0.0
 11
203.2
 21
311.9039948486
 31
0.0
  0
SPLINE
  5
B4
330
1F
100
AcDbEntity
  8
0
  6
Continuous
 62
     7
100
AcDbSpline
210
0.0
220
0.0
230
1.0
 70
     8
 71
     3
 72
    15
 73
    11
 74
     9
 42
0.0000000001
 43
0.0000000001
 44
0.00000001
 40
0.0
 40
0.0
 40
0.0
 40
0.0
 40
0.1498536492840909
 40
0.3002375261576873
 40
0.4504311697228543
 40
0.6004682482535957
 40
0.750515376019341
 40
0.9007056144769316
 40
1.051151259686339
 40
1.200944189100215
 40
1.200944189100215
 40
1.200944189100215
 40
1.200944189100215
 10
180.8875
 20
335.3185476438
 30
0.0
 10
180.8847909078752
 20
335.2685309632294
 30
0.0
 10
180.8793631380372
 20
335.1683206279263
 30
0.0
 10
180.836553697899
 20
335.0230444037713
 30
0.0
 10
180.7690936487676
 20
334.8880316599941
 30
0.0
 10
180.6768356555351
 20
334.7684024580058
 30
0.0
 10
180.563104191426
 20
334.6688759422635
 30
0.0
 10
180.4317231630577
 20
334.5943451793199
 30
0.0
 10
180.2877439712347
 20
334.5463383445903
 30
0.0
 10
180.1875086868944
 20
334.5401148526594
 30
0.0
 10
180.1375
 20
334.5370098716
 30
0.0
 11
180.8875
 21
335.3185476438
 31
0.0
 11
180.8736163313908
 21
335.1693385289655
 31
0.0
 11
180.8324225943216
 21
335.0247066291307
 31
0.0
 11
180.7649238682937
 21
334.8905349012891
 31
0.0
 11
180.6732601035303
 21
334.7717540982802
 31
0.0
 11
180.5602208508957
 21
334.673081569608
 31
0.0
 11
180.4296867031782
 21
334.5987987047764
 31
0.0
 11
180.2864646218656
 21
334.5527408326265
 31
0.0
 11
180.1375
 21
334.5370098716
 31
0.0
  0
SPLINE
  5
B5
330
1F
100
AcDbEntity
  8
0
  6
Continuous
 62
     7
100
AcDbSpline
210
0.0
220
0.0
230
1.0
 70
     8
 71
     3
 72
    15
 73
    11
 74
     9
 42
0.0000000001
 43
0.0000000001
 44
0.00000001
 40
0.0
 40
0.0
 40
0.0
 40
0.0
 40
0.1497935590536804
 40
0.3002398466904025
 40
0.4504306629985014
 40
0.6004783582296388
 40
0.7505149757721519
 40
0.9007081563819032
 40
1.051091279569417
 40
1.200944180805455
 40
1.200944180805455
 40
1.200944180805455
 40
1.200944180805455
 10
177.8125
 20
334.5370098716
 30
0.0
 10
177.7624911023541
 20
334.5401148830387
 30
0.0
 10
177.6622553922392
 20
334.5463384360687
 30
0.0
 10
177.5182756678708
 20
334.5943456848445
 30
0.0
 10
177.386894264648
 20
334.6688770081525
 30
0.0
 10
177.2731628871492
 20
334.7684039864938
 30
0.0
 10
177.180905313438
 20
334.8880333525615
 30
0.0
 10
177.1134458242744
 20
335.023045743079
 30
0.0
 10
177.0706367810515
 20
335.1683213805596
 30
0.0
 10
177.0652090652042
 20
335.2685312134792
 30
0.0
 10
177.0625
 20
335.3185476438
 30
0.0
 11
177.8125
 21
334.5370098716
 31
0.0
 11
177.6635347603302
 21
334.5527409778579
 31
0.0
 11
177.5203121312485
 21
334.5987992451135
 31
0.0
 11
177.3897776324507
 21
334.6730826613441
 31
0.0
 11
177.2767382196851
 21
334.77175586949
 31
0.0
 11
177.1850750743852
 21
334.8905365682475
 31
0.0
 11
177.1175768590998
 21
335.024708034793
 31
0.0
 11
177.0763835309542
 21
335.1693392674363
 31
0.0
 11
177.0625
 21
335.3185476438
 31
0.0
  0
SPLINE
  5
B6
330
1F
100
AcDbEntity
  8
0
  6
Continuous
 62
     7
100
AcDbSpline
210
0.0
220
0.0
230
1.0
 70
     8
 71
     3
 72
    15
 73
    11
 74
     9
 42
0.0000000001
 43
0.0000000001
 44
0.00000001
 40
0.0
 40
0.0
 40
0.0
 40
0.0
 40
0.1498537524256197
 40
0.3002377329129783
 40
0.4504313876398188
 40
0.600468478673412
 40
0.7505157523349069
 40
0.9007061336807265
 40
1.05115151835365
 40
1.200944190550377
 40
1.200944190550377
 40
1.200944190550377
 40
1.200944190550377
 10
177.0625
 20
246.4894420534
 30
0.0
 10
177.06520909607
 20
246.5394587684692
 30
0.0
 10
177.0706368738141
 20
246.6396691729269
 30
0.0
 10
177.1134463647994
 20
246.7849454605478
 30
0.0
 10
177.1809064704023
 20
246.9199582237635
 30
0.0
 10
177.2731645338605
 20
247.0395874434623
 30
0.0
 10
177.3868961122139
 20
247.1391139844644
 30
0.0
 10
177.5182771933785
 20
247.2136446802861
 30
0.0
 10
177.6622562880457
 20
247.2616513890241
 30
0.0
 10
177.7624913991627
 20
247.267874856646
 30
0.0
 10
177.8125
 20
247.2709798256
 30
0.0
 11
177.0625
 21
246.4894420534
 31
0.0
 11
177.0763836883703
 21
246.6386512699829
 31
0.0
 11
177.1175774824871
 21
246.7832832613039
 31
0.0
 11
177.18507625066
 21
246.9174549804378
 31
0.0
 11
177.2767400576845
 21
247.0362357666265
 31
0.0
 11
177.3897794574229
 21
247.1349083486339
 31
0.0
 11
177.5203137720373
 21
247.2091912090861
 31
0.0
 11
177.6635356306376
 21
247.2552489227557
 31
0.0
 11
177.8125
 21
247.2709798256
 31
0.0
  0
SPLINE
  5
B7
330
1F
100
AcDbEntity
  8
0
  6
Continuous
 62
     7
100
AcDbSpline
210
0.0
220
0.0
230
1.0
 70
     8
 71
     3
 72
    15
 73
    11
 74
     9
 42
0.0000000001
 43
0.0000000001
 44
0.00000001
 40
0.0
 40
0.0
 40
0.0
 40
0.0
 40
0.1497938277513801
 40
0.3002403875241465
 40
0.4504310444944125
 40
0.6004785771245009
 40
0.750515170942863
 40
0.9007083294260152
 40
1.051091365197223
 40
1.20094417934991
 40
1.20094417934991
 40
1.20094417934991
 40
1.20094417934991
 10
180.1375
 20
247.2709798256
 30
0.0
 10
180.1875089875435
 20
247.2678748015065
 30
0.0
 10
180.287744878602
 20
247.2616512230644
 30
0.0
 10
180.4317247012273
 20
247.2136438437191
 30
0.0
 10
180.5631060438682
 20
247.1391124548059
 30
0.0
 10
180.6768372962042
 20
247.0395855121483
 30
0.0
 10
180.769094793967
 20
246.9199561759796
 30
0.0
 10
180.8365542299569
 20
246.7849438089886
 30
0.0
 10
180.8793632289543
 20
246.6396682291438
 30
0.0
 10
180.884790938127
 20
246.5394584545924
 30
0.0
 10
180.8875
 20
246.4894420534
 30
0.0
 11
180.1375
 21
247.2709798256
 31
0.0
 11
180.2864655034401
 21
247.2552486585342
 31
0.0
 11
180.4296883651527
 21
247.2091902257524
 31
0.0
 11
180.5602226814349
 21
247.1349068109554
 31
0.0
 11
180.6732619348919
 21
247.0362336675665
 31
0.0
 11
180.7649250333873
 21
246.9174529626569
 31
0.0
 11
180.8324232059115
 21
246.7832814993681
 31
0.0
 11
180.8736164857477
 21
246.6386503438583
 31
0.0
 11
180.8875
 21
246.4894420534
 31
0.0
  0
SPLINE
  5
B8
330
1F
100
AcDbEntity
  8
0
  6
Continuous
 62
     7
100
AcDbSpline
210
0.0
220
0.0
230
1.0
 70
     8
 71
     3
 72
     9
 73
     5
 74
     3
 42
0.0000000001
 43
0.0000000001
 44
0.00000001
 40
0.0
 40
0.0
 40
0.0
 40
0.0
 40
1.36682804783712
 40
2.733656073307281
 40
2.733656073307281
 40
2.733656073307281
 40
2.733656073307281
 10
182.2153783858
 20
337.9032917183
 30
0.0
 10
181.9938219412165
 20
337.5051803468425
 30
0.0
 10
181.5507090556753
 20
336.7089576104421
 30
0.0
 10
181.1085696840192
 20
335.912193874241
 30
0.0
 10
180.8875
 20
335.5138120094
 30
0.0
 11
182.2153783858
 21
337.9032917183
 31
0.0
 11
181.550952430525
 21
336.7088223539749
 31
0.0
 11
180.8875
 21
335.5138120094
 31
0.0
  0
SPLINE
  5
B9
330
1F
100
AcDbEntity
  8
0
  6
Continuous
 62
     7
100
AcDbSpline
210
0.0
220
0.0
230
1.0
 70
     8
 71
     3
 72
     9
 73
     5
 74
     3
 42
0.0000000001
 43
0.0000000001
 44
0.00000001
 40
0.0
 40
0.0
 40
0.0
 40
0.0
 40
1.366828025502973
 40
2.733656073307271
 40
2.733656073307271
 40
2.733656073307271
 40
2.733656073307271
 10
180.8875
 20
246.2941776878
 30
0.0
 10
181.1085696840166
 20
245.895795822945
 30
0.0
 10
181.5507090556567
 20
245.099032086735
 30
0.0
 10
181.9938219412139
 20
244.3028093503436
 30
0.0
 10
182.2153783858
 20
243.9046979789
 30
0.0
 11
180.8875
 21
246.2941776878
 31
0.0
 11
181.550952430525
 21
245.0991673431875
 31
0.0
 11
182.2153783858
 21
243.9046979789
 31
0.0
  0
SPLINE
  5
BA
330
1F
100
AcDbEntity
  8
0
  6
Continuous
 62
     7
100
AcDbSpline
210
0.0
220
0.0
230
1.0
 70
     8
 71
     3
 72
     9
 73
     5
 74
     3
 42
0.0000000001
 43
0.0000000001
 44
0.00000001
 40
0.0
 40
0.0
 40
0.0
 40
0.0
 40
1.36682804783712
 40
2.733656073307281
 40
2.733656073307281
 40
2.733656073307281
 40
2.733656073307281
 10
175.7346216142
 20
337.9032917183
 30
0.0
 10
175.9561780587834
 20
337.5051803468425
 30
0.0
 10
176.3992909443247
 20
336.7089576104421
 30
0.0
 10
176.8414303159808
 20
335.912193874241
 30
0.0
 10
177.0625
 20
335.5138120094
 30
0.0
 11
175.7346216142
 21
337.9032917183
 31
0.0
 11
176.399047569475
 21
336.7088223539749
 31
0.0
 11
177.0625
 21
335.5138120094
 31
0.0
  0
SPLINE
  5
BB
330
1F
100
AcDbEntity
  8
0
  6
Continuous
 62
     7
100
AcDbSpline
210
0.0
220
0.0
230
1.0
 70
     8
 71
     3
 72
     9
 73
     5
 74
     3
 42
0.0000000001
 43
0.0000000001
 44
0.00000001
 40
0.0
 40
0.0
 40
0.0
 40
0.0
 40
1.366828025502987
 40
2.733656073307271
 40
2.733656073307271
 40
2.733656073307271
 40
2.733656073307271
 10
177.0625
 20
246.2941776878
 30
0.0
 10
176.8414303159834
 20
245.895795822945
 30
0.0
 10
176.3992909443433
 20
245.099032086735
 30
0.0
 10
175.9561780587861
 20
244.3028093503436
 30
0.0
 10
175.7346216142
 20
243.9046979789
 30
0.0
 11
177.0625
 21
246.2941776878
 31
0.0
 11
176.399047569475
 21
245.0991673431875
 31
0.0
 11
175.7346216142
 21
243.9046979789
 31
0.0
  0
SPLINE
  5
BC
330
1F
100
AcDbEntity
  8
0
  6
Continuous
 62
     7
100
AcDbSpline
210
0.0
220
0.0
230
1.0
 70
     8
 71
     3
 72
    15
 73
    11
 74
     9
 42
0.0000000001
 43
0.0000000001
 44
0.00000001
 40
0.0
 40
0.0
 40
0.0
 40
0.0
 40
0.1994115198643762
 40
0.3995306095204624
 40
0.5993950644765593
 40
0.7990503711683952
 40
0.9987117371834943
 40
1.198567718890115
 40
1.398751157623268
 40
1.59807797747442
 40
1.59807797747442
 40
1.59807797747442
 40
1.59807797747442
 10
171.0
 20
244.9425011147
 30
0.0
 10
171.0036182206584
 20
244.8759428199592
 30
0.0
 10
171.0108675004693
 20
244.7425900623826
 30
0.0
 10
171.0680640524152
 20
244.5493190630572
 30
0.0
 10
171.1582310092644
 20
244.3698439451038
 30
0.0
 10
171.2814634032794
 20
244.2110029468735
 30
0.0
 10
171.4332515192176
 20
244.0790764074741
 30
0.0
 10
171.608375650538
 20
243.9804469208801
 30
0.0
 10
171.8000797730646
 20
243.9170026552327
 30
0.0
 10
171.9334552510291
 20
243.908793670518
 30
0.0
 10
172.0
 20
243.9046979789
 30
0.0
 11
171.0
 21
244.9425011147
 31
0.0
 11
171.0185462077582
 21
244.7439539101556
 31
0.0
 11
171.073589619789
 21
244.5515536169209
 31
0.0
 11
171.1637915283996
 21
244.3732016726144
 31
0.0
 11
171.2862200200944
 21
244.2154883063085
 31
0.0
 11
171.4370627517514
 21
244.0846787830112
 31
0.0
 11
171.6110583003618
 21
243.9863529853399
 31
0.0
 11
171.8017583206042
 21
243.9254685749989
 31
0.0
 11
172.0
 21
243.9046979789
 31
0.0
  0
DIMENSION
  5
C7
330
1F
100
AcDbEntity
  8
1
100
AcDbDimension
  2
*D2
 10
242.798232414698
 20
296.9039948486
 30
0.0
 11
239.048232414698
 21
290.770292300049
 31
0.0
 70
    32
  1
<>
 71
     5
 42
-1.0
 53
90.0
  3
ME10_DIM_10
100
AcDbAlignedDimension
 13
230.8
 23
284.9039948486
 33
0.0
 14
230.8
 24
296.9039948486
 34
0.0
 50
90.0
100
AcDbRotatedDimension
  0
DIMENSION
  5
D2
330
1F
100
AcDbEntity
  8
1
100
AcDbDimension
  2
*D3
 10
252.030980849186
 20
311.9039948486
 30
0.0
 11
248.280980849186
 21
291.394126653731
 31
0.0
 70
    32
  1
<>
 71
     5
 42
-1.0
 53
90.0
  3
ME10_DIM_11
100
AcDbAlignedDimension
 13
217.5320508076
 23
269.9039948486
 33
0.0
 14
217.5320508076
 24
311.9039948486
 34
0.0
 50
90.0
100
AcDbRotatedDimension
  0
DIMENSION
  5
DD
330
1F
100
AcDbEntity
  8
1
100
AcDbDimension
  2
*D4
 10
230.8
 20
342.922844267838
 30
0.0
 11
207.7649775264812
 21
346.672844267838
 31
0.0
 70
    32
  1
<>
 71
     5
 42
-1.0
 53
0.00013888888889
  3
ME10_DIM_12
100
AcDbAlignedDimension
 13
186.9
 23
336.8654885825
 33
0.0
 14
230.8
 24
303.8210910799
 34
0.0
100
AcDbRotatedDimension
  0
DIMENSION
  5
E8
330
1F
100
AcDbEntity
  8
1
100
AcDbDimension
  2
*D5
 10
230.8
 20
350.907923994963
 30
0.0
 11
201.001330718025
 21
354.657923994963
 31
0.0
 70
    32
  1
<>
 71
     5
 42
-1.0
 53
0.00013888888889
  3
ME10_DIM_13
100
AcDbAlignedDimension
 13
167.8
 23
331.8414948486
 33
0.0
 14
230.8
 24
303.8210910799
 34
0.0
100
AcDbRotatedDimension
  0
DIMENSION
  5
F3
330
1F
100
AcDbEntity
  8
1
100
AcDbDimension
  2
*D6
 10
230.8
 20
358.393936239143
 30
0.0
 11
156.6415725528046
 21
362.143936239143
 31
0.0
 70
    32
  1
<>
 71
     5
 42
-1.0
 53
0.00013888888889
  3
ME10_DIM_14
100
AcDbAlignedDimension
 13
66.04999999999997
 23
309.0654418498
 33
0.0
 14
230.8
 24
303.8210910799
 34
0.0
100
AcDbRotatedDimension
  0
INSERT
  5
FA
330
1F
100
AcDbEntity
  8
1
100
AcDbBlockReference
  2
*D7
 10
0.0
 20
0.0
 30
0.0
  0
ENDSEC
  0
SECTION
  2
OBJECTS
  0
DICTIONARY
  5
C
330
0
100
AcDbDictionary
281
     1
  3
ACAD_GROUP
350
D
  3
ACAD_LAYOUT
350
1A
  3
ACAD_MLEADERSTYLE
350
FD
  3
ACAD_MLINESTYLE
350
17
  3
ACAD_PLOTSETTINGS
350
19
  3
ACAD_PLOTSTYLENAME
350
E
  3
ACAD_SCALELIST
350
4A
  3
ACAD_VISUALSTYLE
350
2A
  3
AcDbVariableDictionary
350
FB
  0
DICTIONARY
  5
D
102
{ACAD_REACTORS
330
C
102
}
330
C
100
AcDbDictionary
281
     1
  0
DICTIONARY
  5
1A
102
{ACAD_REACTORS
330
C
102
}
330
C
100
AcDbDictionary
281
     1
  3
Layout1
350
1E
  3
Layout2
350
26
  3
Model
350
22
  0
DICTIONARY
  5
FD
102
{ACAD_REACTORS
330
C
102
}
330
C
100
AcDbDictionary
281
     1
  0
DICTIONARY
  5
17
102
{ACAD_REACTORS
330
C
102
}
330
C
100
AcDbDictionary
281
     1
  3
Standard
350
18
  0
DICTIONARY
  5
19
102
{ACAD_REACTORS
330
C
102
}
330
C
100
AcDbDictionary
281
     1
  0
ACDBDICTIONARYWDFLT
  5
E
102
{ACAD_REACTORS
330
C
102
}
330
C
100
AcDbDictionary
281
     1
  3
Normal
350
F
100
AcDbDictionaryWithDefault
340
F
  0
DICTIONARY
  5
4A
102
{ACAD_REACTORS
330
C
102
}
330
C
100
AcDbDictionary
281
     1
  3
A0
350
4B
  3
A1
350
4C
  3
A2
350
4D
  3
A3
350
4E
  3
A4
350
4F
  3
A5
350
50
  3
A6
350
51
  3
A7
350
52
  3
A8
350
53
  3
A9
350
54
  3
B0
350
55
  3
B1
350
56
  3
B2
350
57
  3
B3
350
58
  3
B4
350
59
  3
B5
350
5A
  3
B6
350
5B
  3
B7
350
5C
  3
B8
350
5D
  3
B9
350
5E
  3
C0
350
5F
  3
C1
350
60
  3
C2
350
61
  3
C3
350
62
  3
C4
350
63
  3
C5
350
64
  3
C6
350
65
  3
C7
350
66
  3
C8
350
67
  3
C9
350
68
  3
D0
350
69
  3
D1
350
6A
  3
D2
350
6B
  0
DICTIONARY
  5
2A
102
{ACAD_REACTORS
330
C
102
}
330
C
100
AcDbDictionary
281
     1
  3
2dWireframe
350
2F
  3
3D Hidden
350
31
  3
3dWireframe
350
30
  3
Basic
350
32
  3
Brighten
350
36
  3
ColorChange
350
3A
  3
Conceptual
350
34
  3
Dim
350
35
  3
Facepattern
350
39
  3
Flat
350
2B
  3
FlatWithEdges
350
2C
  3
Gouraud
350
2D
  3
GouraudWithEdges
350
2E
  3
Linepattern
350
38
  3
Realistic
350
33
  3
Thicken
350
37
  0
DICTIONARY
  5
FB
102
{ACAD_REACTORS
330
C
102
}
330
C
100
AcDbDictionary
281
     1
  3
CANNOSCALE
350
FE
  0
LAYOUT
  5
1E
102
{ACAD_REACTORS
330
1A
102
}
330
1A
100
AcDbPlotSettings
  1

  2
none_device
  4

  6

 40
0.0
 41
0.0
 42
0.0
 43
0.0
 44
0.0
 45
0.0
 46
0.0
 47
0.0
 48
0.0
 49
0.0
140
0.0
141
0.0
142
1.0
143
1.0
 70
   688
 72
     0
 73
     0
 74
     5
  7

 75
    16
147
1.0
148
0.0
149
0.0
100
AcDbLayout
  1
Layout1
 70
     1
 71
     1
 10
0.0
 20
0.0
 11
12.0
 21
9.0
 12
0.0
 22
0.0
 32
0.0
 14
1.00000000000000E+20
 24
1.00000000000000E+20
 34
1.00000000000000E+20
 15
-1.00000000000000E+20
 25
-1.00000000000000E+20
 35
-1.00000000000000E+20
146
0.0
 13
0.0
 23
0.0
 33
0.0
 16
1.0
 26
0.0
 36
0.0
 17
0.0
 27
1.0
 37
0.0
 76
     0
330
1B
  0
LAYOUT
  5
26
102
{ACAD_REACTORS
330
1A
102
}
330
1A
100
AcDbPlotSettings
  1

  2
none_device
  4

  6

 40
0.0
 41
0.0
 42
0.0
 43
0.0
 44
0.0
 45
0.0
 46
0.0
 47
0.0
 48
0.0
 49
0.0
140
0.0
141
0.0
142
1.0
143
1.0
 70
   688
 72
     0
 73
     0
 74
     5
  7

 75
    16
147
1.0
148
0.0
149
0.0
100
AcDbLayout
  1
Layout2
 70
     1
 71
     2
 10
0.0
 20
0.0
 11
0.0
 21
0.0
 12
0.0
 22
0.0
 32
0.0
 14
0.0
 24
0.0
 34
0.0
 15
0.0
 25
0.0
 35
0.0
146
0.0
 13
0.0
 23
0.0
 33
0.0
 16
1.0
 26
0.0
 36
0.0
 17
0.0
 27
1.0
 37
0.0
 76
     0
330
23
  0
LAYOUT
  5
22
102
{ACAD_REACTORS
330
1A
102
}
330
1A
100
AcDbPlotSettings
  1

  2
none_device
  4

  6

 40
0.0
 41
0.0
 42
0.0
 43
0.0
 44
0.0
 45
0.0
 46
0.0
 47
0.0
 48
0.0
 49
0.0
140
0.0
141
0.0
142
1.0
143
1.0
 70
  1712
 72
     0
 73
     0
 74
     0
  7

 75
     0
147
1.0
148
0.0
149
0.0
100
AcDbLayout
  1
Model
 70
     1
 71
     0
 10
0.0
 20
0.0
 11
12.0
 21
9.0
 12
0.0
 22
0.0
 32
0.0
 14
46.64597566396481
 24
243.8910296996679
 34
0.0
 15
254.030980849186
 25
363.893936239143
 35
0.0
146
0.0
 13
0.0
 23
0.0
 33
0.0
 16
1.0
 26
0.0
 36
0.0
 17
0.0
 27
1.0
 37
0.0
 76
     0
330
1F
331
29
  0
MLINESTYLE
  5
18
102
{ACAD_REACTORS
330
17
102
}
330
17
100
AcDbMlineStyle
  2
Standard
 70
     0
  3

 62
   256
 51
90.0
 52
90.0
 71
     2
 49
0.5
 62
   256
  6
BYLAYER
 49
-0.5
 62
   256
  6
BYLAYER
  0
ACDBPLACEHOLDER
  5
F
102
{ACAD_REACTORS
330
E
102
}
330
E
  0
SCALE
  5
4B
102
{ACAD_REACTORS
330
4A
102
}
330
4A
100
AcDbScale
 70
     0
300
1:1
140
1.0
141
1.0
290
     1
  0
SCALE
  5
4C
102
{ACAD_REACTORS
330
4A
102
}
330
4A
100
AcDbScale
 70
     0
300
1:2
140
1.0
141
2.0
290
     0
  0
SCALE
  5
4D
102
{ACAD_REACTORS
330
4A
102
}
330
4A
100
AcDbScale
 70
     0
300
1:4
140
1.0
141
4.0
290
     0
  0
SCALE
  5
4E
102
{ACAD_REACTORS
330
4A
102
}
330
4A
100
AcDbScale
 70
     0
300
1:5
140
1.0
141
5.0
290
     0
  0
SCALE
  5
4F
102
{ACAD_REACTORS
330
4A
102
}
330
4A
100
AcDbScale
 70
     0
300
1:8
140
1.0
141
8.0
290
     0
  0
SCALE
  5
50
102
{ACAD_REACTORS
330
4A
102
}
330
4A
100
AcDbScale
 70
     0
300
1:10
140
1.0
141
10.0
290
     0
  0
SCALE
  5
51
102
{ACAD_REACTORS
330
4A
102
}
330
4A
100
AcDbScale
 70
     0
300
1:16
140
1.0
141
16.0
290
     0
  0
SCALE
  5
52
102
{ACAD_REACTORS
330
4A
102
}
330
4A
100
AcDbScale
 70
     0
300
1:20
140
1.0
141
20.0
290
     0
  0
SCALE
  5
53
102
{ACAD_REACTORS
330
4A
102
}
330
4A
100
AcDbScale
 70
     0
300
1:30
140
1.0
141
30.0
290
     0
  0
SCALE
  5
54
102
{ACAD_REACTORS
330
4A
102
}
330
4A
100
AcDbScale
 70
     0
300
1:40
140
1.0
141
40.0
290
     0
  0
SCALE
  5
55
102
{ACAD_REACTORS
330
4A
102
}
330
4A
100
AcDbScale
 70
     0
300
1:50
140
1.0
141
50.0
290
     0
  0
SCALE
  5
56
102
{ACAD_REACTORS
330
4A
102
}
330
4A
100
AcDbScale
 70
     0
300
1:100
140
1.0
141
100.0
290
     0
  0
SCALE
  5
57
102
{ACAD_REACTORS
330
4A
102
}
330
4A
100
AcDbScale
 70
     0
300
2:1
140
2.0
141
1.0
290
     0
  0
SCALE
  5
58
102
{ACAD_REACTORS
330
4A
102
}
330
4A
100
AcDbScale
 70
     0
300
4:1
140
4.0
141
1.0
290
     0
  0
SCALE
  5
59
102
{ACAD_REACTORS
330
4A
102
}
330
4A
100
AcDbScale
 70
     0
300
8:1
140
8.0
141
1.0
290
     0
  0
SCALE
  5
5A
102
{ACAD_REACTORS
330
4A
102
}
330
4A
100
AcDbScale
 70
     0
300
10:1
140
10.0
141
1.0
290
     0
  0
SCALE
  5
5B
102
{ACAD_REACTORS
330
4A
102
}
330
4A
100
AcDbScale
 70
     0
300
100:1
140
100.0
141
1.0
290
     0
  0
SCALE
  5
5C
102
{ACAD_REACTORS
330
4A
102
}
330
4A
100
AcDbScale
 70
     0
300
1/128" = 1'-0"
140
0.0078125
141
12.0
290
     0
  0
SCALE
  5
5D
102
{ACAD_REACTORS
330
4A
102
}
330
4A
100
AcDbScale
 70
     0
300
1/64" = 1'-0"
140
0.015625
141
12.0
290
     0
  0
SCALE
  5
5E
102
{ACAD_REACTORS
330
4A
102
}
330
4A
100
AcDbScale
 70
     0
300
1/32" = 1'-0"
140
0.03125
141
12.0
290
     0
  0
SCALE
  5
5F
102
{ACAD_REACTORS
330
4A
102
}
330
4A
100
AcDbScale
 70
     0
300
1/16" = 1'-0"
140
0.0625
141
12.0
290
     0
  0
SCALE
  5
60
102
{ACAD_REACTORS
330
4A
102
}
330
4A
100
AcDbScale
 70
     0
300
3/32" = 1'-0"
140
0.09375
141
12.0
290
     0
  0
SCALE
  5
61
102
{ACAD_REACTORS
330
4A
102
}
330
4A
100
AcDbScale
 70
     0
300
1/8" = 1'-0"
140
0.125
141
12.0
290
     0
  0
SCALE
  5
62
102
{ACAD_REACTORS
330
4A
102
}
330
4A
100
AcDbScale
 70
     0
300
3/16" = 1'-0"
140
0.1875
141
12.0
290
     0
  0
SCALE
  5
63
102
{ACAD_REACTORS
330
4A
102
}
330
4A
100
AcDbScale
 70
     0
300
1/4" = 1'-0"
140
0.25
141
12.0
290
     0
  0
SCALE
  5
64
102
{ACAD_REACTORS
330
4A
102
}
330
4A
100
AcDbScale
 70
     0
300
3/8" = 1'-0"
140
0.375
141
12.0
290
     0
  0
SCALE
  5
65
102
{ACAD_REACTORS
330
4A
102
}
330
4A
100
AcDbScale
 70
     0
300
1/2" = 1'-0"
140
0.5
141
12.0
290
     0
  0
SCALE
  5
66
102
{ACAD_REACTORS
330
4A
102
}
330
4A
100
AcDbScale
 70
     0
300
3/4" = 1'-0"
140
0.75
141
12.0
290
     0
  0
SCALE
  5
67
102
{ACAD_REACTORS
330
4A
102
}
330
4A
100
AcDbScale
 70
     0
300
1" = 1'-0"
140
1.0
141
12.0
290
     0
  0
SCALE
  5
68
102
{ACAD_REACTORS
330
4A
102
}
330
4A
100
AcDbScale
 70
     0
300
1-1/2" = 1'-0"
140
1.5
141
12.0
290
     0
  0
SCALE
  5
69
102
{ACAD_REACTORS
330
4A
102
}
330
4A
100
AcDbScale
 70
     0
300
3" = 1'-0"
140
3.0
141
12.0
290
     0
  0
SCALE
  5
6A
102
{ACAD_REACTORS
330
4A
102
}
330
4A
100
AcDbScale
 70
     0
300
6" = 1'-0"
140
6.0
141
12.0
290
     0
  0
SCALE
  5
6B
102
{ACAD_REACTORS
330
4A
102
}
330
4A
100
AcDbScale
 70
     0
300
1'-0" = 1'-0"
140
12.0
141
12.0
290
     0
  0
VISUALSTYLE
  5
2F
102
{ACAD_REACTORS
330
2A
102
}
330
2A
100
AcDbVisualStyle
  2
2dWireframe
 70
     4
 71
     0
 72
     2
 73
     0
 90
        0
 40
-0.6
 41
-30.0
 62
     5
 63
     7
 74
     1
 91
        4
 64
     7
 65
   257
 75
     1
175
     1
 42
1.0
 92
        0
 66
   257
 43
1.0
 76
     1
 77
     6
 78
     2
 67
     7
 79
     5
170
     0
171
     0
290
     0
174
     0
 93
        1
 44
0.0
173
     0
291
     0
 45
0.0
1001
ACAD
1000
AcDbSavedByObjectVersion
1070
     0
  0
VISUALSTYLE
  5
31
102
{ACAD_REACTORS
330
2A
102
}
330
2A
100
AcDbVisualStyle
  2
3D Hidden
 70
     6
 71
     1
 72
     2
 73
     2
 90
        0
 40
-0.6
 41
-30.0
 62
     5
 63
     7
 74
     2
 91
        2
 64
     7
 65
   257
 75
     2
175
     1
 42
40.0
 92
        0
 66
   257
 43
1.0
 76
     1
 77
     6
 78
     2
 67
     7
 79
     3
170
     0
171
     0
290
     0
174
     0
 93
        1
 44
0.0
173
     0
291
     0
 45
0.0
1001
ACAD
1000
AcDbSavedByObjectVersion
1070
     0
  0
VISUALSTYLE
  5
30
102
{ACAD_REACTORS
330
2A
102
}
330
2A
100
AcDbVisualStyle
  2
3dWireframe
 70
     5
 71
     0
 72
     2
 73
     0
 90
        0
 40
-0.6
 41
-30.0
 62
     5
 63
     7
 74
     1
 91
        4
 64
     7
 65
   257
 75
     1
175
     1
 42
1.0
 92
        0
 66
   257
 43
1.0
 76
     1
 77
     6
 78
     2
 67
     7
 79
     5
170
     0
171
     0
290
     0
174
     0
 93
        1
 44
0.0
173
     0
291
     0
 45
0.0
1001
ACAD
1000
AcDbSavedByObjectVersion
1070
     0
  0
VISUALSTYLE
  5
32
102
{ACAD_REACTORS
330
2A
102
}
330
2A
100
AcDbVisualStyle
  2
Basic
 70
     7
 71
     1
 72
     0
 73
     1
 90
        0
 40
-0.6
 41
-30.0
 62
     5
 63
     7
 74
     0
 91
        4
 64
     7
 65
   257
 75
     1
175
     1
 42
1.0
 92
        8
 66
     7
 43
1.0
 76
     1
 77
     6
 78
     2
 67
     7
 79
     5
170
     0
171
     0
290
     0
174
     0
 93
        1
 44
0.0
173
     0
291
     1
 45
0.0
1001
ACAD
1000
AcDbSavedByObjectVersion
1070
     0
  0
VISUALSTYLE
  5
36
102
{ACAD_REACTORS
330
2A
102
}
330
2A
100
AcDbVisualStyle
  2
Brighten
 70
    12
 71
     2
 72
     2
 73
     0
 90
        0
 40
-0.6
 41
-30.0
 62
     5
 63
     7
 74
     1
 91
        4
 64
     7
 65
   257
 75
     1
175
     1
 42
1.0
 92
        8
 66
     7
 43
1.0
 76
     1
 77
     6
 78
     2
 67
     7
 79
     5
170
     0
171
     0
290
     0
174
     0
 93
        1
 44
50.0
173
     0
291
     1
 45
0.0
1001
ACAD
1000
AcDbSavedByObjectVersion
1070
     0
  0
VISUALSTYLE
  5
3A
102
{ACAD_REACTORS
330
2A
102
}
330
2A
100
AcDbVisualStyle
  2
ColorChange
 70
    16
 71
     2
 72
     2
 73
     3
 90
        0
 40
-0.6
 41
-30.0
 62
     5
 63
     8
 74
     1
 91
        4
 64
     7
 65
   257
 75
     1
175
     1
 42
1.0
 92
        8
 66
     8
 43
1.0
 76
     1
 77
     6
 78
     2
 67
     7
 79
     5
170
     0
171
     0
290
     0
174
     0
 93
        1
 44
0.0
173
     0
291
     1
 45
0.0
1001
ACAD
1000
AcDbSavedByObjectVersion
1070
     0
  0
VISUALSTYLE
  5
34
102
{ACAD_REACTORS
330
2A
102
}
330
2A
100
AcDbVisualStyle
  2
Conceptual
 70
     9
 71
     3
 72
     2
 73
     0
 90
        0
 40
-0.6
 41
-30.0
 62
     5
 63
     7
 74
     2
 91
        2
 64
     7
 65
   257
 75
     1
175
     1
 42
40.0
 92
        8
 66
     7
 43
1.0
 76
     1
 77
     6
 78
     2
 67
     7
 79
     3
170
     0
171
     0
290
     0
174
     0
 93
        1
 44
0.0
173
     0
291
     0
 45
0.0
1001
ACAD
1000
AcDbSavedByObjectVersion
1070
     0
  0
VISUALSTYLE
  5
35
102
{ACAD_REACTORS
330
2A
102
}
330
2A
100
AcDbVisualStyle
  2
Dim
 70
    11
 71
     2
 72
     2
 73
     0
 90
        0
 40
-0.6
 41
-30.0
 62
     5
 63
     7
 74
     1
 91
        4
 64
     7
 65
   257
 75
     1
175
     1
 42
1.0
 92
        8
 66
     7
 43
1.0
 76
     1
 77
     6
 78
     2
 67
     7
 79
     5
170
     0
171
     0
290
     0
174
     0
 93
        1
 44
-50.0
173
     0
291
     1
 45
0.0
1001
ACAD
1000
AcDbSavedByObjectVersion
1070
     0
  0
VISUALSTYLE
  5
39
102
{ACAD_REACTORS
330
2A
102
}
330
2A
100
AcDbVisualStyle
  2
Facepattern
 70
    15
 71
     2
 72
     2
 73
     0
 90
        0
 40
-0.6
 41
-30.0
 62
     5
 63
     7
 74
     1
 91
        4
 64
     7
 65
   257
 75
     1
175
     1
 42
1.0
 92
        8
 66
     7
 43
1.0
 76
     1
 77
     6
 78
     2
 67
     7
 79
     5
170
     0
171
     0
290
     0
174
     0
 93
        1
 44
0.0
173
     0
291
     1
 45
0.0
1001
ACAD
1000
AcDbSavedByObjectVersion
1070
     0
  0
VISUALSTYLE
  5
2B
102
{ACAD_REACTORS
330
2A
102
}
330
2A
100
AcDbVisualStyle
  2
Flat
 70
     0
 71
     2
 72
     1
 73
     1
 90
        2
 40
-0.6
 41
30.0
 62
     5
 63
     7
 74
     0
 91
        4
 64
     7
 65
   257
 75
     1
175
     1
 42
1.0
 92
        8
 66
     7
 43
1.0
 76
     1
 77
     6
 78
     2
 67
     7
 79
     5
170
     0
171
     0
290
     0
174
     0
 93
       13
 44
0.0
173
     0
291
     1
 45
0.0
1001
ACAD
1000
AcDbSavedByObjectVersion
1070
     0
  0
VISUALSTYLE
  5
2C
102
{ACAD_REACTORS
330
2A
102
}
330
2A
100
AcDbVisualStyle
  2
FlatWithEdges
 70
     1
 71
     2
 72
     1
 73
     1
 90
        2
 40
-0.6
 41
30.0
 62
     5
 63
     7
 74
     1
 91
        4
 64
     7
 65
   257
 75
     1
175
     1
 42
1.0
 92
        0
 66
   257
 43
1.0
 76
     1
 77
     6
 78
     2
 67
     7
 79
     5
170
     0
171
     0
290
     0
174
     0
 93
       13
 44
0.0
173
     0
291
     1
 45
0.0
1001
ACAD
1000
AcDbSavedByObjectVersion
1070
     0
  0
VISUALSTYLE
  5
2D
102
{ACAD_REACTORS
330
2A
102
}
330
2A
100
AcDbVisualStyle
  2
Gouraud
 70
     2
 71
     2
 72
     2
 73
     1
 90
        2
 40
-0.6
 41
30.0
 62
     5
 63
     7
 74
     0
 91
        4
 64
     7
 65
   257
 75
     1
175
     1
 42
1.0
 92
        0
 66
     7
 43
1.0
 76
     1
 77
     6
 78
     2
 67
     7
 79
     5
170
     0
171
     0
290
     0
174
     0
 93
       13
 44
0.0
173
     0
291
     1
 45
0.0
1001
ACAD
1000
AcDbSavedByObjectVersion
1070
     0
  0
VISUALSTYLE
  5
2E
102
{ACAD_REACTORS
330
2A
102
}
330
2A
100
AcDbVisualStyle
  2
GouraudWithEdges
 70
     3
 71
     2
 72
     2
 73
     1
 90
        2
 40
-0.6
 41
30.0
 62
     5
 63
     7
 74
     1
 91
        4
 64
     7
 65
   257
 75
     1
175
     1
 42
1.0
 92
        0
 66
   257
 43
1.0
 76
     1
 77
     6
 78
     2
 67
     7
 79
     5
170
     0
171
     0
290
     0
174
     0
 93
       13
 44
0.0
173
     0
291
     1
 45
0.0
1001
ACAD
1000
AcDbSavedByObjectVersion
1070
     0
  0
VISUALSTYLE
  5
38
102
{ACAD_REACTORS
330
2A
102
}
330
2A
100
AcDbVisualStyle
  2
Linepattern
 70
    14
 71
     2
 72
     2
 73
     0
 90
        0
 40
-0.6
 41
-30.0
 62
     5
 63
     7
 74
     1
 91
        4
 64
     7
 65
   257
 75
     7
175
     7
 42
1.0
 92
        8
 66
     7
 43
1.0
 76
     1
 77
     6
 78
     2
 67
     7
 79
     5
170
     0
171
     0
290
     0
174
     0
 93
        1
 44
0.0
173
     0
291
     1
 45
0.0
1001
ACAD
1000
AcDbSavedByObjectVersion
1070
     0
  0
VISUALSTYLE
  5
33
102
{ACAD_REACTORS
330
2A
102
}
330
2A
100
AcDbVisualStyle
  2
Realistic
 70
     8
 71
     2
 72
     2
 73
     0
 90
        0
 40
-0.6
 41
-30.0
 62
     5
 63
     7
 74
     1
 91
        0
 64
     7
 65
   257
 75
     1
175
     1
 42
1.0
 92
        8
 66
     8
 43
1.0
 76
     1
 77
     6
 78
     2
 67
     7
 79
     5
170
     0
171
     0
290
     0
174
     0
 93
       13
 44
0.0
173
     0
291
     0
 45
0.0
1001
ACAD
1000
AcDbSavedByObjectVersion
1070
     0
  0
VISUALSTYLE
  5
37
102
{ACAD_REACTORS
330
2A
102
}
330
2A
100
AcDbVisualStyle
  2
Thicken
 70
    13
 71
     2
 72
     2
 73
     0
 90
        0
 40
-0.6
 41
-30.0
 62
     5
 63
     7
 74
     1
 91
        4
 64
     7
 65
   257
 75
     1
175
     1
 42
1.0
 92
       12
 66
     7
 43
1.0
 76
     1
 77
     6
 78
     2
 67
     7
 79
     5
170
     0
171
     0
290
     0
174
     0
 93
        1
 44
0.0
173
     0
291
     1
 45
0.0
1001
ACAD
1000
AcDbSavedByObjectVersion
1070
     0
  0
DICTIONARYVAR
  5
FE
102
{ACAD_REACTORS
330
FB
102
}
330
FB
100
DictionaryVariables
280
     0
  1
1:1
  0
ENDSEC
  0
EOF
