  0
SECTION
  2
HEADER
  9
$ACADVER
  1
AC1015
  9
$ACADMAINTVER
 70
     6
  9
$DWGCODEPAGE
  3
ANSI_1252
  9
$INSBASE
 10
0.0
 20
0.0
 30
0.0
  9
$EXTMIN
 10
27.8780134359759
 20
250.1428488264679
 30
0.0
  9
$EXTMAX
 10
235.575536663963
 20
369.105767662271
 30
0.0
  9
$LIMMIN
 10
0.0
 20
0.0
  9
$LIMMAX
 10
12.0
 20
9.0
  9
$ORTHOMODE
 70
     0
  9
$REGENMODE
 70
     1
  9
$FILLMODE
 70
     1
  9
$QTEXTMODE
 70
     0
  9
$MIRRTEXT
 70
     1
  9
$LTSCALE
 40
1.0
  9
$ATTMODE
 70
     1
  9
$TEXTSIZE
 40
0.2
  9
$TRACEWID
 40
0.05
  9
$TEXTSTYLE
  7
Standard
  9
$CLAYER
  8
0
  9
$CELTYPE
  6
ByLayer
  9
$CECOLOR
 62
   256
  9
$CELTSCALE
 40
1.0
  9
$DISPSILH
 70
     0
  9
$DIMSCALE
 40
1.0
  9
$DIMASZ
 40
0.18
  9
$DIMEXO
 40
0.0625
  9
$DIMDLI
 40
0.38
  9
$DIMRND
 40
0.0
  9
$DIMDLE
 40
0.0
  9
$DIMEXE
 40
0.18
  9
$DIMTP
 40
0.0
  9
$DIMTM
 40
0.0
  9
$DIMTXT
 40
0.18
  9
$DIMCEN
 40
0.09
  9
$DIMTSZ
 40
0.0
  9
$DIMTOL
 70
     0
  9
$DIMLIM
 70
     0
  9
$DIMTIH
 70
     1
  9
$DIMTOH
 70
     1
  9
$DIMSE1
 70
     0
  9
$DIMSE2
 70
     0
  9
$DIMTAD
 70
     0
  9
$DIMZIN
 70
     0
  9
$DIMBLK
  1

  9
$DIMASO
 70
     1
  9
$DIMSHO
 70
     1
  9
$DIMPOST
  1

  9
$DIMAPOST
  1

  9
$DIMALT
 70
     0
  9
$DIMALTD
 70
     2
  9
$DIMALTF
 40
25.4
  9
$DIMLFAC
 40
1.0
  9
$DIMTOFL
 70
     0
  9
$DIMTVP
 40
0.0
  9
$DIMTIX
 70
     0
  9
$DIMSOXD
 70
     0
  9
$DIMSAH
 70
     0
  9
$DIMBLK1
  1

  9
$DIMBLK2
  1

  9
$DIMSTYLE
  2
Standard
  9
$DIMCLRD
 70
     0
  9
$DIMCLRE
 70
     0
  9
$DIMCLRT
 70
     0
  9
$DIMTFAC
 40
1.0
  9
$DIMGAP
 40
0.09
  9
$DIMJUST
 70
     0
  9
$DIMSD1
 70
     0
  9
$DIMSD2
 70
     0
  9
$DIMTOLJ
 70
     1
  9
$DIMTZIN
 70
     0
  9
$DIMALTZ
 70
     0
  9
$DIMALTTZ
 70
     0
  9
$DIMUPT
 70
     0
  9
$DIMDEC
 70
     4
  9
$DIMTDEC
 70
     4
  9
$DIMALTU
 70
     2
  9
$DIMALTTD
 70
     2
  9
$DIMTXSTY
  7
Standard
  9
$DIMAUNIT
 70
     0
  9
$DIMADEC
 70
     0
  9
$DIMALTRND
 40
0.0
  9
$DIMAZIN
 70
     0
  9
$DIMDSEP
 70
    46
  9
$DIMATFIT
 70
     3
  9
$DIMFRAC
 70
     0
  9
$DIMLDRBLK
  1

  9
$DIMLUNIT
 70
     2
  9
$DIMLWD
 70
    -2
  9
$DIMLWE
 70
    -2
  9
$DIMTMOVE
 70
     0
  9
$LUNITS
 70
     2
  9
$LUPREC
 70
     4
  9
$SKETCHINC
 40
0.1
  9
$FILLETRAD
 40
0.5
  9
$AUNITS
 70
     0
  9
$AUPREC
 70
     0
  9
$MENU
  1
.
  9
$ELEVATION
 40
0.0
  9
$PELEVATION
 40
0.0
  9
$THICKNESS
 40
0.0
  9
$LIMCHECK
 70
     0
  9
$CHAMFERA
 40
0.5
  9
$CHAMFERB
 40
0.5
  9
$CHAMFERC
 40
1.0
  9
$CHAMFERD
 40
0.0
  9
$SKPOLY
 70
     0
  9
$TDCREATE
 40
2456821.369039468
  9
$TDUCREATE
 40
2456821.285706134
  9
$TDUPDATE
 40
2456821.369039479
  9
$TDUUPDATE
 40
2456821.285706146
  9
$TDINDWG
 40
0.0000000116
  9
$TDUSRTIMER
 40
0.0000000116
  9
$USRTIMER
 70
     1
  9
$ANGBASE
 50
0.0
  9
$ANGDIR
 70
     0
  9
$PDMODE
 70
     0
  9
$PDSIZE
 40
0.0
  9
$PLINEWID
 40
0.0
  9
$SPLFRAME
 70
     0
  9
$SPLINETYPE
 70
     6
  9
$SPLINESEGS
 70
     8
  9
$HANDSEED
  5
101
  9
$SURFTAB1
 70
     6
  9
$SURFTAB2
 70
     6
  9
$SURFTYPE
 70
     6
  9
$SURFU
 70
     6
  9
$SURFV
 70
     6
  9
$UCSBASE
  2

  9
$UCSNAME
  2

  9
$UCSORG
 10
0.0
 20
0.0
 30
0.0
  9
$UCSXDIR
 10
1.0
 20
0.0
 30
0.0
  9
$UCSYDIR
 10
0.0
 20
1.0
 30
0.0
  9
$UCSORTHOREF
  2

  9
$UCSORTHOVIEW
 70
     0
  9
$UCSORGTOP
 10
0.0
 20
0.0
 30
0.0
  9
$UCSORGBOTTOM
 10
0.0
 20
0.0
 30
0.0
  9
$UCSORGLEFT
 10
0.0
 20
0.0
 30
0.0
  9
$UCSORGRIGHT
 10
0.0
 20
0.0
 30
0.0
  9
$UCSORGFRONT
 10
0.0
 20
0.0
 30
0.0
  9
$UCSORGBACK
 10
0.0
 20
0.0
 30
0.0
  9
$PUCSBASE
  2

  9
$PUCSNAME
  2

  9
$PUCSORG
 10
0.0
 20
0.0
 30
0.0
  9
$PUCSXDIR
 10
1.0
 20
0.0
 30
0.0
  9
$PUCSYDIR
 10
0.0
 20
1.0
 30
0.0
  9
$PUCSORTHOREF
  2

  9
$PUCSORTHOVIEW
 70
     0
  9
$PUCSORGTOP
 10
0.0
 20
0.0
 30
0.0
  9
$PUCSORGBOTTOM
 10
0.0
 20
0.0
 30
0.0
  9
$PUCSORGLEFT
 10
0.0
 20
0.0
 30
0.0
  9
$PUCSORGRIGHT
 10
0.0
 20
0.0
 30
0.0
  9
$PUCSORGFRONT
 10
0.0
 20
0.0
 30
0.0
  9
$PUCSORGBACK
 10
0.0
 20
0.0
 30
0.0
  9
$USERI1
 70
     0
  9
$USERI2
 70
     0
  9
$USERI3
 70
     0
  9
$USERI4
 70
     0
  9
$USERI5
 70
     0
  9
$USERR1
 40
16.5
  9
$USERR2
 40
0.0
  9
$USERR3
 40
0.0
  9
$USERR4
 40
0.0
  9
$USERR5
 40
0.0
  9
$WORLDVIEW
 70
     1
  9
$SHADEDGE
 70
     3
  9
$SHADEDIF
 70
    70
  9
$TILEMODE
 70
     1
  9
$MAXACTVP
 70
    64
  9
$PINSBASE
 10
0.0
 20
0.0
 30
0.0
  9
$PLIMCHECK
 70
     0
  9
$PEXTMIN
 10
1.00000000000000E+20
 20
1.00000000000000E+20
 30
1.00000000000000E+20
  9
$PEXTMAX
 10
-1.00000000000000E+20
 20
-1.00000000000000E+20
 30
-1.00000000000000E+20
  9
$PLIMMIN
 10
0.0
 20
0.0
  9
$PLIMMAX
 10
12.0
 20
9.0
  9
$UNITMODE
 70
     0
  9
$VISRETAIN
 70
     1
  9
$PLINEGEN
 70
     0
  9
$PSLTSCALE
 70
     1
  9
$TREEDEPTH
 70
  3020
  9
$CMLSTYLE
  2
Standard
  9
$CMLJUST
 70
     0
  9
$CMLSCALE
 40
1.0
  9
$PROXYGRAPHICS
 70
     1
  9
$MEASUREMENT
 70
     1
  9
$CELWEIGHT
370
    -1
  9
$ENDCAPS
280
     0
  9
$JOINSTYLE
280
     0
  9
$LWDISPLAY
290
     0
  9
$INSUNITS
 70
     1
  9
$HYPERLINKBASE
  1

  9
$STYLESHEET
  1

  9
$XEDIT
290
     1
  9
$CEPSNTYPE
380
     0
  9
$PSTYLEMODE
290
     1
  9
$FINGERPRINTGUID
  2
{5292F8DC-C8C9-4B0E-A35B-38E08A672EE2}
  9
$VERSIONGUID
  2
{FAEB1C32-E019-11D5-929B-00C0DF256EC4}
  9
$EXTNAMES
290
     1
  9
$PSVPSCALE
 40
0.0
  9
$OLESTARTUP
290
     0
  0
ENDSEC
  0
SECTION
  2
CLASSES
  0
CLASS
  1
ACDBDICTIONARYWDFLT
  2
AcDbDictionaryWithDefault
  3
ObjectDBX Classes
 90
        0
280
     0
281
     0
  0
CLASS
  1
VISUALSTYLE
  2
AcDbVisualStyle
  3
ObjectDBX Classes
 90
     4095
280
     0
281
     0
  0
CLASS
  1
SCALE
  2
AcDbScale
  3
ObjectDBX Classes
 90
     1153
280
     0
281
     0
  0
CLASS
  1

  2
exOdDbPolyline
  3

 90
        0
280
     0
281
     1
  0
CLASS
  1

  2
exOdDbSpline
  3

 90
        0
280
     0
281
     1
  0
CLASS
  1
DICTIONARYVAR
  2
AcDbDictionaryVar
  3
ObjectDBX Classes
 90
        0
280
     0
281
     0
  0
CLASS
  1
ACDBPLACEHOLDER
  2
AcDbPlaceHolder
  3
ObjectDBX Classes
 90
        0
280
     0
281
     0
  0
CLASS
  1
LAYOUT
  2
AcDbLayout
  3
ObjectDBX Classes
 90
        0
280
     0
281
     0
  0
ENDSEC
  0
SECTION
  2
TABLES
  0
TABLE
  2
VPORT
  5
8
330
0
100
AcDbSymbolTable
 70
     1
  0
VPORT
  5
29
330
8
100
AcDbSymbolTableRecord
100
AcDbViewportTableRecord
  2
*Active
 70
     0
 10
0.0
 20
0.0
 11
1.0
 21
1.0
 12
131.7267750499694
 22
309.6243082443694
 13
0.0
 23
0.0
 14
0.5
 24
0.5
 15
0.5
 25
0.5
 16
0.0
 26
0.0
 36
1.0
 17
0.0
 27
0.0
 37
0.0
 40
142.5533975581505
 41
1.60267857142857
 42
50.0
 43
0.0
 44
0.0
 50
0.0
 51
0.0
 71
     0
 72
   100
 73
     1
 74
     3
 75
     0
 76
     0
 77
     0
 78
     0
281
     0
 65
     1
110
0.0
120
0.0
130
0.0
111
1.0
121
0.0
131
0.0
112
0.0
122
1.0
132
0.0
 79
     0
146
0.0
  0
ENDTAB
  0
TABLE
  2
LTYPE
  5
5
330
0
100
AcDbSymbolTable
 70
     8
  0
LTYPE
  5
14
330
5
100
AcDbSymbolTableRecord
100
AcDbLinetypeTableRecord
  2
ByBlock
 70
     0
  3

 72
    65
 73
     0
 40
0.0
  0
LTYPE
  5
15
330
5
100
AcDbSymbolTableRecord
100
AcDbLinetypeTableRecord
  2
ByLayer
 70
     0
  3

 72
    65
 73
     0
 40
0.0
  0
LTYPE
  5
16
330
5
100
AcDbSymbolTableRecord
100
AcDbLinetypeTableRecord
  2
Continuous
 70
     0
  3
Solid line
 72
    65
 73
     0
 40
0.0
  0
LTYPE
  5
3B
330
5
100
AcDbSymbolTableRecord
100
AcDbLinetypeTableRecord
  2
DASHED
 70
     0
  3
Dashed
 72
    65
 73
     2
 40
15.0
 49
7.0
 74
     0
 49
-8.0
 74
     0
  0
LTYPE
  5
3C
330
5
100
AcDbSymbolTableRecord
100
AcDbLinetypeTableRecord
  2
DOTTED
 70
     0
  3
Dotted
 72
    65
 73
     2
 40
1.0
 49
0.0
 74
     0
 49
-1.0
 74
     0
  0
LTYPE
  5
3D
330
5
100
AcDbSymbolTableRecord
100
AcDbLinetypeTableRecord
  2
DOT_CENTER
 70
     0
  3
Dot_Center
 72
    65
 73
     4
 40
14.0
 49
12.0
 74
     0
 49
-1.0
 74
     0
 49
0.0
 74
     0
 49
-1.0
 74
     0
  0
LTYPE
  5
3E
330
5
100
AcDbSymbolTableRecord
100
AcDbLinetypeTableRecord
  2
LONG_DASHED
 70
     0
  3
Long_Dashed
 72
    65
 73
     2
 40
15.0
 49
10.0
 74
     0
 49
-5.0
 74
     0
  0
LTYPE
  5
3F
330
5
100
AcDbSymbolTableRecord
100
AcDbLinetypeTableRecord
  2
DASH_CENTER
 70
     0
  3
Dash_Center
 72
    65
 73
     4
 40
14.0
 49
11.0
 74
     0
 49
-1.0
 74
     0
 49
1.0
 74
     0
 49
-1.0
 74
     0
  0
LTYPE
  5
40
330
5
100
AcDbSymbolTableRecord
100
AcDbLinetypeTableRecord
  2
PHANTOM
 70
     0
  3
Phantom
 72
    65
 73
     6
 40
13.0
 49
10.0
 74
     0
 49
-1.0
 74
     0
 49
0.0
 74
     0
 49
-1.0
 74
     0
 49
0.0
 74
     0
 49
-1.0
 74
     0
  0
LTYPE
  5
41
330
5
100
AcDbSymbolTableRecord
100
AcDbLinetypeTableRecord
  2
CENTER_DASH_DASH
 70
     0
  3
Center_Dash_Dash
 72
    65
 73
     6
 40
14.0
 49
9.0
 74
     0
 49
-1.0
 74
     0
 49
1.0
 74
     0
 49
-1.0
 74
     0
 49
1.0
 74
     0
 49
-1.0
 74
     0
  0
ENDTAB
  0
TABLE
  2
LAYER
  5
2
330
0
100
AcDbSymbolTable
 70
     6
  0
LAYER
  5
10
330
2
100
AcDbSymbolTableRecord
100
AcDbLayerTableRecord
  2
0
 70
     0
 62
     7
  6
Continuous
370
    -3
390
F
  0
LAYER
  5
42
330
2
100
AcDbSymbolTableRecord
100
AcDbLayerTableRecord
  2
1
 70
     0
 62
     7
  6
Continuous
370
    -3
390
F
  0
LAYER
  5
43
330
2
100
AcDbSymbolTableRecord
100
AcDbLayerTableRecord
  2
BEZUGSACHSEN
 70
     0
 62
     7
  6
Continuous
370
    -3
390
F
  0
LAYER
  5
44
330
2
100
AcDbSymbolTableRecord
100
AcDbLayerTableRecord
  2
DEFAULT_2
 70
     0
 62
     7
  6
Continuous
370
    -3
390
F
  0
LAYER
  5
45
330
2
100
AcDbSymbolTableRecord
100
AcDbLayerTableRecord
  2
RUNDUNGEN
 70
     0
 62
     7
  6
Continuous
370
    -3
390
F
  0
LAYER
  5
46
330
2
100
AcDbSymbolTableRecord
100
AcDbLayerTableRecord
  2
TEIL_STARTBEZUEGE
 70
     0
 62
     7
  6
Continuous
370
    -3
390
F
  0
ENDTAB
  0
TABLE
  2
STYLE
  5
3
330
0
100
AcDbSymbolTable
 70
     2
  0
STYLE
  5
11
330
3
100
AcDbSymbolTableRecord
100
AcDbTextStyleTableRecord
  2
Standard
 70
     0
 40
0.0
 41
1.0
 50
0.0
 71
     0
 42
0.2
  3
txt
  4

  0
STYLE
  5
6D
330
3
100
AcDbSymbolTableRecord
100
AcDbTextStyleTableRecord
  2
CONVERTER_11
 70
     0
 40
0.0
 41
0.72
 50
0.0
 71
     0
 42
0.2
  3
txt.shx
  4

  0
ENDTAB
  0
TABLE
  2
VIEW
  5
6
330
0
100
AcDbSymbolTable
 70
     0
  0
ENDTAB
  0
TABLE
  2
UCS
  5
7
330
0
100
AcDbSymbolTable
 70
     0
  0
ENDTAB
  0
TABLE
  2
APPID
  5
9
330
0
100
AcDbSymbolTable
 70
     1
  0
APPID
  5
12
330
9
100
AcDbSymbolTableRecord
100
AcDbRegAppTableRecord
  2
ACAD
 70
     0
  0
ENDTAB
  0
TABLE
  2
DIMSTYLE
  5
A
330
0
100
AcDbSymbolTable
 70
     6
100
AcDbDimStyleTable
  0
DIMSTYLE
105
27
330
A
100
AcDbSymbolTableRecord
100
AcDbDimStyleTableRecord
  2
Standard
 70
     0
340
11
  0
DIMSTYLE
105
C8
102
{ACAD_REACTORS
330
C9
102
}
330
A
100
AcDbSymbolTableRecord
100
AcDbDimStyleTableRecord
  2
ME10_DIM_10
 70
     0
  3
\U+2300<>
 41
3.5
 42
2.0
 44
2.0
 71
     1
 73
     0
 74
     0
 77
     1
 78
     8
140
3.5
146
0.7
147
2.0
172
     1
173
     1
176
     2
177
     2
178
     3
271
     2
272
     0
340
6D
  0
DIMSTYLE
105
D3
102
{ACAD_REACTORS
330
D4
102
}
330
A
100
AcDbSymbolTableRecord
100
AcDbDimStyleTableRecord
  2
ME10_DIM_11
 70
     0
  3
\U+2300<>
 41
3.5
 42
2.0
 44
2.0
 71
     1
 73
     0
 74
     0
 77
     1
 78
     8
140
3.5
146
0.7
147
2.0
172
     1
173
     1
176
     2
177
     2
178
     3
271
     2
272
     0
340
6D
  0
DIMSTYLE
105
DE
102
{ACAD_REACTORS
330
DF
102
}
330
A
100
AcDbSymbolTableRecord
100
AcDbDimStyleTableRecord
  2
ME10_DIM_12
 70
     0
  3
<>
 41
3.5
 42
2.0
 44
2.0
 71
     1
 73
     0
 74
     0
 77
     1
 78
     8
140
3.5
146
0.7
147
2.0
172
     1
173
     1
176
     2
177
     2
178
     3
271
     2
272
     0
340
6D
  0
DIMSTYLE
105
E9
102
{ACAD_REACTORS
330
EA
102
}
330
A
100
AcDbSymbolTableRecord
100
AcDbDimStyleTableRecord
  2
ME10_DIM_13
 70
     0
  3
<>
 41
3.5
 42
2.0
 44
2.0
 71
     1
 73
     0
 74
     0
 77
     1
 78
     8
140
3.5
146
0.7
147
2.0
172
     1
173
     1
176
     2
177
     2
178
     3
271
     2
272
     0
340
6D
  0
DIMSTYLE
105
F4
102
{ACAD_REACTORS
330
F5
102
}
330
A
100
AcDbSymbolTableRecord
100
AcDbDimStyleTableRecord
  2
ME10_DIM_14
 70
     0
  3
<>
 41
3.5
 42
2.0
 44
2.0
 71
     1
 73
     0
 74
     0
 77
     1
 78
     8
140
3.5
146
0.7
147
2.0
172
     1
173
     1
176
     2
177
     2
178
     3
271
     2
272
     0
340
6D
  0
ENDTAB
  0
TABLE
  2
BLOCK_RECORD
  5
1
330
0
100
AcDbSymbolTable
 70
     8
  0
BLOCK_RECORD
  5
1F
330
1
100
AcDbSymbolTableRecord
100
AcDbBlockTableRecord
  2
*Model_Space
340
22
  0
BLOCK_RECORD
  5
1B
330
1
100
AcDbSymbolTableRecord
100
AcDbBlockTableRecord
  2
*Paper_Space
340
1E
  0
BLOCK_RECORD
  5
23
330
1
100
AcDbSymbolTableRecord
100
AcDbBlockTableRecord
  2
*Paper_Space0
340
26
  0
BLOCK_RECORD
  5
47
330
1
100
AcDbSymbolTableRecord
100
AcDbBlockTableRecord
  2
Urheberrecht_DE-EN
340
0
102
{BLKREFS
331
6C
102
}
  0
BLOCK_RECORD
  5
BD
330
1
100
AcDbSymbolTableRecord
100
AcDbBlockTableRecord
  2
*D2
340
0
  0
BLOCK_RECORD
  5
CA
330
1
100
AcDbSymbolTableRecord
100
AcDbBlockTableRecord
  2
*D3
340
0
  0
BLOCK_RECORD
  5
D5
330
1
100
AcDbSymbolTableRecord
100
AcDbBlockTableRecord
  2
*D4
340
0
  0
BLOCK_RECORD
  5
E0
330
1
100
AcDbSymbolTableRecord
100
AcDbBlockTableRecord
  2
*D5
340
0
  0
BLOCK_RECORD
  5
EB
330
1
100
AcDbSymbolTableRecord
100
AcDbBlockTableRecord
  2
*D6
340
0
  0
BLOCK_RECORD
  5
F6
330
1
100
AcDbSymbolTableRecord
100
AcDbBlockTableRecord
  2
*D7
340
0
102
{BLKREFS
331
FC
102
}
  0
ENDTAB
  0
ENDSEC
  0
SECTION
  2
BLOCKS
  0
BLOCK
  5
20
330
1F
100
AcDbEntity
  8
0
100
AcDbBlockBegin
  2
*Model_Space
 70
     0
 10
0.0
 20
0.0
 30
0.0
  3
*Model_Space
  1

  0
ENDBLK
  5
21
330
1F
100
AcDbEntity
  8
0
100
AcDbBlockEnd
  0
BLOCK
  5
1C
330
1B
100
AcDbEntity
 67
     1
  8
0
100
AcDbBlockBegin
  2
*Paper_Space
 70
     0
 10
0.0
 20
0.0
 30
0.0
  3
*Paper_Space
  1

  0
ENDBLK
  5
1D
330
1B
100
AcDbEntity
 67
     1
  8
0
100
AcDbBlockEnd
  0
BLOCK
  5
24
330
23
100
AcDbEntity
  8
0
100
AcDbBlockBegin
  2
*Paper_Space0
 70
     0
 10
0.0
 20
0.0
 30
0.0
  3
*Paper_Space0
  1

  0
ENDBLK
  5
25
330
23
100
AcDbEntity
  8
0
100
AcDbBlockEnd
  0
BLOCK
  5
48
330
47
100
AcDbEntity
  8
0
100
AcDbBlockBegin
  2
Urheberrecht_DE-EN
 70
     0
 10
41.8780134359759
 20
310.280218717092
 30
0.0
  3
Urheberrecht_DE-EN
  1

  0
MTEXT
  5
6E
330
47
100
AcDbEntity
  8
1
 62
     1
100
AcDbMText
 10
41.8780134359759
 20
310.280218717092
 30
0.0
 40
2.0
 41
0.0
 71
     7
 72
     1
  1
We own the copyright of this document. It \Pdetermined and may neither be copied or \Pmade accessible to outsiders without our\Ppermission.
  7
CONVERTER_11
 11
0.0
 21
1.0
 31
0.0
 73
     1
 44
0.90036014405762
  0
MTEXT
  5
6F
330
47
100
AcDbEntity
  8
1
 62
     1
100
AcDbMText
 10
41.8780134359759
 20
253.9908317997858
 30
0.0
 40
2.0
 41
0.0
 71
     7
 72
     1
  1
F\U+00fcr diese Unterlage behalten wir das Ur-\Pheberrecht. Sie darf nur f\U+00fcr den von uns \Pbestimmten Zweck benutzt und ohne unsere \PZustimmung weder vervielf\U+00e4ltigt noch\PDritten zug\U+00e4nglich gemacht werden.
  7
CONVERTER_11
 11
0.0
 21
1.0
 31
0.0
 73
     1
 44
0.90036014405762
  0
ENDBLK
  5
49
330
47
100
AcDbEntity
  8
0
100
AcDbBlockEnd
  0
BLOCK
  5
C6
330
BD
100
AcDbEntity
  8
0
100
AcDbBlockBegin
  2
*D2
 70
     1
 10
0.0
 20
0.0
 30
0.0
  3
*D2
  1

  0
LINE
  5
BE
330
BD
100
AcDbEntity
  8
1
  6
Continuous
 62
     2
100
AcDbLine
 10
224.210057519546
 20
308.1558139754
 30
0.0
 11
224.210057519546
 21
301.1558139754
 31
0.0
  0
LINE
  5
BF
330
BD
100
AcDbEntity
  8
1
  6
Continuous
 62
     2
100
AcDbLine
 10
224.210057519546
 20
301.1558139754
 30
0.0
 11
224.210057519546
 21
293.1558139754
 31
0.0
  0
LINE
  5
C0
330
BD
100
AcDbEntity
  8
1
  6
Continuous
 62
     2
100
AcDbLine
 10
224.210057519546
 20
293.1558139754
 30
0.0
 11
224.210057519546
 21
286.1558139754
 31
0.0
  0
LINE
  5
C1
330
BD
100
AcDbEntity
  8
1
  6
Continuous
 62
     2
100
AcDbLine
 10
215.086512474
 20
301.1558139754
 30
0.0
 11
226.210057519546
 21
301.1558139754
 31
0.0
  0
LINE
  5
C2
330
BD
100
AcDbEntity
  8
1
  6
Continuous
 62
     2
100
AcDbLine
 10
215.086512474
 20
293.1558139754
 30
0.0
 11
226.210057519546
 21
293.1558139754
 31
0.0
  0
SOLID
  5
C3
330
BD
100
AcDbEntity
  8
1
 62
     2
100
AcDbTrace
 10
223.7492737779901
 20
304.6558139754
 30
0.0
 11
224.6708412611019
 21
304.6558139754
 31
0.0
 12
224.210057519546
 22
301.1558139754
 32
0.0
 13
224.210057519546
 23
301.1558139754
 33
0.0
  0
SOLID
  5
C4
330
BD
100
AcDbEntity
  8
1
 62
     2
100
AcDbTrace
 10
224.6708412611019
 20
289.6558139754
 30
0.0
 11
223.7492737779901
 21
289.6558139754
 31
0.0
 12
224.210057519546
 22
293.1558139754
 32
0.0
 13
224.210057519546
 23
293.1558139754
 33
0.0
  0
MTEXT
  5
C5
330
BD
100
AcDbEntity
  8
1
 62
     3
100
AcDbMText
 10
222.210057519546
 20
289.851799543981
 30
0.0
 40
3.5
 41
0.0
 71
     7
 72
     1
  1
\C3;%%c\C3;\C3;8\C2;\H2.45;\S^ ;\C3;
  7
CONVERTER_11
 11
0.0
 21
1.0
 31
0.0
 73
     1
 44
0.60024009603842
  0
ENDBLK
  5
C7
330
BD
100
AcDbEntity
  8
0
100
AcDbBlockEnd
  0
BLOCK
  5
D1
330
CA
100
AcDbEntity
  8
0
100
AcDbBlockBegin
  2
*D3
 70
     1
 10
0.0
 20
0.0
 30
0.0
  3
*D3
  1

  0
LINE
  5
CB
330
CA
100
AcDbEntity
  8
1
  6
Continuous
 62
     2
100
AcDbLine
 10
233.575536663963
 20
311.1558139754
 30
0.0
 11
233.575536663963
 21
283.1558139754
 31
0.0
  0
LINE
  5
CC
330
CA
100
AcDbEntity
  8
1
  6
Continuous
 62
     2
100
AcDbLine
 10
203.8185632816
 20
311.1558139754
 30
0.0
 11
235.575536663963
 21
311.1558139754
 31
0.0
  0
LINE
  5
CD
330
CA
100
AcDbEntity
  8
1
  6
Continuous
 62
     2
100
AcDbLine
 10
203.8185632816
 20
283.1558139754
 30
0.0
 11
235.575536663963
 21
283.1558139754
 31
0.0
  0
SOLID
  5
CE
330
CA
100
AcDbEntity
  8
1
 62
     2
100
AcDbTrace
 10
234.0363204055189
 20
307.6558139754
 30
0.0
 11
233.1147529224071
 21
307.6558139754
 31
0.0
 12
233.575536663963
 22
311.1558139754
 32
0.0
 13
233.575536663963
 23
311.1558139754
 33
0.0
  0
SOLID
  5
CF
330
CA
100
AcDbEntity
  8
1
 62
     2
100
AcDbTrace
 10
233.1147529224071
 20
286.6558139754
 30
0.0
 11
234.0363204055189
 21
286.6558139754
 31
0.0
 12
233.575536663963
 22
283.1558139754
 32
0.0
 13
233.575536663963
 23
283.1558139754
 33
0.0
  0
MTEXT
  5
D0
330
CA
100
AcDbEntity
  8
1
 62
     3
100
AcDbMText
 10
231.575536663963
 20
288.360553145353
 30
0.0
 40
3.5
 41
0.0
 71
     7
 72
     1
  1
\C3;%%c\C3;\C3;28\C2;\H2.45;\S^ ;\C3;
  7
CONVERTER_11
 11
0.0
 21
1.0
 31
0.0
 73
     1
 44
0.60024009603842
  0
ENDBLK
  5
D2
330
CA
100
AcDbEntity
  8
0
100
AcDbBlockEnd
  0
BLOCK
  5
DC
330
D5
100
AcDbEntity
  8
0
100
AcDbBlockBegin
  2
*D4
 70
     1
 10
0.0
 20
0.0
 30
0.0
  3
*D4
  1

  0
LINE
  5
D6
330
D5
100
AcDbEntity
  8
1
  6
Continuous
 62
     2
100
AcDbLine
 10
169.186512474
 20
348.917718267622
 30
0.0
 11
213.086512474
 21
348.917718267622
 31
0.0
  0
LINE
  5
D7
330
D5
100
AcDbEntity
  8
1
  6
Continuous
 62
     2
100
AcDbLine
 10
169.186512474
 20
345.1173077093
 30
0.0
 11
169.186512474
 21
350.917718267622
 31
0.0
  0
LINE
  5
D8
330
D5
100
AcDbEntity
  8
1
  6
Continuous
 62
     2
100
AcDbLine
 10
213.086512474
 20
306.2276107451
 30
0.0
 11
213.086512474
 21
350.917718267622
 31
0.0
  0
SOLID
  5
D9
330
D5
100
AcDbEntity
  8
1
 62
     2
100
AcDbTrace
 10
172.686512474
 20
349.3785020091779
 30
0.0
 11
172.686512474
 21
348.4569345260661
 31
0.0
 12
169.186512474
 22
348.917718267622
 32
0.0
 13
169.186512474
 23
348.917718267622
 33
0.0
  0
SOLID
  5
DA
330
D5
100
AcDbEntity
  8
1
 62
     2
100
AcDbTrace
 10
209.586512474
 20
348.4569345260661
 30
0.0
 11
209.586512474
 21
349.3785020091779
 31
0.0
 12
213.086512474
 22
348.917718267622
 32
0.0
 13
213.086512474
 23
348.917718267622
 33
0.0
  0
MTEXT
  5
DB
330
D5
100
AcDbEntity
  8
1
 62
     3
100
AcDbMText
 10
186.908763001446
 20
350.917718267622
 30
0.0
 40
3.5
 41
0.0
 71
     7
 72
     1
  1
\C3;\C3;\C3;43.9\C2;\H2.45;\S^ ;\C3;
  7
CONVERTER_11
 11
0.9999999999970619
 21
2.424068405545306E-6
 31
0.0
 73
     1
 44
0.60024009603842
  0
ENDBLK
  5
DD
330
D5
100
AcDbEntity
  8
0
100
AcDbBlockEnd
  0
BLOCK
  5
E7
330
E0
100
AcDbEntity
  8
0
100
AcDbBlockBegin
  2
*D5
 70
     1
 10
0.0
 20
0.0
 30
0.0
  3
*D5
  1

  0
LINE
  5
E1
330
E0
100
AcDbEntity
  8
1
  6
Continuous
 62
     2
100
AcDbLine
 10
213.086512474
 20
356.390585503496
 30
0.0
 11
150.086512474
 21
356.390585503496
 31
0.0
  0
LINE
  5
E2
330
E0
100
AcDbEntity
  8
1
  6
Continuous
 62
     2
100
AcDbLine
 10
213.086512474
 20
306.2276107451
 30
0.0
 11
213.086512474
 21
358.390585503496
 31
0.0
  0
LINE
  5
E3
330
E0
100
AcDbEntity
  8
1
  6
Continuous
 62
     2
100
AcDbLine
 10
150.086512474
 20
341.2933139754
 30
0.0
 11
150.086512474
 21
358.390585503496
 31
0.0
  0
SOLID
  5
E4
330
E0
100
AcDbEntity
  8
1
 62
     2
100
AcDbTrace
 10
209.586512474
 20
355.9298017619402
 30
0.0
 11
209.586512474
 21
356.8513692450519
 31
0.0
 12
213.086512474
 22
356.390585503496
 32
0.0
 13
213.086512474
 23
356.390585503496
 33
0.0
  0
SOLID
  5
E5
330
E0
100
AcDbEntity
  8
1
 62
     2
100
AcDbTrace
 10
153.586512474
 20
356.8513692450519
 30
0.0
 11
153.586512474
 21
355.9298017619402
 31
0.0
 12
150.086512474
 22
356.390585503496
 32
0.0
 13
150.086512474
 23
356.390585503496
 33
0.0
  0
MTEXT
  5
E6
330
E0
100
AcDbEntity
  8
1
 62
     3
100
AcDbMText
 10
181.383110740766
 20
358.390585503496
 30
0.0
 40
3.5
 41
0.0
 71
     7
 72
     1
  1
\C3;\C3;\C3;63\C2;\H2.45;\S^ ;\C3;
  7
CONVERTER_11
 11
0.9999999999970619
 21
2.424068405545306E-6
 31
0.0
 73
     1
 44
0.60024009603842
  0
ENDBLK
  5
E8
330
E0
100
AcDbEntity
  8
0
100
AcDbBlockEnd
  0
BLOCK
  5
F2
330
EB
100
AcDbEntity
  8
0
100
AcDbBlockBegin
  2
*D6
 70
     1
 10
0.0
 20
0.0
 30
0.0
  3
*D6
  1

  0
LINE
  5
EC
330
EB
100
AcDbEntity
  8
1
  6
Continuous
 62
     2
100
AcDbLine
 10
213.086512474
 20
363.605767662271
 30
0.0
 11
48.33651247399999
 21
363.605767662271
 31
0.0
  0
LINE
  5
ED
330
EB
100
AcDbEntity
  8
1
  6
Continuous
 62
     2
100
AcDbLine
 10
213.086512474
 20
306.2276107451
 30
0.0
 11
213.086512474
 21
365.605767662271
 31
0.0
  0
LINE
  5
EE
330
EB
100
AcDbEntity
  8
1
  6
Continuous
 62
     2
100
AcDbLine
 10
48.336512474
 20
317.3172609766
 30
0.0
 11
48.336512474
 21
365.605767662271
 31
0.0
  0
SOLID
  5
EF
330
EB
100
AcDbEntity
  8
1
 62
     2
100
AcDbTrace
 10
209.586512474
 20
363.1449839207151
 30
0.0
 11
209.586512474
 21
364.0665514038268
 31
0.0
 12
213.086512474
 22
363.605767662271
 32
0.0
 13
213.086512474
 23
363.605767662271
 33
0.0
  0
SOLID
  5
F0
330
EB
100
AcDbEntity
  8
1
 62
     2
100
AcDbTrace
 10
51.83651247399999
 20
364.0665514038268
 30
0.0
 11
51.83651247399999
 21
363.1449839207151
 31
0.0
 12
48.33651247399999
 22
363.605767662271
 32
0.0
 13
48.33651247399999
 23
363.605767662271
 33
0.0
  0
MTEXT
  5
F1
330
EB
100
AcDbEntity
  8
1
 62
     3
100
AcDbMText
 10
138.3373075149117
 20
365.605767662271
 30
0.0
 40
3.5
 41
0.0
 71
     7
 72
     1
  1
\C3;\C3;\C3;164.75\C2;\H2.45;\S^ ;\C3;
  7
CONVERTER_11
 11
0.9999999999970619
 21
2.424068405545306E-6
 31
0.0
 73
     1
 44
0.60024009603842
  0
ENDBLK
  5
F3
330
EB
100
AcDbEntity
  8
0
100
AcDbBlockEnd
  0
BLOCK
  5
FA
330
F6
100
AcDbEntity
  8
0
100
AcDbBlockBegin
  2
*D7
 70
     1
 10
0.0
 20
0.0
 30
0.0
  3
*D7
  1

  0
LINE
  5
F7
330
F6
100
AcDbEntity
  8
1
  6
Continuous
 62
     2
100
AcDbLine
 10
179.4012385447552
 20
321.9548026192558
 30
0.0
 11
171.2271856537712
 21
312.6476290711823
 31
0.0
  0
SOLID
  5
F8
330
F6
100
AcDbEntity
  8
1
 62
     2
100
AcDbTrace
 10
173.1905765809395
 20
315.5814691696872
 30
0.0
 11
173.8830093502033
 21
314.973338027598
 31
0.0
 12
171.2271856537712
 22
312.6476290711823
 32
0.0
 13
171.2271856537712
 23
312.6476290711823
 33
0.0
  0
MTEXT
  5
F9
330
F6
100
AcDbEntity
  8
1
 62
     3
100
AcDbMText
 10
173.002142742333
 20
317.6994562277828
 30
0.0
 40
3.5
 41
0.0
 71
     7
 72
     1
  1
\C3; R\C3;\C3;6\C2;\H2.45;\S^ ;\C3;
  7
CONVERTER_11
 11
0.6598878033714632
 21
0.7513641507029631
 31
0.0
 73
     1
 44
0.60024009603842
  0
ENDBLK
  5
FB
330
F6
100
AcDbEntity
  8
0
100
AcDbBlockEnd
  0
ENDSEC
  0
SECTION
  2
ENTITIES
  0
INSERT
  5
6C
330
1F
100
AcDbEntity
  8
0
100
AcDbBlockReference
  2
Urheberrecht_DE-EN
 10
41.8780134359759
 20
310.280218717092
 30
0.0
  0
LINE
  5
70
330
1F
100
AcDbEntity
  8
0
  6
Continuous
 62
     7
100
AcDbLine
 10
48.33651247400001
 20
315.3172609766
 30
0.0
 11
48.33651247400001
 21
278.9943669742
 31
0.0
  0
LINE
  5
71
330
1F
100
AcDbEntity
  8
0
  6
Continuous
 62
     9
100
AcDbLine
 10
50.26179546839999
 20
317.5437063197999
 30
0.0
 11
50.2617954684
 21
276.767921631
 31
0.0
  0
LINE
  5
72
330
1F
100
AcDbEntity
  8
0
  6
Continuous
 62
     7
100
AcDbLine
 10
154.286512474
 20
250.1565171057
 30
0.0
 11
158.0211340882
 21
250.1565171057
 31
0.0
  0
LINE
  5
73
330
1F
100
AcDbEntity
  8
0
  6
Continuous
 62
     7
100
AcDbLine
 10
164.5018908598
 20
250.1565171057
 30
0.0
 11
168.186512474
 21
250.1565171057
 31
0.0
  0
LINE
  5
74
330
1F
100
AcDbEntity
  8
0
  6
Continuous
 62
     7
100
AcDbLine
 10
160.099012474
 20
253.5227989524
 30
0.0
 11
162.424012474
 21
253.5227989524
 31
0.0
  0
LINE
  5
75
330
1F
100
AcDbEntity
  8
0
  6
Continuous
 62
     7
100
AcDbLine
 10
150.636512474
 20
262.5808139754
 30
0.0
 11
149.5968301408
 21
262.3022319338
 31
0.0
  0
LINE
  5
76
330
1F
100
AcDbEntity
  8
0
  6
Continuous
 62
     7
100
AcDbLine
 10
152.286512474
 20
262.5808139754
 30
0.0
 11
150.636512474
 21
262.5808139754
 31
0.0
  0
LINE
  5
77
330
1F
100
AcDbEntity
  8
0
  6
Continuous
 62
     7
100
AcDbLine
 10
149.5968301408
 20
262.3022319338
 30
0.0
 11
50.2617954684
 21
276.767921631
 31
0.0
  0
LINE
  5
78
330
1F
100
AcDbEntity
  8
0
  6
Continuous
 62
     7
100
AcDbLine
 10
175.186512474
 20
283.1558139754
 30
0.0
 11
201.8185632816
 21
283.1558139754
 31
0.0
  0
LWPOLYLINE
  5
79
330
1F
100
AcDbEntity
  8
DEFAULT_2
  6
DASHED
 62
     8
100
AcDbPolyline
 90
        2
 70
     0
 43
0.35
 10
213.086512474
 20
293.1558139754
 10
180.086512474
 20
293.1558139754
  0
LWPOLYLINE
  5
7A
330
1F
100
AcDbEntity
  8
TEIL_STARTBEZUEGE
  6
DOT_CENTER
 62
     7
100
AcDbPolyline
 90
        2
 70
     0
 43
0.25
 10
216.086512474
 20
297.1558139754
 10
45.33651247400002
 20
297.1558139754
  0
LWPOLYLINE
  5
7B
330
1F
100
AcDbEntity
  8
DEFAULT_2
  6
DASHED
 62
     8
100
AcDbPolyline
 90
        2
 70
     0
 43
0.35
 10
180.086512474
 20
301.1558139754
 10
191.686512474
 20
301.1558139754
  0
LWPOLYLINE
  5
7C
330
1F
100
AcDbEntity
  8
DEFAULT_2
  6
DASHED
 62
     8
100
AcDbPolyline
 90
        2
 70
     0
 43
0.35
 10
191.686512474
 20
301.1558139754
 10
213.086512474
 20
301.1558139754
  0
LINE
  5
7D
330
1F
100
AcDbEntity
  8
BEZUGSACHSEN
  6
Continuous
 62
     7
100
AcDbLine
 10
201.8185632816
 20
311.1558139754
 30
0.0
 11
198.486512474
 21
311.1558139754
 31
0.0
  0
LINE
  5
7E
330
1F
100
AcDbEntity
  8
BEZUGSACHSEN
  6
Continuous
 62
     7
100
AcDbLine
 10
191.686512474
 20
311.1558139754
 30
0.0
 11
175.186512474
 21
311.1558139754
 31
0.0
  0
LINE
  5
7F
330
1F
100
AcDbEntity
  8
0
  6
Continuous
 62
     7
100
AcDbLine
 10
175.186512474
 20
311.1558139754
 30
0.0
 11
191.686512474
 21
311.1558139754
 31
0.0
  0
LINE
  5
80
330
1F
100
AcDbEntity
  8
0
  6
Continuous
 62
     7
100
AcDbLine
 10
198.486512474
 20
311.1558139754
 30
0.0
 11
201.8185632816
 21
311.1558139754
 31
0.0
  0
LINE
  5
81
330
1F
100
AcDbEntity
  8
0
  6
Continuous
 62
     7
100
AcDbLine
 10
149.5968301408
 20
332.009396017
 30
0.0
 11
149.5968301408
 21
262.3022319338
 31
0.0
  0
LWPOLYLINE
  5
82
330
1F
100
AcDbEntity
  8
TEIL_STARTBEZUEGE
  6
DOT_CENTER
 62
     7
100
AcDbPolyline
 90
        2
 70
     0
 43
0.25
 10
150.086512474
 20
255.3565171057
 10
150.086512474
 20
339.2933139754
  0
LINE
  5
83
330
1F
100
AcDbEntity
  8
0
  6
Continuous
 62
     7
100
AcDbLine
 10
150.636512474
 20
331.7308139754
 30
0.0
 11
150.636512474
 21
262.5808139754
 31
0.0
  0
LINE
  5
84
330
1F
100
AcDbEntity
  8
0
  6
Continuous
 62
     9
100
AcDbLine
 10
152.286512474
 20
331.7308139754
 30
0.0
 11
152.286512474
 21
262.5808139754
 31
0.0
  0
LINE
  5
85
330
1F
100
AcDbEntity
  8
0
  6
Continuous
 62
     7
100
AcDbLine
 10
153.286512474
 20
343.1173077093
 30
0.0
 11
153.286512474
 21
251.1943202415
 31
0.0
  0
LINE
  5
86
330
1F
100
AcDbEntity
  8
0
  6
Continuous
 62
     9
100
AcDbLine
 10
154.286512474
 20
344.1551108452
 30
0.0
 11
154.286512474
 21
250.1565171057
 31
0.0
  0
LINE
  5
87
330
1F
100
AcDbEntity
  8
0
  6
Continuous
 62
     7
100
AcDbLine
 10
158.0211340882
 20
344.1551108452
 30
0.0
 11
158.0211340882
 21
250.1565171057
 31
0.0
  0
LINE
  5
88
330
1F
100
AcDbEntity
  8
0
  6
Continuous
 62
     7
100
AcDbLine
 10
159.349012474
 20
341.7656311362
 30
0.0
 11
159.349012474
 21
252.5459968146
 31
0.0
  0
LINE
  5
89
330
1F
100
AcDbEntity
  8
0
  6
Continuous
 62
     9
100
AcDbLine
 10
160.099012474
 20
340.7888289984
 30
0.0
 11
160.099012474
 21
253.5227989524
 31
0.0
  0
LINE
  5
8A
330
1F
100
AcDbEntity
  8
0
  6
Continuous
 62
     9
100
AcDbLine
 10
162.424012474
 20
340.7888289984
 30
0.0
 11
162.424012474
 21
253.5227989524
 31
0.0
  0
LINE
  5
8B
330
1F
100
AcDbEntity
  8
0
  6
Continuous
 62
     7
100
AcDbLine
 10
163.174012474
 20
341.7656311362
 30
0.0
 11
163.174012474
 21
252.5459968146
 31
0.0
  0
LINE
  5
8C
330
1F
100
AcDbEntity
  8
0
  6
Continuous
 62
     7
100
AcDbLine
 10
149.5968301408
 20
332.009396017
 30
0.0
 11
50.26179546839999
 21
317.5437063197999
 31
0.0
  0
LINE
  5
8D
330
1F
100
AcDbEntity
  8
0
  6
Continuous
 62
     7
100
AcDbLine
 10
164.5018908598
 20
344.1551108452
 30
0.0
 11
164.5018908598
 21
250.1565171057
 31
0.0
  0
LINE
  5
8E
330
1F
100
AcDbEntity
  8
0
  6
Continuous
 62
     9
100
AcDbLine
 10
168.186512474
 20
344.1551108452
 30
0.0
 11
168.186512474
 21
250.1565171057
 31
0.0
  0
LINE
  5
8F
330
1F
100
AcDbEntity
  8
0
  6
Continuous
 62
     7
100
AcDbLine
 10
169.186512474
 20
343.1173077093
 30
0.0
 11
169.186512474
 21
251.1943202415
 31
0.0
  0
LINE
  5
90
330
1F
100
AcDbEntity
  8
0
  6
Continuous
 62
     7
100
AcDbLine
 10
152.286512474
 20
331.7308139754
 30
0.0
 11
150.636512474
 21
331.7308139754
 31
0.0
  0
LINE
  5
91
330
1F
100
AcDbEntity
  8
0
  6
Continuous
 62
     7
100
AcDbLine
 10
153.286512474
 20
332.4558139754
 30
0.0
 11
153.2479567002
 21
332.4558139754
 31
0.0
  0
LINE
  5
92
330
1F
100
AcDbEntity
  8
0
  6
Continuous
 62
     7
100
AcDbLine
 10
150.636512474
 20
331.7308139754
 30
0.0
 11
149.5968301408
 21
332.009396017
 31
0.0
  0
LINE
  5
93
330
1F
100
AcDbEntity
  8
RUNDUNGEN
  6
Continuous
 62
     9
100
AcDbLine
 10
175.186512474
 20
311.1558139754
 30
0.0
 11
175.186512474
 21
283.1558139754
 31
0.0
  0
LINE
  5
94
330
1F
100
AcDbEntity
  8
0
  6
Continuous
 62
     7
100
AcDbLine
 10
160.099012474
 20
340.7888289984
 30
0.0
 11
162.424012474
 21
340.7888289984
 31
0.0
  0
LWPOLYLINE
  5
95
330
1F
100
AcDbEntity
  8
DEFAULT_2
  6
DASHED
 62
     8
100
AcDbPolyline
 90
        2
 70
     0
 43
0.35
 10
180.086512474
 20
301.1558139754
 10
180.086512474
 20
293.1558139754
  0
LINE
  5
96
330
1F
100
AcDbEntity
  8
RUNDUNGEN
  6
Continuous
 62
     7
100
AcDbLine
 10
212.586512474
 20
289.2179918019
 30
0.0
 11
202.3185632816
 21
283.2897885716
 31
0.0
  0
LINE
  5
97
330
1F
100
AcDbEntity
  8
0
  6
Continuous
 62
     7
100
AcDbLine
 10
202.3185632816
 20
283.2897885716
 30
0.0
 11
212.586512474
 21
289.2179918019
 31
0.0
  0
LINE
  5
98
330
1F
100
AcDbEntity
  8
0
  6
Continuous
 62
     7
100
AcDbLine
 10
154.286512474
 20
344.1551108452
 30
0.0
 11
158.0211340882
 21
344.1551108452
 31
0.0
  0
LINE
  5
99
330
1F
100
AcDbEntity
  8
0
  6
Continuous
 62
     7
100
AcDbLine
 10
164.5018908598
 20
344.1551108452
 30
0.0
 11
168.186512474
 21
344.1551108452
 31
0.0
  0
LINE
  5
9A
330
1F
100
AcDbEntity
  8
RUNDUNGEN
  6
Continuous
 62
     7
100
AcDbLine
 10
212.586512474
 20
305.0936361489
 30
0.0
 11
202.3185632816
 21
311.0218393792
 31
0.0
  0
LINE
  5
9B
330
1F
100
AcDbEntity
  8
0
  6
Continuous
 62
     7
100
AcDbLine
 10
202.3185632816
 20
311.0218393792
 30
0.0
 11
212.586512474
 21
305.0936361489
 31
0.0
  0
LWPOLYLINE
  5
9C
330
1F
100
AcDbEntity
  8
BEZUGSACHSEN
  6
DASHED
 62
     8
100
AcDbPolyline
 90
        2
 70
     0
 43
0.35
 10
191.686512474
 20
301.1558139754
 10
191.686512474
 20
311.1558139754
  0
LWPOLYLINE
  5
9D
330
1F
100
AcDbEntity
  8
BEZUGSACHSEN
  6
DOT_CENTER
 62
     7
100
AcDbPolyline
 90
        2
 70
     0
 43
0.25
 10
195.086512474
 20
314.1558139754
 10
195.086512474
 20
296.2629419457
  0
LWPOLYLINE
  5
9E
330
1F
100
AcDbEntity
  8
BEZUGSACHSEN
  6
DASHED
 62
     8
100
AcDbPolyline
 90
        2
 70
     0
 43
0.35
 10
198.486512474
 20
301.1558139754
 10
198.486512474
 20
311.1558139754
  0
LINE
  5
9F
330
1F
100
AcDbEntity
  8
RUNDUNGEN
  6
Continuous
 62
     9
100
AcDbLine
 10
201.8185632816
 20
283.1558139754
 30
0.0
 11
201.8185632816
 21
311.1558139754
 31
0.0
  0
LINE
  5
A0
330
1F
100
AcDbEntity
  8
RUNDUNGEN
  6
Continuous
 62
     9
100
AcDbLine
 10
202.3185632816
 20
283.2897885716
 30
0.0
 11
202.3185632816
 21
311.0218393792
 31
0.0
  0
LINE
  5
A1
330
1F
100
AcDbEntity
  8
RUNDUNGEN
  6
Continuous
 62
     9
100
AcDbLine
 10
212.586512474
 20
289.2179918019
 30
0.0
 11
212.586512474
 21
305.0936361489
 31
0.0
  0
LINE
  5
A2
330
1F
100
AcDbEntity
  8
RUNDUNGEN
  6
Continuous
 62
     7
100
AcDbLine
 10
213.086512474
 20
290.0840172057
 30
0.0
 11
213.086512474
 21
304.2276107451
 31
0.0
  0
LWPOLYLINE
  5
A3
330
1F
100
AcDbEntity
  8
BEZUGSACHSEN
  6
DASHED
 62
     8
100
AcDbPolyline
 90
        2
 70
     0
 43
0.35
 10
199.086512474
 20
301.1558139754
 10
199.086512474
 20
311.1558139754
  0
LWPOLYLINE
  5
A4
330
1F
100
AcDbEntity
  8
BEZUGSACHSEN
  6
DASHED
 62
     8
100
AcDbPolyline
 90
        2
 70
     0
 43
0.35
 10
191.086512474
 20
301.1558139754
 10
191.086512474
 20
311.1558139754
  0
ARC
  5
A5
330
1F
100
AcDbEntity
  8
RUNDUNGEN
  6
Continuous
 62
     7
100
AcDbCircle
 10
175.186512474
 20
317.1558139754
 30
0.0
 40
6.0
100
AcDbArc
 50
180.0
 51
270.0
  0
ARC
  5
A6
330
1F
100
AcDbEntity
  8
RUNDUNGEN
  6
Continuous
 62
     7
100
AcDbCircle
 10
175.186512474
 20
277.1558139754
 30
0.0
 40
6.0
100
AcDbArc
 50
90.0
 51
180.0
  0
ARC
  5
A7
330
1F
100
AcDbEntity
  8
0
  6
Continuous
 62
     7
100
AcDbCircle
 10
50.58651247400001
 20
278.9943669742
 30
0.0
 40
2.25
100
AcDbArc
 50
180.0
 51
261.7021731726453
  0
ARC
  5
A8
330
1F
100
AcDbEntity
  8
0
  6
Continuous
 62
     7
100
AcDbCircle
 10
50.58651247400001
 20
315.3172609766
 30
0.0
 40
2.249999999996122
100
AcDbArc
 50
98.29782682735522
 51
180.0
  0
ARC
  5
A9
330
1F
100
AcDbEntity
  8
RUNDUNGEN
  6
Continuous
 62
     7
100
AcDbCircle
 10
212.086512474
 20
290.0840172057
 30
0.0
 40
1.000000000013472
100
AcDbArc
 50
299.9999999995543
 51
0.0
  0
ARC
  5
AA
330
1F
100
AcDbEntity
  8
RUNDUNGEN
  6
Continuous
 62
     7
100
AcDbCircle
 10
201.8185632816
 20
310.1558139754
 30
0.0
 40
1.000000000013472
100
AcDbArc
 50
60.00000000044565
 51
90.0
  0
ARC
  5
AB
330
1F
100
AcDbEntity
  8
RUNDUNGEN
  6
Continuous
 62
     7
100
AcDbCircle
 10
201.8185632816
 20
284.1558139754
 30
0.0
 40
1.0
100
AcDbArc
 50
270.0
 51
299.9999999995543
  0
ARC
  5
AC
330
1F
100
AcDbEntity
  8
0
  6
Continuous
 62
     7
100
AcDbCircle
 10
152.286512474
 20
332.7308139754
 30
0.0
 40
1.0
100
AcDbArc
 50
270.0
 51
344.0379858379187
  0
ARC
  5
AD
330
1F
100
AcDbEntity
  8
0
  6
Continuous
 62
     7
100
AcDbCircle
 10
152.286512474
 20
261.5808139754
 30
0.0
 40
1.0
100
AcDbArc
 50
0.0
 51
90.0
  0
ARC
  5
AE
330
1F
100
AcDbEntity
  8
RUNDUNGEN
  6
Continuous
 62
     7
100
AcDbCircle
 10
212.086512474
 20
304.2276107451
 30
0.0
 40
1.0
100
AcDbArc
 50
0.0
 51
60.00000000044565
  0
SPLINE
  5
AF
330
1F
100
AcDbEntity
  8
0
  6
Continuous
 62
     2
100
AcDbSpline
210
0.0
220
0.0
230
1.0
 70
     8
 71
     3
 72
    41
 73
    37
 74
    35
 42
0.0000000001
 43
0.0000000001
 44
0.00000001
 40
0.0
 40
0.0
 40
0.0
 40
0.0
 40
0.0171729376827988
 40
0.0690433046347004
 40
0.1558513765142459
 40
0.276689045500573
 40
0.4304186208085418
 40
0.6161194774820792
 40
0.8325271782656481
 40
1.076739258281528
 40
1.345777064982534
 40
1.637919296728808
 40
1.95105280637045
 40
2.280112520842305
 40
2.620235485545129
 40
2.970206033284452
 40
3.328932046935736
 40
3.692064027329189
 40
4.05543362728022
 40
4.418807565404572
 40
4.781950110442598
 40
5.140680469226974
 40
5.490642261073056
 40
5.830769100420641
 40
6.159863483312225
 40
6.473017351450298
 40
6.765128366872887
 40
7.034141005779762
 40
7.278390295645613
 40
7.494853857714438
 40
7.680578193299395
 40
7.834318473559851
 40
7.955181084916497
 40
8.042014470140511
 40
8.093892952598889
 40
8.111065269563229
 40
8.111065269563229
 40
8.111065269563229
 40
8.111065269563229
 10
191.086512474
 20
311.1558299576
 30
0.0
 10
191.0920153408066
 20
311.1542531775699
 30
0.0
 10
191.114139459365
 20
311.1479137785707
 30
0.0
 10
191.1641355329376
 20
311.1337978933256
 30
0.0
 10
191.2474588290399
 20
311.1105501104091
 30
0.0
 10
191.3637042460889
 20
311.07896674267
 30
0.0
 10
191.5120681617377
 20
311.0398857786471
 30
0.0
 10
191.6917386367844
 20
310.9946248692708
 30
0.0
 10
191.9012933068365
 20
310.9445840024762
 30
0.0
 10
192.138665457227
 20
310.8915291986976
 30
0.0
 10
192.4016119471782
 20
310.8373112221756
 30
0.0
 10
192.688123865584
 20
310.783848306102
 30
0.0
 10
192.995427204766
 20
310.7330813622095
 30
0.0
 10
193.3195970982989
 20
310.6867291501561
 30
0.0
 10
193.6569794276264
 20
310.646671953893
 30
0.0
 10
194.0051121800125
 20
310.6141845582201
 30
0.0
 10
194.3616294422627
 20
310.5902970305089
 30
0.0
 10
194.7231115724759
 20
310.5754946454346
 30
0.0
 10
195.086414894711
 20
310.57050978481
 30
0.0
 10
195.449721821019
 20
310.5754892640743
 30
0.0
 10
195.8112105471468
 20
310.5902874843952
 30
0.0
 10
196.1677301863147
 20
310.6141700456498
 30
0.0
 10
196.5158633052179
 20
310.6466516389464
 30
0.0
 10
196.8532559442802
 20
310.6867063947695
 30
0.0
 10
197.177445582524
 20
310.7330592069208
 30
0.0
 10
197.4847574423763
 20
310.7838231758863
 30
0.0
 10
197.7712583995949
 20
310.8372794249129
 30
0.0
 10
198.0341989324825
 20
310.8914946954949
 30
0.0
 10
198.2715934610913
 20
310.9445531083676
 30
0.0
 10
198.4811865867868
 20
310.9946001975632
 30
0.0
 10
198.660886552138
 20
311.0398669445786
 30
0.0
 10
198.80926950579
 20
311.0789530158539
 30
0.0
 10
198.9255345425372
 20
311.1105416691649
 30
0.0
 10
199.0088766781493
 20
311.1337943277193
 30
0.0
 10
199.0588833168459
 20
311.1479130430573
 30
0.0
 10
199.0810098122546
 20
311.1542532167431
 30
0.0
 10
199.086512474
 20
311.1558299613
 30
0.0
 11
191.086512474
 21
311.1558299576
 31
0.0
 11
191.1030225906906
 21
311.1511049353229
 31
0.0
 11
191.152933155275
 21
311.1369815323833
 31
0.0
 11
191.2365547790177
 21
311.1136777690375
 31
0.0
 11
191.3531592311667
 21
311.0819737632167
 31
0.0
 11
191.5018251293009
 21
311.0428427901095
 31
0.0
 11
191.6818973263406
 21
310.99746865626
 31
0.0
 11
191.8923894826759
 21
310.9472158446002
 31
0.0
 11
192.1307242532366
 21
310.8939610122611
 31
0.0
 11
192.3942256866015
 21
310.8396624298752
 31
0.0
 11
192.681414408676
 21
310.7860926484408
 31
0.0
 11
192.9903578175952
 21
310.7350381192992
 31
0.0
 11
193.316113823894
 21
310.6885266148238
 31
0.0
 11
193.6538680515763
 21
310.6484552684404
 31
0.0
 11
194.0023264690167
 21
310.6159573362
 31
0.0
 11
194.3602473552938
 21
310.5919366776583
 31
0.0
 11
194.7230778879333
 21
310.5771434437667
 31
0.0
 11
195.0864134623458
 21
310.5721708654729
 31
0.0
 11
195.4497534470333
 21
310.5771382023166
 31
0.0
 11
195.8125947285104
 21
310.5919271330666
 31
0.0
 11
196.17052029225
 21
310.6159429848166
 31
0.0
 11
196.5189704867445
 21
310.6484347946904
 31
0.0
 11
196.856729013606
 21
310.6885027916072
 31
0.0
 11
197.1825197454693
 21
310.7350163582597
 31
0.0
 11
197.4914838859407
 21
310.7860703006408
 31
0.0
 11
197.7786426316776
 21
310.8396305478211
 31
0.0
 11
198.0421198176801
 21
310.8939220973278
 31
0.0
 11
198.2804912965137
 21
310.9471832809294
 31
0.0
 11
198.4910383518594
 21
310.9974466989267
 31
0.0
 11
198.6711336470553
 21
311.0428252563825
 31
0.0
 11
198.8198099356833
 21
311.0819588094333
 31
0.0
 11
198.9364384915552
 21
311.1136692301052
 31
0.0
 11
199.0200845791583
 21
311.1369795029083
 31
0.0
 11
199.070002970126
 21
311.1511050537073
 31
0.0
 11
199.086512474
 21
311.1558299613
 31
0.0
  0
SPLINE
  5
B0
330
1F
100
AcDbEntity
  8
0
  6
Continuous
 62
     7
100
AcDbSpline
210
0.0
220
0.0
230
1.0
 70
     8
 71
     3
 72
    15
 73
    11
 74
     9
 42
0.0000000001
 43
0.0000000001
 44
0.00000001
 40
0.0
 40
0.0
 40
0.0
 40
0.0
 40
0.1993272936092415
 40
0.3995112141190995
 40
0.5993674460274263
 40
0.7990290559600337
 40
0.9986840827410931
 40
1.198548256370631
 40
1.398666897383191
 40
1.598077972489109
 40
1.598077972489109
 40
1.598077972489109
 40
1.598077972489109
 10
154.286512474
 20
344.1551108452
 30
0.0
 10
154.2199675664743
 20
344.151015131361
 30
0.0
 10
154.0865917687216
 20
344.1428061019857
 30
0.0
 10
153.8948873029718
 20
344.0793615488089
 30
0.0
 10
153.7197629899142
 20
343.9807317173685
 30
0.0
 10
153.5679749831556
 20
343.8488049359767
 30
0.0
 10
153.444742859774
 20
343.6899638678611
 30
0.0
 10
153.3545762366515
 20
343.5104889635408
 30
0.0
 10
153.2973799247388
 20
343.3172183139439
 30
0.0
 10
153.2901306781151
 20
343.183865855249
 30
0.0
 10
153.286512474
 20
343.1173077093
 30
0.0
 11
154.286512474
 21
344.1551108452
 31
0.0
 11
154.0882703294638
 21
344.1343401421
 31
0.0
 11
153.8975698972222
 21
344.0734554381625
 31
0.0
 11
153.7235742356077
 21
343.9751293319042
 31
0.0
 11
153.5727314863109
 21
343.8443194566444
 31
0.0
 11
153.4503033668905
 21
343.6866061557021
 31
0.0
 11
153.3601017643812
 21
343.5082543718439
 31
0.0
 11
153.3050585980032
 21
343.3158544749734
 31
0.0
 11
153.286512474
 21
343.1173077093
 31
0.0
  0
SPLINE
  5
B1
330
1F
100
AcDbEntity
  8
BEZUGSACHSEN
  6
Continuous
 62
     7
100
AcDbSpline
210
0.0
220
0.0
230
1.0
 70
     8
 71
     3
 72
    19
 73
    15
 74
    13
 42
0.0000000001
 43
0.0000000001
 44
0.00000001
 40
0.0
 40
0.0
 40
0.0
 40
0.0
 40
0.5087252214978217
 40
1.017511536520662
 40
1.57259169452974
 40
2.127672069860771
 40
2.780641718962557
 40
3.433641451304523
 40
4.086643967324997
 40
4.739616397653971
 40
5.294721000628985
 40
5.84982540266016
 40
6.358641560441392
 40
6.86739659102613
 40
6.86739659102613
 40
6.86739659102613
 40
6.86739659102613
 10
198.486512474
 20
311.1558139754
 30
0.0
 10
198.3213625010584
 20
311.1172610262939
 30
0.0
 10
197.9910427220836
 20
311.0401504982042
 30
0.0
 10
197.4759164111733
 20
310.9422822592184
 30
0.0
 10
196.9425770122497
 20
310.8592911684362
 30
0.0
 10
196.3586040751366
 20
310.791747494092
 30
0.0
 10
195.7396199558287
 20
310.7472144676055
 30
0.0
 10
195.0865684104324
 20
310.7314366047848
 30
0.0
 10
194.4335157954652
 20
310.7472087932599
 30
0.0
 10
193.8145213982678
 20
310.7917375051508
 30
0.0
 10
193.2305310332981
 20
310.8592794012952
 30
0.0
 10
192.6971654588291
 20
310.9422721531677
 30
0.0
 10
192.1820113812011
 20
311.0401441869129
 30
0.0
 10
191.8516721617247
 20
311.1172589233746
 30
0.0
 10
191.686512474
 20
311.1558139754
 30
0.0
 11
198.486512474
 21
311.1558139754
 31
0.0
 11
197.990317247264
 21
311.0436014629408
 31
0.0
 11
197.4906254497281
 21
310.9478328781653
 31
0.0
 11
196.9420836948665
 21
310.8628862773583
 31
0.0
 11
196.390672920959
 21
310.7991651545153
 31
0.0
 11
195.7393802125636
 21
310.7523979583286
 31
0.0
 11
195.0865693146768
 21
310.7366950274259
 31
0.0
 11
194.4337554979912
 21
310.7523923734882
 31
0.0
 11
193.7824596387878
 21
310.7991545222227
 31
0.0
 11
193.2310243843658
 21
310.8628748519818
 31
0.0
 11
192.6824582884383
 21
310.9478226921732
 31
0.0
 11
192.1827369160322
 21
311.0435955086703
 31
0.0
 11
191.686512474
 21
311.1558139754
 31
0.0
  0
SPLINE
  5
B2
330
1F
100
AcDbEntity
  8
0
  6
Continuous
 62
     7
100
AcDbSpline
210
0.0
220
0.0
230
1.0
 70
     8
 71
     3
 72
    15
 73
    11
 74
     9
 42
0.0000000001
 43
0.0000000001
 44
0.00000001
 40
0.0
 40
0.0
 40
0.0
 40
0.0
 40
0.149793559053873
 40
0.3002398466950675
 40
0.4504306630186012
 40
0.6004783582620957
 40
0.7505149757897306
 40
0.9007081563715911
 40
1.051091279545165
 40
1.200944180779051
 40
1.200944180779051
 40
1.200944180779051
 40
1.200944180779051
 10
160.099012474
 20
340.7888289984
 30
0.0
 10
160.0490035763539
 20
340.7919340098387
 30
0.0
 10
159.9487678662373
 20
340.7981575628688
 30
0.0
 10
159.8047881418651
 20
340.8461648116597
 30
0.0
 10
159.6734067386491
 20
340.9206961350023
 30
0.0
 10
159.55967536116
 20
341.020223113358
 30
0.0
 10
159.467417787441
 20
341.139852479405
 30
0.0
 10
159.399958298271
 20
341.2748648698993
 30
0.0
 10
159.3571492550508
 20
341.4201405073655
 30
0.0
 10
159.351721539204
 20
341.5203503402799
 30
0.0
 10
159.349012474
 20
341.5703667706
 30
0.0
 11
160.099012474
 21
340.7888289984
 31
0.0
 11
159.9500472343303
 21
340.80456010466
 31
0.0
 11
159.8068246052485
 21
340.8506183719302
 31
0.0
 11
159.6762901064507
 21
340.924901788192
 31
0.0
 11
159.5632506936851
 21
341.0235749963567
 31
0.0
 11
159.4715875483852
 21
341.1423556950954
 31
0.0
 11
159.4040893330998
 21
341.2765271616096
 31
0.0
 11
159.3628960049542
 21
341.4211583942384
 31
0.0
 11
159.349012474
 21
341.5703667706
 31
0.0
  0
SPLINE
  5
B3
330
1F
100
AcDbEntity
  8
0
  6
Continuous
 62
     7
100
AcDbSpline
210
0.0
220
0.0
230
1.0
 70
     8
 71
     3
 72
    15
 73
    11
 74
     9
 42
0.0000000001
 43
0.0000000001
 44
0.00000001
 40
0.0
 40
0.0
 40
0.0
 40
0.0
 40
0.1498537524276882
 40
0.3002377329290812
 40
0.4504313876857167
 40
0.6004684787456808
 40
0.7505157524147266
 40
0.9007061337507625
 40
1.051151518409293
 40
1.200944190603096
 40
1.200944190603096
 40
1.200944190603096
 40
1.200944190603096
 10
159.349012474
 20
252.7412611802
 30
0.0
 10
159.3517215700702
 20
252.7912778952698
 30
0.0
 10
159.3571493478149
 20
252.891488299733
 30
0.0
 10
159.3999588388028
 20
253.0367645873686
 30
0.0
 10
159.4674189444017
 20
253.1717773506115
 30
0.0
 10
159.5596770078537
 20
253.2914065703423
 30
0.0
 10
159.6734085862065
 20
253.3909331113592
 30
0.0
 10
159.8047896673758
 20
253.4654638071677
 30
0.0
 10
159.9487687620526
 20
253.5134705158472
 30
0.0
 10
160.0490038731637
 20
253.5196939834535
 30
0.0
 10
160.099012474
 20
253.5227989524
 30
0.0
 11
159.349012474
 21
252.7412611802
 31
0.0
 11
159.3628961623703
 21
252.890470396785
 31
0.0
 11
159.404089956487
 21
253.0351023881206
 31
0.0
 11
159.47158872466
 21
253.1692741072878
 31
0.0
 11
159.5632525316845
 21
253.2880548935098
 31
0.0
 11
159.676291931423
 21
253.3867274755287
 31
0.0
 11
159.8068262460373
 21
253.4610103359611
 31
0.0
 11
159.9500481046376
 21
253.5070680495838
 31
0.0
 11
160.099012474
 21
253.5227989524
 31
0.0
  0
SPLINE
  5
B4
330
1F
100
AcDbEntity
  8
0
  6
Continuous
 62
     7
100
AcDbSpline
210
0.0
220
0.0
230
1.0
 70
     8
 71
     3
 72
    15
 73
    11
 74
     9
 42
0.0000000001
 43
0.0000000001
 44
0.00000001
 40
0.0
 40
0.0
 40
0.0
 40
0.0
 40
0.1498536492819968
 40
0.300237526141551
 40
0.4504311696788144
 40
0.6004682481947399
 40
0.7505153759728369
 40
0.9007056144459151
 40
1.05115125965976
 40
1.200944189073829
 40
1.200944189073829
 40
1.200944189073829
 40
1.200944189073829
 10
163.174012474
 20
341.5703667706
 30
0.0
 10
163.1713033818753
 20
341.52035009003
 30
0.0
 10
163.1658756120379
 20
341.4201397547324
 30
0.0
 10
163.1230661719024
 20
341.2748635305914
 30
0.0
 10
163.0556061227646
 20
341.1398507868379
 30
0.0
 10
162.9633481295243
 20
341.0202215848698
 30
0.0
 10
162.8496166654248
 20
340.9206950691134
 30
0.0
 10
162.7182356370634
 20
340.8461643061349
 30
0.0
 10
162.5742564452366
 20
340.7981574713904
 30
0.0
 10
162.4740211608946
 20
340.7919339794595
 30
0.0
 10
162.424012474
 20
340.7888289984
 30
0.0
 11
163.174012474
 21
341.5703667706
 31
0.0
 11
163.1601288053908
 21
341.4211576557676
 31
0.0
 11
163.1189350683215
 21
341.2765257559474
 31
0.0
 11
163.0514363422938
 21
341.142354028137
 31
0.0
 11
162.9597725775303
 21
341.0235732251469
 31
0.0
 11
162.8467333248958
 21
340.9249006964559
 31
0.0
 11
162.7161991771781
 21
340.850617831593
 31
0.0
 11
162.5729770958656
 21
340.8045599594286
 31
0.0
 11
162.424012474
 21
340.7888289984
 31
0.0
  0
SPLINE
  5
B5
330
1F
100
AcDbEntity
  8
0
  6
Continuous
 62
     7
100
AcDbSpline
210
0.0
220
0.0
230
1.0
 70
     8
 71
     3
 72
    15
 73
    11
 74
     9
 42
0.0000000001
 43
0.0000000001
 44
0.00000001
 40
0.0
 40
0.0
 40
0.0
 40
0.0
 40
0.149793827748649
 40
0.3002403875115222
 40
0.4504310444874391
 40
0.600478577137417
 40
0.7505151709673498
 40
0.9007083294523173
 40
1.051091365223498
 40
1.200944179376215
 40
1.200944179376215
 40
1.200944179376215
 40
1.200944179376215
 10
162.424012474
 20
253.5227989524
 30
0.0
 10
162.4740214615426
 20
253.519693928314
 30
0.0
 10
162.574257352597
 20
253.5134703498873
 30
0.0
 10
162.7182371752358
 20
253.4654629705856
 30
0.0
 10
162.8496185178744
 20
253.3909315816505
 30
0.0
 10
162.9633497702004
 20
253.2914046389644
 30
0.0
 10
163.0556072679645
 20
253.171775302784
 30
0.0
 10
163.1230667039568
 20
253.0367629357892
 30
0.0
 10
163.1658757029542
 20
252.8914873559438
 30
0.0
 10
163.1713034121269
 20
252.7912775813924
 30
0.0
 10
163.174012474
 20
252.7412611802
 30
0.0
 11
162.424012474
 21
253.5227989524
 31
0.0
 11
162.5729779774401
 21
253.5070677853602
 31
0.0
 11
162.7162008391527
 21
253.4610093526107
 31
0.0
 11
162.8467351554349
 21
253.3867259378023
 31
0.0
 11
162.959774408892
 21
253.2880527943832
 31
0.0
 11
163.0514375073873
 21
253.1692720894589
 31
0.0
 11
163.1189356799115
 21
253.0351006261681
 31
0.0
 11
163.1601289597477
 21
252.8904694706583
 31
0.0
 11
163.174012474
 21
252.7412611802
 31
0.0
  0
SPLINE
  5
B6
330
1F
100
AcDbEntity
  8
0
  6
Continuous
 62
     7
100
AcDbSpline
210
0.0
220
0.0
230
1.0
 70
     8
 71
     3
 72
     9
 73
     5
 74
     3
 42
0.0000000001
 43
0.0000000001
 44
0.00000001
 40
0.0
 40
0.0
 40
0.0
 40
0.0
 40
1.366828047880784
 40
2.73365607339468
 40
2.73365607339468
 40
2.73365607339468
 40
2.73365607339468
 10
164.5018908598
 20
344.1551108452
 30
0.0
 10
164.2803344152166
 20
343.7569994737258
 30
0.0
 10
163.8372215296753
 20
342.960776737292
 30
0.0
 10
163.3950821580192
 20
342.1640130010576
 30
0.0
 10
163.174012474
 20
341.7656311362
 30
0.0
 11
164.5018908598
 21
344.1551108452
 31
0.0
 11
163.837464904525
 21
342.960641480825
 31
0.0
 11
163.174012474
 21
341.7656311362
 31
0.0
  0
SPLINE
  5
B7
330
1F
100
AcDbEntity
  8
0
  6
Continuous
 62
     7
100
AcDbSpline
210
0.0
220
0.0
230
1.0
 70
     8
 71
     3
 72
     9
 73
     5
 74
     3
 42
0.0000000001
 43
0.0000000001
 44
0.00000001
 40
0.0
 40
0.0
 40
0.0
 40
0.0
 40
1.366828025470198
 40
2.733656073307256
 40
2.733656073307256
 40
2.733656073307256
 40
2.733656073307256
 10
163.174012474
 20
252.5459968146
 30
0.0
 10
163.3950821580192
 20
252.147614949759
 30
0.0
 10
163.8372215296752
 20
251.3508512135579
 30
0.0
 10
164.2803344152165
 20
250.5546284771575
 30
0.0
 10
164.5018908598
 20
250.1565171057
 30
0.0
 11
163.174012474
 21
252.5459968146
 31
0.0
 11
163.837464904525
 21
251.350986470025
 31
0.0
 11
164.5018908598
 21
250.1565171057
 31
0.0
  0
SPLINE
  5
B8
330
1F
100
AcDbEntity
  8
0
  6
Continuous
 62
     7
100
AcDbSpline
210
0.0
220
0.0
230
1.0
 70
     8
 71
     3
 72
     9
 73
     5
 74
     3
 42
0.0000000001
 43
0.0000000001
 44
0.00000001
 40
0.0
 40
0.0
 40
0.0
 40
0.0
 40
1.366828047899021
 40
2.733656073394707
 40
2.733656073394707
 40
2.733656073394707
 40
2.733656073394707
 10
158.0211340882
 20
344.1551108452
 30
0.0
 10
158.2426905328007
 20
343.7569994737285
 30
0.0
 10
158.6858034183707
 20
342.9607767373107
 30
0.0
 10
159.1279427899981
 20
342.1640130010604
 30
0.0
 10
159.349012474
 20
341.7656311362
 30
0.0
 11
158.0211340882
 21
344.1551108452
 31
0.0
 11
158.6855600435125
 21
342.960641480825
 31
0.0
 11
159.349012474
 21
341.7656311362
 31
0.0
  0
SPLINE
  5
B9
330
1F
100
AcDbEntity
  8
0
  6
Continuous
 62
     7
100
AcDbSpline
210
0.0
220
0.0
230
1.0
 70
     8
 71
     3
 72
     9
 73
     5
 74
     3
 42
0.0000000001
 43
0.0000000001
 44
0.00000001
 40
0.0
 40
0.0
 40
0.0
 40
0.0
 40
1.366828025452015
 40
2.733656073307283
 40
2.733656073307283
 40
2.733656073307283
 40
2.733656073307283
 10
159.349012474
 20
252.5459968146
 30
0.0
 10
159.127942789998
 20
252.1476149497563
 30
0.0
 10
158.6858034183706
 20
251.3508512135393
 30
0.0
 10
158.2426905328007
 20
250.5546284771549
 30
0.0
 10
158.0211340882
 20
250.1565171057
 30
0.0
 11
159.349012474
 21
252.5459968146
 31
0.0
 11
158.6855600435125
 21
251.350986470025
 31
0.0
 11
158.0211340882
 21
250.1565171057
 31
0.0
  0
SPLINE
  5
BA
330
1F
100
AcDbEntity
  8
0
  6
Continuous
 62
     7
100
AcDbSpline
210
0.0
220
0.0
230
1.0
 70
     8
 71
     3
 72
    15
 73
    11
 74
     9
 42
0.0000000001
 43
0.0000000001
 44
0.00000001
 40
0.0
 40
0.0
 40
0.0
 40
0.0
 40
0.1994115198644045
 40
0.3995306095204633
 40
0.599395064476522
 40
0.7990503711683978
 40
0.9987117371834726
 40
1.198567718890128
 40
1.398751157623273
 40
1.598077977474428
 40
1.598077977474428
 40
1.598077977474428
 40
1.598077977474428
 10
153.286512474
 20
251.1943202415
 30
0.0
 10
153.2901306946584
 20
251.1277619467592
 30
0.0
 10
153.2973799744694
 20
250.9944091891827
 30
0.0
 10
153.3545765264151
 20
250.8011381898571
 30
0.0
 10
153.4447434832643
 20
250.6216630719037
 30
0.0
 10
153.5679758772794
 20
250.4628220736735
 30
0.0
 10
153.7197639932176
 20
250.3308955342741
 30
0.0
 10
153.894888124538
 20
250.2322660476802
 30
0.0
 10
154.0865922470646
 20
250.1688217820328
 30
0.0
 10
154.2199677250291
 20
250.160612797318
 30
0.0
 10
154.286512474
 20
250.1565171057
 30
0.0
 11
153.286512474
 21
251.1943202415
 31
0.0
 11
153.3050586817582
 21
250.9957730369555
 31
0.0
 11
153.360102093789
 21
250.8033727437209
 31
0.0
 11
153.4503040023996
 21
250.6250207994145
 31
0.0
 11
153.5727324940944
 21
250.4673074331085
 31
0.0
 11
153.7235752257513
 21
250.3364979098112
 31
0.0
 11
153.8975707743618
 21
250.2381721121399
 31
0.0
 11
154.0882707946042
 21
250.1772877017989
 31
0.0
 11
154.286512474
 21
250.1565171057
 31
0.0
  0
SPLINE
  5
BB
330
1F
100
AcDbEntity
  8
0
  6
Continuous
 62
     7
100
AcDbSpline
210
0.0
220
0.0
230
1.0
 70
     8
 71
     3
 72
    15
 73
    11
 74
     9
 42
0.0000000001
 43
0.0000000001
 44
0.00000001
 40
0.0
 40
0.0
 40
0.0
 40
0.0
 40
0.1994115817366668
 40
0.3995307346365141
 40
0.5993951286094621
 40
0.7990503740747064
 40
0.9987117984290449
 40
1.198567836650992
 40
1.398751217343341
 40
1.598077981801026
 40
1.598077981801026
 40
1.598077981801026
 40
1.598077981801026
 10
169.186512474
 20
343.1173077093
 30
0.0
 10
169.1828942494037
 20
343.1838660247307
 30
0.0
 10
169.175644961682
 20
343.3172188241448
 30
0.0
 10
169.1184483761076
 20
343.5104898370321
 30
0.0
 10
169.0282814176372
 20
343.6899649301873
 30
0.0
 10
168.9050490400982
 20
343.8488059128995
 30
0.0
 10
168.7532609138045
 20
343.9807324689151
 30
0.0
 10
168.5781367585545
 20
344.0793619563262
 30
0.0
 10
168.3864326444572
 20
344.1428061832855
 30
0.0
 10
168.2530572044395
 20
344.1510151583648
 30
0.0
 10
168.186512474
 20
344.1551108452
 30
0.0
 11
169.186512474
 21
343.1173077093
 31
0.0
 11
169.1679662489011
 21
343.3158549743663
 31
0.0
 11
169.1129227962658
 21
343.5082553217655
 31
0.0
 11
169.0227209024505
 21
343.6866072052159
 31
0.0
 11
168.9002924507394
 21
343.844320525051
 31
0.0
 11
168.7494496779024
 21
343.9751300899079
 31
0.0
 11
168.5754540732936
 21
344.0734559033579
 31
0.0
 11
168.3847540998214
 21
344.134340269357
 31
0.0
 11
168.186512474
 21
344.1551108452
 31
0.0
  0
SPLINE
  5
BC
330
1F
100
AcDbEntity
  8
0
  6
Continuous
 62
     7
100
AcDbSpline
210
0.0
220
0.0
230
1.0
 70
     8
 71
     3
 72
    15
 73
    11
 74
     9
 42
0.0000000001
 43
0.0000000001
 44
0.00000001
 40
0.0
 40
0.0
 40
0.0
 40
0.0
 40
0.1993272358061855
 40
0.3995110958002803
 40
0.599367392800596
 40
0.7990290697729786
 40
0.99868403887355
 40
1.1985481549698
 40
1.398666849487624
 40
1.598077976728598
 40
1.598077976728598
 40
1.598077976728598
 40
1.598077976728598
 10
168.186512474
 20
250.1565171057
 30
0.0
 10
168.2530573621885
 20
250.1606128146213
 30
0.0
 10
168.3864331203611
 20
250.1688218340894
 30
0.0
 10
168.5781375791171
 20
250.2322663480213
 30
0.0
 10
168.7532619205015
 20
250.3308961828748
 30
0.0
 10
168.905049941799
 20
250.4628229868762
 30
0.0
 10
169.0282820498589
 20
250.6216640452599
 30
0.0
 10
169.1184486713884
 20
250.8011389254535
 30
0.0
 10
169.1756450125476
 20
250.9944095841004
 30
0.0
 10
169.1828942663251
 20
251.1277620781183
 30
0.0
 10
169.186512474
 20
251.1943202415
 30
0.0
 11
168.186512474
 21
250.1565171057
 31
0.0
 11
168.3847545626041
 21
250.1772877879232
 31
0.0
 11
168.5754549459763
 21
250.2381724459565
 31
0.0
 11
168.7494506710443
 21
250.3364985722341
 31
0.0
 11
168.9002934669732
 21
250.4673084960463
 31
0.0
 11
169.0227215464914
 21
250.6250217549438
 31
0.0
 11
169.1129231328906
 21
250.8033734824768
 31
0.0
 11
169.1679663345398
 21
250.9957734249085
 31
0.0
 11
169.186512474
 21
251.1943202415
 31
0.0
  0
DIMENSION
  5
C9
330
1F
100
AcDbEntity
  8
1
100
AcDbDimension
  2
*D2
 10
224.210057519546
 20
301.1558139754
 30
0.0
 11
220.460057519546
 21
297.446799543981
 31
0.0
 70
    32
  1
<>
 71
     5
 42
-1.0
 53
90.0
  3
ME10_DIM_10
100
AcDbAlignedDimension
 13
213.086512474
 23
293.1558139754
 33
0.0
 14
213.086512474
 24
301.1558139754
 34
0.0
 50
90.0
100
AcDbRotatedDimension
  0
DIMENSION
  5
D4
330
1F
100
AcDbEntity
  8
1
100
AcDbDimension
  2
*D3
 10
233.575536663963
 20
311.1558139754
 30
0.0
 11
229.825536663963
 21
297.215553145353
 31
0.0
 70
    32
  1
<>
 71
     5
 42
-1.0
 53
90.0
  3
ME10_DIM_11
100
AcDbAlignedDimension
 13
201.8185632816
 23
283.1558139754
 33
0.0
 14
201.8185632816
 24
311.1558139754
 34
0.0
 50
90.0
100
AcDbRotatedDimension
  0
DIMENSION
  5
DF
330
1F
100
AcDbEntity
  8
1
100
AcDbDimension
  2
*D4
 10
169.186512474
 20
348.917718267622
 30
0.0
 11
190.723763001446
 21
352.667718267622
 31
0.0
 70
    32
  1
<>
 71
     5
 42
-1.0
 53
0.00013888888889
  3
ME10_DIM_12
100
AcDbAlignedDimension
 13
213.086512474
 23
304.2276107451
 33
0.0
 14
169.186512474
 24
343.1173077093
 34
0.0
100
AcDbRotatedDimension
  0
DIMENSION
  5
EA
330
1F
100
AcDbEntity
  8
1
100
AcDbDimension
  2
*D5
 10
213.086512474
 20
356.390585503496
 30
0.0
 11
183.483110740766
 21
360.140585503496
 31
0.0
 70
    32
  1
<>
 71
     5
 42
-1.0
 53
0.00013888888889
  3
ME10_DIM_13
100
AcDbAlignedDimension
 13
150.086512474
 23
339.2933139754
 33
0.0
 14
213.086512474
 24
304.2276107451
 34
0.0
100
AcDbRotatedDimension
  0
DIMENSION
  5
F5
330
1F
100
AcDbEntity
  8
1
100
AcDbDimension
  2
*D6
 10
213.086512474
 20
363.605767662271
 30
0.0
 11
144.2523075149117
 21
367.355767662271
 31
0.0
 70
    32
  1
<>
 71
     5
 42
-1.0
 53
0.00013888888889
  3
ME10_DIM_14
100
AcDbAlignedDimension
 13
48.33651247400001
 23
315.3172609766
 33
0.0
 14
213.086512474
 24
304.2276107451
 34
0.0
100
AcDbRotatedDimension
  0
INSERT
  5
FC
330
1F
100
AcDbEntity
  8
1
100
AcDbBlockReference
  2
*D7
 10
0.0
 20
0.0
 30
0.0
  0
ENDSEC
  0
SECTION
  2
OBJECTS
  0
DICTIONARY
  5
C
330
0
100
AcDbDictionary
281
     1
  3
ACAD_GROUP
350
D
  3
ACAD_LAYOUT
350
1A
  3
ACAD_MLEADERSTYLE
350
FF
  3
ACAD_MLINESTYLE
350
17
  3
ACAD_PLOTSETTINGS
350
19
  3
ACAD_PLOTSTYLENAME
350
E
  3
ACAD_SCALELIST
350
4A
  3
ACAD_VISUALSTYLE
350
2A
  3
AcDbVariableDictionary
350
FD
  0
DICTIONARY
  5
D
102
{ACAD_REACTORS
330
C
102
}
330
C
100
AcDbDictionary
281
     1
  0
DICTIONARY
  5
1A
102
{ACAD_REACTORS
330
C
102
}
330
C
100
AcDbDictionary
281
     1
  3
Layout1
350
1E
  3
Layout2
350
26
  3
Model
350
22
  0
DICTIONARY
  5
FF
102
{ACAD_REACTORS
330
C
102
}
330
C
100
AcDbDictionary
281
     1
  0
DICTIONARY
  5
17
102
{ACAD_REACTORS
330
C
102
}
330
C
100
AcDbDictionary
281
     1
  3
Standard
350
18
  0
DICTIONARY
  5
19
102
{ACAD_REACTORS
330
C
102
}
330
C
100
AcDbDictionary
281
     1
  0
ACDBDICTIONARYWDFLT
  5
E
102
{ACAD_REACTORS
330
C
102
}
330
C
100
AcDbDictionary
281
     1
  3
Normal
350
F
100
AcDbDictionaryWithDefault
340
F
  0
DICTIONARY
  5
4A
102
{ACAD_REACTORS
330
C
102
}
330
C
100
AcDbDictionary
281
     1
  3
A0
350
4B
  3
A1
350
4C
  3
A2
350
4D
  3
A3
350
4E
  3
A4
350
4F
  3
A5
350
50
  3
A6
350
51
  3
A7
350
52
  3
A8
350
53
  3
A9
350
54
  3
B0
350
55
  3
B1
350
56
  3
B2
350
57
  3
B3
350
58
  3
B4
350
59
  3
B5
350
5A
  3
B6
350
5B
  3
B7
350
5C
  3
B8
350
5D
  3
B9
350
5E
  3
C0
350
5F
  3
C1
350
60
  3
C2
350
61
  3
C3
350
62
  3
C4
350
63
  3
C5
350
64
  3
C6
350
65
  3
C7
350
66
  3
C8
350
67
  3
C9
350
68
  3
D0
350
69
  3
D1
350
6A
  3
D2
350
6B
  0
DICTIONARY
  5
2A
102
{ACAD_REACTORS
330
C
102
}
330
C
100
AcDbDictionary
281
     1
  3
2dWireframe
350
2F
  3
3D Hidden
350
31
  3
3dWireframe
350
30
  3
Basic
350
32
  3
Brighten
350
36
  3
ColorChange
350
3A
  3
Conceptual
350
34
  3
Dim
350
35
  3
Facepattern
350
39
  3
Flat
350
2B
  3
FlatWithEdges
350
2C
  3
Gouraud
350
2D
  3
GouraudWithEdges
350
2E
  3
Linepattern
350
38
  3
Realistic
350
33
  3
Thicken
350
37
  0
DICTIONARY
  5
FD
102
{ACAD_REACTORS
330
C
102
}
330
C
100
AcDbDictionary
281
     1
  3
CANNOSCALE
350
100
  0
LAYOUT
  5
1E
102
{ACAD_REACTORS
330
1A
102
}
330
1A
100
AcDbPlotSettings
  1

  2
none_device
  4

  6

 40
0.0
 41
0.0
 42
0.0
 43
0.0
 44
0.0
 45
0.0
 46
0.0
 47
0.0
 48
0.0
 49
0.0
140
0.0
141
0.0
142
1.0
143
1.0
 70
   688
 72
     0
 73
     0
 74
     5
  7

 75
    16
147
1.0
148
0.0
149
0.0
100
AcDbLayout
  1
Layout1
 70
     1
 71
     1
 10
0.0
 20
0.0
 11
12.0
 21
9.0
 12
0.0
 22
0.0
 32
0.0
 14
1.00000000000000E+20
 24
1.00000000000000E+20
 34
1.00000000000000E+20
 15
-1.00000000000000E+20
 25
-1.00000000000000E+20
 35
-1.00000000000000E+20
146
0.0
 13
0.0
 23
0.0
 33
0.0
 16
1.0
 26
0.0
 36
0.0
 17
0.0
 27
1.0
 37
0.0
 76
     0
330
1B
  0
LAYOUT
  5
26
102
{ACAD_REACTORS
330
1A
102
}
330
1A
100
AcDbPlotSettings
  1

  2
none_device
  4

  6

 40
0.0
 41
0.0
 42
0.0
 43
0.0
 44
0.0
 45
0.0
 46
0.0
 47
0.0
 48
0.0
 49
0.0
140
0.0
141
0.0
142
1.0
143
1.0
 70
   688
 72
     0
 73
     0
 74
     5
  7

 75
    16
147
1.0
148
0.0
149
0.0
100
AcDbLayout
  1
Layout2
 70
     1
 71
     2
 10
0.0
 20
0.0
 11
0.0
 21
0.0
 12
0.0
 22
0.0
 32
0.0
 14
0.0
 24
0.0
 34
0.0
 15
0.0
 25
0.0
 35
0.0
146
0.0
 13
0.0
 23
0.0
 33
0.0
 16
1.0
 26
0.0
 36
0.0
 17
0.0
 27
1.0
 37
0.0
 76
     0
330
23
  0
LAYOUT
  5
22
102
{ACAD_REACTORS
330
1A
102
}
330
1A
100
AcDbPlotSettings
  1

  2
none_device
  4

  6

 40
0.0
 41
0.0
 42
0.0
 43
0.0
 44
0.0
 45
0.0
 46
0.0
 47
0.0
 48
0.0
 49
0.0
140
0.0
141
0.0
142
1.0
143
1.0
 70
  1712
 72
     0
 73
     0
 74
     0
  7

 75
     0
147
1.0
148
0.0
149
0.0
100
AcDbLayout
  1
Model
 70
     1
 71
     0
 10
0.0
 20
0.0
 11
12.0
 21
9.0
 12
0.0
 22
0.0
 32
0.0
 14
27.8780134359759
 24
250.1428488264679
 34
0.0
 15
235.575536663963
 25
369.105767662271
 35
0.0
146
0.0
 13
0.0
 23
0.0
 33
0.0
 16
1.0
 26
0.0
 36
0.0
 17
0.0
 27
1.0
 37
0.0
 76
     0
330
1F
331
29
  0
MLINESTYLE
  5
18
102
{ACAD_REACTORS
330
17
102
}
330
17
100
AcDbMlineStyle
  2
Standard
 70
     0
  3

 62
   256
 51
90.0
 52
90.0
 71
     2
 49
0.5
 62
   256
  6
BYLAYER
 49
-0.5
 62
   256
  6
BYLAYER
  0
ACDBPLACEHOLDER
  5
F
102
{ACAD_REACTORS
330
E
102
}
330
E
  0
SCALE
  5
4B
102
{ACAD_REACTORS
330
4A
102
}
330
4A
100
AcDbScale
 70
     0
300
1:1
140
1.0
141
1.0
290
     1
  0
SCALE
  5
4C
102
{ACAD_REACTORS
330
4A
102
}
330
4A
100
AcDbScale
 70
     0
300
1:2
140
1.0
141
2.0
290
     0
  0
SCALE
  5
4D
102
{ACAD_REACTORS
330
4A
102
}
330
4A
100
AcDbScale
 70
     0
300
1:4
140
1.0
141
4.0
290
     0
  0
SCALE
  5
4E
102
{ACAD_REACTORS
330
4A
102
}
330
4A
100
AcDbScale
 70
     0
300
1:5
140
1.0
141
5.0
290
     0
  0
SCALE
  5
4F
102
{ACAD_REACTORS
330
4A
102
}
330
4A
100
AcDbScale
 70
     0
300
1:8
140
1.0
141
8.0
290
     0
  0
SCALE
  5
50
102
{ACAD_REACTORS
330
4A
102
}
330
4A
100
AcDbScale
 70
     0
300
1:10
140
1.0
141
10.0
290
     0
  0
SCALE
  5
51
102
{ACAD_REACTORS
330
4A
102
}
330
4A
100
AcDbScale
 70
     0
300
1:16
140
1.0
141
16.0
290
     0
  0
SCALE
  5
52
102
{ACAD_REACTORS
330
4A
102
}
330
4A
100
AcDbScale
 70
     0
300
1:20
140
1.0
141
20.0
290
     0
  0
SCALE
  5
53
102
{ACAD_REACTORS
330
4A
102
}
330
4A
100
AcDbScale
 70
     0
300
1:30
140
1.0
141
30.0
290
     0
  0
SCALE
  5
54
102
{ACAD_REACTORS
330
4A
102
}
330
4A
100
AcDbScale
 70
     0
300
1:40
140
1.0
141
40.0
290
     0
  0
SCALE
  5
55
102
{ACAD_REACTORS
330
4A
102
}
330
4A
100
AcDbScale
 70
     0
300
1:50
140
1.0
141
50.0
290
     0
  0
SCALE
  5
56
102
{ACAD_REACTORS
330
4A
102
}
330
4A
100
AcDbScale
 70
     0
300
1:100
140
1.0
141
100.0
290
     0
  0
SCALE
  5
57
102
{ACAD_REACTORS
330
4A
102
}
330
4A
100
AcDbScale
 70
     0
300
2:1
140
2.0
141
1.0
290
     0
  0
SCALE
  5
58
102
{ACAD_REACTORS
330
4A
102
}
330
4A
100
AcDbScale
 70
     0
300
4:1
140
4.0
141
1.0
290
     0
  0
SCALE
  5
59
102
{ACAD_REACTORS
330
4A
102
}
330
4A
100
AcDbScale
 70
     0
300
8:1
140
8.0
141
1.0
290
     0
  0
SCALE
  5
5A
102
{ACAD_REACTORS
330
4A
102
}
330
4A
100
AcDbScale
 70
     0
300
10:1
140
10.0
141
1.0
290
     0
  0
SCALE
  5
5B
102
{ACAD_REACTORS
330
4A
102
}
330
4A
100
AcDbScale
 70
     0
300
100:1
140
100.0
141
1.0
290
     0
  0
SCALE
  5
5C
102
{ACAD_REACTORS
330
4A
102
}
330
4A
100
AcDbScale
 70
     0
300
1/128" = 1'-0"
140
0.0078125
141
12.0
290
     0
  0
SCALE
  5
5D
102
{ACAD_REACTORS
330
4A
102
}
330
4A
100
AcDbScale
 70
     0
300
1/64" = 1'-0"
140
0.015625
141
12.0
290
     0
  0
SCALE
  5
5E
102
{ACAD_REACTORS
330
4A
102
}
330
4A
100
AcDbScale
 70
     0
300
1/32" = 1'-0"
140
0.03125
141
12.0
290
     0
  0
SCALE
  5
5F
102
{ACAD_REACTORS
330
4A
102
}
330
4A
100
AcDbScale
 70
     0
300
1/16" = 1'-0"
140
0.0625
141
12.0
290
     0
  0
SCALE
  5
60
102
{ACAD_REACTORS
330
4A
102
}
330
4A
100
AcDbScale
 70
     0
300
3/32" = 1'-0"
140
0.09375
141
12.0
290
     0
  0
SCALE
  5
61
102
{ACAD_REACTORS
330
4A
102
}
330
4A
100
AcDbScale
 70
     0
300
1/8" = 1'-0"
140
0.125
141
12.0
290
     0
  0
SCALE
  5
62
102
{ACAD_REACTORS
330
4A
102
}
330
4A
100
AcDbScale
 70
     0
300
3/16" = 1'-0"
140
0.1875
141
12.0
290
     0
  0
SCALE
  5
63
102
{ACAD_REACTORS
330
4A
102
}
330
4A
100
AcDbScale
 70
     0
300
1/4" = 1'-0"
140
0.25
141
12.0
290
     0
  0
SCALE
  5
64
102
{ACAD_REACTORS
330
4A
102
}
330
4A
100
AcDbScale
 70
     0
300
3/8" = 1'-0"
140
0.375
141
12.0
290
     0
  0
SCALE
  5
65
102
{ACAD_REACTORS
330
4A
102
}
330
4A
100
AcDbScale
 70
     0
300
1/2" = 1'-0"
140
0.5
141
12.0
290
     0
  0
SCALE
  5
66
102
{ACAD_REACTORS
330
4A
102
}
330
4A
100
AcDbScale
 70
     0
300
3/4" = 1'-0"
140
0.75
141
12.0
290
     0
  0
SCALE
  5
67
102
{ACAD_REACTORS
330
4A
102
}
330
4A
100
AcDbScale
 70
     0
300
1" = 1'-0"
140
1.0
141
12.0
290
     0
  0
SCALE
  5
68
102
{ACAD_REACTORS
330
4A
102
}
330
4A
100
AcDbScale
 70
     0
300
1-1/2" = 1'-0"
140
1.5
141
12.0
290
     0
  0
SCALE
  5
69
102
{ACAD_REACTORS
330
4A
102
}
330
4A
100
AcDbScale
 70
     0
300
3" = 1'-0"
140
3.0
141
12.0
290
     0
  0
SCALE
  5
6A
102
{ACAD_REACTORS
330
4A
102
}
330
4A
100
AcDbScale
 70
     0
300
6" = 1'-0"
140
6.0
141
12.0
290
     0
  0
SCALE
  5
6B
102
{ACAD_REACTORS
330
4A
102
}
330
4A
100
AcDbScale
 70
     0
300
1'-0" = 1'-0"
140
12.0
141
12.0
290
     0
  0
VISUALSTYLE
  5
2F
102
{ACAD_REACTORS
330
2A
102
}
330
2A
100
AcDbVisualStyle
  2
2dWireframe
 70
     4
 71
     0
 72
     2
 73
     0
 90
        0
 40
-0.6
 41
-30.0
 62
     5
 63
     7
 74
     1
 91
        4
 64
     7
 65
   257
 75
     1
175
     1
 42
1.0
 92
        0
 66
   257
 43
1.0
 76
     1
 77
     6
 78
     2
 67
     7
 79
     5
170
     0
171
     0
290
     0
174
     0
 93
        1
 44
0.0
173
     0
291
     0
 45
0.0
1001
ACAD
1000
AcDbSavedByObjectVersion
1070
     0
  0
VISUALSTYLE
  5
31
102
{ACAD_REACTORS
330
2A
102
}
330
2A
100
AcDbVisualStyle
  2
3D Hidden
 70
     6
 71
     1
 72
     2
 73
     2
 90
        0
 40
-0.6
 41
-30.0
 62
     5
 63
     7
 74
     2
 91
        2
 64
     7
 65
   257
 75
     2
175
     1
 42
40.0
 92
        0
 66
   257
 43
1.0
 76
     1
 77
     6
 78
     2
 67
     7
 79
     3
170
     0
171
     0
290
     0
174
     0
 93
        1
 44
0.0
173
     0
291
     0
 45
0.0
1001
ACAD
1000
AcDbSavedByObjectVersion
1070
     0
  0
VISUALSTYLE
  5
30
102
{ACAD_REACTORS
330
2A
102
}
330
2A
100
AcDbVisualStyle
  2
3dWireframe
 70
     5
 71
     0
 72
     2
 73
     0
 90
        0
 40
-0.6
 41
-30.0
 62
     5
 63
     7
 74
     1
 91
        4
 64
     7
 65
   257
 75
     1
175
     1
 42
1.0
 92
        0
 66
   257
 43
1.0
 76
     1
 77
     6
 78
     2
 67
     7
 79
     5
170
     0
171
     0
290
     0
174
     0
 93
        1
 44
0.0
173
     0
291
     0
 45
0.0
1001
ACAD
1000
AcDbSavedByObjectVersion
1070
     0
  0
VISUALSTYLE
  5
32
102
{ACAD_REACTORS
330
2A
102
}
330
2A
100
AcDbVisualStyle
  2
Basic
 70
     7
 71
     1
 72
     0
 73
     1
 90
        0
 40
-0.6
 41
-30.0
 62
     5
 63
     7
 74
     0
 91
        4
 64
     7
 65
   257
 75
     1
175
     1
 42
1.0
 92
        8
 66
     7
 43
1.0
 76
     1
 77
     6
 78
     2
 67
     7
 79
     5
170
     0
171
     0
290
     0
174
     0
 93
        1
 44
0.0
173
     0
291
     1
 45
0.0
1001
ACAD
1000
AcDbSavedByObjectVersion
1070
     0
  0
VISUALSTYLE
  5
36
102
{ACAD_REACTORS
330
2A
102
}
330
2A
100
AcDbVisualStyle
  2
Brighten
 70
    12
 71
     2
 72
     2
 73
     0
 90
        0
 40
-0.6
 41
-30.0
 62
     5
 63
     7
 74
     1
 91
        4
 64
     7
 65
   257
 75
     1
175
     1
 42
1.0
 92
        8
 66
     7
 43
1.0
 76
     1
 77
     6
 78
     2
 67
     7
 79
     5
170
     0
171
     0
290
     0
174
     0
 93
        1
 44
50.0
173
     0
291
     1
 45
0.0
1001
ACAD
1000
AcDbSavedByObjectVersion
1070
     0
  0
VISUALSTYLE
  5
3A
102
{ACAD_REACTORS
330
2A
102
}
330
2A
100
AcDbVisualStyle
  2
ColorChange
 70
    16
 71
     2
 72
     2
 73
     3
 90
        0
 40
-0.6
 41
-30.0
 62
     5
 63
     8
 74
     1
 91
        4
 64
     7
 65
   257
 75
     1
175
     1
 42
1.0
 92
        8
 66
     8
 43
1.0
 76
     1
 77
     6
 78
     2
 67
     7
 79
     5
170
     0
171
     0
290
     0
174
     0
 93
        1
 44
0.0
173
     0
291
     1
 45
0.0
1001
ACAD
1000
AcDbSavedByObjectVersion
1070
     0
  0
VISUALSTYLE
  5
34
102
{ACAD_REACTORS
330
2A
102
}
330
2A
100
AcDbVisualStyle
  2
Conceptual
 70
     9
 71
     3
 72
     2
 73
     0
 90
        0
 40
-0.6
 41
-30.0
 62
     5
 63
     7
 74
     2
 91
        2
 64
     7
 65
   257
 75
     1
175
     1
 42
40.0
 92
        8
 66
     7
 43
1.0
 76
     1
 77
     6
 78
     2
 67
     7
 79
     3
170
     0
171
     0
290
     0
174
     0
 93
        1
 44
0.0
173
     0
291
     0
 45
0.0
1001
ACAD
1000
AcDbSavedByObjectVersion
1070
     0
  0
VISUALSTYLE
  5
35
102
{ACAD_REACTORS
330
2A
102
}
330
2A
100
AcDbVisualStyle
  2
Dim
 70
    11
 71
     2
 72
     2
 73
     0
 90
        0
 40
-0.6
 41
-30.0
 62
     5
 63
     7
 74
     1
 91
        4
 64
     7
 65
   257
 75
     1
175
     1
 42
1.0
 92
        8
 66
     7
 43
1.0
 76
     1
 77
     6
 78
     2
 67
     7
 79
     5
170
     0
171
     0
290
     0
174
     0
 93
        1
 44
-50.0
173
     0
291
     1
 45
0.0
1001
ACAD
1000
AcDbSavedByObjectVersion
1070
     0
  0
VISUALSTYLE
  5
39
102
{ACAD_REACTORS
330
2A
102
}
330
2A
100
AcDbVisualStyle
  2
Facepattern
 70
    15
 71
     2
 72
     2
 73
     0
 90
        0
 40
-0.6
 41
-30.0
 62
     5
 63
     7
 74
     1
 91
        4
 64
     7
 65
   257
 75
     1
175
     1
 42
1.0
 92
        8
 66
     7
 43
1.0
 76
     1
 77
     6
 78
     2
 67
     7
 79
     5
170
     0
171
     0
290
     0
174
     0
 93
        1
 44
0.0
173
     0
291
     1
 45
0.0
1001
ACAD
1000
AcDbSavedByObjectVersion
1070
     0
  0
VISUALSTYLE
  5
2B
102
{ACAD_REACTORS
330
2A
102
}
330
2A
100
AcDbVisualStyle
  2
Flat
 70
     0
 71
     2
 72
     1
 73
     1
 90
        2
 40
-0.6
 41
30.0
 62
     5
 63
     7
 74
     0
 91
        4
 64
     7
 65
   257
 75
     1
175
     1
 42
1.0
 92
        8
 66
     7
 43
1.0
 76
     1
 77
     6
 78
     2
 67
     7
 79
     5
170
     0
171
     0
290
     0
174
     0
 93
       13
 44
0.0
173
     0
291
     1
 45
0.0
1001
ACAD
1000
AcDbSavedByObjectVersion
1070
     0
  0
VISUALSTYLE
  5
2C
102
{ACAD_REACTORS
330
2A
102
}
330
2A
100
AcDbVisualStyle
  2
FlatWithEdges
 70
     1
 71
     2
 72
     1
 73
     1
 90
        2
 40
-0.6
 41
30.0
 62
     5
 63
     7
 74
     1
 91
        4
 64
     7
 65
   257
 75
     1
175
     1
 42
1.0
 92
        0
 66
   257
 43
1.0
 76
     1
 77
     6
 78
     2
 67
     7
 79
     5
170
     0
171
     0
290
     0
174
     0
 93
       13
 44
0.0
173
     0
291
     1
 45
0.0
1001
ACAD
1000
AcDbSavedByObjectVersion
1070
     0
  0
VISUALSTYLE
  5
2D
102
{ACAD_REACTORS
330
2A
102
}
330
2A
100
AcDbVisualStyle
  2
Gouraud
 70
     2
 71
     2
 72
     2
 73
     1
 90
        2
 40
-0.6
 41
30.0
 62
     5
 63
     7
 74
     0
 91
        4
 64
     7
 65
   257
 75
     1
175
     1
 42
1.0
 92
        0
 66
     7
 43
1.0
 76
     1
 77
     6
 78
     2
 67
     7
 79
     5
170
     0
171
     0
290
     0
174
     0
 93
       13
 44
0.0
173
     0
291
     1
 45
0.0
1001
ACAD
1000
AcDbSavedByObjectVersion
1070
     0
  0
VISUALSTYLE
  5
2E
102
{ACAD_REACTORS
330
2A
102
}
330
2A
100
AcDbVisualStyle
  2
GouraudWithEdges
 70
     3
 71
     2
 72
     2
 73
     1
 90
        2
 40
-0.6
 41
30.0
 62
     5
 63
     7
 74
     1
 91
        4
 64
     7
 65
   257
 75
     1
175
     1
 42
1.0
 92
        0
 66
   257
 43
1.0
 76
     1
 77
     6
 78
     2
 67
     7
 79
     5
170
     0
171
     0
290
     0
174
     0
 93
       13
 44
0.0
173
     0
291
     1
 45
0.0
1001
ACAD
1000
AcDbSavedByObjectVersion
1070
     0
  0
VISUALSTYLE
  5
38
102
{ACAD_REACTORS
330
2A
102
}
330
2A
100
AcDbVisualStyle
  2
Linepattern
 70
    14
 71
     2
 72
     2
 73
     0
 90
        0
 40
-0.6
 41
-30.0
 62
     5
 63
     7
 74
     1
 91
        4
 64
     7
 65
   257
 75
     7
175
     7
 42
1.0
 92
        8
 66
     7
 43
1.0
 76
     1
 77
     6
 78
     2
 67
     7
 79
     5
170
     0
171
     0
290
     0
174
     0
 93
        1
 44
0.0
173
     0
291
     1
 45
0.0
1001
ACAD
1000
AcDbSavedByObjectVersion
1070
     0
  0
VISUALSTYLE
  5
33
102
{ACAD_REACTORS
330
2A
102
}
330
2A
100
AcDbVisualStyle
  2
Realistic
 70
     8
 71
     2
 72
     2
 73
     0
 90
        0
 40
-0.6
 41
-30.0
 62
     5
 63
     7
 74
     1
 91
        0
 64
     7
 65
   257
 75
     1
175
     1
 42
1.0
 92
        8
 66
     8
 43
1.0
 76
     1
 77
     6
 78
     2
 67
     7
 79
     5
170
     0
171
     0
290
     0
174
     0
 93
       13
 44
0.0
173
     0
291
     0
 45
0.0
1001
ACAD
1000
AcDbSavedByObjectVersion
1070
     0
  0
VISUALSTYLE
  5
37
102
{ACAD_REACTORS
330
2A
102
}
330
2A
100
AcDbVisualStyle
  2
Thicken
 70
    13
 71
     2
 72
     2
 73
     0
 90
        0
 40
-0.6
 41
-30.0
 62
     5
 63
     7
 74
     1
 91
        4
 64
     7
 65
   257
 75
     1
175
     1
 42
1.0
 92
       12
 66
     7
 43
1.0
 76
     1
 77
     6
 78
     2
 67
     7
 79
     5
170
     0
171
     0
290
     0
174
     0
 93
        1
 44
0.0
173
     0
291
     1
 45
0.0
1001
ACAD
1000
AcDbSavedByObjectVersion
1070
     0
  0
DICTIONARYVAR
  5
100
102
{ACAD_REACTORS
330
FD
102
}
330
FD
100
DictionaryVariables
280
     0
  1
1:1
  0
ENDSEC
  0
EOF
