  0
SECTION
  2
HEADER
  9
$ACADVER
  1
AC1015
  9
$ACADMAINTVER
 70
     6
  9
$DWGCODEPAGE
  3
ANSI_1252
  9
$INSBASE
 10
0.0
 20
0.0
 30
0.0
  9
$EXTMIN
 10
47.14831370450003
 20
238.4233816391627
 30
0.0
  9
$EXTMAX
 10
241.240167969341
 20
353.449871364514
 30
0.0
  9
$LIMMIN
 10
0.0
 20
0.0
  9
$LIMMAX
 10
12.0
 20
9.0
  9
$ORTHOMODE
 70
     0
  9
$REGENMODE
 70
     1
  9
$FILLMODE
 70
     1
  9
$QTEXTMODE
 70
     0
  9
$MIRRTEXT
 70
     1
  9
$LTSCALE
 40
1.0
  9
$ATTMODE
 70
     1
  9
$TEXTSIZE
 40
0.2
  9
$TRACEWID
 40
0.05
  9
$TEXTSTYLE
  7
Standard
  9
$CLAYER
  8
0
  9
$CELTYPE
  6
ByLayer
  9
$CECOLOR
 62
   256
  9
$CELTSCALE
 40
1.0
  9
$DISPSILH
 70
     0
  9
$DIMSCALE
 40
1.0
  9
$DIMASZ
 40
0.18
  9
$DIMEXO
 40
0.0625
  9
$DIMDLI
 40
0.38
  9
$DIMRND
 40
0.0
  9
$DIMDLE
 40
0.0
  9
$DIMEXE
 40
0.18
  9
$DIMTP
 40
0.0
  9
$DIMTM
 40
0.0
  9
$DIMTXT
 40
0.18
  9
$DIMCEN
 40
0.09
  9
$DIMTSZ
 40
0.0
  9
$DIMTOL
 70
     0
  9
$DIMLIM
 70
     0
  9
$DIMTIH
 70
     1
  9
$DIMTOH
 70
     1
  9
$DIMSE1
 70
     0
  9
$DIMSE2
 70
     0
  9
$DIMTAD
 70
     0
  9
$DIMZIN
 70
     0
  9
$DIMBLK
  1

  9
$DIMASO
 70
     1
  9
$DIMSHO
 70
     1
  9
$DIMPOST
  1

  9
$DIMAPOST
  1

  9
$DIMALT
 70
     0
  9
$DIMALTD
 70
     2
  9
$DIMALTF
 40
25.4
  9
$DIMLFAC
 40
1.0
  9
$DIMTOFL
 70
     0
  9
$DIMTVP
 40
0.0
  9
$DIMTIX
 70
     0
  9
$DIMSOXD
 70
     0
  9
$DIMSAH
 70
     0
  9
$DIMBLK1
  1

  9
$DIMBLK2
  1

  9
$DIMSTYLE
  2
Standard
  9
$DIMCLRD
 70
     0
  9
$DIMCLRE
 70
     0
  9
$DIMCLRT
 70
     0
  9
$DIMTFAC
 40
1.0
  9
$DIMGAP
 40
0.09
  9
$DIMJUST
 70
     0
  9
$DIMSD1
 70
     0
  9
$DIMSD2
 70
     0
  9
$DIMTOLJ
 70
     1
  9
$DIMTZIN
 70
     0
  9
$DIMALTZ
 70
     0
  9
$DIMALTTZ
 70
     0
  9
$DIMUPT
 70
     0
  9
$DIMDEC
 70
     4
  9
$DIMTDEC
 70
     4
  9
$DIMALTU
 70
     2
  9
$DIMALTTD
 70
     2
  9
$DIMTXSTY
  7
Standard
  9
$DIMAUNIT
 70
     0
  9
$DIMADEC
 70
     0
  9
$DIMALTRND
 40
0.0
  9
$DIMAZIN
 70
     0
  9
$DIMDSEP
 70
    46
  9
$DIMATFIT
 70
     3
  9
$DIMFRAC
 70
     0
  9
$DIMLDRBLK
  1

  9
$DIMLUNIT
 70
     2
  9
$DIMLWD
 70
    -2
  9
$DIMLWE
 70
    -2
  9
$DIMTMOVE
 70
     0
  9
$LUNITS
 70
     2
  9
$LUPREC
 70
     4
  9
$SKETCHINC
 40
0.1
  9
$FILLETRAD
 40
0.5
  9
$AUNITS
 70
     0
  9
$AUPREC
 70
     0
  9
$MENU
  1
.
  9
$ELEVATION
 40
0.0
  9
$PELEVATION
 40
0.0
  9
$THICKNESS
 40
0.0
  9
$LIMCHECK
 70
     0
  9
$CHAMFERA
 40
0.5
  9
$CHAMFERB
 40
0.5
  9
$CHAMFERC
 40
1.0
  9
$CHAMFERD
 40
0.0
  9
$SKPOLY
 70
     0
  9
$TDCREATE
 40
2456821.357079051
  9
$TDUCREATE
 40
2456821.273745717
  9
$TDUPDATE
 40
2456821.357079063
  9
$TDUUPDATE
 40
2456821.273745729
  9
$TDINDWG
 40
0.0000000116
  9
$TDUSRTIMER
 40
0.0000000116
  9
$USRTIMER
 70
     1
  9
$ANGBASE
 50
0.0
  9
$ANGDIR
 70
     0
  9
$PDMODE
 70
     0
  9
$PDSIZE
 40
0.0
  9
$PLINEWID
 40
0.0
  9
$SPLFRAME
 70
     0
  9
$SPLINETYPE
 70
     6
  9
$SPLINESEGS
 70
     8
  9
$HANDSEED
  5
114
  9
$SURFTAB1
 70
     6
  9
$SURFTAB2
 70
     6
  9
$SURFTYPE
 70
     6
  9
$SURFU
 70
     6
  9
$SURFV
 70
     6
  9
$UCSBASE
  2

  9
$UCSNAME
  2

  9
$UCSORG
 10
0.0
 20
0.0
 30
0.0
  9
$UCSXDIR
 10
1.0
 20
0.0
 30
0.0
  9
$UCSYDIR
 10
0.0
 20
1.0
 30
0.0
  9
$UCSORTHOREF
  2

  9
$UCSORTHOVIEW
 70
     0
  9
$UCSORGTOP
 10
0.0
 20
0.0
 30
0.0
  9
$UCSORGBOTTOM
 10
0.0
 20
0.0
 30
0.0
  9
$UCSORGLEFT
 10
0.0
 20
0.0
 30
0.0
  9
$UCSORGRIGHT
 10
0.0
 20
0.0
 30
0.0
  9
$UCSORGFRONT
 10
0.0
 20
0.0
 30
0.0
  9
$UCSORGBACK
 10
0.0
 20
0.0
 30
0.0
  9
$PUCSBASE
  2

  9
$PUCSNAME
  2

  9
$PUCSORG
 10
0.0
 20
0.0
 30
0.0
  9
$PUCSXDIR
 10
1.0
 20
0.0
 30
0.0
  9
$PUCSYDIR
 10
0.0
 20
1.0
 30
0.0
  9
$PUCSORTHOREF
  2

  9
$PUCSORTHOVIEW
 70
     0
  9
$PUCSORGTOP
 10
0.0
 20
0.0
 30
0.0
  9
$PUCSORGBOTTOM
 10
0.0
 20
0.0
 30
0.0
  9
$PUCSORGLEFT
 10
0.0
 20
0.0
 30
0.0
  9
$PUCSORGRIGHT
 10
0.0
 20
0.0
 30
0.0
  9
$PUCSORGFRONT
 10
0.0
 20
0.0
 30
0.0
  9
$PUCSORGBACK
 10
0.0
 20
0.0
 30
0.0
  9
$USERI1
 70
     0
  9
$USERI2
 70
     0
  9
$USERI3
 70
     0
  9
$USERI4
 70
     0
  9
$USERI5
 70
     0
  9
$USERR1
 40
16.5
  9
$USERR2
 40
0.0
  9
$USERR3
 40
0.0
  9
$USERR4
 40
0.0
  9
$USERR5
 40
0.0
  9
$WORLDVIEW
 70
     1
  9
$SHADEDGE
 70
     3
  9
$SHADEDIF
 70
    70
  9
$TILEMODE
 70
     1
  9
$MAXACTVP
 70
    64
  9
$PINSBASE
 10
0.0
 20
0.0
 30
0.0
  9
$PLIMCHECK
 70
     0
  9
$PEXTMIN
 10
1.00000000000000E+20
 20
1.00000000000000E+20
 30
1.00000000000000E+20
  9
$PEXTMAX
 10
-1.00000000000000E+20
 20
-1.00000000000000E+20
 30
-1.00000000000000E+20
  9
$PLIMMIN
 10
0.0
 20
0.0
  9
$PLIMMAX
 10
12.0
 20
9.0
  9
$UNITMODE
 70
     0
  9
$VISRETAIN
 70
     1
  9
$PLINEGEN
 70
     0
  9
$PSLTSCALE
 70
     1
  9
$TREEDEPTH
 70
  3020
  9
$CMLSTYLE
  2
Standard
  9
$CMLJUST
 70
     0
  9
$CMLSCALE
 40
1.0
  9
$PROXYGRAPHICS
 70
     1
  9
$MEASUREMENT
 70
     1
  9
$CELWEIGHT
370
    -1
  9
$ENDCAPS
280
     0
  9
$JOINSTYLE
280
     0
  9
$LWDISPLAY
290
     0
  9
$INSUNITS
 70
     1
  9
$HYPERLINKBASE
  1

  9
$STYLESHEET
  1

  9
$XEDIT
290
     1
  9
$CEPSNTYPE
380
     0
  9
$PSTYLEMODE
290
     1
  9
$FINGERPRINTGUID
  2
{89F331B4-537E-4DFC-AF24-A43440CE8ED5}
  9
$VERSIONGUID
  2
{FAEB1C32-E019-11D5-929B-00C0DF256EC4}
  9
$EXTNAMES
290
     1
  9
$PSVPSCALE
 40
0.0
  9
$OLESTARTUP
290
     0
  0
ENDSEC
  0
SECTION
  2
CLASSES
  0
CLASS
  1
ACDBDICTIONARYWDFLT
  2
AcDbDictionaryWithDefault
  3
ObjectDBX Classes
 90
        0
280
     0
281
     0
  0
CLASS
  1
VISUALSTYLE
  2
AcDbVisualStyle
  3
ObjectDBX Classes
 90
     4095
280
     0
281
     0
  0
CLASS
  1
SCALE
  2
AcDbScale
  3
ObjectDBX Classes
 90
     1153
280
     0
281
     0
  0
CLASS
  1

  2
exOdDbPolyline
  3

 90
        0
280
     0
281
     1
  0
CLASS
  1

  2
exOdDbSpline
  3

 90
        0
280
     0
281
     1
  0
CLASS
  1
DICTIONARYVAR
  2
AcDbDictionaryVar
  3
ObjectDBX Classes
 90
        0
280
     0
281
     0
  0
CLASS
  1
ACDBPLACEHOLDER
  2
AcDbPlaceHolder
  3
ObjectDBX Classes
 90
        0
280
     0
281
     0
  0
CLASS
  1
LAYOUT
  2
AcDbLayout
  3
ObjectDBX Classes
 90
        0
280
     0
281
     0
  0
ENDSEC
  0
SECTION
  2
TABLES
  0
TABLE
  2
VPORT
  5
8
330
0
100
AcDbSymbolTable
 70
     1
  0
VPORT
  5
29
330
8
100
AcDbSymbolTableRecord
100
AcDbViewportTableRecord
  2
*Active
 70
     0
 10
0.0
 20
0.0
 11
1.0
 21
1.0
 12
144.1942408369205
 22
295.9366265018384
 13
0.0
 23
0.0
 14
0.5
 24
0.5
 15
0.5
 25
0.5
 16
0.0
 26
0.0
 36
1.0
 17
0.0
 27
0.0
 37
0.0
 40
133.2151334007154
 41
1.60267857142857
 42
50.0
 43
0.0
 44
0.0
 50
0.0
 51
0.0
 71
     0
 72
   100
 73
     1
 74
     3
 75
     0
 76
     0
 77
     0
 78
     0
281
     0
 65
     1
110
0.0
120
0.0
130
0.0
111
1.0
121
0.0
131
0.0
112
0.0
122
1.0
132
0.0
 79
     0
146
0.0
  0
ENDTAB
  0
TABLE
  2
LTYPE
  5
5
330
0
100
AcDbSymbolTable
 70
     8
  0
LTYPE
  5
14
330
5
100
AcDbSymbolTableRecord
100
AcDbLinetypeTableRecord
  2
ByBlock
 70
     0
  3

 72
    65
 73
     0
 40
0.0
  0
LTYPE
  5
15
330
5
100
AcDbSymbolTableRecord
100
AcDbLinetypeTableRecord
  2
ByLayer
 70
     0
  3

 72
    65
 73
     0
 40
0.0
  0
LTYPE
  5
16
330
5
100
AcDbSymbolTableRecord
100
AcDbLinetypeTableRecord
  2
Continuous
 70
     0
  3
Solid line
 72
    65
 73
     0
 40
0.0
  0
LTYPE
  5
3B
330
5
100
AcDbSymbolTableRecord
100
AcDbLinetypeTableRecord
  2
DASHED
 70
     0
  3
Dashed
 72
    65
 73
     2
 40
15.0
 49
7.0
 74
     0
 49
-8.0
 74
     0
  0
LTYPE
  5
3C
330
5
100
AcDbSymbolTableRecord
100
AcDbLinetypeTableRecord
  2
DOTTED
 70
     0
  3
Dotted
 72
    65
 73
     2
 40
1.0
 49
0.0
 74
     0
 49
-1.0
 74
     0
  0
LTYPE
  5
3D
330
5
100
AcDbSymbolTableRecord
100
AcDbLinetypeTableRecord
  2
DOT_CENTER
 70
     0
  3
Dot_Center
 72
    65
 73
     4
 40
14.0
 49
12.0
 74
     0
 49
-1.0
 74
     0
 49
0.0
 74
     0
 49
-1.0
 74
     0
  0
LTYPE
  5
3E
330
5
100
AcDbSymbolTableRecord
100
AcDbLinetypeTableRecord
  2
LONG_DASHED
 70
     0
  3
Long_Dashed
 72
    65
 73
     2
 40
15.0
 49
10.0
 74
     0
 49
-5.0
 74
     0
  0
LTYPE
  5
3F
330
5
100
AcDbSymbolTableRecord
100
AcDbLinetypeTableRecord
  2
DASH_CENTER
 70
     0
  3
Dash_Center
 72
    65
 73
     4
 40
14.0
 49
11.0
 74
     0
 49
-1.0
 74
     0
 49
1.0
 74
     0
 49
-1.0
 74
     0
  0
LTYPE
  5
40
330
5
100
AcDbSymbolTableRecord
100
AcDbLinetypeTableRecord
  2
PHANTOM
 70
     0
  3
Phantom
 72
    65
 73
     6
 40
13.0
 49
10.0
 74
     0
 49
-1.0
 74
     0
 49
0.0
 74
     0
 49
-1.0
 74
     0
 49
0.0
 74
     0
 49
-1.0
 74
     0
  0
LTYPE
  5
41
330
5
100
AcDbSymbolTableRecord
100
AcDbLinetypeTableRecord
  2
CENTER_DASH_DASH
 70
     0
  3
Center_Dash_Dash
 72
    65
 73
     6
 40
14.0
 49
9.0
 74
     0
 49
-1.0
 74
     0
 49
1.0
 74
     0
 49
-1.0
 74
     0
 49
1.0
 74
     0
 49
-1.0
 74
     0
  0
ENDTAB
  0
TABLE
  2
LAYER
  5
2
330
0
100
AcDbSymbolTable
 70
     6
  0
LAYER
  5
10
330
2
100
AcDbSymbolTableRecord
100
AcDbLayerTableRecord
  2
0
 70
     0
 62
     7
  6
Continuous
370
    -3
390
F
  0
LAYER
  5
42
330
2
100
AcDbSymbolTableRecord
100
AcDbLayerTableRecord
  2
1
 70
     0
 62
     7
  6
Continuous
370
    -3
390
F
  0
LAYER
  5
43
330
2
100
AcDbSymbolTableRecord
100
AcDbLayerTableRecord
  2
BEZUGSACHSEN
 70
     0
 62
     7
  6
Continuous
370
    -3
390
F
  0
LAYER
  5
44
330
2
100
AcDbSymbolTableRecord
100
AcDbLayerTableRecord
  2
DEFAULT_2
 70
     0
 62
     7
  6
Continuous
370
    -3
390
F
  0
LAYER
  5
45
330
2
100
AcDbSymbolTableRecord
100
AcDbLayerTableRecord
  2
RUNDUNGEN
 70
     0
 62
     7
  6
Continuous
370
    -3
390
F
  0
LAYER
  5
46
330
2
100
AcDbSymbolTableRecord
100
AcDbLayerTableRecord
  2
TEIL_STARTBEZUEGE
 70
     0
 62
     7
  6
Continuous
370
    -3
390
F
  0
ENDTAB
  0
TABLE
  2
STYLE
  5
3
330
0
100
AcDbSymbolTable
 70
     2
  0
STYLE
  5
11
330
3
100
AcDbSymbolTableRecord
100
AcDbTextStyleTableRecord
  2
Standard
 70
     0
 40
0.0
 41
1.0
 50
0.0
 71
     0
 42
0.2
  3
txt
  4

  0
STYLE
  5
6D
330
3
100
AcDbSymbolTableRecord
100
AcDbTextStyleTableRecord
  2
CONVERTER_11
 70
     0
 40
0.0
 41
0.72
 50
0.0
 71
     0
 42
0.2
  3
txt.shx
  4

  0
ENDTAB
  0
TABLE
  2
VIEW
  5
6
330
0
100
AcDbSymbolTable
 70
     0
  0
ENDTAB
  0
TABLE
  2
UCS
  5
7
330
0
100
AcDbSymbolTable
 70
     0
  0
ENDTAB
  0
TABLE
  2
APPID
  5
9
330
0
100
AcDbSymbolTable
 70
     1
  0
APPID
  5
12
330
9
100
AcDbSymbolTableRecord
100
AcDbRegAppTableRecord
  2
ACAD
 70
     0
  0
ENDTAB
  0
TABLE
  2
DIMSTYLE
  5
A
330
0
100
AcDbSymbolTable
 70
     6
100
AcDbDimStyleTable
  0
DIMSTYLE
105
27
330
A
100
AcDbSymbolTableRecord
100
AcDbDimStyleTableRecord
  2
Standard
 70
     0
340
11
  0
DIMSTYLE
105
DB
102
{ACAD_REACTORS
330
DC
102
}
330
A
100
AcDbSymbolTableRecord
100
AcDbDimStyleTableRecord
  2
ME10_DIM_10
 70
     0
  3
<>
 41
3.5
 42
2.0
 44
2.0
 71
     1
 73
     0
 74
     0
 77
     1
 78
     8
140
3.5
146
0.7
147
2.0
172
     1
173
     1
176
     2
177
     2
178
     3
271
     2
272
     0
340
6D
  0
DIMSTYLE
105
E6
102
{ACAD_REACTORS
330
E7
102
}
330
A
100
AcDbSymbolTableRecord
100
AcDbDimStyleTableRecord
  2
ME10_DIM_11
 70
     0
  3
<>
 41
3.5
 42
2.0
 44
2.0
 71
     1
 73
     0
 74
     0
 77
     1
 78
     8
140
3.5
146
0.7
147
2.0
172
     1
173
     1
176
     2
177
     2
178
     3
271
     2
272
     0
340
6D
  0
DIMSTYLE
105
F1
102
{ACAD_REACTORS
330
F2
102
}
330
A
100
AcDbSymbolTableRecord
100
AcDbDimStyleTableRecord
  2
ME10_DIM_12
 70
     0
  3
<>
 41
3.5
 42
2.0
 44
2.0
 71
     1
 73
     0
 74
     0
 77
     1
 78
     8
140
3.5
146
0.7
147
2.0
172
     1
173
     1
176
     2
177
     2
178
     3
271
     2
272
     0
340
6D
  0
DIMSTYLE
105
FC
102
{ACAD_REACTORS
330
FD
102
}
330
A
100
AcDbSymbolTableRecord
100
AcDbDimStyleTableRecord
  2
ME10_DIM_13
 70
     0
  3
\U+2300<>
 41
3.5
 42
2.0
 44
2.0
 71
     1
 73
     0
 74
     0
 77
     1
 78
     8
140
3.5
146
0.7
147
2.0
172
     1
173
     1
176
     2
177
     2
178
     3
271
     2
272
     0
340
6D
  0
DIMSTYLE
105
107
102
{ACAD_REACTORS
330
108
102
}
330
A
100
AcDbSymbolTableRecord
100
AcDbDimStyleTableRecord
  2
ME10_DIM_14
 70
     0
  3
\U+2300<>
 41
3.5
 42
2.0
 44
2.0
 71
     1
 73
     0
 74
     0
 77
     1
 78
     8
140
3.5
146
0.7
147
2.0
172
     1
173
     1
176
     2
177
     2
178
     3
271
     2
272
     0
340
6D
  0
ENDTAB
  0
TABLE
  2
BLOCK_RECORD
  5
1
330
0
100
AcDbSymbolTable
 70
     8
  0
BLOCK_RECORD
  5
1F
330
1
100
AcDbSymbolTableRecord
100
AcDbBlockTableRecord
  2
*Model_Space
340
22
  0
BLOCK_RECORD
  5
1B
330
1
100
AcDbSymbolTableRecord
100
AcDbBlockTableRecord
  2
*Paper_Space
340
1E
  0
BLOCK_RECORD
  5
23
330
1
100
AcDbSymbolTableRecord
100
AcDbBlockTableRecord
  2
*Paper_Space0
340
26
  0
BLOCK_RECORD
  5
47
330
1
100
AcDbSymbolTableRecord
100
AcDbBlockTableRecord
  2
Urheberrecht_DE-EN_horizontal
340
0
102
{BLKREFS
331
6C
102
}
  0
BLOCK_RECORD
  5
D2
330
1
100
AcDbSymbolTableRecord
100
AcDbBlockTableRecord
  2
*D2
340
0
  0
BLOCK_RECORD
  5
DD
330
1
100
AcDbSymbolTableRecord
100
AcDbBlockTableRecord
  2
*D3
340
0
  0
BLOCK_RECORD
  5
E8
330
1
100
AcDbSymbolTableRecord
100
AcDbBlockTableRecord
  2
*D4
340
0
  0
BLOCK_RECORD
  5
F3
330
1
100
AcDbSymbolTableRecord
100
AcDbBlockTableRecord
  2
*D5
340
0
  0
BLOCK_RECORD
  5
FE
330
1
100
AcDbSymbolTableRecord
100
AcDbBlockTableRecord
  2
*D6
340
0
  0
BLOCK_RECORD
  5
109
330
1
100
AcDbSymbolTableRecord
100
AcDbBlockTableRecord
  2
*D7
340
0
102
{BLKREFS
331
10F
102
}
  0
ENDTAB
  0
ENDSEC
  0
SECTION
  2
BLOCKS
  0
BLOCK
  5
20
330
1F
100
AcDbEntity
  8
0
100
AcDbBlockBegin
  2
*Model_Space
 70
     0
 10
0.0
 20
0.0
 30
0.0
  3
*Model_Space
  1

  0
ENDBLK
  5
21
330
1F
100
AcDbEntity
  8
0
100
AcDbBlockEnd
  0
BLOCK
  5
1C
330
1B
100
AcDbEntity
 67
     1
  8
0
100
AcDbBlockBegin
  2
*Paper_Space
 70
     0
 10
0.0
 20
0.0
 30
0.0
  3
*Paper_Space
  1

  0
ENDBLK
  5
1D
330
1B
100
AcDbEntity
 67
     1
  8
0
100
AcDbBlockEnd
  0
BLOCK
  5
24
330
23
100
AcDbEntity
  8
0
100
AcDbBlockBegin
  2
*Paper_Space0
 70
     0
 10
0.0
 20
0.0
 30
0.0
  3
*Paper_Space0
  1

  0
ENDBLK
  5
25
330
23
100
AcDbEntity
  8
0
100
AcDbBlockEnd
  0
BLOCK
  5
48
330
47
100
AcDbEntity
  8
0
100
AcDbBlockBegin
  2
Urheberrecht_DE-EN_horizontal
 70
     0
 10
129.267993322994
 20
245.821389649067
 30
0.0
  3
Urheberrecht_DE-EN_horizontal
  1

  0
MTEXT
  5
6E
330
47
100
AcDbEntity
  8
1
 62
     1
100
AcDbMText
 10
132.1035978509409
 20
239.0233816391627
 30
0.0
 40
2.0
 41
0.0
 71
     7
 72
     1
  1
We own the copyright of this document. It \Pdetermined and may neither be copied or \Pmade accessible to outsiders without our\Ppermission.
  7
CONVERTER_11
 73
     1
 44
0.90036014405762
  0
MTEXT
  5
6F
330
47
100
AcDbEntity
  8
1
 62
     1
100
AcDbMText
 10
75.81421093363475
 20
239.0233816391627
 30
0.0
 40
2.0
 41
0.0
 71
     7
 72
     1
  1
F\U+00fcr diese Unterlage behalten wir das Ur-\Pheberrecht. Sie darf nur f\U+00fcr den von uns \Pbestimmten Zweck benutzt und ohne unsere \PZustimmung weder vervielf\U+00e4ltigt noch\PDritten zug\U+00e4nglich gemacht werden.
  7
CONVERTER_11
 73
     1
 44
0.90036014405762
  0
ENDBLK
  5
49
330
47
100
AcDbEntity
  8
0
100
AcDbBlockEnd
  0
BLOCK
  5
D9
330
D2
100
AcDbEntity
  8
0
100
AcDbBlockBegin
  2
*D2
 70
     1
 10
0.0
 20
0.0
 30
0.0
  3
*D2
  1

  0
LINE
  5
D3
330
D2
100
AcDbEntity
  8
1
  6
Continuous
 62
     2
100
AcDbLine
 10
218.6733137045
 20
347.949871364514
 30
0.0
 11
50.2733137045
 21
347.949871364514
 31
0.0
  0
LINE
  5
D4
330
D2
100
AcDbEntity
  8
1
  6
Continuous
 62
     2
100
AcDbLine
 10
50.2733137045
 20
303.5776932758
 30
0.0
 11
50.2733137045
 21
349.949871364514
 31
0.0
  0
LINE
  5
D5
330
D2
100
AcDbEntity
  8
1
  6
Continuous
 62
     2
100
AcDbLine
 10
218.6733137045
 20
316.5452413063
 30
0.0
 11
218.6733137045
 21
349.949871364514
 31
0.0
  0
SOLID
  5
D6
330
D2
100
AcDbEntity
  8
1
 62
     2
100
AcDbTrace
 10
215.1733137045
 20
347.4890876229582
 30
0.0
 11
215.1733137045
 21
348.4106551060699
 31
0.0
 12
218.6733137045
 22
347.949871364514
 32
0.0
 13
218.6733137045
 23
347.949871364514
 33
0.0
  0
SOLID
  5
D7
330
D2
100
AcDbEntity
  8
1
 62
     2
100
AcDbTrace
 10
53.7733137045
 20
348.4106551060699
 30
0.0
 11
53.7733137045
 21
347.4890876229582
 31
0.0
 12
50.2733137045
 22
347.949871364514
 32
0.0
 13
50.2733137045
 23
347.949871364514
 33
0.0
  0
MTEXT
  5
D8
330
D2
100
AcDbEntity
  8
1
 62
     3
100
AcDbMText
 10
146.0106914515024
 20
349.949871364514
 30
0.0
 40
3.5
 41
0.0
 71
     7
 72
     1
  1
\C3;\C3;\C3;168.4\C2;\H2.45;\S^ ;\C3;
  7
CONVERTER_11
 11
0.9999999999970619
 21
2.424068405545306E-6
 31
0.0
 73
     1
 44
0.60024009603842
  0
ENDBLK
  5
DA
330
D2
100
AcDbEntity
  8
0
100
AcDbBlockEnd
  0
BLOCK
  5
E4
330
DD
100
AcDbEntity
  8
0
100
AcDbBlockBegin
  2
*D3
 70
     1
 10
0.0
 20
0.0
 30
0.0
  3
*D3
  1

  0
LINE
  5
DE
330
DD
100
AcDbEntity
  8
1
  6
Continuous
 62
     2
100
AcDbLine
 10
218.6733137045
 20
340.347108686641
 30
0.0
 11
118.6733137045
 21
340.347108686641
 31
0.0
  0
LINE
  5
DF
330
DD
100
AcDbEntity
  8
1
  6
Continuous
 62
     2
100
AcDbLine
 10
118.6733137045
 20
318.9309434363
 30
0.0
 11
118.6733137045
 21
342.347108686641
 31
0.0
  0
LINE
  5
E0
330
DD
100
AcDbEntity
  8
1
  6
Continuous
 62
     2
100
AcDbLine
 10
218.6733137045
 20
316.5452413063
 30
0.0
 11
218.6733137045
 21
342.347108686641
 31
0.0
  0
SOLID
  5
E1
330
DD
100
AcDbEntity
  8
1
 62
     2
100
AcDbTrace
 10
215.1733137045
 20
339.8863249450851
 30
0.0
 11
215.1733137045
 21
340.8078924281969
 31
0.0
 12
218.6733137045
 22
340.347108686641
 32
0.0
 13
218.6733137045
 23
340.347108686641
 33
0.0
  0
SOLID
  5
E2
330
DD
100
AcDbEntity
  8
1
 62
     2
100
AcDbTrace
 10
122.1733137045
 20
340.8078924281969
 30
0.0
 11
122.1733137045
 21
339.8863249450851
 31
0.0
 12
118.6733137045
 22
340.347108686641
 32
0.0
 13
118.6733137045
 23
340.347108686641
 33
0.0
  0
MTEXT
  5
E3
330
DD
100
AcDbEntity
  8
1
 62
     3
100
AcDbMText
 10
164.787402839427
 20
342.347108686641
 30
0.0
 40
3.5
 41
0.0
 71
     7
 72
     1
  1
\C3;\C3;\C3;100\C2;\H2.45;\S^ ;\C3;
  7
CONVERTER_11
 11
0.9999999999970619
 21
2.424068405545306E-6
 31
0.0
 73
     1
 44
0.60024009603842
  0
ENDBLK
  5
E5
330
DD
100
AcDbEntity
  8
0
100
AcDbBlockEnd
  0
BLOCK
  5
EF
330
E8
100
AcDbEntity
  8
0
100
AcDbBlockBegin
  2
*D4
 70
     1
 10
0.0
 20
0.0
 30
0.0
  3
*D4
  1

  0
LINE
  5
E9
330
E8
100
AcDbEntity
  8
1
  6
Continuous
 62
     2
100
AcDbLine
 10
218.6733137045
 20
332.961969430539
 30
0.0
 11
137.6733137044999
 21
332.961969430539
 31
0.0
  0
LINE
  5
EA
330
E8
100
AcDbEntity
  8
1
  6
Continuous
 62
     2
100
AcDbLine
 10
137.6733137044999
 20
321.8050958322
 30
0.0
 11
137.6733137044999
 21
334.961969430539
 31
0.0
  0
LINE
  5
EB
330
E8
100
AcDbEntity
  8
1
  6
Continuous
 62
     2
100
AcDbLine
 10
218.6733137045
 20
316.5452413063
 30
0.0
 11
218.6733137045
 21
334.961969430539
 31
0.0
  0
SOLID
  5
EC
330
E8
100
AcDbEntity
  8
1
 62
     2
100
AcDbTrace
 10
215.1733137045
 20
332.5011856889831
 30
0.0
 11
215.1733137045
 21
333.4227531720949
 31
0.0
 12
218.6733137045
 22
332.961969430539
 32
0.0
 13
218.6733137045
 23
332.961969430539
 33
0.0
  0
SOLID
  5
ED
330
E8
100
AcDbEntity
  8
1
 62
     2
100
AcDbTrace
 10
141.1733137044999
 20
333.4227531720949
 30
0.0
 11
141.1733137044999
 21
332.5011856889831
 31
0.0
 12
137.6733137044999
 22
332.961969430539
 32
0.0
 13
137.6733137044999
 23
332.961969430539
 33
0.0
  0
MTEXT
  5
EE
330
E8
100
AcDbEntity
  8
1
 62
     3
100
AcDbMText
 10
175.9920314016437
 20
334.961969430539
 30
0.0
 40
3.5
 41
0.0
 71
     7
 72
     1
  1
\C3;\C3;\C3;81\C2;\H2.45;\S^ ;\C3;
  7
CONVERTER_11
 11
0.9999999999970619
 21
2.424068405545306E-6
 31
0.0
 73
     1
 44
0.60024009603842
  0
ENDBLK
  5
F0
330
E8
100
AcDbEntity
  8
0
100
AcDbBlockEnd
  0
BLOCK
  5
FA
330
F3
100
AcDbEntity
  8
0
100
AcDbBlockBegin
  2
*D5
 70
     1
 10
0.0
 20
0.0
 30
0.0
  3
*D5
  1

  0
LINE
  5
F4
330
F3
100
AcDbEntity
  8
1
  6
Continuous
 62
     2
100
AcDbLine
 10
239.240167969341
 20
322.6281908371
 30
0.0
 11
239.240167969341
 21
257.6281450749
 31
0.0
  0
LINE
  5
F5
330
F3
100
AcDbEntity
  8
1
  6
Continuous
 62
     2
100
AcDbLine
 10
207.4053645121
 20
257.6281450749
 30
0.0
 11
241.240167969341
 21
257.6281450749
 31
0.0
  0
LINE
  5
F6
330
F3
100
AcDbEntity
  8
1
  6
Continuous
 62
     2
100
AcDbLine
 10
205.6733137045
 20
322.6281908371
 30
0.0
 11
241.240167969341
 21
322.6281908371
 31
0.0
  0
SOLID
  5
F7
330
F3
100
AcDbEntity
  8
1
 62
     2
100
AcDbTrace
 10
239.7009517108969
 20
319.1281908371
 30
0.0
 11
238.7793842277851
 21
319.1281908371
 31
0.0
 12
239.240167969341
 22
322.6281908371
 32
0.0
 13
239.240167969341
 23
322.6281908371
 33
0.0
  0
SOLID
  5
F8
330
F3
100
AcDbEntity
  8
1
 62
     2
100
AcDbTrace
 10
238.7793842277851
 20
261.1281450749
 30
0.0
 11
239.7009517108969
 21
261.1281450749
 31
0.0
 12
239.240167969341
 22
257.6281450749
 32
0.0
 13
239.240167969341
 23
257.6281450749
 33
0.0
  0
MTEXT
  5
F9
330
F3
100
AcDbEntity
  8
1
 62
     3
100
AcDbMText
 10
237.240167969341
 20
281.642418707957
 30
0.0
 40
3.5
 41
0.0
 71
     7
 72
     1
  1
\C3;%%c\C3;\C3;65\C2;\H2.45;\S^ ;\C3;
  7
CONVERTER_11
 11
0.0
 21
1.0
 31
0.0
 73
     1
 44
0.60024009603842
  0
ENDBLK
  5
FB
330
F3
100
AcDbEntity
  8
0
100
AcDbBlockEnd
  0
BLOCK
  5
105
330
FE
100
AcDbEntity
  8
0
100
AcDbBlockBegin
  2
*D6
 70
     1
 10
0.0
 20
0.0
 30
0.0
  3
*D6
  1

  0
LINE
  5
FF
330
FE
100
AcDbEntity
  8
1
  6
Continuous
 62
     2
100
AcDbLine
 10
230.870343479093
 20
302.6281450749
 30
0.0
 11
230.870343479093
 21
277.6281450749
 31
0.0
  0
LINE
  5
100
330
FE
100
AcDbEntity
  8
1
  6
Continuous
 62
     2
100
AcDbLine
 10
220.6733137045
 20
277.6281450749
 30
0.0
 11
232.870343479093
 21
277.6281450749
 31
0.0
  0
LINE
  5
101
330
FE
100
AcDbEntity
  8
1
  6
Continuous
 62
     2
100
AcDbLine
 10
220.6733137045
 20
302.6281450749
 30
0.0
 11
232.870343479093
 21
302.6281450749
 31
0.0
  0
SOLID
  5
102
330
FE
100
AcDbEntity
  8
1
 62
     2
100
AcDbTrace
 10
231.3311272206489
 20
299.1281450749
 30
0.0
 11
230.4095597375371
 21
299.1281450749
 31
0.0
 12
230.870343479093
 22
302.6281450749
 32
0.0
 13
230.870343479093
 23
302.6281450749
 33
0.0
  0
SOLID
  5
103
330
FE
100
AcDbEntity
  8
1
 62
     2
100
AcDbTrace
 10
230.4095597375371
 20
281.1281450749
 30
0.0
 11
231.3311272206489
 21
281.1281450749
 31
0.0
 12
230.870343479093
 22
277.6281450749
 32
0.0
 13
230.870343479093
 23
277.6281450749
 33
0.0
  0
MTEXT
  5
104
330
FE
100
AcDbEntity
  8
1
 62
     3
100
AcDbMText
 10
228.870343479093
 20
281.765504362225
 30
0.0
 40
3.5
 41
0.0
 71
     7
 72
     1
  1
\C3;%%c\C3;\C3;25\C2;\H2.45;\S^ ;\C3;
  7
CONVERTER_11
 11
0.0
 21
1.0
 31
0.0
 73
     1
 44
0.60024009603842
  0
ENDBLK
  5
106
330
FE
100
AcDbEntity
  8
0
100
AcDbBlockEnd
  0
BLOCK
  5
10D
330
109
100
AcDbEntity
  8
0
100
AcDbBlockBegin
  2
*D7
 70
     1
 10
0.0
 20
0.0
 30
0.0
  3
*D7
  1

  0
LINE
  5
10A
330
109
100
AcDbEntity
  8
1
  6
Continuous
 62
     2
100
AcDbLine
 10
147.6248680026058
 20
321.7723369190757
 30
0.0
 11
137.8703322791445
 21
314.5321410224529
 31
0.0
  0
SOLID
  5
10B
330
109
100
AcDbEntity
  8
1
 62
     2
100
AcDbTrace
 10
140.4061382906206
 20
316.9881559915938
 30
0.0
 11
140.9553962451589
 21
316.2481544204433
 31
0.0
 12
137.8703322791445
 22
314.5321410224529
 32
0.0
 13
137.8703322791445
 23
314.5321410224529
 33
0.0
  0
MTEXT
  5
10C
330
109
100
AcDbEntity
  8
1
 62
     3
100
AcDbMText
 10
141.1492421188702
 20
319.4565931046839
 30
0.0
 40
3.5
 41
0.0
 71
     7
 72
     1
  1
\C3; R\C3;\C3;1\C2;\H2.45;\S^ ;\C3;
  7
CONVERTER_11
 11
0.8029814253557602
 21
0.5960040524473232
 31
0.0
 73
     1
 44
0.60024009603842
  0
ENDBLK
  5
10E
330
109
100
AcDbEntity
  8
0
100
AcDbBlockEnd
  0
ENDSEC
  0
SECTION
  2
ENTITIES
  0
INSERT
  5
6C
330
1F
100
AcDbEntity
  8
0
100
AcDbBlockReference
  2
Urheberrecht_DE-EN_horizontal
 10
129.267993322994
 20
245.821389649067
 30
0.0
  0
LWPOLYLINE
  5
70
330
1F
100
AcDbEntity
  8
BEZUGSACHSEN
  6
DASHED
 62
     8
100
AcDbPolyline
 90
        2
 70
     0
 43
0.35
 10
160.6733137045
 20
302.6281450749
 10
160.6733137045
 20
322.6281450749
  0
LWPOLYLINE
  5
71
330
1F
100
AcDbEntity
  8
BEZUGSACHSEN
  6
DASHED
 62
     8
100
AcDbPolyline
 90
        2
 70
     0
 43
0.35
 10
185.6733137045
 20
302.6281450749
 10
185.6733137045
 20
322.6281450749
  0
LWPOLYLINE
  5
72
330
1F
100
AcDbEntity
  8
BEZUGSACHSEN
  6
DASHED
 62
     8
100
AcDbPolyline
 90
        2
 70
     0
 43
0.35
 10
178.6733137045
 20
302.6281450749
 10
178.6733137045
 20
322.6281450749
  0
LWPOLYLINE
  5
73
330
1F
100
AcDbEntity
  8
BEZUGSACHSEN
  6
DASHED
 62
     8
100
AcDbPolyline
 90
        2
 70
     0
 43
0.35
 10
203.6733137045
 20
302.6281450749
 10
203.6733137045
 20
322.6281450749
  0
LINE
  5
74
330
1F
100
AcDbEntity
  8
RUNDUNGEN
  6
Continuous
 62
     7
100
AcDbLine
 10
218.6733137045
 20
265.7110488436
 30
0.0
 11
218.6733137045
 21
314.5452413063
 31
0.0
  0
LINE
  5
75
330
1F
100
AcDbEntity
  8
RUNDUNGEN
  6
Continuous
 62
     9
100
AcDbLine
 10
218.1733137045
 20
264.8450234398
 30
0.0
 11
218.1733137045
 21
315.4112667101
 31
0.0
  0
LINE
  5
76
330
1F
100
AcDbEntity
  8
RUNDUNGEN
  6
Continuous
 62
     9
100
AcDbLine
 10
205.9053645121
 20
257.7621196712
 30
0.0
 11
205.9053645121
 21
322.4941704787
 31
0.0
  0
LINE
  5
77
330
1F
100
AcDbEntity
  8
RUNDUNGEN
  6
Continuous
 62
     9
100
AcDbLine
 10
205.4053645121
 20
257.6281450749
 30
0.0
 11
205.4053645121
 21
322.6281450749
 31
0.0
  0
LWPOLYLINE
  5
78
330
1F
100
AcDbEntity
  8
BEZUGSACHSEN
  6
DASHED
 62
     8
100
AcDbPolyline
 90
        2
 70
     0
 43
0.35
 10
202.6733137045
 20
302.6281450749
 10
202.6733137045
 20
322.6281450749
  0
LINE
  5
79
330
1F
100
AcDbEntity
  8
0
  6
Continuous
 62
     7
100
AcDbLine
 10
205.9053645121
 20
322.4941704787
 30
0.0
 11
218.1733137045
 21
315.4112667101
 31
0.0
  0
LINE
  5
7A
330
1F
100
AcDbEntity
  8
RUNDUNGEN
  6
Continuous
 62
     7
100
AcDbLine
 10
218.1733137045
 20
315.4112667101
 30
0.0
 11
205.9053645121
 21
322.4941704787
 31
0.0
  0
LINE
  5
7B
330
1F
100
AcDbEntity
  8
0
  6
Continuous
 62
     7
100
AcDbLine
 10
205.9053645121
 20
257.7621196712
 30
0.0
 11
218.1733137045
 21
264.8450234398
 31
0.0
  0
LWPOLYLINE
  5
7C
330
1F
100
AcDbEntity
  8
BEZUGSACHSEN
  6
DOT_CENTER
 62
     7
100
AcDbPolyline
 90
        2
 70
     0
 43
0.25
 10
194.6733137045
 20
325.6281450749
 10
194.6733137045
 20
296.7281802765
  0
LWPOLYLINE
  5
7D
330
1F
100
AcDbEntity
  8
BEZUGSACHSEN
  6
DASHED
 62
     8
100
AcDbPolyline
 90
        2
 70
     0
 43
0.35
 10
186.6733137045
 20
302.6281450749
 10
186.6733137045
 20
322.6281450749
  0
LWPOLYLINE
  5
7E
330
1F
100
AcDbEntity
  8
BEZUGSACHSEN
  6
DASHED
 62
     8
100
AcDbPolyline
 90
        2
 70
     0
 43
0.35
 10
177.6733137045
 20
302.6281450749
 10
177.6733137045
 20
322.6281450749
  0
LINE
  5
7F
330
1F
100
AcDbEntity
  8
0
  6
Continuous
 62
     7
100
AcDbLine
 10
202.6733137045
 20
322.6281450749
 30
0.0
 11
205.4053645121
 21
322.6281450749
 31
0.0
  0
LINE
  5
80
330
1F
100
AcDbEntity
  8
0
  6
Continuous
 62
     7
100
AcDbLine
 10
177.6733137045
 20
322.6281450749
 30
0.0
 11
186.6733137045
 21
322.6281450749
 31
0.0
  0
LINE
  5
81
330
1F
100
AcDbEntity
  8
0
  6
Continuous
 62
     7
100
AcDbLine
 10
154.7233137045
 20
322.6281450749
 30
0.0
 11
161.6733137045
 21
322.6281450749
 31
0.0
  0
LINE
  5
82
330
1F
100
AcDbEntity
  8
BEZUGSACHSEN
  6
Continuous
 62
     7
100
AcDbLine
 10
161.6733137045
 20
322.6281450749
 30
0.0
 11
154.7233137045
 21
322.6281450749
 31
0.0
  0
LINE
  5
83
330
1F
100
AcDbEntity
  8
BEZUGSACHSEN
  6
Continuous
 62
     7
100
AcDbLine
 10
186.6733137045
 20
322.6281450749
 30
0.0
 11
177.6733137045
 21
322.6281450749
 31
0.0
  0
LINE
  5
84
330
1F
100
AcDbEntity
  8
BEZUGSACHSEN
  6
Continuous
 62
     7
100
AcDbLine
 10
205.4053645121
 20
322.6281450749
 30
0.0
 11
202.6733137045
 21
322.6281450749
 31
0.0
  0
LWPOLYLINE
  5
85
330
1F
100
AcDbEntity
  8
BEZUGSACHSEN
  6
DOT_CENTER
 62
     7
100
AcDbPolyline
 90
        2
 70
     0
 43
0.25
 10
169.6733137045
 20
325.6281450749
 10
169.6733137045
 20
296.7281802765
  0
LINE
  5
86
330
1F
100
AcDbEntity
  8
0
  6
Continuous
 62
     7
100
AcDbLine
 10
133.3773672249
 20
320.8404619242
 30
0.0
 11
136.6733137045
 21
320.8404619242
 31
0.0
  0
LINE
  5
87
330
1F
100
AcDbEntity
  8
0
  6
Continuous
 62
     7
100
AcDbLine
 10
122.8733137045
 20
320.8404619242
 30
0.0
 11
126.3192601841
 21
320.8404619242
 31
0.0
  0
LINE
  5
88
330
1F
100
AcDbEntity
  8
0
  6
Continuous
 62
     7
100
AcDbLine
 10
128.6858137045
 20
316.9309434363
 30
0.0
 11
131.0108137045
 21
316.9309434363
 31
0.0
  0
LWPOLYLINE
  5
89
330
1F
100
AcDbEntity
  8
BEZUGSACHSEN
  6
DASHED
 62
     8
100
AcDbPolyline
 90
        2
 70
     0
 43
0.35
 10
161.6733137045
 20
302.6281450749
 10
161.6733137045
 20
322.6281450749
  0
LINE
  5
8A
330
1F
100
AcDbEntity
  8
0
  6
Continuous
 62
     7
100
AcDbLine
 10
145.7733137045
 20
314.1281450749
 30
0.0
 11
152.7233137045
 21
314.1281450749
 31
0.0
  0
LINE
  5
8B
330
1F
100
AcDbEntity
  8
BEZUGSACHSEN
  6
Continuous
 62
     7
100
AcDbLine
 10
152.7233137045
 20
314.1281450749
 30
0.0
 11
138.6733137045
 21
314.1281450749
 31
0.0
  0
LINE
  5
8C
330
1F
100
AcDbEntity
  8
0
  6
Continuous
 62
     7
100
AcDbLine
 10
121.8733137045
 20
312.6781450749
 30
0.0
 11
121.8190277205
 21
312.6781450749
 31
0.0
  0
LINE
  5
8D
330
1F
100
AcDbEntity
  8
0
  6
Continuous
 62
     7
100
AcDbLine
 10
120.8733137045
 20
312.0031450749
 30
0.0
 11
119.2233137045
 21
312.0031450749
 31
0.0
  0
LINE
  5
8E
330
1F
100
AcDbEntity
  8
0
  6
Continuous
 62
     7
100
AcDbLine
 10
118.1836313713
 20
312.2817271165
 30
0.0
 11
51.08621096879995
 21
302.5177479762
 31
0.0
  0
LWPOLYLINE
  5
8F
330
1F
100
AcDbEntity
  8
DEFAULT_2
  6
DASHED
 62
     8
100
AcDbPolyline
 90
        2
 70
     0
 43
0.35
 10
157.5733137045
 20
302.6281450749
 10
157.5733137045
 20
277.6281450749
  0
LINE
  5
90
330
1F
100
AcDbEntity
  8
RUNDUNGEN
  6
Continuous
 62
     9
100
AcDbLine
 10
154.7233137045
 20
257.6281450749
 30
0.0
 11
154.7233137045
 21
322.6281450749
 31
0.0
  0
LINE
  5
91
330
1F
100
AcDbEntity
  8
RUNDUNGEN
  6
Continuous
 62
     7
100
AcDbLine
 10
153.7233137045
 20
258.6281450749
 30
0.0
 11
153.7233137045
 21
321.6281450749
 31
0.0
  0
LINE
  5
92
330
1F
100
AcDbEntity
  8
0
  6
Continuous
 62
     7
100
AcDbLine
 10
119.2233137045
 20
312.0031450749
 30
0.0
 11
118.1836313713
 21
312.2817271165
 31
0.0
  0
LINE
  5
93
330
1F
100
AcDbEntity
  8
RUNDUNGEN
  6
Continuous
 62
     9
100
AcDbLine
 10
152.7233137045
 20
314.1281450749
 30
0.0
 11
152.7233137045
 21
266.1281450749
 31
0.0
  0
LWPOLYLINE
  5
94
330
1F
100
AcDbEntity
  8
DEFAULT_2
  6
DASHED
 62
     8
100
AcDbPolyline
 90
        2
 70
     0
 43
0.35
 10
202.6733137045
 20
302.6281450749
 10
218.6733137045
 20
302.6281450749
  0
LWPOLYLINE
  5
95
330
1F
100
AcDbEntity
  8
DEFAULT_2
  6
DASHED
 62
     8
100
AcDbPolyline
 90
        2
 70
     0
 43
0.35
 10
161.6733137045
 20
302.6281450749
 10
202.6733137045
 20
302.6281450749
  0
LWPOLYLINE
  5
96
330
1F
100
AcDbEntity
  8
DEFAULT_2
  6
DASHED
 62
     8
100
AcDbPolyline
 90
        2
 70
     0
 43
0.35
 10
157.5733137045
 20
302.6281450749
 10
161.6733137045
 20
302.6281450749
  0
LINE
  5
97
330
1F
100
AcDbEntity
  8
RUNDUNGEN
  6
Continuous
 62
     9
100
AcDbLine
 10
138.6733137045
 20
314.1281450749
 30
0.0
 11
138.6733137045
 21
266.1281450847
 31
0.0
  0
LINE
  5
98
330
1F
100
AcDbEntity
  8
0
  6
Continuous
 62
     7
100
AcDbLine
 10
137.6733137045
 20
319.8050958322
 30
0.0
 11
137.6733137045
 21
260.4511943177
 31
0.0
  0
LINE
  5
99
330
1F
100
AcDbEntity
  8
0
  6
Continuous
 62
     9
100
AcDbLine
 10
136.6733137045
 20
320.8404619242
 30
0.0
 11
136.6733137045
 21
259.4158282257
 31
0.0
  0
LWPOLYLINE
  5
9A
330
1F
100
AcDbEntity
  8
TEIL_STARTBEZUEGE
  6
DOT_CENTER
 62
     7
100
AcDbPolyline
 90
        2
 70
     0
 43
0.25
 10
221.6733137045
 20
290.1281450749
 10
47.27331370450003
 20
290.1281450749
  0
LINE
  5
9B
330
1F
100
AcDbEntity
  8
0
  6
Continuous
 62
     7
100
AcDbLine
 10
133.3773672249
 20
320.8404619242
 30
0.0
 11
133.3773672249
 21
259.4158282257
 31
0.0
  0
LINE
  5
9C
330
1F
100
AcDbEntity
  8
0
  6
Continuous
 62
     7
100
AcDbLine
 10
131.7608137045
 20
317.9349632774
 30
0.0
 11
131.7608137045
 21
262.3213268725
 31
0.0
  0
LINE
  5
9D
330
1F
100
AcDbEntity
  8
0
  6
Continuous
 62
     9
100
AcDbLine
 10
131.0108137045
 20
316.9309434363
 30
0.0
 11
131.0108137045
 21
263.3253467136
 31
0.0
  0
LINE
  5
9E
330
1F
100
AcDbEntity
  8
0
  6
Continuous
 62
     9
100
AcDbLine
 10
128.6858137045
 20
316.9309434363
 30
0.0
 11
128.6858137045
 21
263.3253467136
 31
0.0
  0
LINE
  5
9F
330
1F
100
AcDbEntity
  8
0
  6
Continuous
 62
     7
100
AcDbLine
 10
127.9358137045
 20
317.9349632774
 30
0.0
 11
127.9358137045
 21
262.3213268725
 31
0.0
  0
LINE
  5
A0
330
1F
100
AcDbEntity
  8
0
  6
Continuous
 62
     7
100
AcDbLine
 10
126.3192601841
 20
320.8404619242
 30
0.0
 11
126.3192601841
 21
259.4158282257
 31
0.0
  0
LWPOLYLINE
  5
A1
330
1F
100
AcDbEntity
  8
DEFAULT_2
  6
DASHED
 62
     8
100
AcDbPolyline
 90
        2
 70
     0
 43
0.35
 10
218.6733137045
 20
277.6281450749
 10
157.5733137045
 20
277.6281450749
  0
LINE
  5
A2
330
1F
100
AcDbEntity
  8
0
  6
Continuous
 62
     7
100
AcDbLine
 10
119.2233137045
 20
268.2531450749
 30
0.0
 11
118.1836313713
 21
267.9745630334
 31
0.0
  0
LINE
  5
A3
330
1F
100
AcDbEntity
  8
0
  6
Continuous
 62
     9
100
AcDbLine
 10
122.8733137045
 20
320.8404619242
 30
0.0
 11
122.8733137045
 21
259.4158282257
 31
0.0
  0
LINE
  5
A4
330
1F
100
AcDbEntity
  8
0
  6
Continuous
 62
     7
100
AcDbLine
 10
121.8733137045
 20
319.8050958322
 30
0.0
 11
121.8733137045
 21
260.4511943177
 31
0.0
  0
LINE
  5
A5
330
1F
100
AcDbEntity
  8
0
  6
Continuous
 62
     9
100
AcDbLine
 10
120.8733137045
 20
312.0031450749
 30
0.0
 11
120.8733137045
 21
268.2531450749
 31
0.0
  0
LINE
  5
A6
330
1F
100
AcDbEntity
  8
0
  6
Continuous
 62
     7
100
AcDbLine
 10
119.2233137045
 20
312.0031450749
 30
0.0
 11
119.2233137045
 21
268.2531450749
 31
0.0
  0
LWPOLYLINE
  5
A7
330
1F
100
AcDbEntity
  8
TEIL_STARTBEZUEGE
  6
DOT_CENTER
 62
     7
100
AcDbPolyline
 90
        2
 70
     0
 43
0.25
 10
118.6733137045
 20
263.3253467136
 10
118.6733137045
 20
316.9309434363
  0
LINE
  5
A8
330
1F
100
AcDbEntity
  8
0
  6
Continuous
 62
     7
100
AcDbLine
 10
118.1836313713
 20
312.2817271165
 30
0.0
 11
118.1836313713
 21
267.9745630334
 31
0.0
  0
LINE
  5
A9
330
1F
100
AcDbEntity
  8
0
  6
Continuous
 62
     7
100
AcDbLine
 10
120.8733137045
 20
268.2531450749
 30
0.0
 11
119.2233137045
 21
268.2531450749
 31
0.0
  0
LINE
  5
AA
330
1F
100
AcDbEntity
  8
0
  6
Continuous
 62
     7
100
AcDbLine
 10
118.1836313713
 20
267.9745630334
 30
0.0
 11
51.08621096879995
 21
277.7385421737
 31
0.0
  0
LINE
  5
AB
330
1F
100
AcDbEntity
  8
0
  6
Continuous
 62
     7
100
AcDbLine
 10
138.6733137045
 20
266.1281450749
 30
0.0
 11
152.7233137045
 21
266.1281450749
 31
0.0
  0
LINE
  5
AC
330
1F
100
AcDbEntity
  8
RUNDUNGEN
  6
Continuous
 62
     7
100
AcDbLine
 10
137.6833603174
 20
265.2781450749
 30
0.0
 11
137.6733137045
 21
265.2781450749
 31
0.0
  0
LINE
  5
AD
330
1F
100
AcDbEntity
  8
0
  6
Continuous
 62
     7
100
AcDbLine
 10
128.6858137045
 20
263.3253467136
 30
0.0
 11
131.0108137045
 21
263.3253467136
 31
0.0
  0
LINE
  5
AE
330
1F
100
AcDbEntity
  8
0
  6
Continuous
 62
     7
100
AcDbLine
 10
133.3773672249
 20
259.4158282257
 30
0.0
 11
136.6733137045
 21
259.4158282257
 31
0.0
  0
LINE
  5
AF
330
1F
100
AcDbEntity
  8
0
  6
Continuous
 62
     7
100
AcDbLine
 10
122.8733137045
 20
259.4158282257
 30
0.0
 11
126.3192601841
 21
259.4158282257
 31
0.0
  0
LINE
  5
B0
330
1F
100
AcDbEntity
  8
0
  6
Continuous
 62
     7
100
AcDbLine
 10
154.7233137045
 20
257.6281450749
 30
0.0
 11
205.4053645121
 21
257.6281450749
 31
0.0
  0
LINE
  5
B1
330
1F
100
AcDbEntity
  8
0
  6
Continuous
 62
     9
100
AcDbLine
 10
51.08621096879995
 20
302.5177479762
 30
0.0
 11
51.08621096879995
 21
277.7385421737
 31
0.0
  0
LINE
  5
B2
330
1F
100
AcDbEntity
  8
0
  6
Continuous
 62
     7
100
AcDbLine
 10
50.27331370449997
 20
301.5776932758
 30
0.0
 11
50.27331370449997
 21
278.6785968741
 31
0.0
  0
LINE
  5
B3
330
1F
100
AcDbEntity
  8
RUNDUNGEN
  6
Continuous
 62
     7
100
AcDbLine
 10
137.6733137045
 20
314.9781450748999
 30
0.0
 11
137.6833603174
 21
314.9781450748999
 31
0.0
  0
ARC
  5
B4
330
1F
100
AcDbEntity
  8
RUNDUNGEN
  6
Continuous
 62
     7
100
AcDbCircle
 10
217.6733137045
 20
314.5452413063
 30
0.0
 40
1.0
100
AcDbArc
 50
0.0
 51
60.00000000044565
  0
ARC
  5
B5
330
1F
100
AcDbEntity
  8
RUNDUNGEN
  6
Continuous
 62
     7
100
AcDbCircle
 10
154.7233137045
 20
321.6281450749
 30
0.0
 40
1.0
100
AcDbArc
 50
90.0
 51
180.0
  0
ARC
  5
B6
330
1F
100
AcDbEntity
  8
RUNDUNGEN
  6
Continuous
 62
     7
100
AcDbCircle
 10
152.7233137045
 20
315.1281450749
 30
0.0
 40
1.0
100
AcDbArc
 50
270.0
 51
0.0
  0
ARC
  5
B7
330
1F
100
AcDbEntity
  8
RUNDUNGEN
  6
Continuous
 62
     7
100
AcDbCircle
 10
205.4053645121
 20
321.6281450749
 30
0.0
 40
1.000000000013521
100
AcDbArc
 50
60.00000000044728
 51
90.0
  0
ARC
  5
B8
330
1F
100
AcDbEntity
  8
0
  6
Continuous
 62
     7
100
AcDbCircle
 10
1095.8985285001
 20
796.8432186269
 30
0.0
 40
1102.395204024393
100
AcDbArc
 50
209.0041652430568
 51
209.176974955987
  0
ARC
  5
B9
330
1F
100
AcDbEntity
  8
RUNDUNGEN
  6
Continuous
 62
     7
100
AcDbCircle
 10
217.6733137045
 20
265.7110488436
 30
0.0
 40
1.000000000013472
100
AcDbArc
 50
299.9999999995543
 51
0.0
  0
ARC
  5
BA
330
1F
100
AcDbEntity
  8
RUNDUNGEN
  6
Continuous
 62
     7
100
AcDbCircle
 10
154.7233137045
 20
258.6281450749
 30
0.0
 40
1.0
100
AcDbArc
 50
180.0
 51
270.0
  0
ARC
  5
BB
330
1F
100
AcDbEntity
  8
RUNDUNGEN
  6
Continuous
 62
     7
100
AcDbCircle
 10
138.6733137045
 20
265.1281450749
 30
0.0
 40
1.0
100
AcDbArc
 50
90.0
 51
172.3370686918024
  0
ARC
  5
BC
330
1F
100
AcDbEntity
  8
RUNDUNGEN
  6
Continuous
 62
     7
100
AcDbCircle
 10
152.7233137045
 20
265.1281450749
 30
0.0
 40
1.0
100
AcDbArc
 50
0.0
 51
90.0
  0
ARC
  5
BD
330
1F
100
AcDbEntity
  8
RUNDUNGEN
  6
Continuous
 62
     7
100
AcDbCircle
 10
205.4053645121
 20
258.6281450749
 30
0.0
 40
1.0
100
AcDbArc
 50
270.0
 51
300.0000000024204
  0
ARC
  5
BE
330
1F
100
AcDbEntity
  8
0
  6
Continuous
 62
     7
100
AcDbCircle
 10
1095.8985285065
 20
-216.5869284805
 30
0.0
 40
1102.395204031696
100
AcDbArc
 50
150.8230250440163
 51
150.9958347569455
  0
ARC
  5
BF
330
1F
100
AcDbEntity
  8
0
  6
Continuous
 62
     7
100
AcDbCircle
 10
51.22331370449997
 20
301.5776932758
 30
0.0
 40
0.9499999999371078
100
AcDbArc
 50
98.29782682803007
 51
180.0
  0
ARC
  5
C0
330
1F
100
AcDbEntity
  8
0
  6
Continuous
 62
     7
100
AcDbCircle
 10
120.8733137045
 20
313.0031450749
 30
0.0
 40
1.0
100
AcDbArc
 50
270.0
 51
341.0344250117313
  0
ARC
  5
C1
330
1F
100
AcDbEntity
  8
0
  6
Continuous
 62
     7
100
AcDbCircle
 10
-836.2019010967
 20
796.84321863
 30
0.0
 40
1102.395204030803
100
AcDbArc
 50
330.8230250440142
 51
330.9958347569435
  0
ARC
  5
C2
330
1F
100
AcDbEntity
  8
0
  6
Continuous
 62
     7
100
AcDbCircle
 10
51.22331370449997
 20
278.6785968741
 30
0.0
 40
0.9500000000000028
100
AcDbArc
 50
180.0
 51
261.7021731719699
  0
ARC
  5
C3
330
1F
100
AcDbEntity
  8
0
  6
Continuous
 62
     7
100
AcDbCircle
 10
120.8733137045
 20
267.2531450749
 30
0.0
 40
1.0
100
AcDbArc
 50
0.0
 51
90.0
  0
ARC
  5
C4
330
1F
100
AcDbEntity
  8
0
  6
Continuous
 62
     7
100
AcDbCircle
 10
-836.2019011031
 20
-216.5869284836
 30
0.0
 40
1102.395204038089
100
AcDbArc
 50
29.00416524305434
 51
29.17697495598245
  0
ARC
  5
C5
330
1F
100
AcDbEntity
  8
RUNDUNGEN
  6
Continuous
 62
     7
100
AcDbCircle
 10
138.6733137045
 20
315.1281450749
 30
0.0
 40
0.9999999999996225
100
AcDbArc
 50
187.6629313081944
 51
270.0
  0
SPLINE
  5
C6
330
1F
100
AcDbEntity
  8
BEZUGSACHSEN
  6
Continuous
 62
     7
100
AcDbSpline
210
0.0
220
0.0
230
1.0
 70
     8
 71
     3
 72
    23
 73
    19
 74
    17
 42
0.0000000001
 43
0.0000000001
 44
0.00000001
 40
0.0
 40
0.0
 40
0.0
 40
0.0
 40
0.3144957671901107
 40
0.6290017671874517
 40
1.512306778380483
 40
2.395663161256816
 40
3.702003731374825
 40
5.008425289620909
 40
6.544949579867172
 40
8.08150946619551
 40
9.6180737313773
 40
11.15460240810977
 40
12.46103774524632
 40
13.76739208804852
 40
14.65076855595666
 40
15.53409365219472
 40
15.84860755564935
 40
16.16311122469929
 40
16.16311122469929
 40
16.16311122469929
 40
16.16311122469929
 10
177.6733137045
 20
322.6281450749
 30
0.0
 10
177.5714599195239
 20
322.6033319981202
 30
0.0
 10
177.3677490355361
 20
322.553705037213
 30
0.0
 10
176.8767265280793
 20
322.4395891410205
 30
0.0
 10
176.1985619894303
 20
322.2931395828749
 30
0.0
 10
175.1921182126443
 20
322.102011124048
 30
0.0
 10
174.0406003916209
 20
321.9208699715865
 30
0.0
 10
172.6665926864599
 20
321.759546228516
 30
0.0
 10
171.2100523536542
 20
321.6532880115799
 30
0.0
 10
169.6733584147875
 20
321.6155746074411
 30
0.0
 10
168.1366629065457
 20
321.6532838352512
 30
0.0
 10
166.6801147928217
 20
321.759538710771
 30
0.0
 10
165.3060960990267
 20
321.9208602441252
 30
0.0
 10
164.1545622146477
 20
322.1020015530021
 30
0.0
 10
163.1481005219063
 20
322.293132089422
 30
0.0
 10
162.4699202290364
 20
322.4395846354099
 30
0.0
 10
161.978886046078
 20
322.5537031446314
 30
0.0
 10
161.7751700468417
 20
322.6033313673018
 30
0.0
 10
161.6733137045
 20
322.6281450749
 30
0.0
 11
177.6733137045
 21
322.6281450749
 31
0.0
 11
177.3676233002204
 21
322.5542467372198
 31
0.0
 11
177.0613098372459
 21
322.4829299339061
 31
0.0
 11
176.1978483284706
 21
322.2967526913062
 31
0.0
 11
175.3299880502591
 21
322.1320194625055
 31
0.0
 11
174.0394691813968
 21
321.9293208333868
 31
0.0
 11
172.7419264242936
 21
321.7772679434469
 31
0.0
 11
171.2094621227775
 21
321.6656433086408
 31
0.0
 11
169.6733598566965
 21
321.6281451431611
 31
0.0
 11
168.1372531098567
 21
321.6656391873121
 31
0.0
 11
166.6047841341531
 21
321.7772600318137
 31
0.0
 11
165.3072273146117
 21
321.929311306654
 31
0.0
 11
164.0166944391603
 21
322.1320095215877
 31
0.0
 11
163.1488142163683
 21
322.2967453796771
 31
0.0
 11
162.2853329611647
 21
322.4829263334721
 31
0.0
 11
161.979011787334
 21
322.5542448719402
 31
0.0
 11
161.6733137045
 21
322.6281450749
 31
0.0
  0
SPLINE
  5
C7
330
1F
100
AcDbEntity
  8
BEZUGSACHSEN
  6
Continuous
 62
     7
100
AcDbSpline
210
0.0
220
0.0
230
1.0
 70
     8
 71
     3
 72
    23
 73
    19
 74
    17
 42
0.0000000001
 43
0.0000000001
 44
0.00000001
 40
0.0
 40
0.0
 40
0.0
 40
0.0
 40
0.3144957671900831
 40
0.6290017671874519
 40
1.512306778380511
 40
2.395663161256844
 40
3.702003731374797
 40
5.008425289620939
 40
6.544949579867173
 40
8.081509466195511
 40
9.618073731377303
 40
11.15460240810977
 40
12.46103774524629
 40
13.76739208804852
 40
14.65076855595666
 40
15.53409365219472
 40
15.84860755564933
 40
16.1631112246993
 40
16.1631112246993
 40
16.1631112246993
 40
16.1631112246993
 10
202.6733137045
 20
322.6281450749
 30
0.0
 10
202.5714599195238
 20
322.6033319981202
 30
0.0
 10
202.3677490355361
 20
322.5537050372129
 30
0.0
 10
201.8767265280794
 20
322.4395891410207
 30
0.0
 10
201.1985619894303
 20
322.2931395828749
 30
0.0
 10
200.1921182126443
 20
322.1020111240479
 30
0.0
 10
199.0406003916208
 20
321.9208699715865
 30
0.0
 10
197.6665926864599
 20
321.759546228516
 30
0.0
 10
196.2100523536541
 20
321.6532880115799
 30
0.0
 10
194.6733584147876
 20
321.6155746074411
 30
0.0
 10
193.1366629065457
 20
321.6532838352513
 30
0.0
 10
191.6801147928217
 20
321.7595387107709
 30
0.0
 10
190.3060960990268
 20
321.9208602441253
 30
0.0
 10
189.1545622146477
 20
322.1020015530021
 30
0.0
 10
188.1481005219064
 20
322.2931320894222
 30
0.0
 10
187.4699202290363
 20
322.4395846354097
 30
0.0
 10
186.9788860460781
 20
322.5537031446314
 30
0.0
 10
186.7751700468418
 20
322.6033313673018
 30
0.0
 10
186.6733137045
 20
322.6281450749
 30
0.0
 11
202.6733137045
 21
322.6281450749
 31
0.0
 11
202.3676233002205
 21
322.5542467372198
 31
0.0
 11
202.0613098372459
 21
322.4829299339061
 31
0.0
 11
201.1978483284705
 21
322.2967526913062
 31
0.0
 11
200.3299880502591
 21
322.1320194625055
 31
0.0
 11
199.0394691813968
 21
321.9293208333868
 31
0.0
 11
197.7419264242936
 21
321.7772679434469
 31
0.0
 11
196.2094621227775
 21
321.6656433086408
 31
0.0
 11
194.6733598566965
 21
321.6281451431611
 31
0.0
 11
193.1372531098567
 21
321.6656391873121
 31
0.0
 11
191.6047841341531
 21
321.7772600318137
 31
0.0
 11
190.3072273146117
 21
321.929311306654
 31
0.0
 11
189.0166944391603
 21
322.1320095215877
 31
0.0
 11
188.1488142163683
 21
322.2967453796771
 31
0.0
 11
187.2853329611647
 21
322.4829263334721
 31
0.0
 11
186.979011787334
 21
322.5542448719402
 31
0.0
 11
186.6733137045
 21
322.6281450749
 31
0.0
  0
SPLINE
  5
C8
330
1F
100
AcDbEntity
  8
0
  6
Continuous
 62
     7
100
AcDbSpline
210
0.0
220
0.0
230
1.0
 70
     8
 71
     3
 72
    15
 73
    11
 74
     9
 42
0.0000000001
 43
0.0000000001
 44
0.00000001
 40
0.0
 40
0.0
 40
0.0
 40
0.0
 40
0.1499520085006219
 40
0.3004340248598547
 40
0.4507251465489716
 40
0.6008598894231806
 40
0.7510035493645468
 40
0.9012893510914416
 40
1.051831757341848
 40
1.201718119661325
 40
1.201718119661325
 40
1.201718119661325
 40
1.201718119661325
 10
131.7608137045
 20
317.713512573
 30
0.0
 10
131.7581060905068
 20
317.6634632247944
 30
0.0
 10
131.752681292414
 20
317.5631876281326
 30
0.0
 10
131.7098995116396
 20
317.4178044184844
 30
0.0
 10
131.6424906196373
 20
317.282658866657
 30
0.0
 10
131.550284368574
 20
317.1628689981978
 30
0.0
 10
131.4365874524468
 20
317.0631558627799
 30
0.0
 10
131.3051951450775
 20
316.9884464918846
 30
0.0
 10
131.161153035675
 20
316.9403040190696
 30
0.0
 10
131.0608538073473
 20
316.9340590848854
 30
0.0
 10
131.0108137045
 20
316.9309434363
 30
0.0
 11
131.7608137045
 21
317.713512573
 31
0.0
 11
131.7469382881635
 21
317.5642039072272
 31
0.0
 11
131.7057722629033
 21
317.4194620832376
 31
0.0
 11
131.6383209681763
 21
317.2851574143008
 31
0.0
 11
131.5467056125674
 21
317.1662159680571
 31
0.0
 11
131.4336961366002
 21
317.0673626577321
 31
0.0
 11
131.3031502508079
 21
316.9929073429225
 31
0.0
 11
131.1598670951377
 21
316.9467234346768
 31
0.0
 11
131.0108137045
 21
316.9309434363
 31
0.0
  0
SPLINE
  5
C9
330
1F
100
AcDbEntity
  8
0
  6
Continuous
 62
     7
100
AcDbSpline
210
0.0
220
0.0
230
1.0
 70
     8
 71
     3
 72
    15
 73
    11
 74
     9
 42
0.0000000001
 43
0.0000000001
 44
0.00000001
 40
0.0
 40
0.0
 40
0.0
 40
0.0
 40
0.1498890554579758
 40
0.3004342038426839
 40
0.4507212547626766
 40
0.6008661228114716
 40
0.7509994132914821
 40
0.9012890816556449
 40
1.051768580344947
 40
1.201718088875027
 40
1.201718088875027
 40
1.201718088875027
 40
1.201718088875027
 10
131.0108137045
 20
263.3253467136
 30
0.0
 10
131.0608547086713
 20
263.322230935575
 30
0.0
 10
131.1611557560142
 20
263.3159857411716
 30
0.0
 10
131.3051997532661
 20
263.2678416327125
 30
0.0
 10
131.4365929973836
 20
263.1931303856474
 30
0.0
 10
131.5502892753767
 20
263.0934159744089
 30
0.0
 10
131.6424940418682
 20
262.973625707639
 30
0.0
 10
131.7099011000498
 20
262.8384812864094
 30
0.0
 10
131.7526815635085
 20
262.6931000069142
 30
0.0
 10
131.7581061807121
 20
262.5928260887926
 30
0.0
 10
131.7608137045
 20
262.5427775769
 30
0.0
 11
131.0108137045
 21
263.3253467136
 31
0.0
 11
131.159869737754
 21
263.309566095847
 31
0.0
 11
131.3031552316575
 21
263.2633805035157
 31
0.0
 11
131.4337016161464
 21
263.1889235416443
 31
0.0
 11
131.5467110892687
 21
263.090068393139
 31
0.0
 11
131.6383244501572
 21
262.9711272437538
 31
0.0
 11
131.7057740892532
 21
262.8368233696368
 31
0.0
 11
131.7469387487747
 21
262.6920837747353
 31
0.0
 11
131.7608137045
 21
262.5427775769
 31
0.0
  0
SPLINE
  5
CA
330
1F
100
AcDbEntity
  8
0
  6
Continuous
 62
     7
100
AcDbSpline
210
0.0
220
0.0
230
1.0
 70
     8
 71
     3
 72
    15
 73
    11
 74
     9
 42
0.0000000001
 43
0.0000000001
 44
0.00000001
 40
0.0
 40
0.0
 40
0.0
 40
0.0
 40
0.1499521789460308
 40
0.30043436674326
 40
0.4507255054274896
 40
0.6008602661888065
 40
0.751004023638165
 40
0.9012899196491178
 40
1.051832040771086
 40
1.201718121810998
 40
1.201718121810998
 40
1.201718121810998
 40
1.201718121810998
 10
127.9358137045
 20
262.5427775769
 30
0.0
 10
127.9385213249266
 20
262.5928269821163
 30
0.0
 10
127.9439461359161
 20
262.6931026931308
 30
0.0
 10
127.9867279999587
 20
262.8384860074404
 30
0.0
 10
128.0541369835966
 20
262.9736315906936
 30
0.0
 10
128.1463433193292
 20
263.093421450298
 30
0.0
 10
128.2600403415926
 20
263.1931345726235
 30
0.0
 10
128.3914326733455
 20
263.2678438431283
 30
0.0
 10
128.5354746569556
 20
263.3159861708618
 30
0.0
 10
128.6357736957677
 20
263.3222310783209
 30
0.0
 10
128.6858137045
 20
263.3253467136
 30
0.0
 11
127.9358137045
 21
262.5427775769
 31
0.0
 11
127.9496891531636
 21
262.6920864108484
 31
0.0
 11
127.9908552720949
 21
262.8368283864339
 31
0.0
 11
128.0583066348727
 21
262.9711330402118
 31
0.0
 11
128.1499220577931
 21
263.0900744571867
 31
0.0
 11
128.2629316598871
 21
263.1889277714233
 31
0.0
 11
128.3934776777263
 21
263.2633830450185
 31
0.0
 11
128.5367605899469
 21
263.3095667791408
 31
0.0
 11
128.6858137045
 21
263.3253467136
 31
0.0
  0
SPLINE
  5
CB
330
1F
100
AcDbEntity
  8
0
  6
Continuous
 62
     7
100
AcDbSpline
210
0.0
220
0.0
230
1.0
 70
     8
 71
     3
 72
    15
 73
    11
 74
     9
 42
0.0000000001
 43
0.0000000001
 44
0.00000001
 40
0.0
 40
0.0
 40
0.0
 40
0.0
 40
0.1498887297830365
 40
0.3004335479365966
 40
0.4507207373349186
 40
0.6008657480747661
 40
0.750999095266022
 40
0.9012888186726751
 40
1.051768450196357
 40
1.201718090948125
 40
1.201718090948125
 40
1.201718090948125
 40
1.201718090948125
 10
128.6858137045
 20
316.9309434363
 30
0.0
 10
128.6357728092946
 20
316.9340591988781
 30
0.0
 10
128.5354719814056
 20
316.9403043622551
 30
0.0
 10
128.391428120449
 20
316.9884483058298
 30
0.0
 10
128.2600348325173
 20
317.0631594501616
 30
0.0
 10
128.146338413636
 20
317.162873874602
 30
0.0
 10
128.0541335395869
 20
317.2826641670123
 30
0.0
 10
127.9867263923265
 20
317.4178086359354
 30
0.0
 10
127.9439458603334
 20
317.5631900100943
 30
0.0
 10
127.9385212332286
 20
317.6634640168785
 30
0.0
 10
127.9358137045
 20
317.713512573
 30
0.0
 11
128.6858137045
 21
316.9309434363
 31
0.0
 11
128.536757990895
 21
316.9467239799437
 31
0.0
 11
128.3934727790094
 21
316.9929093707916
 31
0.0
 11
128.2629262180288
 21
317.067366302728
 31
0.0
 11
128.1499165824982
 21
317.1662214822954
 31
0.0
 11
128.058303133064
 21
317.2851626350628
 31
0.0
 11
127.9908534176061
 21
317.4194665324235
 31
0.0
 11
127.9496886851775
 21
317.5642062446921
 31
0.0
 11
127.9358137045
 21
317.713512573
 31
0.0
  0
SPLINE
  5
CC
330
1F
100
AcDbEntity
  8
0
  6
Continuous
 62
     7
100
AcDbSpline
210
0.0
220
0.0
230
1.0
 70
     8
 71
     3
 72
    15
 73
    11
 74
     9
 42
0.0000000001
 43
0.0000000001
 44
0.00000001
 40
0.0
 40
0.0
 40
0.0
 40
0.0
 40
0.1991719801557306
 40
0.3990534797347886
 40
0.5986806086127714
 40
0.7980986751277281
 40
0.9975251470930973
 40
1.197147680773435
 40
1.397095016904708
 40
1.596192537845978
 40
1.596192537845978
 40
1.596192537845978
 40
1.596192537845978
 10
121.8733137045
 20
260.4511943177
 30
0.0
 10
121.8769387982467
 20
260.3847155518694
 30
0.0
 10
121.8842018995768
 20
260.2515211998704
 30
0.0
 10
121.9414940324984
 20
260.0585180895328
 30
0.0
 10
122.0318009459891
 20
259.8793753970481
 30
0.0
 10
122.1551592498467
 20
259.7209290219408
 30
0.0
 10
122.3070109312187
 20
259.5894383305718
 30
0.0
 10
122.4820872598411
 20
259.4912124570881
 30
0.0
 10
122.6736268966695
 20
259.4280648656002
 30
0.0
 10
122.8068460040576
 20
259.419901310568
 30
0.0
 10
122.8733137045
 20
259.4158282257
 30
0.0
 11
121.8733137045
 21
260.4511943177
 31
0.0
 11
121.8918928298717
 21
260.2528907781966
 31
0.0
 11
121.9470270086264
 21
260.0607636426665
 31
0.0
 11
122.0373591416594
 21
259.8827437102831
 31
0.0
 11
122.1599047821411
 21
259.7254219659135
 31
0.0
 11
122.3108030812453
 21
259.5950355362208
 31
0.0
 11
122.4847509135874
 21
259.4971003148935
 31
0.0
 11
122.6752915445983
 21
259.4364933420276
 31
0.0
 11
122.8733137045
 21
259.4158282257
 31
0.0
  0
SPLINE
  5
CD
330
1F
100
AcDbEntity
  8
0
  6
Continuous
 62
     7
100
AcDbSpline
210
0.0
220
0.0
230
1.0
 70
     8
 71
     3
 72
    15
 73
    11
 74
     9
 42
0.0000000001
 43
0.0000000001
 44
0.00000001
 40
0.0
 40
0.0
 40
0.0
 40
0.0
 40
0.1991002754244129
 40
0.3990504136056338
 40
0.5986744170975808
 40
0.7981023202753231
 40
0.997518754969684
 40
1.197144245665632
 40
1.397023128026804
 40
1.596192512800747
 40
1.596192512800747
 40
1.596192512800747
 40
1.596192512800747
 10
122.8733137045
 20
320.8404619242
 30
0.0
 10
122.8068450822143
 20
320.8363887101779
 30
0.0
 10
122.67362411525
 20
320.8282248955534
 30
0.0
 10
122.4820824763793
 20
320.7650756340242
 30
0.0
 10
122.3070050751435
 20
320.6668477605002
 30
0.0
 10
122.1551540166933
 20
320.5353556580454
 30
0.0
 10
122.0317972935257
 20
320.3769088644069
 30
0.0
 10
121.9414923372834
 20
320.1977674099768
 30
0.0
 10
121.8842016089475
 20
320.0047663378723
 30
0.0
 10
121.8769387015615
 20
319.8715737297434
 30
0.0
 10
121.8733137045
 20
319.8050958322
 30
0.0
 11
122.8733137045
 21
320.8404619242
 31
0.0
 11
122.6752888400009
 21
320.8197961865124
 31
0.0
 11
122.484745810158
 21
320.7591875110855
 31
0.0
 11
122.3107973013853
 21
320.6612504952748
 31
0.0
 11
122.1598988851147
 21
320.5308620121451
 31
0.0
 11
122.0373554202671
 21
320.373540641539
 31
0.0
 11
121.9470250803441
 21
320.1955216363036
 31
0.0
 11
121.8918923399848
 21
320.003396810853
 31
0.0
 11
121.8733137045
 21
319.8050958322
 31
0.0
  0
SPLINE
  5
CE
330
1F
100
AcDbEntity
  8
0
  6
Continuous
 62
     7
100
AcDbSpline
210
0.0
220
0.0
230
1.0
 70
     8
 71
     3
 72
    15
 73
    11
 74
     9
 42
0.0000000001
 43
0.0000000001
 44
0.00000001
 40
0.0
 40
0.0
 40
0.0
 40
0.0
 40
0.1991000959320601
 40
0.3990500501373963
 40
0.5986741602461088
 40
0.7981021742185431
 40
0.9975186422146574
 40
1.19714416512794
 40
1.397023090651953
 40
1.596192517499527
 40
1.596192517499527
 40
1.596192517499527
 40
1.596192517499527
 10
136.6733137045
 20
259.4158282257
 30
0.0
 10
136.7397822667325
 20
259.4199014290928
 30
0.0
 10
136.873003112093
 20
259.4280652223371
 30
0.0
 10
137.064544689479
 20
259.4912143824835
 30
0.0
 10
137.2396221291111
 20
259.5894422179844
 30
0.0
 10
137.3914732683818
 20
259.7209343571383
 30
0.0
 10
137.5148300422748
 20
259.8793811863098
 30
0.0
 10
137.6051350303394
 20
260.0585226650734
 30
0.0
 10
137.6624257910819
 20
260.2515237694367
 30
0.0
 10
137.6696887044576
 20
260.3847164060808
 30
0.0
 10
137.6733137045
 20
260.4511943177
 30
0.0
 11
136.6733137045
 21
259.4158282257
 31
0.0
 11
136.8713383935704
 21
259.4364939151083
 31
0.0
 11
137.0618812686186
 21
259.4971024702394
 31
0.0
 11
137.235829897742
 21
259.595039489608
 31
0.0
 11
137.3867284155929
 21
259.7254280246385
 31
0.0
 11
137.5092719149887
 21
259.882749410546
 31
0.0
 11
137.599602285841
 21
260.0607684362149
 31
0.0
 11
137.654735056054
 21
260.2528932980034
 31
0.0
 11
137.6733137045
 21
260.4511943177
 31
0.0
  0
SPLINE
  5
CF
330
1F
100
AcDbEntity
  8
0
  6
Continuous
 62
     7
100
AcDbSpline
210
0.0
220
0.0
230
1.0
 70
     8
 71
     3
 72
    15
 73
    11
 74
     9
 42
0.0000000001
 43
0.0000000001
 44
0.00000001
 40
0.0
 40
0.0
 40
0.0
 40
0.0
 40
0.1991720574206861
 40
0.3990536357614034
 40
0.5986807643401542
 40
0.7980988308461338
 40
0.997525374296723
 40
1.197147976174079
 40
1.397095164926113
 40
1.59619254242515
 40
1.59619254242515
 40
1.59619254242515
 40
1.59619254242515
 10
137.6733137045
 20
319.8050958322
 30
0.0
 10
137.6696886063355
 20
319.8715746238748
 30
0.0
 10
137.6624254961318
 20
320.004769028062
 30
0.0
 10
137.6051333165951
 20
320.1977721805459
 30
0.0
 10
137.5148263681711
 20
320.3769148838334
 30
0.0
 10
137.3914680328835
 20
320.5353612644552
 30
0.0
 10
137.2396163000743
 20
320.6668519689773
 30
0.0
 10
137.0645399500715
 20
320.7650778049923
 30
0.0
 10
136.8730003670354
 20
320.8282253110347
 30
0.0
 10
136.739781356949
 20
320.8363888482083
 30
0.0
 10
136.6733137045
 20
320.8404619242
 30
0.0
 11
137.6733137045
 21
319.8050958322
 31
0.0
 11
137.6547345591472
 21
320.0033994474347
 31
0.0
 11
137.5996003310678
 21
320.1955266507508
 31
0.0
 11
137.5092681736047
 21
320.3735465704021
 31
0.0
 11
137.3867225163039
 21
320.5308683016591
 31
0.0
 11
137.2358241465414
 21
320.6612547589147
 31
0.0
 11
137.0618762319271
 21
320.7591899731208
 31
0.0
 11
136.8713357243507
 21
320.8197968478329
 31
0.0
 11
136.6733137045
 21
320.8404619242
 31
0.0
  0
SPLINE
  5
D0
330
1F
100
AcDbEntity
  8
0
  6
Continuous
 62
     2
100
AcDbSpline
210
0.0
220
0.0
230
1.0
 70
     8
 71
     3
 72
    47
 73
    43
 74
    41
 42
0.0000000001
 43
0.0000000001
 44
0.00000001
 40
0.0
 40
0.0
 40
0.0
 40
0.0
 40
0.0291218107109992
 40
0.1157320776987485
 40
0.2586401490285032
 40
0.4564231697889507
 40
0.7075723123378777
 40
1.010456160588424
 40
1.363390768182611
 40
1.764571432743982
 40
2.211967978563788
 40
2.702704845407534
 40
3.233631039810953
 40
3.801238560432981
 40
4.401677763585259
 40
5.029955353768816
 40
5.680825474905701
 40
6.349029440440507
 40
7.029662763305891
 40
7.71914137150934
 40
8.41430547422511
 40
9.112309290877906
 40
9.810379007469274
 40
10.50569039189882
 40
11.19533276293889
 40
11.87612338606739
 40
12.5444805728207
 40
13.19556212480986
 40
13.82419036357409
 40
14.42521546109213
 40
14.99370012793458
 40
15.52567428539296
 40
16.01748366513404
 40
16.46590397194668
 40
16.86801087489913
 40
17.22175158773303
 40
17.52531117814772
 40
17.77701932394697
 40
17.97525828477149
 40
18.1185094915014
 40
18.20533502082282
 40
18.23453132969985
 40
18.23453132969985
 40
18.23453132969985
 40
18.23453132969985
 10
185.6733137045
 20
322.6281907389
 30
0.0
 10
185.6826666918612
 20
322.6255921311605
 30
0.0
 10
185.7198361065912
 20
322.6152650853663
 30
0.0
 10
185.8029707447556
 20
322.592430800162
 30
0.0
 10
185.9404080748081
 20
322.555035077075
 30
0.0
 10
186.1310193017658
 20
322.5041709217373
 30
0.0
 10
186.3735046224344
 20
322.4408878068176
 30
0.0
 10
186.6665943771906
 20
322.3667305362355
 30
0.0
 10
187.0088965276531
 20
322.2832352612169
 30
0.0
 10
187.3989575035262
 20
322.1923381695897
 30
0.0
 10
187.8348991037641
 20
322.096047493223
 30
0.0
 10
188.3144194435956
 20
321.9967072689464
 30
0.0
 10
188.8346853167081
 20
321.8967708162387
 30
0.0
 10
189.3924940600804
 20
321.7987798568478
 30
0.0
 10
189.9839701108304
 20
321.7053719120334
 30
0.0
 10
190.6045506528617
 20
321.6189672310325
 30
0.0
 10
191.2491427188012
 20
321.5420893158143
 30
0.0
 10
191.9125287791693
 20
321.4765362754787
 30
0.0
 10
192.5899928858314
 20
321.4240952494747
 30
0.0
 10
193.2774051849532
 20
321.3857626013138
 30
0.0
 10
193.9712866981805
 20
321.3624654894724
 30
0.0
 10
194.6683787609779
 20
321.3545242721943
 30
0.0
 10
195.3655223733573
 20
321.3622468738236
 30
0.0
 10
196.0595367953881
 20
321.3853299502298
 30
0.0
 10
196.7471166875619
 20
321.4234616874676
 30
0.0
 10
197.4247540200753
 20
321.4757134870053
 30
0.0
 10
198.0883322869164
 20
321.5410910055544
 30
0.0
 10
198.7331825551503
 20
321.617817586595
 30
0.0
 10
199.354165476289
 20
321.7041075311205
 30
0.0
 10
199.9462619117758
 20
321.7974634721076
 30
0.0
 10
200.5049165905909
 20
321.8954771167483
 30
0.0
 10
201.0261834701267
 20
321.9954998928758
 30
0.0
 10
201.5067459106027
 20
322.0949769602414
 30
0.0
 10
201.9436834952315
 20
322.1914300830108
 30
0.0
 10
202.3346481377172
 20
322.282497568333
 30
0.0
 10
202.6777362677813
 20
322.3661580025694
 30
0.0
 10
202.9714895016858
 20
322.4404665090008
 30
0.0
 10
203.2145223380613
 20
322.5038834832538
 30
0.0
 10
203.4055720858238
 20
322.5548601332709
 30
0.0
 10
203.5433361119374
 20
322.5923429991915
 30
0.0
 10
203.6266743226795
 20
322.6152326494354
 30
0.0
 10
203.6639367924206
 20
322.6255855755872
 30
0.0
 10
203.6733137045
 20
322.6281908371
 30
0.0
 11
185.6733137045
 21
322.6281907389
 31
0.0
 11
185.7013745862646
 21
322.6204018510666
 31
0.0
 11
185.7848818365167
 21
322.5974262661333
 31
0.0
 11
185.9227835606312
 21
322.5599318487166
 31
0.0
 11
186.1138726557334
 21
322.5089114505
 31
0.0
 11
186.3568891494833
 21
322.4455168484542
 31
0.0
 11
186.6505167999333
 21
322.3712105336333
 31
0.0
 11
186.9934042482521
 21
322.2875981241292
 31
0.0
 11
187.3841159376833
 21
322.1965470321
 31
0.0
 11
187.8209876410625
 21
322.1000753575104
 31
0.0
 11
188.3015246475167
 21
322.0005421574834
 31
0.0
 11
188.8229235318083
 21
321.9004131039417
 31
0.0
 11
189.38197649495
 21
321.80223937085
 31
0.0
 11
189.9750673628145
 21
321.7085886413395
 31
0.0
 11
190.5973508344667
 21
321.6220091331667
 31
0.0
 11
191.2436401317312
 21
321.5449243822104
 31
0.0
 11
191.9086116942833
 21
321.4792786622166
 31
0.0
 11
192.5872147116187
 21
321.4267461479229
 31
0.0
 11
193.2756261546667
 21
321.3883998801666
 31
0.0
 11
193.9703983422771
 21
321.3650602780354
 31
0.0
 11
194.66835720355
 21
321.3571384075167
 31
0.0
 11
195.366384421325
 21
321.3648411646333
 31
0.0
 11
196.06131108315
 21
321.38796811865
 31
0.0
 11
196.7498977099521
 21
321.4261133322834
 31
0.0
 11
197.4286731514667
 21
321.4784561688166
 31
0.0
 11
198.0938161824334
 21
321.543924309475
 31
0.0
 11
198.7403369488
 21
321.6208534066834
 31
0.0
 11
199.3629909482479
 21
321.7073141465792
 31
0.0
 11
199.9566837141833
 21
321.8009093789499
 31
0.0
 11
200.516622297025
 21
321.8991112113167
 31
0.0
 11
201.0390697795167
 21
321.9993366184833
 31
0.0
 11
201.5206728232562
 21
322.099010959525
 31
0.0
 11
201.9585563729333
 21
322.1956482633166
 31
0.0
 11
202.3501790349333
 21
322.2868713525542
 31
0.0
 11
202.6938557793333
 21
322.3706495554167
 31
0.0
 11
202.9881424588688
 21
322.4451060875729
 31
0.0
 11
203.2317020932167
 21
322.5086332091667
 31
0.0
 11
203.4232328247209
 21
322.5597669991521
 31
0.0
 11
203.56146611945
 21
322.59734976725
 31
0.0
 11
203.6451810391438
 21
322.6203820220813
 31
0.0
 11
203.6733137045
 21
322.6281908371
 31
0.0
  0
SPLINE
  5
D1
330
1F
100
AcDbEntity
  8
0
  6
Continuous
 62
     2
100
AcDbSpline
210
0.0
220
0.0
230
1.0
 70
     8
 71
     3
 72
    47
 73
    43
 74
    41
 42
0.0000000001
 43
0.0000000001
 44
0.00000001
 40
0.0
 40
0.0
 40
0.0
 40
0.0
 40
0.0291218107109718
 40
0.1157320776987485
 40
0.2586401490284758
 40
0.4564231697889233
 40
0.7075723123379053
 40
1.010456160588424
 40
1.363390768182583
 40
1.76457143274401
 40
2.211967978563844
 40
2.702704845407533
 40
3.233631039810981
 40
3.801238560432953
 40
4.401677763585314
 40
5.029955353768843
 40
5.680825474905699
 40
6.349029440440533
 40
7.029662763305888
 40
7.719141371509338
 40
8.414305474225078
 40
9.112309290877931
 40
9.810379007469242
 40
10.50569039189879
 40
11.19533276293891
 40
11.87612338606739
 40
12.54448057282067
 40
13.19556212480985
 40
13.82419036357406
 40
14.42521546109212
 40
14.99370012793455
 40
15.52567428539295
 40
16.01748366513401
 40
16.46590397194668
 40
16.8680108748991
 40
17.22175158773302
 40
17.52531117814771
 40
17.77701932394693
 40
17.97525828477149
 40
18.11850949150136
 40
18.20533502082282
 40
18.23453132969984
 40
18.23453132969984
 40
18.23453132969984
 40
18.23453132969984
 10
160.6733137045
 20
322.6281907389
 30
0.0
 10
160.6826666918612
 20
322.6255921311604
 30
0.0
 10
160.7198361065913
 20
322.6152650853665
 30
0.0
 10
160.8029707447554
 20
322.5924308001618
 30
0.0
 10
160.9404080748081
 20
322.555035077075
 30
0.0
 10
161.1310193017659
 20
322.5041709217373
 30
0.0
 10
161.3735046224344
 20
322.4408878068177
 30
0.0
 10
161.6665943771906
 20
322.3667305362356
 30
0.0
 10
162.0088965276531
 20
322.2832352612169
 30
0.0
 10
162.3989575035263
 20
322.1923381695898
 30
0.0
 10
162.8348991037641
 20
322.096047493223
 30
0.0
 10
163.3144194435956
 20
321.9967072689465
 30
0.0
 10
163.834685316708
 20
321.8967708162386
 30
0.0
 10
164.3924940600804
 20
321.7987798568478
 30
0.0
 10
164.9839701108304
 20
321.7053719120334
 30
0.0
 10
165.6045506528619
 20
321.6189672310326
 30
0.0
 10
166.2491427188011
 20
321.5420893158142
 30
0.0
 10
166.9125287791693
 20
321.4765362754788
 30
0.0
 10
167.5899928858314
 20
321.4240952494746
 30
0.0
 10
168.2774051849532
 20
321.3857626013139
 30
0.0
 10
168.9712866981805
 20
321.3624654894722
 30
0.0
 10
169.668378760978
 20
321.3545242721945
 30
0.0
 10
170.3655223733573
 20
321.3622468738235
 30
0.0
 10
171.0595367953881
 20
321.3853299502297
 30
0.0
 10
171.747116687562
 20
321.4234616874678
 30
0.0
 10
172.4247540200752
 20
321.4757134870051
 30
0.0
 10
173.0883322869165
 20
321.5410910055545
 30
0.0
 10
173.7331825551502
 20
321.6178175865949
 30
0.0
 10
174.354165476289
 20
321.7041075311207
 30
0.0
 10
174.9462619117758
 20
321.7974634721077
 30
0.0
 10
175.5049165905909
 20
321.8954771167483
 30
0.0
 10
176.0261834701267
 20
321.9954998928759
 30
0.0
 10
176.5067459106028
 20
322.0949769602414
 30
0.0
 10
176.9436834952315
 20
322.1914300830108
 30
0.0
 10
177.3346481377171
 20
322.2824975683329
 30
0.0
 10
177.6777362677814
 20
322.3661580025695
 30
0.0
 10
177.9714895016857
 20
322.4404665090007
 30
0.0
 10
178.2145223380614
 20
322.5038834832538
 30
0.0
 10
178.4055720858236
 20
322.5548601332709
 30
0.0
 10
178.5433361119374
 20
322.5923429991915
 30
0.0
 10
178.6266743226795
 20
322.6152326494353
 30
0.0
 10
178.6639367924206
 20
322.6255855755872
 30
0.0
 10
178.6733137045
 20
322.6281908371
 30
0.0
 11
160.6733137045
 21
322.6281907389
 31
0.0
 11
160.7013745862646
 21
322.6204018510666
 31
0.0
 11
160.7848818365167
 21
322.5974262661333
 31
0.0
 11
160.9227835606312
 21
322.5599318487166
 31
0.0
 11
161.1138726557333
 21
322.5089114505
 31
0.0
 11
161.3568891494833
 21
322.4455168484542
 31
0.0
 11
161.6505167999333
 21
322.3712105336333
 31
0.0
 11
161.9934042482521
 21
322.2875981241292
 31
0.0
 11
162.3841159376834
 21
322.1965470321
 31
0.0
 11
162.8209876410625
 21
322.1000753575104
 31
0.0
 11
163.3015246475167
 21
322.0005421574834
 31
0.0
 11
163.8229235318083
 21
321.9004131039417
 31
0.0
 11
164.38197649495
 21
321.80223937085
 31
0.0
 11
164.9750673628146
 21
321.7085886413395
 31
0.0
 11
165.5973508344667
 21
321.6220091331667
 31
0.0
 11
166.2436401317312
 21
321.5449243822104
 31
0.0
 11
166.9086116942833
 21
321.4792786622166
 31
0.0
 11
167.5872147116187
 21
321.4267461479229
 31
0.0
 11
168.2756261546667
 21
321.3883998801666
 31
0.0
 11
168.9703983422771
 21
321.3650602780354
 31
0.0
 11
169.66835720355
 21
321.3571384075167
 31
0.0
 11
170.366384421325
 21
321.3648411646333
 31
0.0
 11
171.06131108315
 21
321.38796811865
 31
0.0
 11
171.7498977099521
 21
321.4261133322834
 31
0.0
 11
172.4286731514667
 21
321.4784561688166
 31
0.0
 11
173.0938161824333
 21
321.543924309475
 31
0.0
 11
173.7403369488
 21
321.6208534066834
 31
0.0
 11
174.3629909482479
 21
321.7073141465792
 31
0.0
 11
174.9566837141833
 21
321.8009093789499
 31
0.0
 11
175.516622297025
 21
321.8991112113167
 31
0.0
 11
176.0390697795167
 21
321.9993366184833
 31
0.0
 11
176.5206728232562
 21
322.099010959525
 31
0.0
 11
176.9585563729333
 21
322.1956482633166
 31
0.0
 11
177.3501790349333
 21
322.2868713525542
 31
0.0
 11
177.6938557793333
 21
322.3706495554167
 31
0.0
 11
177.9881424588688
 21
322.4451060875729
 31
0.0
 11
178.2317020932167
 21
322.5086332091667
 31
0.0
 11
178.4232328247209
 21
322.5597669991521
 31
0.0
 11
178.56146611945
 21
322.59734976725
 31
0.0
 11
178.6451810391438
 21
322.6203820220813
 31
0.0
 11
178.6733137045
 21
322.6281908371
 31
0.0
  0
DIMENSION
  5
DC
330
1F
100
AcDbEntity
  8
1
100
AcDbDimension
  2
*D2
 10
218.6733137045
 20
347.949871364514
 30
0.0
 11
150.6656914515024
 21
351.699871364514
 31
0.0
 70
    32
  1
<>
 71
     5
 42
-1.0
 53
0.00013888888889
  3
ME10_DIM_10
100
AcDbAlignedDimension
 13
50.27331370449997
 23
301.5776932758
 33
0.0
 14
218.6733137045
 24
314.5452413063
 34
0.0
100
AcDbRotatedDimension
  0
DIMENSION
  5
E7
330
1F
100
AcDbEntity
  8
1
100
AcDbDimension
  2
*D3
 10
218.6733137045
 20
340.347108686641
 30
0.0
 11
167.727402839427
 21
344.097108686641
 31
0.0
 70
    32
  1
<>
 71
     5
 42
-1.0
 53
0.00013888888889
  3
ME10_DIM_11
100
AcDbAlignedDimension
 13
118.6733137045
 23
316.9309434363
 33
0.0
 14
218.6733137045
 24
314.5452413063
 34
0.0
100
AcDbRotatedDimension
  0
DIMENSION
  5
F2
330
1F
100
AcDbEntity
  8
1
100
AcDbDimension
  2
*D4
 10
218.6733137045
 20
332.961969430539
 30
0.0
 11
177.6720314016437
 21
336.711969430539
 31
0.0
 70
    32
  1
<>
 71
     5
 42
-1.0
 53
0.00013888888889
  3
ME10_DIM_12
100
AcDbAlignedDimension
 13
137.6733137045
 23
319.8050958322
 33
0.0
 14
218.6733137045
 24
314.5452413063
 34
0.0
100
AcDbRotatedDimension
  0
DIMENSION
  5
FD
330
1F
100
AcDbEntity
  8
1
100
AcDbDimension
  2
*D5
 10
239.240167969341
 20
322.6281908371
 30
0.0
 11
235.490167969341
 21
290.497418707957
 31
0.0
 70
    32
  1
<>
 71
     5
 42
-1.0
 53
90.0
  3
ME10_DIM_13
100
AcDbAlignedDimension
 13
205.4053645121
 23
257.6281450749
 33
0.0
 14
203.6733137045
 24
322.6281908371
 34
0.0
 50
90.0
100
AcDbRotatedDimension
  0
DIMENSION
  5
108
330
1F
100
AcDbEntity
  8
1
100
AcDbDimension
  2
*D6
 10
230.870343479093
 20
302.6281450749
 30
0.0
 11
227.120343479093
 21
290.620504362225
 31
0.0
 70
    32
  1
<>
 71
     5
 42
-1.0
 53
90.0
  3
ME10_DIM_14
100
AcDbAlignedDimension
 13
218.6733137045
 23
277.6281450749
 33
0.0
 14
218.6733137045
 24
302.6281450749
 34
0.0
 50
90.0
100
AcDbRotatedDimension
  0
INSERT
  5
10F
330
1F
100
AcDbEntity
  8
1
100
AcDbBlockReference
  2
*D7
 10
0.0
 20
0.0
 30
0.0
  0
ENDSEC
  0
SECTION
  2
OBJECTS
  0
DICTIONARY
  5
C
330
0
100
AcDbDictionary
281
     1
  3
ACAD_GROUP
350
D
  3
ACAD_LAYOUT
350
1A
  3
ACAD_MLEADERSTYLE
350
112
  3
ACAD_MLINESTYLE
350
17
  3
ACAD_PLOTSETTINGS
350
19
  3
ACAD_PLOTSTYLENAME
350
E
  3
ACAD_SCALELIST
350
4A
  3
ACAD_VISUALSTYLE
350
2A
  3
AcDbVariableDictionary
350
110
  0
DICTIONARY
  5
D
102
{ACAD_REACTORS
330
C
102
}
330
C
100
AcDbDictionary
281
     1
  0
DICTIONARY
  5
1A
102
{ACAD_REACTORS
330
C
102
}
330
C
100
AcDbDictionary
281
     1
  3
Layout1
350
1E
  3
Layout2
350
26
  3
Model
350
22
  0
DICTIONARY
  5
112
102
{ACAD_REACTORS
330
C
102
}
330
C
100
AcDbDictionary
281
     1
  0
DICTIONARY
  5
17
102
{ACAD_REACTORS
330
C
102
}
330
C
100
AcDbDictionary
281
     1
  3
Standard
350
18
  0
DICTIONARY
  5
19
102
{ACAD_REACTORS
330
C
102
}
330
C
100
AcDbDictionary
281
     1
  0
ACDBDICTIONARYWDFLT
  5
E
102
{ACAD_REACTORS
330
C
102
}
330
C
100
AcDbDictionary
281
     1
  3
Normal
350
F
100
AcDbDictionaryWithDefault
340
F
  0
DICTIONARY
  5
4A
102
{ACAD_REACTORS
330
C
102
}
330
C
100
AcDbDictionary
281
     1
  3
A0
350
4B
  3
A1
350
4C
  3
A2
350
4D
  3
A3
350
4E
  3
A4
350
4F
  3
A5
350
50
  3
A6
350
51
  3
A7
350
52
  3
A8
350
53
  3
A9
350
54
  3
B0
350
55
  3
B1
350
56
  3
B2
350
57
  3
B3
350
58
  3
B4
350
59
  3
B5
350
5A
  3
B6
350
5B
  3
B7
350
5C
  3
B8
350
5D
  3
B9
350
5E
  3
C0
350
5F
  3
C1
350
60
  3
C2
350
61
  3
C3
350
62
  3
C4
350
63
  3
C5
350
64
  3
C6
350
65
  3
C7
350
66
  3
C8
350
67
  3
C9
350
68
  3
D0
350
69
  3
D1
350
6A
  3
D2
350
6B
  0
DICTIONARY
  5
2A
102
{ACAD_REACTORS
330
C
102
}
330
C
100
AcDbDictionary
281
     1
  3
2dWireframe
350
2F
  3
3D Hidden
350
31
  3
3dWireframe
350
30
  3
Basic
350
32
  3
Brighten
350
36
  3
ColorChange
350
3A
  3
Conceptual
350
34
  3
Dim
350
35
  3
Facepattern
350
39
  3
Flat
350
2B
  3
FlatWithEdges
350
2C
  3
Gouraud
350
2D
  3
GouraudWithEdges
350
2E
  3
Linepattern
350
38
  3
Realistic
350
33
  3
Thicken
350
37
  0
DICTIONARY
  5
110
102
{ACAD_REACTORS
330
C
102
}
330
C
100
AcDbDictionary
281
     1
  3
CANNOSCALE
350
113
  0
LAYOUT
  5
1E
102
{ACAD_REACTORS
330
1A
102
}
330
1A
100
AcDbPlotSettings
  1

  2
none_device
  4

  6

 40
0.0
 41
0.0
 42
0.0
 43
0.0
 44
0.0
 45
0.0
 46
0.0
 47
0.0
 48
0.0
 49
0.0
140
0.0
141
0.0
142
1.0
143
1.0
 70
   688
 72
     0
 73
     0
 74
     5
  7

 75
    16
147
1.0
148
0.0
149
0.0
100
AcDbLayout
  1
Layout1
 70
     1
 71
     1
 10
0.0
 20
0.0
 11
12.0
 21
9.0
 12
0.0
 22
0.0
 32
0.0
 14
1.00000000000000E+20
 24
1.00000000000000E+20
 34
1.00000000000000E+20
 15
-1.00000000000000E+20
 25
-1.00000000000000E+20
 35
-1.00000000000000E+20
146
0.0
 13
0.0
 23
0.0
 33
0.0
 16
1.0
 26
0.0
 36
0.0
 17
0.0
 27
1.0
 37
0.0
 76
     0
330
1B
  0
LAYOUT
  5
26
102
{ACAD_REACTORS
330
1A
102
}
330
1A
100
AcDbPlotSettings
  1

  2
none_device
  4

  6

 40
0.0
 41
0.0
 42
0.0
 43
0.0
 44
0.0
 45
0.0
 46
0.0
 47
0.0
 48
0.0
 49
0.0
140
0.0
141
0.0
142
1.0
143
1.0
 70
   688
 72
     0
 73
     0
 74
     5
  7

 75
    16
147
1.0
148
0.0
149
0.0
100
AcDbLayout
  1
Layout2
 70
     1
 71
     2
 10
0.0
 20
0.0
 11
0.0
 21
0.0
 12
0.0
 22
0.0
 32
0.0
 14
0.0
 24
0.0
 34
0.0
 15
0.0
 25
0.0
 35
0.0
146
0.0
 13
0.0
 23
0.0
 33
0.0
 16
1.0
 26
0.0
 36
0.0
 17
0.0
 27
1.0
 37
0.0
 76
     0
330
23
  0
LAYOUT
  5
22
102
{ACAD_REACTORS
330
1A
102
}
330
1A
100
AcDbPlotSettings
  1

  2
none_device
  4

  6

 40
0.0
 41
0.0
 42
0.0
 43
0.0
 44
0.0
 45
0.0
 46
0.0
 47
0.0
 48
0.0
 49
0.0
140
0.0
141
0.0
142
1.0
143
1.0
 70
  1712
 72
     0
 73
     0
 74
     0
  7

 75
     0
147
1.0
148
0.0
149
0.0
100
AcDbLayout
  1
Model
 70
     1
 71
     0
 10
0.0
 20
0.0
 11
12.0
 21
9.0
 12
0.0
 22
0.0
 32
0.0
 14
47.14831370450003
 24
238.4233816391627
 34
0.0
 15
241.240167969341
 25
353.449871364514
 35
0.0
146
0.0
 13
0.0
 23
0.0
 33
0.0
 16
1.0
 26
0.0
 36
0.0
 17
0.0
 27
1.0
 37
0.0
 76
     0
330
1F
331
29
  0
MLINESTYLE
  5
18
102
{ACAD_REACTORS
330
17
102
}
330
17
100
AcDbMlineStyle
  2
Standard
 70
     0
  3

 62
   256
 51
90.0
 52
90.0
 71
     2
 49
0.5
 62
   256
  6
BYLAYER
 49
-0.5
 62
   256
  6
BYLAYER
  0
ACDBPLACEHOLDER
  5
F
102
{ACAD_REACTORS
330
E
102
}
330
E
  0
SCALE
  5
4B
102
{ACAD_REACTORS
330
4A
102
}
330
4A
100
AcDbScale
 70
     0
300
1:1
140
1.0
141
1.0
290
     1
  0
SCALE
  5
4C
102
{ACAD_REACTORS
330
4A
102
}
330
4A
100
AcDbScale
 70
     0
300
1:2
140
1.0
141
2.0
290
     0
  0
SCALE
  5
4D
102
{ACAD_REACTORS
330
4A
102
}
330
4A
100
AcDbScale
 70
     0
300
1:4
140
1.0
141
4.0
290
     0
  0
SCALE
  5
4E
102
{ACAD_REACTORS
330
4A
102
}
330
4A
100
AcDbScale
 70
     0
300
1:5
140
1.0
141
5.0
290
     0
  0
SCALE
  5
4F
102
{ACAD_REACTORS
330
4A
102
}
330
4A
100
AcDbScale
 70
     0
300
1:8
140
1.0
141
8.0
290
     0
  0
SCALE
  5
50
102
{ACAD_REACTORS
330
4A
102
}
330
4A
100
AcDbScale
 70
     0
300
1:10
140
1.0
141
10.0
290
     0
  0
SCALE
  5
51
102
{ACAD_REACTORS
330
4A
102
}
330
4A
100
AcDbScale
 70
     0
300
1:16
140
1.0
141
16.0
290
     0
  0
SCALE
  5
52
102
{ACAD_REACTORS
330
4A
102
}
330
4A
100
AcDbScale
 70
     0
300
1:20
140
1.0
141
20.0
290
     0
  0
SCALE
  5
53
102
{ACAD_REACTORS
330
4A
102
}
330
4A
100
AcDbScale
 70
     0
300
1:30
140
1.0
141
30.0
290
     0
  0
SCALE
  5
54
102
{ACAD_REACTORS
330
4A
102
}
330
4A
100
AcDbScale
 70
     0
300
1:40
140
1.0
141
40.0
290
     0
  0
SCALE
  5
55
102
{ACAD_REACTORS
330
4A
102
}
330
4A
100
AcDbScale
 70
     0
300
1:50
140
1.0
141
50.0
290
     0
  0
SCALE
  5
56
102
{ACAD_REACTORS
330
4A
102
}
330
4A
100
AcDbScale
 70
     0
300
1:100
140
1.0
141
100.0
290
     0
  0
SCALE
  5
57
102
{ACAD_REACTORS
330
4A
102
}
330
4A
100
AcDbScale
 70
     0
300
2:1
140
2.0
141
1.0
290
     0
  0
SCALE
  5
58
102
{ACAD_REACTORS
330
4A
102
}
330
4A
100
AcDbScale
 70
     0
300
4:1
140
4.0
141
1.0
290
     0
  0
SCALE
  5
59
102
{ACAD_REACTORS
330
4A
102
}
330
4A
100
AcDbScale
 70
     0
300
8:1
140
8.0
141
1.0
290
     0
  0
SCALE
  5
5A
102
{ACAD_REACTORS
330
4A
102
}
330
4A
100
AcDbScale
 70
     0
300
10:1
140
10.0
141
1.0
290
     0
  0
SCALE
  5
5B
102
{ACAD_REACTORS
330
4A
102
}
330
4A
100
AcDbScale
 70
     0
300
100:1
140
100.0
141
1.0
290
     0
  0
SCALE
  5
5C
102
{ACAD_REACTORS
330
4A
102
}
330
4A
100
AcDbScale
 70
     0
300
1/128" = 1'-0"
140
0.0078125
141
12.0
290
     0
  0
SCALE
  5
5D
102
{ACAD_REACTORS
330
4A
102
}
330
4A
100
AcDbScale
 70
     0
300
1/64" = 1'-0"
140
0.015625
141
12.0
290
     0
  0
SCALE
  5
5E
102
{ACAD_REACTORS
330
4A
102
}
330
4A
100
AcDbScale
 70
     0
300
1/32" = 1'-0"
140
0.03125
141
12.0
290
     0
  0
SCALE
  5
5F
102
{ACAD_REACTORS
330
4A
102
}
330
4A
100
AcDbScale
 70
     0
300
1/16" = 1'-0"
140
0.0625
141
12.0
290
     0
  0
SCALE
  5
60
102
{ACAD_REACTORS
330
4A
102
}
330
4A
100
AcDbScale
 70
     0
300
3/32" = 1'-0"
140
0.09375
141
12.0
290
     0
  0
SCALE
  5
61
102
{ACAD_REACTORS
330
4A
102
}
330
4A
100
AcDbScale
 70
     0
300
1/8" = 1'-0"
140
0.125
141
12.0
290
     0
  0
SCALE
  5
62
102
{ACAD_REACTORS
330
4A
102
}
330
4A
100
AcDbScale
 70
     0
300
3/16" = 1'-0"
140
0.1875
141
12.0
290
     0
  0
SCALE
  5
63
102
{ACAD_REACTORS
330
4A
102
}
330
4A
100
AcDbScale
 70
     0
300
1/4" = 1'-0"
140
0.25
141
12.0
290
     0
  0
SCALE
  5
64
102
{ACAD_REACTORS
330
4A
102
}
330
4A
100
AcDbScale
 70
     0
300
3/8" = 1'-0"
140
0.375
141
12.0
290
     0
  0
SCALE
  5
65
102
{ACAD_REACTORS
330
4A
102
}
330
4A
100
AcDbScale
 70
     0
300
1/2" = 1'-0"
140
0.5
141
12.0
290
     0
  0
SCALE
  5
66
102
{ACAD_REACTORS
330
4A
102
}
330
4A
100
AcDbScale
 70
     0
300
3/4" = 1'-0"
140
0.75
141
12.0
290
     0
  0
SCALE
  5
67
102
{ACAD_REACTORS
330
4A
102
}
330
4A
100
AcDbScale
 70
     0
300
1" = 1'-0"
140
1.0
141
12.0
290
     0
  0
SCALE
  5
68
102
{ACAD_REACTORS
330
4A
102
}
330
4A
100
AcDbScale
 70
     0
300
1-1/2" = 1'-0"
140
1.5
141
12.0
290
     0
  0
SCALE
  5
69
102
{ACAD_REACTORS
330
4A
102
}
330
4A
100
AcDbScale
 70
     0
300
3" = 1'-0"
140
3.0
141
12.0
290
     0
  0
SCALE
  5
6A
102
{ACAD_REACTORS
330
4A
102
}
330
4A
100
AcDbScale
 70
     0
300
6" = 1'-0"
140
6.0
141
12.0
290
     0
  0
SCALE
  5
6B
102
{ACAD_REACTORS
330
4A
102
}
330
4A
100
AcDbScale
 70
     0
300
1'-0" = 1'-0"
140
12.0
141
12.0
290
     0
  0
VISUALSTYLE
  5
2F
102
{ACAD_REACTORS
330
2A
102
}
330
2A
100
AcDbVisualStyle
  2
2dWireframe
 70
     4
 71
     0
 72
     2
 73
     0
 90
        0
 40
-0.6
 41
-30.0
 62
     5
 63
     7
 74
     1
 91
        4
 64
     7
 65
   257
 75
     1
175
     1
 42
1.0
 92
        0
 66
   257
 43
1.0
 76
     1
 77
     6
 78
     2
 67
     7
 79
     5
170
     0
171
     0
290
     0
174
     0
 93
        1
 44
0.0
173
     0
291
     0
 45
0.0
1001
ACAD
1000
AcDbSavedByObjectVersion
1070
     0
  0
VISUALSTYLE
  5
31
102
{ACAD_REACTORS
330
2A
102
}
330
2A
100
AcDbVisualStyle
  2
3D Hidden
 70
     6
 71
     1
 72
     2
 73
     2
 90
        0
 40
-0.6
 41
-30.0
 62
     5
 63
     7
 74
     2
 91
        2
 64
     7
 65
   257
 75
     2
175
     1
 42
40.0
 92
        0
 66
   257
 43
1.0
 76
     1
 77
     6
 78
     2
 67
     7
 79
     3
170
     0
171
     0
290
     0
174
     0
 93
        1
 44
0.0
173
     0
291
     0
 45
0.0
1001
ACAD
1000
AcDbSavedByObjectVersion
1070
     0
  0
VISUALSTYLE
  5
30
102
{ACAD_REACTORS
330
2A
102
}
330
2A
100
AcDbVisualStyle
  2
3dWireframe
 70
     5
 71
     0
 72
     2
 73
     0
 90
        0
 40
-0.6
 41
-30.0
 62
     5
 63
     7
 74
     1
 91
        4
 64
     7
 65
   257
 75
     1
175
     1
 42
1.0
 92
        0
 66
   257
 43
1.0
 76
     1
 77
     6
 78
     2
 67
     7
 79
     5
170
     0
171
     0
290
     0
174
     0
 93
        1
 44
0.0
173
     0
291
     0
 45
0.0
1001
ACAD
1000
AcDbSavedByObjectVersion
1070
     0
  0
VISUALSTYLE
  5
32
102
{ACAD_REACTORS
330
2A
102
}
330
2A
100
AcDbVisualStyle
  2
Basic
 70
     7
 71
     1
 72
     0
 73
     1
 90
        0
 40
-0.6
 41
-30.0
 62
     5
 63
     7
 74
     0
 91
        4
 64
     7
 65
   257
 75
     1
175
     1
 42
1.0
 92
        8
 66
     7
 43
1.0
 76
     1
 77
     6
 78
     2
 67
     7
 79
     5
170
     0
171
     0
290
     0
174
     0
 93
        1
 44
0.0
173
     0
291
     1
 45
0.0
1001
ACAD
1000
AcDbSavedByObjectVersion
1070
     0
  0
VISUALSTYLE
  5
36
102
{ACAD_REACTORS
330
2A
102
}
330
2A
100
AcDbVisualStyle
  2
Brighten
 70
    12
 71
     2
 72
     2
 73
     0
 90
        0
 40
-0.6
 41
-30.0
 62
     5
 63
     7
 74
     1
 91
        4
 64
     7
 65
   257
 75
     1
175
     1
 42
1.0
 92
        8
 66
     7
 43
1.0
 76
     1
 77
     6
 78
     2
 67
     7
 79
     5
170
     0
171
     0
290
     0
174
     0
 93
        1
 44
50.0
173
     0
291
     1
 45
0.0
1001
ACAD
1000
AcDbSavedByObjectVersion
1070
     0
  0
VISUALSTYLE
  5
3A
102
{ACAD_REACTORS
330
2A
102
}
330
2A
100
AcDbVisualStyle
  2
ColorChange
 70
    16
 71
     2
 72
     2
 73
     3
 90
        0
 40
-0.6
 41
-30.0
 62
     5
 63
     8
 74
     1
 91
        4
 64
     7
 65
   257
 75
     1
175
     1
 42
1.0
 92
        8
 66
     8
 43
1.0
 76
     1
 77
     6
 78
     2
 67
     7
 79
     5
170
     0
171
     0
290
     0
174
     0
 93
        1
 44
0.0
173
     0
291
     1
 45
0.0
1001
ACAD
1000
AcDbSavedByObjectVersion
1070
     0
  0
VISUALSTYLE
  5
34
102
{ACAD_REACTORS
330
2A
102
}
330
2A
100
AcDbVisualStyle
  2
Conceptual
 70
     9
 71
     3
 72
     2
 73
     0
 90
        0
 40
-0.6
 41
-30.0
 62
     5
 63
     7
 74
     2
 91
        2
 64
     7
 65
   257
 75
     1
175
     1
 42
40.0
 92
        8
 66
     7
 43
1.0
 76
     1
 77
     6
 78
     2
 67
     7
 79
     3
170
     0
171
     0
290
     0
174
     0
 93
        1
 44
0.0
173
     0
291
     0
 45
0.0
1001
ACAD
1000
AcDbSavedByObjectVersion
1070
     0
  0
VISUALSTYLE
  5
35
102
{ACAD_REACTORS
330
2A
102
}
330
2A
100
AcDbVisualStyle
  2
Dim
 70
    11
 71
     2
 72
     2
 73
     0
 90
        0
 40
-0.6
 41
-30.0
 62
     5
 63
     7
 74
     1
 91
        4
 64
     7
 65
   257
 75
     1
175
     1
 42
1.0
 92
        8
 66
     7
 43
1.0
 76
     1
 77
     6
 78
     2
 67
     7
 79
     5
170
     0
171
     0
290
     0
174
     0
 93
        1
 44
-50.0
173
     0
291
     1
 45
0.0
1001
ACAD
1000
AcDbSavedByObjectVersion
1070
     0
  0
VISUALSTYLE
  5
39
102
{ACAD_REACTORS
330
2A
102
}
330
2A
100
AcDbVisualStyle
  2
Facepattern
 70
    15
 71
     2
 72
     2
 73
     0
 90
        0
 40
-0.6
 41
-30.0
 62
     5
 63
     7
 74
     1
 91
        4
 64
     7
 65
   257
 75
     1
175
     1
 42
1.0
 92
        8
 66
     7
 43
1.0
 76
     1
 77
     6
 78
     2
 67
     7
 79
     5
170
     0
171
     0
290
     0
174
     0
 93
        1
 44
0.0
173
     0
291
     1
 45
0.0
1001
ACAD
1000
AcDbSavedByObjectVersion
1070
     0
  0
VISUALSTYLE
  5
2B
102
{ACAD_REACTORS
330
2A
102
}
330
2A
100
AcDbVisualStyle
  2
Flat
 70
     0
 71
     2
 72
     1
 73
     1
 90
        2
 40
-0.6
 41
30.0
 62
     5
 63
     7
 74
     0
 91
        4
 64
     7
 65
   257
 75
     1
175
     1
 42
1.0
 92
        8
 66
     7
 43
1.0
 76
     1
 77
     6
 78
     2
 67
     7
 79
     5
170
     0
171
     0
290
     0
174
     0
 93
       13
 44
0.0
173
     0
291
     1
 45
0.0
1001
ACAD
1000
AcDbSavedByObjectVersion
1070
     0
  0
VISUALSTYLE
  5
2C
102
{ACAD_REACTORS
330
2A
102
}
330
2A
100
AcDbVisualStyle
  2
FlatWithEdges
 70
     1
 71
     2
 72
     1
 73
     1
 90
        2
 40
-0.6
 41
30.0
 62
     5
 63
     7
 74
     1
 91
        4
 64
     7
 65
   257
 75
     1
175
     1
 42
1.0
 92
        0
 66
   257
 43
1.0
 76
     1
 77
     6
 78
     2
 67
     7
 79
     5
170
     0
171
     0
290
     0
174
     0
 93
       13
 44
0.0
173
     0
291
     1
 45
0.0
1001
ACAD
1000
AcDbSavedByObjectVersion
1070
     0
  0
VISUALSTYLE
  5
2D
102
{ACAD_REACTORS
330
2A
102
}
330
2A
100
AcDbVisualStyle
  2
Gouraud
 70
     2
 71
     2
 72
     2
 73
     1
 90
        2
 40
-0.6
 41
30.0
 62
     5
 63
     7
 74
     0
 91
        4
 64
     7
 65
   257
 75
     1
175
     1
 42
1.0
 92
        0
 66
     7
 43
1.0
 76
     1
 77
     6
 78
     2
 67
     7
 79
     5
170
     0
171
     0
290
     0
174
     0
 93
       13
 44
0.0
173
     0
291
     1
 45
0.0
1001
ACAD
1000
AcDbSavedByObjectVersion
1070
     0
  0
VISUALSTYLE
  5
2E
102
{ACAD_REACTORS
330
2A
102
}
330
2A
100
AcDbVisualStyle
  2
GouraudWithEdges
 70
     3
 71
     2
 72
     2
 73
     1
 90
        2
 40
-0.6
 41
30.0
 62
     5
 63
     7
 74
     1
 91
        4
 64
     7
 65
   257
 75
     1
175
     1
 42
1.0
 92
        0
 66
   257
 43
1.0
 76
     1
 77
     6
 78
     2
 67
     7
 79
     5
170
     0
171
     0
290
     0
174
     0
 93
       13
 44
0.0
173
     0
291
     1
 45
0.0
1001
ACAD
1000
AcDbSavedByObjectVersion
1070
     0
  0
VISUALSTYLE
  5
38
102
{ACAD_REACTORS
330
2A
102
}
330
2A
100
AcDbVisualStyle
  2
Linepattern
 70
    14
 71
     2
 72
     2
 73
     0
 90
        0
 40
-0.6
 41
-30.0
 62
     5
 63
     7
 74
     1
 91
        4
 64
     7
 65
   257
 75
     7
175
     7
 42
1.0
 92
        8
 66
     7
 43
1.0
 76
     1
 77
     6
 78
     2
 67
     7
 79
     5
170
     0
171
     0
290
     0
174
     0
 93
        1
 44
0.0
173
     0
291
     1
 45
0.0
1001
ACAD
1000
AcDbSavedByObjectVersion
1070
     0
  0
VISUALSTYLE
  5
33
102
{ACAD_REACTORS
330
2A
102
}
330
2A
100
AcDbVisualStyle
  2
Realistic
 70
     8
 71
     2
 72
     2
 73
     0
 90
        0
 40
-0.6
 41
-30.0
 62
     5
 63
     7
 74
     1
 91
        0
 64
     7
 65
   257
 75
     1
175
     1
 42
1.0
 92
        8
 66
     8
 43
1.0
 76
     1
 77
     6
 78
     2
 67
     7
 79
     5
170
     0
171
     0
290
     0
174
     0
 93
       13
 44
0.0
173
     0
291
     0
 45
0.0
1001
ACAD
1000
AcDbSavedByObjectVersion
1070
     0
  0
VISUALSTYLE
  5
37
102
{ACAD_REACTORS
330
2A
102
}
330
2A
100
AcDbVisualStyle
  2
Thicken
 70
    13
 71
     2
 72
     2
 73
     0
 90
        0
 40
-0.6
 41
-30.0
 62
     5
 63
     7
 74
     1
 91
        4
 64
     7
 65
   257
 75
     1
175
     1
 42
1.0
 92
       12
 66
     7
 43
1.0
 76
     1
 77
     6
 78
     2
 67
     7
 79
     5
170
     0
171
     0
290
     0
174
     0
 93
        1
 44
0.0
173
     0
291
     1
 45
0.0
1001
ACAD
1000
AcDbSavedByObjectVersion
1070
     0
  0
DICTIONARYVAR
  5
113
102
{ACAD_REACTORS
330
110
102
}
330
110
100
DictionaryVariables
280
     0
  1
1:1
  0
ENDSEC
  0
EOF
