  0
SECTION
  2
HEADER
  9
$ACADVER
  1
AC1015
  9
$ACADMAINTVER
 70
     6
  9
$DWGCODEPAGE
  3
ANSI_1252
  9
$INSBASE
 10
0.0
 20
0.0
 30
0.0
  9
$EXTMIN
 10
82.81961991429995
 20
240.5641949849167
 30
0.0
  9
$EXTMAX
 10
238.955223490776
 20
347.473661103319
 30
0.0
  9
$LIMMIN
 10
0.0
 20
0.0
  9
$LIMMAX
 10
12.0
 20
9.0
  9
$ORTHOMODE
 70
     0
  9
$REGENMODE
 70
     1
  9
$FILLMODE
 70
     1
  9
$QTEXTMODE
 70
     0
  9
$MIRRTEXT
 70
     1
  9
$LTSCALE
 40
1.0
  9
$ATTMODE
 70
     1
  9
$TEXTSIZE
 40
0.2
  9
$TRACEWID
 40
0.05
  9
$TEXTSTYLE
  7
Standard
  9
$CLAYER
  8
0
  9
$CELTYPE
  6
ByLayer
  9
$CECOLOR
 62
   256
  9
$CELTSCALE
 40
1.0
  9
$DISPSILH
 70
     0
  9
$DIMSCALE
 40
1.0
  9
$DIMASZ
 40
0.18
  9
$DIMEXO
 40
0.0625
  9
$DIMDLI
 40
0.38
  9
$DIMRND
 40
0.0
  9
$DIMDLE
 40
0.0
  9
$DIMEXE
 40
0.18
  9
$DIMTP
 40
0.0
  9
$DIMTM
 40
0.0
  9
$DIMTXT
 40
0.18
  9
$DIMCEN
 40
0.09
  9
$DIMTSZ
 40
0.0
  9
$DIMTOL
 70
     0
  9
$DIMLIM
 70
     0
  9
$DIMTIH
 70
     1
  9
$DIMTOH
 70
     1
  9
$DIMSE1
 70
     0
  9
$DIMSE2
 70
     0
  9
$DIMTAD
 70
     0
  9
$DIMZIN
 70
     0
  9
$DIMBLK
  1

  9
$DIMASO
 70
     1
  9
$DIMSHO
 70
     1
  9
$DIMPOST
  1

  9
$DIMAPOST
  1

  9
$DIMALT
 70
     0
  9
$DIMALTD
 70
     2
  9
$DIMALTF
 40
25.4
  9
$DIMLFAC
 40
1.0
  9
$DIMTOFL
 70
     0
  9
$DIMTVP
 40
0.0
  9
$DIMTIX
 70
     0
  9
$DIMSOXD
 70
     0
  9
$DIMSAH
 70
     0
  9
$DIMBLK1
  1

  9
$DIMBLK2
  1

  9
$DIMSTYLE
  2
Standard
  9
$DIMCLRD
 70
     0
  9
$DIMCLRE
 70
     0
  9
$DIMCLRT
 70
     0
  9
$DIMTFAC
 40
1.0
  9
$DIMGAP
 40
0.09
  9
$DIMJUST
 70
     0
  9
$DIMSD1
 70
     0
  9
$DIMSD2
 70
     0
  9
$DIMTOLJ
 70
     1
  9
$DIMTZIN
 70
     0
  9
$DIMALTZ
 70
     0
  9
$DIMALTTZ
 70
     0
  9
$DIMUPT
 70
     0
  9
$DIMDEC
 70
     4
  9
$DIMTDEC
 70
     4
  9
$DIMALTU
 70
     2
  9
$DIMALTTD
 70
     2
  9
$DIMTXSTY
  7
Standard
  9
$DIMAUNIT
 70
     0
  9
$DIMADEC
 70
     0
  9
$DIMALTRND
 40
0.0
  9
$DIMAZIN
 70
     0
  9
$DIMDSEP
 70
    46
  9
$DIMATFIT
 70
     3
  9
$DIMFRAC
 70
     0
  9
$DIMLDRBLK
  1

  9
$DIMLUNIT
 70
     2
  9
$DIMLWD
 70
    -2
  9
$DIMLWE
 70
    -2
  9
$DIMTMOVE
 70
     0
  9
$LUNITS
 70
     2
  9
$LUPREC
 70
     4
  9
$SKETCHINC
 40
0.1
  9
$FILLETRAD
 40
0.5
  9
$AUNITS
 70
     0
  9
$AUPREC
 70
     0
  9
$MENU
  1
.
  9
$ELEVATION
 40
0.0
  9
$PELEVATION
 40
0.0
  9
$THICKNESS
 40
0.0
  9
$LIMCHECK
 70
     0
  9
$CHAMFERA
 40
0.5
  9
$CHAMFERB
 40
0.5
  9
$CHAMFERC
 40
1.0
  9
$CHAMFERD
 40
0.0
  9
$SKPOLY
 70
     0
  9
$TDCREATE
 40
2456821.35725544
  9
$TDUCREATE
 40
2456821.273922106
  9
$TDUPDATE
 40
2456821.357255451
  9
$TDUUPDATE
 40
2456821.273922118
  9
$TDINDWG
 40
0.0000000116
  9
$TDUSRTIMER
 40
0.0000000116
  9
$USRTIMER
 70
     1
  9
$ANGBASE
 50
0.0
  9
$ANGDIR
 70
     0
  9
$PDMODE
 70
     0
  9
$PDSIZE
 40
0.0
  9
$PLINEWID
 40
0.0
  9
$SPLFRAME
 70
     0
  9
$SPLINETYPE
 70
     6
  9
$SPLINESEGS
 70
     8
  9
$HANDSEED
  5
101
  9
$SURFTAB1
 70
     6
  9
$SURFTAB2
 70
     6
  9
$SURFTYPE
 70
     6
  9
$SURFU
 70
     6
  9
$SURFV
 70
     6
  9
$UCSBASE
  2

  9
$UCSNAME
  2

  9
$UCSORG
 10
0.0
 20
0.0
 30
0.0
  9
$UCSXDIR
 10
1.0
 20
0.0
 30
0.0
  9
$UCSYDIR
 10
0.0
 20
1.0
 30
0.0
  9
$UCSORTHOREF
  2

  9
$UCSORTHOVIEW
 70
     0
  9
$UCSORGTOP
 10
0.0
 20
0.0
 30
0.0
  9
$UCSORGBOTTOM
 10
0.0
 20
0.0
 30
0.0
  9
$UCSORGLEFT
 10
0.0
 20
0.0
 30
0.0
  9
$UCSORGRIGHT
 10
0.0
 20
0.0
 30
0.0
  9
$UCSORGFRONT
 10
0.0
 20
0.0
 30
0.0
  9
$UCSORGBACK
 10
0.0
 20
0.0
 30
0.0
  9
$PUCSBASE
  2

  9
$PUCSNAME
  2

  9
$PUCSORG
 10
0.0
 20
0.0
 30
0.0
  9
$PUCSXDIR
 10
1.0
 20
0.0
 30
0.0
  9
$PUCSYDIR
 10
0.0
 20
1.0
 30
0.0
  9
$PUCSORTHOREF
  2

  9
$PUCSORTHOVIEW
 70
     0
  9
$PUCSORGTOP
 10
0.0
 20
0.0
 30
0.0
  9
$PUCSORGBOTTOM
 10
0.0
 20
0.0
 30
0.0
  9
$PUCSORGLEFT
 10
0.0
 20
0.0
 30
0.0
  9
$PUCSORGRIGHT
 10
0.0
 20
0.0
 30
0.0
  9
$PUCSORGFRONT
 10
0.0
 20
0.0
 30
0.0
  9
$PUCSORGBACK
 10
0.0
 20
0.0
 30
0.0
  9
$USERI1
 70
     0
  9
$USERI2
 70
     0
  9
$USERI3
 70
     0
  9
$USERI4
 70
     0
  9
$USERI5
 70
     0
  9
$USERR1
 40
16.5
  9
$USERR2
 40
0.0
  9
$USERR3
 40
0.0
  9
$USERR4
 40
0.0
  9
$USERR5
 40
0.0
  9
$WORLDVIEW
 70
     1
  9
$SHADEDGE
 70
     3
  9
$SHADEDIF
 70
    70
  9
$TILEMODE
 70
     1
  9
$MAXACTVP
 70
    64
  9
$PINSBASE
 10
0.0
 20
0.0
 30
0.0
  9
$PLIMCHECK
 70
     0
  9
$PEXTMIN
 10
1.00000000000000E+20
 20
1.00000000000000E+20
 30
1.00000000000000E+20
  9
$PEXTMAX
 10
-1.00000000000000E+20
 20
-1.00000000000000E+20
 30
-1.00000000000000E+20
  9
$PLIMMIN
 10
0.0
 20
0.0
  9
$PLIMMAX
 10
12.0
 20
9.0
  9
$UNITMODE
 70
     0
  9
$VISRETAIN
 70
     1
  9
$PLINEGEN
 70
     0
  9
$PSLTSCALE
 70
     1
  9
$TREEDEPTH
 70
  3020
  9
$CMLSTYLE
  2
Standard
  9
$CMLJUST
 70
     0
  9
$CMLSCALE
 40
1.0
  9
$PROXYGRAPHICS
 70
     1
  9
$MEASUREMENT
 70
     1
  9
$CELWEIGHT
370
    -1
  9
$ENDCAPS
280
     0
  9
$JOINSTYLE
280
     0
  9
$LWDISPLAY
290
     0
  9
$INSUNITS
 70
     1
  9
$HYPERLINKBASE
  1

  9
$STYLESHEET
  1

  9
$XEDIT
290
     1
  9
$CEPSNTYPE
380
     0
  9
$PSTYLEMODE
290
     1
  9
$FINGERPRINTGUID
  2
{3C8D4E1A-CFEA-43BC-A856-25078C366CD2}
  9
$VERSIONGUID
  2
{FAEB1C32-E019-11D5-929B-00C0DF256EC4}
  9
$EXTNAMES
290
     1
  9
$PSVPSCALE
 40
0.0
  9
$OLESTARTUP
290
     0
  0
ENDSEC
  0
SECTION
  2
CLASSES
  0
CLASS
  1
ACDBDICTIONARYWDFLT
  2
AcDbDictionaryWithDefault
  3
ObjectDBX Classes
 90
        0
280
     0
281
     0
  0
CLASS
  1
VISUALSTYLE
  2
AcDbVisualStyle
  3
ObjectDBX Classes
 90
     4095
280
     0
281
     0
  0
CLASS
  1
SCALE
  2
AcDbScale
  3
ObjectDBX Classes
 90
     1153
280
     0
281
     0
  0
CLASS
  1

  2
exOdDbPolyline
  3

 90
        0
280
     0
281
     1
  0
CLASS
  1

  2
exOdDbSpline
  3

 90
        0
280
     0
281
     1
  0
CLASS
  1
DICTIONARYVAR
  2
AcDbDictionaryVar
  3
ObjectDBX Classes
 90
        0
280
     0
281
     0
  0
CLASS
  1
ACDBPLACEHOLDER
  2
AcDbPlaceHolder
  3
ObjectDBX Classes
 90
        0
280
     0
281
     0
  0
CLASS
  1
LAYOUT
  2
AcDbLayout
  3
ObjectDBX Classes
 90
        0
280
     0
281
     0
  0
ENDSEC
  0
SECTION
  2
TABLES
  0
TABLE
  2
VPORT
  5
8
330
0
100
AcDbSymbolTable
 70
     1
  0
VPORT
  5
29
330
8
100
AcDbSymbolTableRecord
100
AcDbViewportTableRecord
  2
*Active
 70
     0
 10
0.0
 20
0.0
 11
1.0
 21
1.0
 12
160.887421702538
 22
294.0189280441178
 13
0.0
 23
0.0
 14
0.5
 24
0.5
 15
0.5
 25
0.5
 16
0.0
 26
0.0
 36
1.0
 17
0.0
 27
0.0
 37
0.0
 40
117.6004127302425
 41
1.60267857142857
 42
50.0
 43
0.0
 44
0.0
 50
0.0
 51
0.0
 71
     0
 72
   100
 73
     1
 74
     3
 75
     0
 76
     0
 77
     0
 78
     0
281
     0
 65
     1
110
0.0
120
0.0
130
0.0
111
1.0
121
0.0
131
0.0
112
0.0
122
1.0
132
0.0
 79
     0
146
0.0
  0
ENDTAB
  0
TABLE
  2
LTYPE
  5
5
330
0
100
AcDbSymbolTable
 70
     8
  0
LTYPE
  5
14
330
5
100
AcDbSymbolTableRecord
100
AcDbLinetypeTableRecord
  2
ByBlock
 70
     0
  3

 72
    65
 73
     0
 40
0.0
  0
LTYPE
  5
15
330
5
100
AcDbSymbolTableRecord
100
AcDbLinetypeTableRecord
  2
ByLayer
 70
     0
  3

 72
    65
 73
     0
 40
0.0
  0
LTYPE
  5
16
330
5
100
AcDbSymbolTableRecord
100
AcDbLinetypeTableRecord
  2
Continuous
 70
     0
  3
Solid line
 72
    65
 73
     0
 40
0.0
  0
LTYPE
  5
3B
330
5
100
AcDbSymbolTableRecord
100
AcDbLinetypeTableRecord
  2
DASHED
 70
     0
  3
Dashed
 72
    65
 73
     2
 40
15.0
 49
7.0
 74
     0
 49
-8.0
 74
     0
  0
LTYPE
  5
3C
330
5
100
AcDbSymbolTableRecord
100
AcDbLinetypeTableRecord
  2
DOTTED
 70
     0
  3
Dotted
 72
    65
 73
     2
 40
1.0
 49
0.0
 74
     0
 49
-1.0
 74
     0
  0
LTYPE
  5
3D
330
5
100
AcDbSymbolTableRecord
100
AcDbLinetypeTableRecord
  2
DOT_CENTER
 70
     0
  3
Dot_Center
 72
    65
 73
     4
 40
14.0
 49
12.0
 74
     0
 49
-1.0
 74
     0
 49
0.0
 74
     0
 49
-1.0
 74
     0
  0
LTYPE
  5
3E
330
5
100
AcDbSymbolTableRecord
100
AcDbLinetypeTableRecord
  2
LONG_DASHED
 70
     0
  3
Long_Dashed
 72
    65
 73
     2
 40
15.0
 49
10.0
 74
     0
 49
-5.0
 74
     0
  0
LTYPE
  5
3F
330
5
100
AcDbSymbolTableRecord
100
AcDbLinetypeTableRecord
  2
DASH_CENTER
 70
     0
  3
Dash_Center
 72
    65
 73
     4
 40
14.0
 49
11.0
 74
     0
 49
-1.0
 74
     0
 49
1.0
 74
     0
 49
-1.0
 74
     0
  0
LTYPE
  5
40
330
5
100
AcDbSymbolTableRecord
100
AcDbLinetypeTableRecord
  2
PHANTOM
 70
     0
  3
Phantom
 72
    65
 73
     6
 40
13.0
 49
10.0
 74
     0
 49
-1.0
 74
     0
 49
0.0
 74
     0
 49
-1.0
 74
     0
 49
0.0
 74
     0
 49
-1.0
 74
     0
  0
LTYPE
  5
41
330
5
100
AcDbSymbolTableRecord
100
AcDbLinetypeTableRecord
  2
CENTER_DASH_DASH
 70
     0
  3
Center_Dash_Dash
 72
    65
 73
     6
 40
14.0
 49
9.0
 74
     0
 49
-1.0
 74
     0
 49
1.0
 74
     0
 49
-1.0
 74
     0
 49
1.0
 74
     0
 49
-1.0
 74
     0
  0
ENDTAB
  0
TABLE
  2
LAYER
  5
2
330
0
100
AcDbSymbolTable
 70
     6
  0
LAYER
  5
10
330
2
100
AcDbSymbolTableRecord
100
AcDbLayerTableRecord
  2
0
 70
     0
 62
     7
  6
Continuous
370
    -3
390
F
  0
LAYER
  5
42
330
2
100
AcDbSymbolTableRecord
100
AcDbLayerTableRecord
  2
1
 70
     0
 62
     7
  6
Continuous
370
    -3
390
F
  0
LAYER
  5
43
330
2
100
AcDbSymbolTableRecord
100
AcDbLayerTableRecord
  2
BEZUGSACHSEN
 70
     0
 62
     7
  6
Continuous
370
    -3
390
F
  0
LAYER
  5
44
330
2
100
AcDbSymbolTableRecord
100
AcDbLayerTableRecord
  2
DEFAULT_2
 70
     0
 62
     7
  6
Continuous
370
    -3
390
F
  0
LAYER
  5
45
330
2
100
AcDbSymbolTableRecord
100
AcDbLayerTableRecord
  2
RUNDUNGEN
 70
     0
 62
     7
  6
Continuous
370
    -3
390
F
  0
LAYER
  5
46
330
2
100
AcDbSymbolTableRecord
100
AcDbLayerTableRecord
  2
TEIL_STARTBEZUEGE
 70
     0
 62
     7
  6
Continuous
370
    -3
390
F
  0
ENDTAB
  0
TABLE
  2
STYLE
  5
3
330
0
100
AcDbSymbolTable
 70
     2
  0
STYLE
  5
11
330
3
100
AcDbSymbolTableRecord
100
AcDbTextStyleTableRecord
  2
Standard
 70
     0
 40
0.0
 41
1.0
 50
0.0
 71
     0
 42
0.2
  3
txt
  4

  0
STYLE
  5
6D
330
3
100
AcDbSymbolTableRecord
100
AcDbTextStyleTableRecord
  2
CONVERTER_11
 70
     0
 40
0.0
 41
0.72
 50
0.0
 71
     0
 42
0.2
  3
txt.shx
  4

  0
ENDTAB
  0
TABLE
  2
VIEW
  5
6
330
0
100
AcDbSymbolTable
 70
     0
  0
ENDTAB
  0
TABLE
  2
UCS
  5
7
330
0
100
AcDbSymbolTable
 70
     0
  0
ENDTAB
  0
TABLE
  2
APPID
  5
9
330
0
100
AcDbSymbolTable
 70
     1
  0
APPID
  5
12
330
9
100
AcDbSymbolTableRecord
100
AcDbRegAppTableRecord
  2
ACAD
 70
     0
  0
ENDTAB
  0
TABLE
  2
DIMSTYLE
  5
A
330
0
100
AcDbSymbolTable
 70
     6
100
AcDbDimStyleTable
  0
DIMSTYLE
105
27
330
A
100
AcDbSymbolTableRecord
100
AcDbDimStyleTableRecord
  2
Standard
 70
     0
340
11
  0
DIMSTYLE
105
C8
102
{ACAD_REACTORS
330
C9
102
}
330
A
100
AcDbSymbolTableRecord
100
AcDbDimStyleTableRecord
  2
ME10_DIM_10
 70
     0
  3
<>
 41
3.5
 42
2.0
 44
2.0
 71
     1
 73
     0
 74
     0
 77
     1
 78
     8
140
3.5
146
0.7
147
2.0
172
     1
173
     1
176
     2
177
     2
178
     3
271
     2
272
     0
340
6D
  0
DIMSTYLE
105
D3
102
{ACAD_REACTORS
330
D4
102
}
330
A
100
AcDbSymbolTableRecord
100
AcDbDimStyleTableRecord
  2
ME10_DIM_11
 70
     0
  3
<>
 41
3.5
 42
2.0
 44
2.0
 71
     1
 73
     0
 74
     0
 77
     1
 78
     8
140
3.5
146
0.7
147
2.0
172
     1
173
     1
176
     2
177
     2
178
     3
271
     2
272
     0
340
6D
  0
DIMSTYLE
105
DE
102
{ACAD_REACTORS
330
DF
102
}
330
A
100
AcDbSymbolTableRecord
100
AcDbDimStyleTableRecord
  2
ME10_DIM_12
 70
     0
  3
<>
 41
3.5
 42
2.0
 44
2.0
 71
     1
 73
     0
 74
     0
 77
     1
 78
     8
140
3.5
146
0.7
147
2.0
172
     1
173
     1
176
     2
177
     2
178
     3
271
     2
272
     0
340
6D
  0
DIMSTYLE
105
E9
102
{ACAD_REACTORS
330
EA
102
}
330
A
100
AcDbSymbolTableRecord
100
AcDbDimStyleTableRecord
  2
ME10_DIM_13
 70
     0
  3
\U+2300<>
 41
3.5
 42
2.0
 44
2.0
 71
     1
 73
     0
 74
     0
 77
     1
 78
     8
140
3.5
146
0.7
147
2.0
172
     1
173
     1
176
     2
177
     2
178
     3
271
     2
272
     0
340
6D
  0
DIMSTYLE
105
F4
102
{ACAD_REACTORS
330
F5
102
}
330
A
100
AcDbSymbolTableRecord
100
AcDbDimStyleTableRecord
  2
ME10_DIM_14
 70
     0
  3
\U+2300<>
 41
3.5
 42
2.0
 44
2.0
 71
     1
 73
     0
 74
     0
 77
     1
 78
     8
140
3.5
146
0.7
147
2.0
172
     1
173
     1
176
     2
177
     2
178
     3
271
     2
272
     0
340
6D
  0
ENDTAB
  0
TABLE
  2
BLOCK_RECORD
  5
1
330
0
100
AcDbSymbolTable
 70
     8
  0
BLOCK_RECORD
  5
1F
330
1
100
AcDbSymbolTableRecord
100
AcDbBlockTableRecord
  2
*Model_Space
340
22
  0
BLOCK_RECORD
  5
1B
330
1
100
AcDbSymbolTableRecord
100
AcDbBlockTableRecord
  2
*Paper_Space
340
1E
  0
BLOCK_RECORD
  5
23
330
1
100
AcDbSymbolTableRecord
100
AcDbBlockTableRecord
  2
*Paper_Space0
340
26
  0
BLOCK_RECORD
  5
47
330
1
100
AcDbSymbolTableRecord
100
AcDbBlockTableRecord
  2
Urheberrecht_DE-EN_horizontal
340
0
102
{BLKREFS
331
6C
102
}
  0
BLOCK_RECORD
  5
BF
330
1
100
AcDbSymbolTableRecord
100
AcDbBlockTableRecord
  2
*D2
340
0
  0
BLOCK_RECORD
  5
CA
330
1
100
AcDbSymbolTableRecord
100
AcDbBlockTableRecord
  2
*D3
340
0
  0
BLOCK_RECORD
  5
D5
330
1
100
AcDbSymbolTableRecord
100
AcDbBlockTableRecord
  2
*D4
340
0
  0
BLOCK_RECORD
  5
E0
330
1
100
AcDbSymbolTableRecord
100
AcDbBlockTableRecord
  2
*D5
340
0
  0
BLOCK_RECORD
  5
EB
330
1
100
AcDbSymbolTableRecord
100
AcDbBlockTableRecord
  2
*D6
340
0
  0
BLOCK_RECORD
  5
F6
330
1
100
AcDbSymbolTableRecord
100
AcDbBlockTableRecord
  2
*D7
340
0
102
{BLKREFS
331
FC
102
}
  0
ENDTAB
  0
ENDSEC
  0
SECTION
  2
BLOCKS
  0
BLOCK
  5
20
330
1F
100
AcDbEntity
  8
0
100
AcDbBlockBegin
  2
*Model_Space
 70
     0
 10
0.0
 20
0.0
 30
0.0
  3
*Model_Space
  1

  0
ENDBLK
  5
21
330
1F
100
AcDbEntity
  8
0
100
AcDbBlockEnd
  0
BLOCK
  5
1C
330
1B
100
AcDbEntity
 67
     1
  8
0
100
AcDbBlockBegin
  2
*Paper_Space
 70
     0
 10
0.0
 20
0.0
 30
0.0
  3
*Paper_Space
  1

  0
ENDBLK
  5
1D
330
1B
100
AcDbEntity
 67
     1
  8
0
100
AcDbBlockEnd
  0
BLOCK
  5
24
330
23
100
AcDbEntity
  8
0
100
AcDbBlockBegin
  2
*Paper_Space0
 70
     0
 10
0.0
 20
0.0
 30
0.0
  3
*Paper_Space0
  1

  0
ENDBLK
  5
25
330
23
100
AcDbEntity
  8
0
100
AcDbBlockEnd
  0
BLOCK
  5
48
330
47
100
AcDbEntity
  8
0
100
AcDbBlockBegin
  2
Urheberrecht_DE-EN_horizontal
 70
     0
 10
154.604101271704
 20
247.962202994821
 30
0.0
  3
Urheberrecht_DE-EN_horizontal
  1

  0
MTEXT
  5
6E
330
47
100
AcDbEntity
  8
1
 62
     1
100
AcDbMText
 10
157.4397057996509
 20
241.1641949849167
 30
0.0
 40
2.0
 41
0.0
 71
     7
 72
     1
  1
We own the copyright of this document. It \Pdetermined and may neither be copied or \Pmade accessible to outsiders without our\Ppermission.
  7
CONVERTER_11
 73
     1
 44
0.90036014405762
  0
MTEXT
  5
6F
330
47
100
AcDbEntity
  8
1
 62
     1
100
AcDbMText
 10
101.1503188823448
 20
241.1641949849167
 30
0.0
 40
2.0
 41
0.0
 71
     7
 72
     1
  1
F\U+00fcr diese Unterlage behalten wir das Ur-\Pheberrecht. Sie darf nur f\U+00fcr den von uns \Pbestimmten Zweck benutzt und ohne unsere \PZustimmung weder vervielf\U+00e4ltigt noch\PDritten zug\U+00e4nglich gemacht werden.
  7
CONVERTER_11
 73
     1
 44
0.90036014405762
  0
ENDBLK
  5
49
330
47
100
AcDbEntity
  8
0
100
AcDbBlockEnd
  0
BLOCK
  5
C6
330
BF
100
AcDbEntity
  8
0
100
AcDbBlockBegin
  2
*D2
 70
     1
 10
0.0
 20
0.0
 30
0.0
  3
*D2
  1

  0
LINE
  5
C0
330
BF
100
AcDbEntity
  8
1
  6
Continuous
 62
     2
100
AcDbLine
 10
217.3446199143
 20
341.973661103319
 30
0.0
 11
85.94461991429992
 21
341.973661103319
 31
0.0
  0
LINE
  5
C1
330
BF
100
AcDbEntity
  8
1
  6
Continuous
 62
     2
100
AcDbLine
 10
85.94461991429993
 20
305.7356182957
 30
0.0
 11
85.94461991429993
 21
343.973661103319
 31
0.0
  0
LINE
  5
C2
330
BF
100
AcDbEntity
  8
1
  6
Continuous
 62
     2
100
AcDbLine
 10
217.3446199143
 20
310.2031663262
 30
0.0
 11
217.3446199143
 21
343.973661103319
 31
0.0
  0
SOLID
  5
C3
330
BF
100
AcDbEntity
  8
1
 62
     2
100
AcDbTrace
 10
213.8446199143
 20
341.5128773617631
 30
0.0
 11
213.8446199143
 21
342.4344448448749
 31
0.0
 12
217.3446199143
 22
341.973661103319
 32
0.0
 13
217.3446199143
 23
341.973661103319
 33
0.0
  0
SOLID
  5
C4
330
BF
100
AcDbEntity
  8
1
 62
     2
100
AcDbTrace
 10
89.44461991429992
 20
342.4344448448749
 30
0.0
 11
89.44461991429992
 21
341.5128773617631
 31
0.0
 12
85.94461991429992
 22
341.973661103319
 32
0.0
 13
85.94461991429992
 23
341.973661103319
 33
0.0
  0
MTEXT
  5
C5
330
BF
100
AcDbEntity
  8
1
 62
     3
100
AcDbMText
 10
157.5934365640673
 20
343.973661103319
 30
0.0
 40
3.5
 41
0.0
 71
     7
 72
     1
  1
\C3;\C3;\C3;131.4\C2;\H2.45;\S^ ;\C3;
  7
CONVERTER_11
 11
0.9999999999970619
 21
2.424068405545306E-6
 31
0.0
 73
     1
 44
0.60024009603842
  0
ENDBLK
  5
C7
330
BF
100
AcDbEntity
  8
0
100
AcDbBlockEnd
  0
BLOCK
  5
D1
330
CA
100
AcDbEntity
  8
0
100
AcDbBlockBegin
  2
*D3
 70
     1
 10
0.0
 20
0.0
 30
0.0
  3
*D3
  1

  0
LINE
  5
CB
330
CA
100
AcDbEntity
  8
1
  6
Continuous
 62
     2
100
AcDbLine
 10
217.3446199143
 20
335.050336668972
 30
0.0
 11
154.3446199143
 21
335.050336668972
 31
0.0
  0
LINE
  5
CC
330
CA
100
AcDbEntity
  8
1
  6
Continuous
 62
     2
100
AcDbLine
 10
154.3446199143
 20
321.0888684562
 30
0.0
 11
154.3446199143
 21
337.050336668972
 31
0.0
  0
LINE
  5
CD
330
CA
100
AcDbEntity
  8
1
  6
Continuous
 62
     2
100
AcDbLine
 10
217.3446199143
 20
310.2031663262
 30
0.0
 11
217.3446199143
 21
337.050336668972
 31
0.0
  0
SOLID
  5
CE
330
CA
100
AcDbEntity
  8
1
 62
     2
100
AcDbTrace
 10
213.8446199143
 20
334.5895529274162
 30
0.0
 11
213.8446199143
 21
335.5111204105279
 31
0.0
 12
217.3446199143
 22
335.050336668972
 32
0.0
 13
217.3446199143
 23
335.050336668972
 33
0.0
  0
SOLID
  5
CF
330
CA
100
AcDbEntity
  8
1
 62
     2
100
AcDbTrace
 10
157.8446199143
 20
335.5111204105279
 30
0.0
 11
157.8446199143
 21
334.5895529274162
 31
0.0
 12
154.3446199143
 22
335.050336668972
 32
0.0
 13
154.3446199143
 23
335.050336668972
 33
0.0
  0
MTEXT
  5
D0
330
CA
100
AcDbEntity
  8
1
 62
     3
100
AcDbMText
 10
183.476868477992
 20
337.050336668972
 30
0.0
 40
3.5
 41
0.0
 71
     7
 72
     1
  1
\C3;\C3;\C3;63\C2;\H2.45;\S^ ;\C3;
  7
CONVERTER_11
 11
0.9999999999970619
 21
2.424068405545306E-6
 31
0.0
 73
     1
 44
0.60024009603842
  0
ENDBLK
  5
D2
330
CA
100
AcDbEntity
  8
0
100
AcDbBlockEnd
  0
BLOCK
  5
DC
330
D5
100
AcDbEntity
  8
0
100
AcDbBlockBegin
  2
*D4
 70
     1
 10
0.0
 20
0.0
 30
0.0
  3
*D4
  1

  0
LINE
  5
D6
330
D5
100
AcDbEntity
  8
1
  6
Continuous
 62
     2
100
AcDbLine
 10
217.3446199143
 20
328.005550402444
 30
0.0
 11
173.4446199143
 21
328.005550402444
 31
0.0
  0
LINE
  5
D7
330
D5
100
AcDbEntity
  8
1
  6
Continuous
 62
     2
100
AcDbLine
 10
173.4446199143
 20
323.9630208522
 30
0.0
 11
173.4446199143
 21
330.005550402444
 31
0.0
  0
LINE
  5
D8
330
D5
100
AcDbEntity
  8
1
  6
Continuous
 62
     2
100
AcDbLine
 10
217.3446199143
 20
310.2031663262
 30
0.0
 11
217.3446199143
 21
330.005550402444
 31
0.0
  0
SOLID
  5
D9
330
D5
100
AcDbEntity
  8
1
 62
     2
100
AcDbTrace
 10
213.8446199143
 20
327.5447666608881
 30
0.0
 11
213.8446199143
 21
328.4663341439999
 31
0.0
 12
217.3446199143
 22
328.005550402444
 32
0.0
 13
217.3446199143
 23
328.005550402444
 33
0.0
  0
SOLID
  5
DA
330
D5
100
AcDbEntity
  8
1
 62
     2
100
AcDbTrace
 10
176.9446199143
 20
328.4663341439999
 30
0.0
 11
176.9446199143
 21
327.5447666608881
 31
0.0
 12
173.4446199143
 22
328.005550402444
 32
0.0
 13
173.4446199143
 23
328.005550402444
 33
0.0
  0
MTEXT
  5
DB
330
D5
100
AcDbEntity
  8
1
 62
     3
100
AcDbMText
 10
190.2906647889284
 20
330.005550402444
 30
0.0
 40
3.5
 41
0.0
 71
     7
 72
     1
  1
\C3;\C3;\C3;43.9\C2;\H2.45;\S^ ;\C3;
  7
CONVERTER_11
 11
0.9999999999970619
 21
2.424068405545306E-6
 31
0.0
 73
     1
 44
0.60024009603842
  0
ENDBLK
  5
DD
330
D5
100
AcDbEntity
  8
0
100
AcDbBlockEnd
  0
BLOCK
  5
E7
330
E0
100
AcDbEntity
  8
0
100
AcDbBlockBegin
  2
*D5
 70
     1
 10
0.0
 20
0.0
 30
0.0
  3
*D5
  1

  0
LINE
  5
E1
330
E0
100
AcDbEntity
  8
1
  6
Continuous
 62
     2
100
AcDbLine
 10
236.955223490776
 20
316.2860700949
 30
0.0
 11
236.955223490776
 21
268.2860700949
 31
0.0
  0
LINE
  5
E2
330
E0
100
AcDbEntity
  8
1
  6
Continuous
 62
     2
100
AcDbLine
 10
206.0766707219
 20
268.2860700949
 30
0.0
 11
238.955223490776
 21
268.2860700949
 31
0.0
  0
LINE
  5
E3
330
E0
100
AcDbEntity
  8
1
  6
Continuous
 62
     2
100
AcDbLine
 10
206.0766707219
 20
316.2860700949
 30
0.0
 11
238.955223490776
 21
316.2860700949
 31
0.0
  0
SOLID
  5
E4
330
E0
100
AcDbEntity
  8
1
 62
     2
100
AcDbTrace
 10
237.4160072323319
 20
312.7860700949
 30
0.0
 11
236.4944397492201
 21
312.7860700949
 31
0.0
 12
236.955223490776
 22
316.2860700949
 32
0.0
 13
236.955223490776
 23
316.2860700949
 33
0.0
  0
SOLID
  5
E5
330
E0
100
AcDbEntity
  8
1
 62
     2
100
AcDbTrace
 10
236.4944397492201
 20
271.7860700949
 30
0.0
 11
237.4160072323319
 21
271.7860700949
 31
0.0
 12
236.955223490776
 22
268.2860700949
 32
0.0
 13
236.955223490776
 23
268.2860700949
 33
0.0
  0
MTEXT
  5
E6
330
E0
100
AcDbEntity
  8
1
 62
     3
100
AcDbMText
 10
234.955223490776
 20
283.562233573258
 30
0.0
 40
3.5
 41
0.0
 71
     7
 72
     1
  1
\C3;%%c\C3;\C3;48\C2;\H2.45;\S^ ;\C3;
  7
CONVERTER_11
 11
0.0
 21
1.0
 31
0.0
 73
     1
 44
0.60024009603842
  0
ENDBLK
  5
E8
330
E0
100
AcDbEntity
  8
0
100
AcDbBlockEnd
  0
BLOCK
  5
F2
330
EB
100
AcDbEntity
  8
0
100
AcDbBlockBegin
  2
*D6
 70
     1
 10
0.0
 20
0.0
 30
0.0
  3
*D6
  1

  0
LINE
  5
EC
330
EB
100
AcDbEntity
  8
1
  6
Continuous
 62
     2
100
AcDbLine
 10
228.088509741525
 20
301.2860700949
 30
0.0
 11
228.088509741525
 21
283.2860700949
 31
0.0
  0
LINE
  5
ED
330
EB
100
AcDbEntity
  8
1
  6
Continuous
 62
     2
100
AcDbLine
 10
219.3446199143
 20
283.2860700949
 30
0.0
 11
230.088509741525
 21
283.2860700949
 31
0.0
  0
LINE
  5
EE
330
EB
100
AcDbEntity
  8
1
  6
Continuous
 62
     2
100
AcDbLine
 10
219.3446199143
 20
301.2860700949
 30
0.0
 11
230.088509741525
 21
301.2860700949
 31
0.0
  0
SOLID
  5
EF
330
EB
100
AcDbEntity
  8
1
 62
     2
100
AcDbTrace
 10
228.5492934830809
 20
297.7860700949
 30
0.0
 11
227.6277259999691
 21
297.7860700949
 31
0.0
 12
228.088509741525
 22
301.2860700949
 32
0.0
 13
228.088509741525
 23
301.2860700949
 33
0.0
  0
SOLID
  5
F0
330
EB
100
AcDbEntity
  8
1
 62
     2
100
AcDbTrace
 10
227.6277259999691
 20
286.7860700949
 30
0.0
 11
228.5492934830809
 21
286.7860700949
 31
0.0
 12
228.088509741525
 22
283.2860700949
 32
0.0
 13
228.088509741525
 23
283.2860700949
 33
0.0
  0
MTEXT
  5
F1
330
EB
100
AcDbEntity
  8
1
 62
     3
100
AcDbMText
 10
226.088509741525
 20
283.982233573258
 30
0.0
 40
3.5
 41
0.0
 71
     7
 72
     1
  1
\C3;%%c\C3;\C3;18\C2;\H2.45;\S^ ;\C3;
  7
CONVERTER_11
 11
0.0
 21
1.0
 31
0.0
 73
     1
 44
0.60024009603842
  0
ENDBLK
  5
F3
330
EB
100
AcDbEntity
  8
0
100
AcDbBlockEnd
  0
BLOCK
  5
FA
330
F6
100
AcDbEntity
  8
0
100
AcDbBlockBegin
  2
*D7
 70
     1
 10
0.0
 20
0.0
 30
0.0
  3
*D7
  1

  0
LINE
  5
F7
330
F6
100
AcDbEntity
  8
1
  6
Continuous
 62
     2
100
AcDbLine
 10
182.8089360880103
 20
321.2808080447638
 30
0.0
 11
173.5422512124563
 21
316.8551052170593
 31
0.0
  0
SOLID
  5
F8
330
F6
100
AcDbEntity
  8
1
 62
     2
100
AcDbTrace
 10
176.5019600600196
 20
318.7792791162009
 30
0.0
 11
176.8991232778009
 21
317.9476854628036
 31
0.0
 12
173.5422512124563
 22
316.8551052170593
 32
0.0
 13
173.5422512124563
 23
316.8551052170593
 33
0.0
  0
MTEXT
  5
F9
330
F6
100
AcDbEntity
  8
1
 62
     3
100
AcDbMText
 10
176.0094202741951
 20
320.2497965522588
 30
0.0
 40
3.5
 41
0.0
 71
     7
 72
     1
  1
\C3; R\C3;\C3;1\C2;\H2.45;\S^ ;\C3;
  7
CONVERTER_11
 11
0.9023687018439899
 21
0.430964877840866
 31
0.0
 73
     1
 44
0.60024009603842
  0
ENDBLK
  5
FB
330
F6
100
AcDbEntity
  8
0
100
AcDbBlockEnd
  0
ENDSEC
  0
SECTION
  2
ENTITIES
  0
INSERT
  5
6C
330
1F
100
AcDbEntity
  8
0
100
AcDbBlockReference
  2
Urheberrecht_DE-EN_horizontal
 10
154.604101271704
 20
247.962202994821
 30
0.0
  0
LWPOLYLINE
  5
70
330
1F
100
AcDbEntity
  8
BEZUGSACHSEN
  6
DASHED
 62
     8
100
AcDbPolyline
 90
        2
 70
     0
 43
0.35
 10
186.3446199143
 20
301.2860700949
 10
186.3446199143
 20
316.2860700949
  0
LWPOLYLINE
  5
71
330
1F
100
AcDbEntity
  8
BEZUGSACHSEN
  6
DASHED
 62
     8
100
AcDbPolyline
 90
        2
 70
     0
 43
0.35
 10
200.3446199143
 20
301.2860700949
 10
200.3446199143
 20
316.2860700949
  0
LINE
  5
72
330
1F
100
AcDbEntity
  8
RUNDUNGEN
  6
Continuous
 62
     7
100
AcDbLine
 10
217.3446199143
 20
276.3689738635
 30
0.0
 11
217.3446199143
 21
308.2031663262
 31
0.0
  0
LINE
  5
73
330
1F
100
AcDbEntity
  8
RUNDUNGEN
  6
Continuous
 62
     9
100
AcDbLine
 10
216.8446199143
 20
275.5029484597
 30
0.0
 11
216.8446199143
 21
309.06919173
 31
0.0
  0
LINE
  5
74
330
1F
100
AcDbEntity
  8
RUNDUNGEN
  6
Continuous
 62
     9
100
AcDbLine
 10
204.5766707219
 20
268.4200446911
 30
0.0
 11
204.5766707219
 21
316.1520954987
 31
0.0
  0
LINE
  5
75
330
1F
100
AcDbEntity
  8
RUNDUNGEN
  6
Continuous
 62
     9
100
AcDbLine
 10
204.0766707219
 20
268.2860700949
 30
0.0
 11
204.0766707219
 21
316.2860700949
 31
0.0
  0
LINE
  5
76
330
1F
100
AcDbEntity
  8
0
  6
Continuous
 62
     7
100
AcDbLine
 10
204.5766707219
 20
316.1520954987
 30
0.0
 11
216.8446199143
 21
309.06919173
 31
0.0
  0
LINE
  5
77
330
1F
100
AcDbEntity
  8
RUNDUNGEN
  6
Continuous
 62
     7
100
AcDbLine
 10
216.8446199143
 20
309.06919173
 30
0.0
 11
204.5766707219
 21
316.1520954987
 31
0.0
  0
LINE
  5
78
330
1F
100
AcDbEntity
  8
0
  6
Continuous
 62
     7
100
AcDbLine
 10
204.5766707219
 20
268.4200446911
 30
0.0
 11
216.8446199143
 21
275.5029484597
 31
0.0
  0
LWPOLYLINE
  5
79
330
1F
100
AcDbEntity
  8
BEZUGSACHSEN
  6
DASHED
 62
     8
100
AcDbPolyline
 90
        2
 70
     0
 43
0.35
 10
199.3446199143
 20
301.2860700949
 10
199.3446199143
 20
316.2860700949
  0
LWPOLYLINE
  5
7A
330
1F
100
AcDbEntity
  8
BEZUGSACHSEN
  6
DOT_CENTER
 62
     7
100
AcDbPolyline
 90
        2
 70
     0
 43
0.25
 10
193.3446199143
 20
319.2860700949
 10
193.3446199143
 20
295.9942743393
  0
LWPOLYLINE
  5
7B
330
1F
100
AcDbEntity
  8
BEZUGSACHSEN
  6
DASHED
 62
     8
100
AcDbPolyline
 90
        2
 70
     0
 43
0.35
 10
187.3446199143
 20
301.2860700949
 10
187.3446199143
 20
316.2860700949
  0
LINE
  5
7C
330
1F
100
AcDbEntity
  8
0
  6
Continuous
 62
     7
100
AcDbLine
 10
169.0486734348
 20
322.9983869441
 30
0.0
 11
172.4446199143
 21
322.9983869441
 31
0.0
  0
LINE
  5
7D
330
1F
100
AcDbEntity
  8
0
  6
Continuous
 62
     7
100
AcDbLine
 10
158.5446199143
 20
322.9983869441
 30
0.0
 11
161.9905663939
 21
322.9983869441
 31
0.0
  0
LINE
  5
7E
330
1F
100
AcDbEntity
  8
0
  6
Continuous
 62
     7
100
AcDbLine
 10
164.3571199143
 20
319.0888684562
 30
0.0
 11
166.6821199143
 21
319.0888684562
 31
0.0
  0
LINE
  5
7F
330
1F
100
AcDbEntity
  8
0
  6
Continuous
 62
     7
100
AcDbLine
 10
154.8946199143
 20
314.1610700949
 30
0.0
 11
153.8549375811
 21
314.4396521364
 31
0.0
  0
LINE
  5
80
330
1F
100
AcDbEntity
  8
0
  6
Continuous
 62
     7
100
AcDbLine
 10
199.3446199143
 20
316.2860700949
 30
0.0
 11
204.0766707219
 21
316.2860700949
 31
0.0
  0
LINE
  5
81
330
1F
100
AcDbEntity
  8
0
  6
Continuous
 62
     7
100
AcDbLine
 10
181.5446199143
 20
316.2860700949
 30
0.0
 11
187.3446199143
 21
316.2860700949
 31
0.0
  0
LINE
  5
82
330
1F
100
AcDbEntity
  8
BEZUGSACHSEN
  6
Continuous
 62
     7
100
AcDbLine
 10
187.3446199143
 20
316.2860700949
 30
0.0
 11
174.4446199143
 21
316.2860700949
 31
0.0
  0
LINE
  5
83
330
1F
100
AcDbEntity
  8
BEZUGSACHSEN
  6
Continuous
 62
     7
100
AcDbLine
 10
204.0766707219
 20
316.2860700949
 30
0.0
 11
199.3446199143
 21
316.2860700949
 31
0.0
  0
LINE
  5
84
330
1F
100
AcDbEntity
  8
0
  6
Continuous
 62
     7
100
AcDbLine
 10
157.5446199143
 20
314.8360700949
 30
0.0
 11
157.4903339303
 21
314.8360700949
 31
0.0
  0
LINE
  5
85
330
1F
100
AcDbEntity
  8
0
  6
Continuous
 62
     7
100
AcDbLine
 10
156.5446199143
 20
314.1610700949
 30
0.0
 11
154.8946199143
 21
314.1610700949
 31
0.0
  0
LINE
  5
86
330
1F
100
AcDbEntity
  8
0
  6
Continuous
 62
     7
100
AcDbLine
 10
153.8549375811
 20
314.4396521364
 30
0.0
 11
86.75751717859997
 21
304.6756729962
 31
0.0
  0
LINE
  5
87
330
1F
100
AcDbEntity
  8
RUNDUNGEN
  6
Continuous
 62
     9
100
AcDbLine
 10
174.4446199143
 20
316.2860700949
 30
0.0
 11
174.4446199143
 21
268.2860701004
 31
0.0
  0
LINE
  5
88
330
1F
100
AcDbEntity
  8
0
  6
Continuous
 62
     7
100
AcDbLine
 10
173.4446199143
 20
321.9630208522
 30
0.0
 11
173.4446199143
 21
262.6091193376
 31
0.0
  0
LINE
  5
89
330
1F
100
AcDbEntity
  8
0
  6
Continuous
 62
     9
100
AcDbLine
 10
172.4446199143
 20
322.9983869441
 30
0.0
 11
172.4446199143
 21
261.5737532456
 31
0.0
  0
LINE
  5
8A
330
1F
100
AcDbEntity
  8
0
  6
Continuous
 62
     7
100
AcDbLine
 10
169.0486734348
 20
322.9983869441
 30
0.0
 11
169.0486734348
 21
261.5737532456
 31
0.0
  0
LINE
  5
8B
330
1F
100
AcDbEntity
  8
0
  6
Continuous
 62
     7
100
AcDbLine
 10
167.4321199143
 20
320.0928882973
 30
0.0
 11
167.4321199143
 21
264.4792518924
 31
0.0
  0
LINE
  5
8C
330
1F
100
AcDbEntity
  8
0
  6
Continuous
 62
     9
100
AcDbLine
 10
166.6821199143
 20
319.0888684562
 30
0.0
 11
166.6821199143
 21
265.4832717335
 31
0.0
  0
LINE
  5
8D
330
1F
100
AcDbEntity
  8
0
  6
Continuous
 62
     9
100
AcDbLine
 10
164.3571199143
 20
319.0888684562
 30
0.0
 11
164.3571199143
 21
265.4832717335
 31
0.0
  0
LINE
  5
8E
330
1F
100
AcDbEntity
  8
0
  6
Continuous
 62
     7
100
AcDbLine
 10
163.6071199143
 20
320.0928882973
 30
0.0
 11
163.6071199143
 21
264.4792518924
 31
0.0
  0
LWPOLYLINE
  5
8F
330
1F
100
AcDbEntity
  8
DEFAULT_2
  6
DASHED
 62
     8
100
AcDbPolyline
 90
        2
 70
     0
 43
0.35
 10
187.3446199143
 20
301.2860700949
 10
217.3446199143
 20
301.2860700949
  0
LWPOLYLINE
  5
90
330
1F
100
AcDbEntity
  8
DEFAULT_2
  6
DASHED
 62
     8
100
AcDbPolyline
 90
        2
 70
     0
 43
0.35
 10
159.2446199143
 20
301.2860700949
 10
187.3446199143
 20
301.2860700949
  0
LINE
  5
91
330
1F
100
AcDbEntity
  8
0
  6
Continuous
 62
     7
100
AcDbLine
 10
161.9905663939
 20
322.9983869441
 30
0.0
 11
161.9905663939
 21
261.5737532456
 31
0.0
  0
LWPOLYLINE
  5
92
330
1F
100
AcDbEntity
  8
DEFAULT_2
  6
DASHED
 62
     8
100
AcDbPolyline
 90
        2
 70
     0
 43
0.35
 10
159.2446199143
 20
301.2860700949
 10
159.2446199143
 20
283.2860700949
  0
LINE
  5
93
330
1F
100
AcDbEntity
  8
0
  6
Continuous
 62
     9
100
AcDbLine
 10
158.5446199143
 20
322.9983869441
 30
0.0
 11
158.5446199143
 21
261.5737532456
 31
0.0
  0
LINE
  5
94
330
1F
100
AcDbEntity
  8
0
  6
Continuous
 62
     7
100
AcDbLine
 10
157.5446199143
 20
321.9630208522
 30
0.0
 11
157.5446199143
 21
262.6091193376
 31
0.0
  0
LINE
  5
95
330
1F
100
AcDbEntity
  8
0
  6
Continuous
 62
     9
100
AcDbLine
 10
156.5446199143
 20
314.1610700949
 30
0.0
 11
156.5446199143
 21
270.4110700949
 31
0.0
  0
LINE
  5
96
330
1F
100
AcDbEntity
  8
0
  6
Continuous
 62
     7
100
AcDbLine
 10
154.8946199143
 20
314.1610700949
 30
0.0
 11
154.8946199143
 21
270.4110700949
 31
0.0
  0
LWPOLYLINE
  5
97
330
1F
100
AcDbEntity
  8
TEIL_STARTBEZUEGE
  6
DOT_CENTER
 62
     7
100
AcDbPolyline
 90
        2
 70
     0
 43
0.25
 10
154.3446199143
 20
265.4832717334999
 10
154.3446199143
 20
319.0888684562
  0
LINE
  5
98
330
1F
100
AcDbEntity
  8
0
  6
Continuous
 62
     7
100
AcDbLine
 10
153.8549375811
 20
314.4396521364
 30
0.0
 11
153.8549375811
 21
270.1324880533
 31
0.0
  0
LWPOLYLINE
  5
99
330
1F
100
AcDbEntity
  8
TEIL_STARTBEZUEGE
  6
DOT_CENTER
 62
     7
100
AcDbPolyline
 90
        2
 70
     0
 43
0.25
 10
220.3446199143
 20
292.2860700949
 10
82.94461991429995
 20
292.2860700949
  0
LWPOLYLINE
  5
9A
330
1F
100
AcDbEntity
  8
DEFAULT_2
  6
DASHED
 62
     8
100
AcDbPolyline
 90
        2
 70
     0
 43
0.35
 10
217.3446199143
 20
283.2860700949
 10
159.2446199143
 20
283.2860700949
  0
LINE
  5
9B
330
1F
100
AcDbEntity
  8
0
  6
Continuous
 62
     7
100
AcDbLine
 10
153.8549375811
 20
270.1324880533
 30
0.0
 11
86.75751717859998
 21
279.8964671936001
 31
0.0
  0
LINE
  5
9C
330
1F
100
AcDbEntity
  8
0
  6
Continuous
 62
     7
100
AcDbLine
 10
156.5446199143
 20
270.4110700949
 30
0.0
 11
154.8946199143
 21
270.4110700949
 31
0.0
  0
LINE
  5
9D
330
1F
100
AcDbEntity
  8
0
  6
Continuous
 62
     7
100
AcDbLine
 10
154.8946199143
 20
270.4110700949
 30
0.0
 11
153.8549375811
 21
270.1324880533
 31
0.0
  0
LINE
  5
9E
330
1F
100
AcDbEntity
  8
0
  6
Continuous
 62
     7
100
AcDbLine
 10
174.4446199143
 20
268.2860700949
 30
0.0
 11
204.0766707219
 21
268.2860700949
 31
0.0
  0
LINE
  5
9F
330
1F
100
AcDbEntity
  8
RUNDUNGEN
  6
Continuous
 62
     7
100
AcDbLine
 10
204.0766707219
 20
268.2860700949
 30
0.0
 11
174.4446199143
 21
268.2860700949
 31
0.0
  0
LINE
  5
A0
330
1F
100
AcDbEntity
  8
RUNDUNGEN
  6
Continuous
 62
     7
100
AcDbLine
 10
173.4546665266
 20
267.4360700949
 30
0.0
 11
173.4446199143
 21
267.4360700949
 31
0.0
  0
LINE
  5
A1
330
1F
100
AcDbEntity
  8
0
  6
Continuous
 62
     7
100
AcDbLine
 10
164.3571199143
 20
265.4832717335
 30
0.0
 11
166.6821199143
 21
265.4832717335
 31
0.0
  0
LINE
  5
A2
330
1F
100
AcDbEntity
  8
0
  6
Continuous
 62
     7
100
AcDbLine
 10
169.0486734348
 20
261.5737532456
 30
0.0
 11
172.4446199143
 21
261.5737532456
 31
0.0
  0
LINE
  5
A3
330
1F
100
AcDbEntity
  8
0
  6
Continuous
 62
     7
100
AcDbLine
 10
158.5446199143
 20
261.5737532456
 30
0.0
 11
161.9905663939
 21
261.5737532456
 31
0.0
  0
LINE
  5
A4
330
1F
100
AcDbEntity
  8
0
  6
Continuous
 62
     9
100
AcDbLine
 10
86.75751717859997
 20
304.6756729962
 30
0.0
 11
86.75751717859998
 21
279.8964671936001
 31
0.0
  0
LINE
  5
A5
330
1F
100
AcDbEntity
  8
0
  6
Continuous
 62
     7
100
AcDbLine
 10
85.94461991429996
 20
303.7356182957
 30
0.0
 11
85.94461991429996
 21
280.836521894
 31
0.0
  0
LINE
  5
A6
330
1F
100
AcDbEntity
  8
RUNDUNGEN
  6
Continuous
 62
     7
100
AcDbLine
 10
173.4446199143
 20
317.1360700949001
 30
0.0
 11
173.4546665266
 21
317.1360700949001
 31
0.0
  0
ARC
  5
A7
330
1F
100
AcDbEntity
  8
RUNDUNGEN
  6
Continuous
 62
     7
100
AcDbCircle
 10
216.3446199143
 20
308.2031663262
 30
0.0
 40
1.0
100
AcDbArc
 50
0.0
 51
60.00000000044565
  0
ARC
  5
A8
330
1F
100
AcDbEntity
  8
RUNDUNGEN
  6
Continuous
 62
     7
100
AcDbCircle
 10
204.0766707219
 20
315.2860700949
 30
0.0
 40
1.000000000013472
100
AcDbArc
 50
60.00000000044565
 51
90.0
  0
ARC
  5
A9
330
1F
100
AcDbEntity
  8
0
  6
Continuous
 62
     7
100
AcDbCircle
 10
1131.5698346986
 20
799.0011436405
 30
0.0
 40
1102.395204011456
100
AcDbArc
 50
209.0041652430551
 51
209.1769749559899
  0
ARC
  5
AA
330
1F
100
AcDbEntity
  8
RUNDUNGEN
  6
Continuous
 62
     7
100
AcDbCircle
 10
174.4446199143
 20
267.2860700949
 30
0.0
 40
1.0
100
AcDbArc
 50
90.0
 51
172.3370689397034
  0
ARC
  5
AB
330
1F
100
AcDbEntity
  8
RUNDUNGEN
  6
Continuous
 62
     7
100
AcDbCircle
 10
204.0766707219
 20
269.2860700949
 30
0.0
 40
1.0
100
AcDbArc
 50
270.0
 51
299.9999999995527
  0
ARC
  5
AC
330
1F
100
AcDbEntity
  8
RUNDUNGEN
  6
Continuous
 62
     7
100
AcDbCircle
 10
216.3446199143
 20
276.3689738635
 30
0.0
 40
1.000000000013472
100
AcDbArc
 50
299.9999999995543
 51
0.0
  0
ARC
  5
AD
330
1F
100
AcDbEntity
  8
0
  6
Continuous
 62
     7
100
AcDbCircle
 10
1131.5698347276
 20
-214.4290034669
 30
0.0
 40
1102.395204044547
100
AcDbArc
 50
150.8230250440142
 51
150.9958347569439
  0
ARC
  5
AE
330
1F
100
AcDbEntity
  8
0
  6
Continuous
 62
     7
100
AcDbCircle
 10
86.89461991429997
 20
303.7356182957
 30
0.0
 40
0.9500000000360456
100
AcDbArc
 50
98.2978268271585
 51
180.0
  0
ARC
  5
AF
330
1F
100
AcDbEntity
  8
0
  6
Continuous
 62
     7
100
AcDbCircle
 10
156.5446199143
 20
315.1610700949
 30
0.0
 40
1.0
100
AcDbArc
 50
270.0
 51
341.0344250117286
  0
ARC
  5
B0
330
1F
100
AcDbEntity
  8
0
  6
Continuous
 62
     7
100
AcDbCircle
 10
-800.5305948699
 20
799.0011436405
 30
0.0
 40
1102.395204011377
100
AcDbArc
 50
330.82302504401
 51
330.9958347569423
  0
ARC
  5
B1
330
1F
100
AcDbEntity
  8
0
  6
Continuous
 62
     7
100
AcDbCircle
 10
86.89461991429997
 20
280.836521894
 30
0.0
 40
0.9500000000000028
100
AcDbArc
 50
180.0
 51
261.7021731719715
  0
ARC
  5
B2
330
1F
100
AcDbEntity
  8
0
  6
Continuous
 62
     7
100
AcDbCircle
 10
156.5446199143
 20
269.4110700949
 30
0.0
 40
1.0
100
AcDbArc
 50
0.0
 51
90.0
  0
ARC
  5
B3
330
1F
100
AcDbEntity
  8
0
  6
Continuous
 62
     7
100
AcDbCircle
 10
-800.5305948762
 20
-214.4290034543
 30
0.0
 40
1102.395204018576
100
AcDbArc
 50
29.00416524305799
 51
29.17697495598917
  0
ARC
  5
B4
330
1F
100
AcDbEntity
  8
RUNDUNGEN
  6
Continuous
 62
     7
100
AcDbCircle
 10
174.4446199143
 20
317.2860700949
 30
0.0
 40
0.9999999999997136
100
AcDbArc
 50
187.6629310602999
 51
270.0
  0
SPLINE
  5
B5
330
1F
100
AcDbEntity
  8
0
  6
Continuous
 62
     7
100
AcDbSpline
210
0.0
220
0.0
230
1.0
 70
     8
 71
     3
 72
    15
 73
    11
 74
     9
 42
0.0000000001
 43
0.0000000001
 44
0.00000001
 40
0.0
 40
0.0
 40
0.0
 40
0.0
 40
0.1498890555142719
 40
0.3004342038563698
 40
0.4507212547630129
 40
0.6008661228293651
 40
0.7509994133209216
 40
0.901289081687002
 40
1.051768580364229
 40
1.201718088807199
 40
1.201718088807199
 40
1.201718088807199
 40
1.201718088807199
 10
166.6821199143
 20
265.4832717335
 30
0.0
 10
166.7321609184907
 20
265.4801559554854
 30
0.0
 10
166.8324619658396
 20
265.4739107611051
 30
0.0
 10
166.9765059631041
 20
265.4257666526762
 30
0.0
 10
167.1078992071961
 20
265.3510554055865
 30
0.0
 10
167.2215954851732
 20
265.2513409943244
 30
0.0
 10
167.313800251666
 20
265.1315507275435
 30
0.0
 10
167.381207309847
 20
264.9964063063134
 30
0.0
 10
167.4239877733016
 20
264.8510250268513
 30
0.0
 10
167.4294123905102
 20
264.7507511087633
 30
0.0
 10
167.4321199143
 20
264.7007025969
 30
0.0
 11
166.6821199143
 21
265.4832717335
 31
0.0
 11
166.8311759476134
 21
265.467491115773
 31
0.0
 11
166.9744614414825
 21
265.421305523474
 31
0.0
 11
167.1050078259495
 21
265.3468485615912
 31
0.0
 11
167.2180172990687
 21
265.2479934130557
 31
0.0
 11
167.3096306599572
 21
265.1290522636559
 31
0.0
 11
167.3770802990531
 21
264.9947483895368
 31
0.0
 11
167.4182449585747
 21
264.8500087946478
 31
0.0
 11
167.4321199143
 21
264.7007025969
 31
0.0
  0
SPLINE
  5
B6
330
1F
100
AcDbEntity
  8
0
  6
Continuous
 62
     7
100
AcDbSpline
210
0.0
220
0.0
230
1.0
 70
     8
 71
     3
 72
    15
 73
    11
 74
     9
 42
0.0000000001
 43
0.0000000001
 44
0.00000001
 40
0.0
 40
0.0
 40
0.0
 40
0.0
 40
0.1499521789225738
 40
0.3004343666975253
 40
0.4507255053877621
 40
0.60086026616356
 40
0.7510040236322282
 40
0.901289919641447
 40
1.051832040718289
 40
1.201718121729349
 40
1.201718121729349
 40
1.201718121729349
 40
1.201718121729349
 10
163.6071199143
 20
264.7007025969
 30
0.0
 10
163.6098275347336
 20
264.7507520021085
 30
0.0
 10
163.6152523457371
 20
264.8510277131082
 30
0.0
 10
163.6580342098344
 20
264.9964110273867
 30
0.0
 10
163.7254431934481
 20
265.1315566106458
 30
0.0
 10
163.8176495291567
 20
265.2513464702882
 30
0.0
 10
163.9313465514351
 20
265.3510595926165
 30
0.0
 10
164.0627388831906
 20
265.4257688631005
 30
0.0
 10
164.2067808667892
 20
265.4739111907866
 30
0.0
 10
164.3070799055771
 20
265.480156098229
 30
0.0
 10
164.3571199143
 20
265.4832717335
 30
0.0
 11
163.6071199143
 21
264.7007025969
 31
0.0
 11
163.6209953629896
 21
264.8500114308225
 31
0.0
 11
163.6621614819533
 21
264.9947534063755
 31
0.0
 11
163.7296128447217
 21
265.1290580601649
 31
0.0
 11
163.8212282676264
 21
265.2479994771701
 31
0.0
 11
163.9342378697361
 21
265.3468527914181
 31
0.0
 11
164.0647838875847
 21
265.4213080649935
 31
0.0
 11
164.208066799773
 21
265.4674917990689
 31
0.0
 11
164.3571199143
 21
265.4832717335
 31
0.0
  0
SPLINE
  5
B7
330
1F
100
AcDbEntity
  8
0
  6
Continuous
 62
     7
100
AcDbSpline
210
0.0
220
0.0
230
1.0
 70
     8
 71
     3
 72
    15
 73
    11
 74
     9
 42
0.0000000001
 43
0.0000000001
 44
0.00000001
 40
0.0
 40
0.0
 40
0.0
 40
0.0
 40
0.1498887297246771
 40
0.3004335479069875
 40
0.4507207372925087
 40
0.6008657480103305
 40
0.7509990952253722
 40
0.9012888186544251
 40
1.051768450151048
 40
1.201718090877086
 40
1.201718090877086
 40
1.201718090877086
 40
1.201718090877086
 10
164.3571199143
 20
319.0888684562
 30
0.0
 10
164.3070790191148
 20
319.0919842187884
 30
0.0
 10
164.206778191237
 20
319.0982293821879
 30
0.0
 10
164.0627343303065
 20
319.1463733257901
 30
0.0
 10
163.9313410423699
 20
319.2210844701062
 30
0.0
 10
163.8176446234923
 20
319.3207988945474
 30
0.0
 10
163.7254397494389
 20
319.4405891869626
 30
0.0
 10
163.6580326021494
 20
319.575733655877
 30
0.0
 10
163.615252070132
 20
319.72111503002
 30
0.0
 10
163.6098274430281
 20
319.8213890367868
 30
0.0
 10
163.6071199143
 20
319.8714375929
 30
0.0
 11
164.3571199143
 21
319.0888684562
 31
0.0
 11
164.2080642007565
 21
319.1046489998698
 31
0.0
 11
164.0647789888511
 21
319.15083439075
 31
0.0
 11
163.9342324278797
 21
319.2252913226769
 31
0.0
 11
163.8212227923649
 21
319.3241465022288
 31
0.0
 11
163.7296093429119
 21
319.4430876550117
 31
0.0
 11
163.6621596274228
 21
319.5773915523819
 31
0.0
 11
163.6209948949796
 21
319.7221312646182
 31
0.0
 11
163.6071199143
 21
319.8714375929
 31
0.0
  0
SPLINE
  5
B8
330
1F
100
AcDbEntity
  8
0
  6
Continuous
 62
     7
100
AcDbSpline
210
0.0
220
0.0
230
1.0
 70
     8
 71
     3
 72
    15
 73
    11
 74
     9
 42
0.0000000001
 43
0.0000000001
 44
0.00000001
 40
0.0
 40
0.0
 40
0.0
 40
0.0
 40
0.1499520084720957
 40
0.3004340247874519
 40
0.4507251464751791
 40
0.6008598893598194
 40
0.7510035492908936
 40
0.9012893510131418
 40
1.051831757285329
 40
1.201718119694605
 40
1.201718119694605
 40
1.201718119694605
 40
1.201718119694605
 10
167.4321199143
 20
319.8714375929
 30
0.0
 10
167.4294123003149
 20
319.8213882447038
 30
0.0
 10
167.4239875022385
 20
319.721112648066
 30
0.0
 10
167.3812057215129
 20
319.5757294384291
 30
0.0
 10
167.3137968295329
 20
319.440583886603
 30
0.0
 10
167.2215905784831
 20
319.3207940181323
 30
0.0
 10
167.1078936623441
 20
319.221080882727
 30
0.0
 10
166.9765013549662
 20
319.1463715118482
 30
0.0
 10
166.8324592455431
 20
319.0982290389845
 30
0.0
 10
166.7321600171775
 20
319.0919841047908
 30
0.0
 10
166.6821199143
 20
319.0888684562
 30
0.0
 11
167.4321199143
 21
319.8714375929
 31
0.0
 11
167.4182444979917
 21
319.7221289271532
 31
0.0
 11
167.3770784727783
 21
319.577387103196
 31
0.0
 11
167.3096271780732
 21
319.4430824342497
 31
0.0
 11
167.2180118224674
 21
319.3241409879904
 31
0.0
 11
167.1050023465002
 21
319.225287677681
 31
0.0
 11
166.9744564607079
 21
319.1508323628809
 31
0.0
 11
166.8311733050252
 21
319.1046484546028
 31
0.0
 11
166.6821199143
 21
319.0888684562
 31
0.0
  0
SPLINE
  5
B9
330
1F
100
AcDbEntity
  8
BEZUGSACHSEN
  6
Continuous
 62
     7
100
AcDbSpline
210
0.0
220
0.0
230
1.0
 70
     8
 71
     3
 72
    23
 73
    19
 74
    17
 42
0.0000000001
 43
0.0000000001
 44
0.00000001
 40
0.0
 40
0.0
 40
0.0
 40
0.0
 40
0.2361073618173146
 40
0.4722226684270758
 40
1.135111151280302
 40
1.798039136721984
 40
2.778004491735742
 40
3.758032092428877
 40
4.910563591446884
 40
6.06312272336114
 40
7.215681936782754
 40
8.36821351742851
 40
9.348241247206145
 40
10.32820673104426
 40
10.9911354597524
 40
11.65402468615758
 40
11.89014032987172
 40
12.12624802850605
 40
12.12624802850605
 40
12.12624802850605
 40
12.12624802850605
 10
199.3446199143
 20
316.2860700949
 30
0.0
 10
199.2682205607229
 20
316.267167666874
 30
0.0
 10
199.1154192828018
 20
316.2293621747731
 30
0.0
 10
198.7471648853175
 20
316.1424336754756
 30
0.0
 10
198.2385583804219
 20
316.0308566608296
 30
0.0
 10
197.4838117204563
 20
315.8852226201876
 30
0.0
 10
196.620235128893
 20
315.7471636694319
 30
0.0
 10
195.589768715238
 20
315.6241799769504
 30
0.0
 10
194.4972830676771
 20
315.5431639462797
 30
0.0
 10
193.3446211769777
 20
315.5144041744008
 30
0.0
 10
192.1919592551744
 20
315.5431637975425
 30
0.0
 10
191.099473500664
 20
315.6241797083489
 30
0.0
 10
190.0690069627645
 20
315.7471633178424
 30
0.0
 10
189.2054300317025
 20
315.885222261543
 30
0.0
 10
188.4506828377608
 20
316.0308563787262
 30
0.0
 10
187.9420757363178
 20
316.1424335114671
 30
0.0
 10
187.5738208757421
 20
316.2293621055526
 30
0.0
 10
187.4210193778274
 20
316.2671676438082
 30
0.0
 10
187.3446199143
 20
316.2860700949
 30
0.0
 11
199.3446199143
 21
316.2860700949
 31
0.0
 11
199.1153223865376
 21
316.2297732915592
 31
0.0
 11
198.8855445199456
 21
316.1754357351195
 31
0.0
 11
198.2380073771303
 21
316.0336020671344
 31
0.0
 11
197.5870747726892
 21
315.9080621995338
 31
0.0
 11
196.6193596594516
 21
315.7535968097569
 31
0.0
 11
195.6462109284704
 21
315.6376845778312
 31
0.0
 11
194.4968256323882
 21
315.5525828893711
 31
0.0
 11
193.3446212035007
 21
315.5239908168514
 31
0.0
 11
192.1924166894711
 21
315.5525827439093
 31
0.0
 11
191.0430313022245
 21
315.6376843065842
 31
0.0
 11
190.0698824322568
 21
315.7535964630379
 31
0.0
 11
189.102167181176
 21
315.9080618065281
 31
0.0
 11
188.4512338419575
 21
316.0336017891649
 31
0.0
 11
187.8036959686654
 21
316.1754355973224
 31
0.0
 11
187.5739177719096
 21
316.2297732224288
 31
0.0
 11
187.3446199143
 21
316.2860700949
 31
0.0
  0
SPLINE
  5
BA
330
1F
100
AcDbEntity
  8
0
  6
Continuous
 62
     7
100
AcDbSpline
210
0.0
220
0.0
230
1.0
 70
     8
 71
     3
 72
    15
 73
    11
 74
     9
 42
0.0000000001
 43
0.0000000001
 44
0.00000001
 40
0.0
 40
0.0
 40
0.0
 40
0.0
 40
0.1991719801557332
 40
0.3990534797347794
 40
0.598680608612718
 40
0.7980986751277557
 40
0.997525147095464
 40
1.197147680794859
 40
1.3970950169589
 40
1.596192537841096
 40
1.596192537841096
 40
1.596192537841096
 40
1.596192537841096
 10
157.5446199143
 20
262.6091193376
 30
0.0
 10
157.5482450080467
 20
262.5426405717694
 30
0.0
 10
157.5555081093768
 20
262.4094462197704
 30
0.0
 10
157.6128002422983
 20
262.2164431094328
 30
0.0
 10
157.7031071557892
 20
262.0373004169482
 30
0.0
 10
157.826465459647
 20
261.8788540418402
 30
0.0
 10
157.9783171410251
 20
261.7473633504663
 30
0.0
 10
158.1533934696706
 20
261.6491374769853
 30
0.0
 10
158.3449331064998
 20
261.5859898855109
 30
0.0
 10
158.4781522138779
 20
261.5778263304709
 30
0.0
 10
158.5446199143
 20
261.5737532456
 30
0.0
 11
157.5446199143
 21
262.6091193376
 31
0.0
 11
157.5631990396718
 21
262.4108157980966
 31
0.0
 11
157.6183332184264
 21
262.2186886625665
 31
0.0
 11
157.7086653514594
 21
262.0406687301831
 31
0.0
 11
157.831210991941
 21
261.8833469858134
 31
0.0
 11
157.9821092910485
 21
261.7529605561209
 31
0.0
 11
158.1560571234124
 21
261.6550253347935
 31
0.0
 11
158.3465977544577
 21
261.5944183619276
 31
0.0
 11
158.5446199143
 21
261.5737532456
 31
0.0
  0
SPLINE
  5
BB
330
1F
100
AcDbEntity
  8
0
  6
Continuous
 62
     7
100
AcDbSpline
210
0.0
220
0.0
230
1.0
 70
     8
 71
     3
 72
    15
 73
    11
 74
     9
 42
0.0000000001
 43
0.0000000001
 44
0.00000001
 40
0.0
 40
0.0
 40
0.0
 40
0.0
 40
0.1991002753653465
 40
0.3990504135793569
 40
0.5986744170903491
 40
0.7981023202704414
 40
0.9975187549647586
 40
1.197144245660783
 40
1.397023128009938
 40
1.596192512696723
 40
1.596192512696723
 40
1.596192512696723
 40
1.596192512696723
 10
158.5446199143
 20
322.9983869441
 30
0.0
 10
158.4781512920346
 20
322.994313730075
 30
0.0
 10
158.3449303250803
 20
322.9861499154431
 30
0.0
 10
158.1533886862089
 20
322.9230006539267
 30
0.0
 10
157.9783112849498
 20
322.8247727804056
 30
0.0
 10
157.8264602264938
 20
322.6932806779459
 30
0.0
 10
157.7031035033256
 20
322.5348338843069
 30
0.0
 10
157.612798547086
 20
322.3556924298803
 30
0.0
 10
157.5555078187546
 20
322.1626913578092
 30
0.0
 10
157.5482449113633
 20
322.029498749714
 30
0.0
 10
157.5446199143
 20
321.9630208522
 30
0.0
 11
158.5446199143
 21
322.9983869441
 31
0.0
 11
158.3465950498602
 21
322.9777212064124
 31
0.0
 11
158.156052019983
 21
322.9171125309855
 31
0.0
 11
157.9821035111885
 21
322.8191755151748
 31
0.0
 11
157.8312050949147
 21
322.6887870320451
 31
0.0
 11
157.7086616300672
 21
322.531465661439
 31
0.0
 11
157.6183312901441
 21
322.3534466562036
 31
0.0
 11
157.5631985497848
 21
322.1613218307655
 31
0.0
 11
157.5446199143
 21
321.9630208522
 31
0.0
  0
SPLINE
  5
BC
330
1F
100
AcDbEntity
  8
0
  6
Continuous
 62
     7
100
AcDbSpline
210
0.0
220
0.0
230
1.0
 70
     8
 71
     3
 72
    15
 73
    11
 74
     9
 42
0.0000000001
 43
0.0000000001
 44
0.00000001
 40
0.0
 40
0.0
 40
0.0
 40
0.0
 40
0.1991000959938146
 40
0.3990500501761652
 40
0.5986741602602024
 40
0.7981021742105581
 40
0.9975186421951922
 40
1.197144165106549
 40
1.397023090630569
 40
1.59619251747814
 40
1.59619251747814
 40
1.59619251747814
 40
1.59619251747814
 10
172.4446199143
 20
261.5737532456
 30
0.0
 10
172.5110884765536
 20
261.5778264489975
 30
0.0
 10
172.6443093219281
 20
261.5859902422495
 30
0.0
 10
172.8358508993001
 20
261.6491394024527
 30
0.0
 10
173.0109283389112
 20
261.7473672379347
 30
0.0
 10
173.1627794781861
 20
261.8788593770549
 30
0.0
 10
173.2861362520773
 20
262.0373062062143
 30
0.0
 10
173.3764412401396
 20
262.2164476849741
 30
0.0
 10
173.433732000882
 20
262.4094487893367
 30
0.0
 10
173.4409949142576
 20
262.5426414259808
 30
0.0
 10
173.4446199143
 20
262.6091193376
 30
0.0
 11
172.4446199143
 21
261.5737532456
 31
0.0
 11
172.6426446034298
 21
261.5944189350343
 31
0.0
 11
172.8331874784436
 21
261.6550274901978
 31
0.0
 11
173.0071361075451
 21
261.7529645095549
 31
0.0
 11
173.1580346253929
 21
261.8833530445552
 31
0.0
 11
173.2805781247887
 21
262.0406744304482
 31
0.0
 11
173.370908495641
 21
262.2186934561149
 31
0.0
 11
173.4260412658541
 21
262.4108183179034
 31
0.0
 11
173.4446199143
 21
262.6091193376
 31
0.0
  0
SPLINE
  5
BD
330
1F
100
AcDbEntity
  8
0
  6
Continuous
 62
     7
100
AcDbSpline
210
0.0
220
0.0
230
1.0
 70
     8
 71
     3
 72
    15
 73
    11
 74
     9
 42
0.0000000001
 43
0.0000000001
 44
0.00000001
 40
0.0
 40
0.0
 40
0.0
 40
0.0
 40
0.1991720573333327
 40
0.3990536356580703
 40
0.5986807642217858
 40
0.7980988307072957
 40
0.9975253741467782
 40
1.197147976022304
 40
1.397095164786265
 40
1.596192542372318
 40
1.596192542372318
 40
1.596192542372318
 40
1.596192542372318
 10
173.4446199143
 20
321.9630208522
 30
0.0
 10
173.4409948161336
 20
322.0294996438453
 30
0.0
 10
173.4337317059249
 20
322.1626940479974
 30
0.0
 10
173.376439526407
 20
322.3556972004435
 30
0.0
 10
173.2861325780233
 20
322.5348399037312
 30
0.0
 10
173.1627742427674
 20
322.6932862843594
 30
0.0
 10
173.01092250997
 20
322.8247769888797
 30
0.0
 10
172.8358461599678
 20
322.9230028248954
 30
0.0
 10
172.6443065768985
 20
322.9861503309424
 30
0.0
 10
172.5110875667784
 20
322.9943138681105
 30
0.0
 10
172.4446199143
 20
322.9983869441
 30
0.0
 11
173.4446199143
 21
321.9630208522
 31
0.0
 11
173.4260407689493
 21
322.1613244673471
 31
0.0
 11
173.3709065408844
 21
322.3534516706508
 31
0.0
 11
173.2805743834547
 21
322.5314715903021
 31
0.0
 11
173.1580287261872
 21
322.6887933215592
 31
0.0
 11
173.0071303564393
 21
322.8191797788147
 31
0.0
 11
172.8331824418271
 21
322.9171149930208
 31
0.0
 11
172.6426419342382
 21
322.9777218677329
 31
0.0
 11
172.4446199143
 21
322.9983869441
 31
0.0
  0
SPLINE
  5
BE
330
1F
100
AcDbEntity
  8
0
  6
Continuous
 62
     2
100
AcDbSpline
210
0.0
220
0.0
230
1.0
 70
     8
 71
     3
 72
    45
 73
    41
 74
    39
 42
0.0000000001
 43
0.0000000001
 44
0.00000001
 40
0.0
 40
0.0
 40
0.0
 40
0.0
 40
0.025205756277933
 40
0.1000284257404623
 40
0.2232867275669393
 40
0.3938415694205715
 40
0.6104136569057944
 40
0.8711076013792071
 40
1.174066091257765
 40
1.518163840032873
 40
1.901921159353947
 40
2.321632034019703
 40
2.773446997996049
 40
3.255058669040406
 40
3.763682841633829
 40
4.292927346235376
 40
4.836460215615316
 40
5.391655661529824
 40
5.956279982657188
 40
6.525859490905535
 40
7.096229499137641
 40
7.666655478706661
 40
8.236389882927414
 40
8.801202009721813
 40
9.356561427765637
 40
9.900267653885047
 40
10.4297662712151
 40
10.93886024439633
 40
11.42126414899486
 40
11.87412259583006
 40
12.29500983844921
 40
12.67994634082787
 40
13.02511347262532
 40
13.32900171353371
 40
13.59048037571175
 40
13.80770261501803
 40
13.97878304977715
 40
14.10243499679222
 40
14.17750653140642
 40
14.20279927849131
 40
14.20279927849131
 40
14.20279927849131
 40
14.20279927849131
 10
186.3446199143
 20
316.2860997461
 30
0.0
 10
186.3526841256277
 20
316.2837416178133
 30
0.0
 10
186.3846867505458
 20
316.2743834435291
 30
0.0
 10
186.4561901432947
 20
316.2537207002063
 30
0.0
 10
186.5743286485934
 20
316.2199195221613
 30
0.0
 10
186.7381559215931
 20
316.1740428256525
 30
0.0
 10
186.9464639795033
 20
316.1171324265171
 30
0.0
 10
187.1979232996877
 20
316.0507317231366
 30
0.0
 10
187.4912299731178
 20
315.9763576853291
 30
0.0
 10
187.8252891331835
 20
315.895890565103
 30
0.0
 10
188.1983535759119
 20
315.8112986649905
 30
0.0
 10
188.6077848714468
 20
315.7249126032635
 30
0.0
 10
189.0506355181141
 20
315.6391996972283
 30
0.0
 10
189.5241999945489
 20
315.55660161406
 30
0.0
 10
190.0248393607937
 20
315.4795853106889
 30
0.0
 10
190.5474426034401
 20
315.4103057931987
 30
0.0
 10
191.0869123288603
 20
315.3511303328576
 30
0.0
 10
191.6393694602143
 20
315.3035375206949
 30
0.0
 10
192.2014831506588
 20
315.2687685772011
 30
0.0
 10
192.7693291076388
 20
315.247390632376
 30
0.0
 10
193.3394677199547
 20
315.2401383074534
 30
0.0
 10
193.9096612050016
 20
315.2471348129949
 30
0.0
 10
194.4776493631708
 20
315.2682678012819
 30
0.0
 10
195.0399467542679
 20
315.302802571102
 30
0.0
 10
195.5925983663188
 20
315.3501778264415
 30
0.0
 10
196.1322880618662
 20
315.4091560933771
 30
0.0
 10
196.6552153457168
 20
315.4782674961565
 30
0.0
 10
197.1563825728749
 20
315.5551771328565
 30
0.0
 10
197.6307317947625
 20
315.6377492842376
 30
0.0
 10
198.0745941199362
 20
315.7235197696818
 30
0.0
 10
198.4851552007543
 20
315.8100401040148
 30
0.0
 10
198.859350000038
 20
315.8948100917572
 30
0.0
 10
199.1944515432883
 20
315.9754742118391
 30
0.0
 10
199.4886660982781
 20
316.050043433077
 30
0.0
 10
199.740892986212
 20
316.1166247409889
 30
0.0
 10
199.9498345477317
 20
316.1736960165247
 30
0.0
 10
200.114167160012
 20
316.2197081445622
 30
0.0
 10
200.2326806117115
 20
316.2536143432859
 30
0.0
 10
200.304417801146
 20
316.2743439480021
 30
0.0
 10
200.3365278728908
 20
316.2837335618188
 30
0.0
 10
200.3446199143
 20
316.2860998332
 30
0.0
 11
186.3446199143
 21
316.2860997461
 31
0.0
 11
186.3688144281138
 21
316.2790318149416
 31
0.0
 11
186.4406864233525
 21
316.2582268115555
 31
0.0
 11
186.559197805125
 21
316.2243496605606
 31
0.0
 11
186.7234273747471
 21
316.1783322449287
 31
0.0
 11
186.9323491396616
 21
316.1212781896588
 31
0.0
 11
187.1844010373451
 21
316.0547111290414
 31
0.0
 11
187.4780734029483
 21
315.9802773445713
 31
0.0
 11
187.8126022306411
 21
315.899693697629
 31
0.0
 11
188.1868623201217
 21
315.814846390338
 31
0.0
 11
188.597538035732
 21
315.7282284076748
 31
0.0
 11
189.0411286026769
 21
315.6424136619113
 31
0.0
 11
189.5155831235832
 21
315.5596929917151
 31
0.0
 11
190.0182915681588
 21
315.4823446323355
 31
0.0
 11
190.5429574981871
 21
315.4128794790682
 31
0.0
 11
191.0832518723971
 21
315.3536344852427
 31
0.0
 11
191.63640164439
 21
315.306018175973
 31
0.0
 11
192.1999470749944
 21
315.271130188736
 31
0.0
 11
192.7691256595647
 21
315.2497630391151
 31
0.0
 11
193.3394496024792
 21
315.2425141475309
 31
0.0
 11
193.9098327094687
 21
315.2495076751316
 31
0.0
 11
194.4791754581578
 21
315.2706293670131
 31
0.0
 11
195.0429234123932
 21
315.3052845638733
 31
0.0
 11
195.5962565340362
 21
315.3526822400052
 31
0.0
 11
196.1367472909964
 21
315.411726307968
 31
0.0
 11
196.6616924760599
 21
315.4810179989063
 31
0.0
 11
197.1648936749828
 21
315.5582528804819
 31
0.0
 11
197.6401563899357
 21
315.6409503952424
 31
0.0
 11
198.0847969966025
 21
315.7268311484582
 31
0.0
 11
198.4966450559554
 21
315.813590856888
 31
0.0
 11
198.872071995441
 21
315.8986245206454
 31
0.0
 11
199.2076528022017
 21
315.9794073839713
 31
0.0
 11
199.5022348370725
 21
316.0540363843249
 31
0.0
 11
199.7550508733427
 21
316.1207832387754
 31
0.0
 11
199.9646029588689
 21
316.1779970893786
 31
0.0
 11
200.1293402032094
 21
316.2241506968699
 31
0.0
 11
200.2482306898062
 21
316.2581338720806
 31
0.0
 11
200.3203418978999
 21
316.2790075151885
 31
0.0
 11
200.3446199143
 21
316.2860998332
 31
0.0
  0
DIMENSION
  5
C9
330
1F
100
AcDbEntity
  8
1
100
AcDbDimension
  2
*D2
 10
217.3446199143
 20
341.973661103319
 30
0.0
 11
161.8284365640673
 21
345.723661103319
 31
0.0
 70
    32
  1
<>
 71
     5
 42
-1.0
 53
0.00013888888889
  3
ME10_DIM_10
100
AcDbAlignedDimension
 13
85.94461991429996
 23
303.7356182957
 33
0.0
 14
217.3446199143
 24
308.2031663262
 34
0.0
100
AcDbRotatedDimension
  0
DIMENSION
  5
D4
330
1F
100
AcDbEntity
  8
1
100
AcDbDimension
  2
*D3
 10
217.3446199143
 20
335.050336668972
 30
0.0
 11
185.576868477992
 21
338.800336668972
 31
0.0
 70
    32
  1
<>
 71
     5
 42
-1.0
 53
0.00013888888889
  3
ME10_DIM_11
100
AcDbAlignedDimension
 13
154.3446199143
 23
319.0888684562
 33
0.0
 14
217.3446199143
 24
308.2031663262
 34
0.0
100
AcDbRotatedDimension
  0
DIMENSION
  5
DF
330
1F
100
AcDbEntity
  8
1
100
AcDbDimension
  2
*D4
 10
217.3446199143
 20
328.005550402444
 30
0.0
 11
194.1056647889284
 21
331.755550402444
 31
0.0
 70
    32
  1
<>
 71
     5
 42
-1.0
 53
0.00013888888889
  3
ME10_DIM_12
100
AcDbAlignedDimension
 13
173.4446199143
 23
321.9630208522
 33
0.0
 14
217.3446199143
 24
308.2031663262
 34
0.0
100
AcDbRotatedDimension
  0
DIMENSION
  5
EA
330
1F
100
AcDbEntity
  8
1
100
AcDbDimension
  2
*D5
 10
236.955223490776
 20
316.2860700949
 30
0.0
 11
233.205223490776
 21
292.417233573258
 31
0.0
 70
    32
  1
<>
 71
     5
 42
-1.0
 53
90.0
  3
ME10_DIM_13
100
AcDbAlignedDimension
 13
204.0766707219
 23
268.2860700949
 33
0.0
 14
204.0766707219
 24
316.2860700949
 34
0.0
 50
90.0
100
AcDbRotatedDimension
  0
DIMENSION
  5
F5
330
1F
100
AcDbEntity
  8
1
100
AcDbDimension
  2
*D6
 10
228.088509741525
 20
301.2860700949
 30
0.0
 11
224.338509741525
 21
292.417233573258
 31
0.0
 70
    32
  1
<>
 71
     5
 42
-1.0
 53
90.0
  3
ME10_DIM_14
100
AcDbAlignedDimension
 13
217.3446199143
 23
283.2860700949
 33
0.0
 14
217.3446199143
 24
301.2860700949
 34
0.0
 50
90.0
100
AcDbRotatedDimension
  0
INSERT
  5
FC
330
1F
100
AcDbEntity
  8
1
100
AcDbBlockReference
  2
*D7
 10
0.0
 20
0.0
 30
0.0
  0
ENDSEC
  0
SECTION
  2
OBJECTS
  0
DICTIONARY
  5
C
330
0
100
AcDbDictionary
281
     1
  3
ACAD_GROUP
350
D
  3
ACAD_LAYOUT
350
1A
  3
ACAD_MLEADERSTYLE
350
FF
  3
ACAD_MLINESTYLE
350
17
  3
ACAD_PLOTSETTINGS
350
19
  3
ACAD_PLOTSTYLENAME
350
E
  3
ACAD_SCALELIST
350
4A
  3
ACAD_VISUALSTYLE
350
2A
  3
AcDbVariableDictionary
350
FD
  0
DICTIONARY
  5
D
102
{ACAD_REACTORS
330
C
102
}
330
C
100
AcDbDictionary
281
     1
  0
DICTIONARY
  5
1A
102
{ACAD_REACTORS
330
C
102
}
330
C
100
AcDbDictionary
281
     1
  3
Layout1
350
1E
  3
Layout2
350
26
  3
Model
350
22
  0
DICTIONARY
  5
FF
102
{ACAD_REACTORS
330
C
102
}
330
C
100
AcDbDictionary
281
     1
  0
DICTIONARY
  5
17
102
{ACAD_REACTORS
330
C
102
}
330
C
100
AcDbDictionary
281
     1
  3
Standard
350
18
  0
DICTIONARY
  5
19
102
{ACAD_REACTORS
330
C
102
}
330
C
100
AcDbDictionary
281
     1
  0
ACDBDICTIONARYWDFLT
  5
E
102
{ACAD_REACTORS
330
C
102
}
330
C
100
AcDbDictionary
281
     1
  3
Normal
350
F
100
AcDbDictionaryWithDefault
340
F
  0
DICTIONARY
  5
4A
102
{ACAD_REACTORS
330
C
102
}
330
C
100
AcDbDictionary
281
     1
  3
A0
350
4B
  3
A1
350
4C
  3
A2
350
4D
  3
A3
350
4E
  3
A4
350
4F
  3
A5
350
50
  3
A6
350
51
  3
A7
350
52
  3
A8
350
53
  3
A9
350
54
  3
B0
350
55
  3
B1
350
56
  3
B2
350
57
  3
B3
350
58
  3
B4
350
59
  3
B5
350
5A
  3
B6
350
5B
  3
B7
350
5C
  3
B8
350
5D
  3
B9
350
5E
  3
C0
350
5F
  3
C1
350
60
  3
C2
350
61
  3
C3
350
62
  3
C4
350
63
  3
C5
350
64
  3
C6
350
65
  3
C7
350
66
  3
C8
350
67
  3
C9
350
68
  3
D0
350
69
  3
D1
350
6A
  3
D2
350
6B
  0
DICTIONARY
  5
2A
102
{ACAD_REACTORS
330
C
102
}
330
C
100
AcDbDictionary
281
     1
  3
2dWireframe
350
2F
  3
3D Hidden
350
31
  3
3dWireframe
350
30
  3
Basic
350
32
  3
Brighten
350
36
  3
ColorChange
350
3A
  3
Conceptual
350
34
  3
Dim
350
35
  3
Facepattern
350
39
  3
Flat
350
2B
  3
FlatWithEdges
350
2C
  3
Gouraud
350
2D
  3
GouraudWithEdges
350
2E
  3
Linepattern
350
38
  3
Realistic
350
33
  3
Thicken
350
37
  0
DICTIONARY
  5
FD
102
{ACAD_REACTORS
330
C
102
}
330
C
100
AcDbDictionary
281
     1
  3
CANNOSCALE
350
100
  0
LAYOUT
  5
1E
102
{ACAD_REACTORS
330
1A
102
}
330
1A
100
AcDbPlotSettings
  1

  2
none_device
  4

  6

 40
0.0
 41
0.0
 42
0.0
 43
0.0
 44
0.0
 45
0.0
 46
0.0
 47
0.0
 48
0.0
 49
0.0
140
0.0
141
0.0
142
1.0
143
1.0
 70
   688
 72
     0
 73
     0
 74
     5
  7

 75
    16
147
1.0
148
0.0
149
0.0
100
AcDbLayout
  1
Layout1
 70
     1
 71
     1
 10
0.0
 20
0.0
 11
12.0
 21
9.0
 12
0.0
 22
0.0
 32
0.0
 14
1.00000000000000E+20
 24
1.00000000000000E+20
 34
1.00000000000000E+20
 15
-1.00000000000000E+20
 25
-1.00000000000000E+20
 35
-1.00000000000000E+20
146
0.0
 13
0.0
 23
0.0
 33
0.0
 16
1.0
 26
0.0
 36
0.0
 17
0.0
 27
1.0
 37
0.0
 76
     0
330
1B
  0
LAYOUT
  5
26
102
{ACAD_REACTORS
330
1A
102
}
330
1A
100
AcDbPlotSettings
  1

  2
none_device
  4

  6

 40
0.0
 41
0.0
 42
0.0
 43
0.0
 44
0.0
 45
0.0
 46
0.0
 47
0.0
 48
0.0
 49
0.0
140
0.0
141
0.0
142
1.0
143
1.0
 70
   688
 72
     0
 73
     0
 74
     5
  7

 75
    16
147
1.0
148
0.0
149
0.0
100
AcDbLayout
  1
Layout2
 70
     1
 71
     2
 10
0.0
 20
0.0
 11
0.0
 21
0.0
 12
0.0
 22
0.0
 32
0.0
 14
0.0
 24
0.0
 34
0.0
 15
0.0
 25
0.0
 35
0.0
146
0.0
 13
0.0
 23
0.0
 33
0.0
 16
1.0
 26
0.0
 36
0.0
 17
0.0
 27
1.0
 37
0.0
 76
     0
330
23
  0
LAYOUT
  5
22
102
{ACAD_REACTORS
330
1A
102
}
330
1A
100
AcDbPlotSettings
  1

  2
none_device
  4

  6

 40
0.0
 41
0.0
 42
0.0
 43
0.0
 44
0.0
 45
0.0
 46
0.0
 47
0.0
 48
0.0
 49
0.0
140
0.0
141
0.0
142
1.0
143
1.0
 70
  1712
 72
     0
 73
     0
 74
     0
  7

 75
     0
147
1.0
148
0.0
149
0.0
100
AcDbLayout
  1
Model
 70
     1
 71
     0
 10
0.0
 20
0.0
 11
12.0
 21
9.0
 12
0.0
 22
0.0
 32
0.0
 14
82.81961991429995
 24
240.5641949849167
 34
0.0
 15
238.955223490776
 25
347.473661103319
 35
0.0
146
0.0
 13
0.0
 23
0.0
 33
0.0
 16
1.0
 26
0.0
 36
0.0
 17
0.0
 27
1.0
 37
0.0
 76
     0
330
1F
331
29
  0
MLINESTYLE
  5
18
102
{ACAD_REACTORS
330
17
102
}
330
17
100
AcDbMlineStyle
  2
Standard
 70
     0
  3

 62
   256
 51
90.0
 52
90.0
 71
     2
 49
0.5
 62
   256
  6
BYLAYER
 49
-0.5
 62
   256
  6
BYLAYER
  0
ACDBPLACEHOLDER
  5
F
102
{ACAD_REACTORS
330
E
102
}
330
E
  0
SCALE
  5
4B
102
{ACAD_REACTORS
330
4A
102
}
330
4A
100
AcDbScale
 70
     0
300
1:1
140
1.0
141
1.0
290
     1
  0
SCALE
  5
4C
102
{ACAD_REACTORS
330
4A
102
}
330
4A
100
AcDbScale
 70
     0
300
1:2
140
1.0
141
2.0
290
     0
  0
SCALE
  5
4D
102
{ACAD_REACTORS
330
4A
102
}
330
4A
100
AcDbScale
 70
     0
300
1:4
140
1.0
141
4.0
290
     0
  0
SCALE
  5
4E
102
{ACAD_REACTORS
330
4A
102
}
330
4A
100
AcDbScale
 70
     0
300
1:5
140
1.0
141
5.0
290
     0
  0
SCALE
  5
4F
102
{ACAD_REACTORS
330
4A
102
}
330
4A
100
AcDbScale
 70
     0
300
1:8
140
1.0
141
8.0
290
     0
  0
SCALE
  5
50
102
{ACAD_REACTORS
330
4A
102
}
330
4A
100
AcDbScale
 70
     0
300
1:10
140
1.0
141
10.0
290
     0
  0
SCALE
  5
51
102
{ACAD_REACTORS
330
4A
102
}
330
4A
100
AcDbScale
 70
     0
300
1:16
140
1.0
141
16.0
290
     0
  0
SCALE
  5
52
102
{ACAD_REACTORS
330
4A
102
}
330
4A
100
AcDbScale
 70
     0
300
1:20
140
1.0
141
20.0
290
     0
  0
SCALE
  5
53
102
{ACAD_REACTORS
330
4A
102
}
330
4A
100
AcDbScale
 70
     0
300
1:30
140
1.0
141
30.0
290
     0
  0
SCALE
  5
54
102
{ACAD_REACTORS
330
4A
102
}
330
4A
100
AcDbScale
 70
     0
300
1:40
140
1.0
141
40.0
290
     0
  0
SCALE
  5
55
102
{ACAD_REACTORS
330
4A
102
}
330
4A
100
AcDbScale
 70
     0
300
1:50
140
1.0
141
50.0
290
     0
  0
SCALE
  5
56
102
{ACAD_REACTORS
330
4A
102
}
330
4A
100
AcDbScale
 70
     0
300
1:100
140
1.0
141
100.0
290
     0
  0
SCALE
  5
57
102
{ACAD_REACTORS
330
4A
102
}
330
4A
100
AcDbScale
 70
     0
300
2:1
140
2.0
141
1.0
290
     0
  0
SCALE
  5
58
102
{ACAD_REACTORS
330
4A
102
}
330
4A
100
AcDbScale
 70
     0
300
4:1
140
4.0
141
1.0
290
     0
  0
SCALE
  5
59
102
{ACAD_REACTORS
330
4A
102
}
330
4A
100
AcDbScale
 70
     0
300
8:1
140
8.0
141
1.0
290
     0
  0
SCALE
  5
5A
102
{ACAD_REACTORS
330
4A
102
}
330
4A
100
AcDbScale
 70
     0
300
10:1
140
10.0
141
1.0
290
     0
  0
SCALE
  5
5B
102
{ACAD_REACTORS
330
4A
102
}
330
4A
100
AcDbScale
 70
     0
300
100:1
140
100.0
141
1.0
290
     0
  0
SCALE
  5
5C
102
{ACAD_REACTORS
330
4A
102
}
330
4A
100
AcDbScale
 70
     0
300
1/128" = 1'-0"
140
0.0078125
141
12.0
290
     0
  0
SCALE
  5
5D
102
{ACAD_REACTORS
330
4A
102
}
330
4A
100
AcDbScale
 70
     0
300
1/64" = 1'-0"
140
0.015625
141
12.0
290
     0
  0
SCALE
  5
5E
102
{ACAD_REACTORS
330
4A
102
}
330
4A
100
AcDbScale
 70
     0
300
1/32" = 1'-0"
140
0.03125
141
12.0
290
     0
  0
SCALE
  5
5F
102
{ACAD_REACTORS
330
4A
102
}
330
4A
100
AcDbScale
 70
     0
300
1/16" = 1'-0"
140
0.0625
141
12.0
290
     0
  0
SCALE
  5
60
102
{ACAD_REACTORS
330
4A
102
}
330
4A
100
AcDbScale
 70
     0
300
3/32" = 1'-0"
140
0.09375
141
12.0
290
     0
  0
SCALE
  5
61
102
{ACAD_REACTORS
330
4A
102
}
330
4A
100
AcDbScale
 70
     0
300
1/8" = 1'-0"
140
0.125
141
12.0
290
     0
  0
SCALE
  5
62
102
{ACAD_REACTORS
330
4A
102
}
330
4A
100
AcDbScale
 70
     0
300
3/16" = 1'-0"
140
0.1875
141
12.0
290
     0
  0
SCALE
  5
63
102
{ACAD_REACTORS
330
4A
102
}
330
4A
100
AcDbScale
 70
     0
300
1/4" = 1'-0"
140
0.25
141
12.0
290
     0
  0
SCALE
  5
64
102
{ACAD_REACTORS
330
4A
102
}
330
4A
100
AcDbScale
 70
     0
300
3/8" = 1'-0"
140
0.375
141
12.0
290
     0
  0
SCALE
  5
65
102
{ACAD_REACTORS
330
4A
102
}
330
4A
100
AcDbScale
 70
     0
300
1/2" = 1'-0"
140
0.5
141
12.0
290
     0
  0
SCALE
  5
66
102
{ACAD_REACTORS
330
4A
102
}
330
4A
100
AcDbScale
 70
     0
300
3/4" = 1'-0"
140
0.75
141
12.0
290
     0
  0
SCALE
  5
67
102
{ACAD_REACTORS
330
4A
102
}
330
4A
100
AcDbScale
 70
     0
300
1" = 1'-0"
140
1.0
141
12.0
290
     0
  0
SCALE
  5
68
102
{ACAD_REACTORS
330
4A
102
}
330
4A
100
AcDbScale
 70
     0
300
1-1/2" = 1'-0"
140
1.5
141
12.0
290
     0
  0
SCALE
  5
69
102
{ACAD_REACTORS
330
4A
102
}
330
4A
100
AcDbScale
 70
     0
300
3" = 1'-0"
140
3.0
141
12.0
290
     0
  0
SCALE
  5
6A
102
{ACAD_REACTORS
330
4A
102
}
330
4A
100
AcDbScale
 70
     0
300
6" = 1'-0"
140
6.0
141
12.0
290
     0
  0
SCALE
  5
6B
102
{ACAD_REACTORS
330
4A
102
}
330
4A
100
AcDbScale
 70
     0
300
1'-0" = 1'-0"
140
12.0
141
12.0
290
     0
  0
VISUALSTYLE
  5
2F
102
{ACAD_REACTORS
330
2A
102
}
330
2A
100
AcDbVisualStyle
  2
2dWireframe
 70
     4
 71
     0
 72
     2
 73
     0
 90
        0
 40
-0.6
 41
-30.0
 62
     5
 63
     7
 74
     1
 91
        4
 64
     7
 65
   257
 75
     1
175
     1
 42
1.0
 92
        0
 66
   257
 43
1.0
 76
     1
 77
     6
 78
     2
 67
     7
 79
     5
170
     0
171
     0
290
     0
174
     0
 93
        1
 44
0.0
173
     0
291
     0
 45
0.0
1001
ACAD
1000
AcDbSavedByObjectVersion
1070
     0
  0
VISUALSTYLE
  5
31
102
{ACAD_REACTORS
330
2A
102
}
330
2A
100
AcDbVisualStyle
  2
3D Hidden
 70
     6
 71
     1
 72
     2
 73
     2
 90
        0
 40
-0.6
 41
-30.0
 62
     5
 63
     7
 74
     2
 91
        2
 64
     7
 65
   257
 75
     2
175
     1
 42
40.0
 92
        0
 66
   257
 43
1.0
 76
     1
 77
     6
 78
     2
 67
     7
 79
     3
170
     0
171
     0
290
     0
174
     0
 93
        1
 44
0.0
173
     0
291
     0
 45
0.0
1001
ACAD
1000
AcDbSavedByObjectVersion
1070
     0
  0
VISUALSTYLE
  5
30
102
{ACAD_REACTORS
330
2A
102
}
330
2A
100
AcDbVisualStyle
  2
3dWireframe
 70
     5
 71
     0
 72
     2
 73
     0
 90
        0
 40
-0.6
 41
-30.0
 62
     5
 63
     7
 74
     1
 91
        4
 64
     7
 65
   257
 75
     1
175
     1
 42
1.0
 92
        0
 66
   257
 43
1.0
 76
     1
 77
     6
 78
     2
 67
     7
 79
     5
170
     0
171
     0
290
     0
174
     0
 93
        1
 44
0.0
173
     0
291
     0
 45
0.0
1001
ACAD
1000
AcDbSavedByObjectVersion
1070
     0
  0
VISUALSTYLE
  5
32
102
{ACAD_REACTORS
330
2A
102
}
330
2A
100
AcDbVisualStyle
  2
Basic
 70
     7
 71
     1
 72
     0
 73
     1
 90
        0
 40
-0.6
 41
-30.0
 62
     5
 63
     7
 74
     0
 91
        4
 64
     7
 65
   257
 75
     1
175
     1
 42
1.0
 92
        8
 66
     7
 43
1.0
 76
     1
 77
     6
 78
     2
 67
     7
 79
     5
170
     0
171
     0
290
     0
174
     0
 93
        1
 44
0.0
173
     0
291
     1
 45
0.0
1001
ACAD
1000
AcDbSavedByObjectVersion
1070
     0
  0
VISUALSTYLE
  5
36
102
{ACAD_REACTORS
330
2A
102
}
330
2A
100
AcDbVisualStyle
  2
Brighten
 70
    12
 71
     2
 72
     2
 73
     0
 90
        0
 40
-0.6
 41
-30.0
 62
     5
 63
     7
 74
     1
 91
        4
 64
     7
 65
   257
 75
     1
175
     1
 42
1.0
 92
        8
 66
     7
 43
1.0
 76
     1
 77
     6
 78
     2
 67
     7
 79
     5
170
     0
171
     0
290
     0
174
     0
 93
        1
 44
50.0
173
     0
291
     1
 45
0.0
1001
ACAD
1000
AcDbSavedByObjectVersion
1070
     0
  0
VISUALSTYLE
  5
3A
102
{ACAD_REACTORS
330
2A
102
}
330
2A
100
AcDbVisualStyle
  2
ColorChange
 70
    16
 71
     2
 72
     2
 73
     3
 90
        0
 40
-0.6
 41
-30.0
 62
     5
 63
     8
 74
     1
 91
        4
 64
     7
 65
   257
 75
     1
175
     1
 42
1.0
 92
        8
 66
     8
 43
1.0
 76
     1
 77
     6
 78
     2
 67
     7
 79
     5
170
     0
171
     0
290
     0
174
     0
 93
        1
 44
0.0
173
     0
291
     1
 45
0.0
1001
ACAD
1000
AcDbSavedByObjectVersion
1070
     0
  0
VISUALSTYLE
  5
34
102
{ACAD_REACTORS
330
2A
102
}
330
2A
100
AcDbVisualStyle
  2
Conceptual
 70
     9
 71
     3
 72
     2
 73
     0
 90
        0
 40
-0.6
 41
-30.0
 62
     5
 63
     7
 74
     2
 91
        2
 64
     7
 65
   257
 75
     1
175
     1
 42
40.0
 92
        8
 66
     7
 43
1.0
 76
     1
 77
     6
 78
     2
 67
     7
 79
     3
170
     0
171
     0
290
     0
174
     0
 93
        1
 44
0.0
173
     0
291
     0
 45
0.0
1001
ACAD
1000
AcDbSavedByObjectVersion
1070
     0
  0
VISUALSTYLE
  5
35
102
{ACAD_REACTORS
330
2A
102
}
330
2A
100
AcDbVisualStyle
  2
Dim
 70
    11
 71
     2
 72
     2
 73
     0
 90
        0
 40
-0.6
 41
-30.0
 62
     5
 63
     7
 74
     1
 91
        4
 64
     7
 65
   257
 75
     1
175
     1
 42
1.0
 92
        8
 66
     7
 43
1.0
 76
     1
 77
     6
 78
     2
 67
     7
 79
     5
170
     0
171
     0
290
     0
174
     0
 93
        1
 44
-50.0
173
     0
291
     1
 45
0.0
1001
ACAD
1000
AcDbSavedByObjectVersion
1070
     0
  0
VISUALSTYLE
  5
39
102
{ACAD_REACTORS
330
2A
102
}
330
2A
100
AcDbVisualStyle
  2
Facepattern
 70
    15
 71
     2
 72
     2
 73
     0
 90
        0
 40
-0.6
 41
-30.0
 62
     5
 63
     7
 74
     1
 91
        4
 64
     7
 65
   257
 75
     1
175
     1
 42
1.0
 92
        8
 66
     7
 43
1.0
 76
     1
 77
     6
 78
     2
 67
     7
 79
     5
170
     0
171
     0
290
     0
174
     0
 93
        1
 44
0.0
173
     0
291
     1
 45
0.0
1001
ACAD
1000
AcDbSavedByObjectVersion
1070
     0
  0
VISUALSTYLE
  5
2B
102
{ACAD_REACTORS
330
2A
102
}
330
2A
100
AcDbVisualStyle
  2
Flat
 70
     0
 71
     2
 72
     1
 73
     1
 90
        2
 40
-0.6
 41
30.0
 62
     5
 63
     7
 74
     0
 91
        4
 64
     7
 65
   257
 75
     1
175
     1
 42
1.0
 92
        8
 66
     7
 43
1.0
 76
     1
 77
     6
 78
     2
 67
     7
 79
     5
170
     0
171
     0
290
     0
174
     0
 93
       13
 44
0.0
173
     0
291
     1
 45
0.0
1001
ACAD
1000
AcDbSavedByObjectVersion
1070
     0
  0
VISUALSTYLE
  5
2C
102
{ACAD_REACTORS
330
2A
102
}
330
2A
100
AcDbVisualStyle
  2
FlatWithEdges
 70
     1
 71
     2
 72
     1
 73
     1
 90
        2
 40
-0.6
 41
30.0
 62
     5
 63
     7
 74
     1
 91
        4
 64
     7
 65
   257
 75
     1
175
     1
 42
1.0
 92
        0
 66
   257
 43
1.0
 76
     1
 77
     6
 78
     2
 67
     7
 79
     5
170
     0
171
     0
290
     0
174
     0
 93
       13
 44
0.0
173
     0
291
     1
 45
0.0
1001
ACAD
1000
AcDbSavedByObjectVersion
1070
     0
  0
VISUALSTYLE
  5
2D
102
{ACAD_REACTORS
330
2A
102
}
330
2A
100
AcDbVisualStyle
  2
Gouraud
 70
     2
 71
     2
 72
     2
 73
     1
 90
        2
 40
-0.6
 41
30.0
 62
     5
 63
     7
 74
     0
 91
        4
 64
     7
 65
   257
 75
     1
175
     1
 42
1.0
 92
        0
 66
     7
 43
1.0
 76
     1
 77
     6
 78
     2
 67
     7
 79
     5
170
     0
171
     0
290
     0
174
     0
 93
       13
 44
0.0
173
     0
291
     1
 45
0.0
1001
ACAD
1000
AcDbSavedByObjectVersion
1070
     0
  0
VISUALSTYLE
  5
2E
102
{ACAD_REACTORS
330
2A
102
}
330
2A
100
AcDbVisualStyle
  2
GouraudWithEdges
 70
     3
 71
     2
 72
     2
 73
     1
 90
        2
 40
-0.6
 41
30.0
 62
     5
 63
     7
 74
     1
 91
        4
 64
     7
 65
   257
 75
     1
175
     1
 42
1.0
 92
        0
 66
   257
 43
1.0
 76
     1
 77
     6
 78
     2
 67
     7
 79
     5
170
     0
171
     0
290
     0
174
     0
 93
       13
 44
0.0
173
     0
291
     1
 45
0.0
1001
ACAD
1000
AcDbSavedByObjectVersion
1070
     0
  0
VISUALSTYLE
  5
38
102
{ACAD_REACTORS
330
2A
102
}
330
2A
100
AcDbVisualStyle
  2
Linepattern
 70
    14
 71
     2
 72
     2
 73
     0
 90
        0
 40
-0.6
 41
-30.0
 62
     5
 63
     7
 74
     1
 91
        4
 64
     7
 65
   257
 75
     7
175
     7
 42
1.0
 92
        8
 66
     7
 43
1.0
 76
     1
 77
     6
 78
     2
 67
     7
 79
     5
170
     0
171
     0
290
     0
174
     0
 93
        1
 44
0.0
173
     0
291
     1
 45
0.0
1001
ACAD
1000
AcDbSavedByObjectVersion
1070
     0
  0
VISUALSTYLE
  5
33
102
{ACAD_REACTORS
330
2A
102
}
330
2A
100
AcDbVisualStyle
  2
Realistic
 70
     8
 71
     2
 72
     2
 73
     0
 90
        0
 40
-0.6
 41
-30.0
 62
     5
 63
     7
 74
     1
 91
        0
 64
     7
 65
   257
 75
     1
175
     1
 42
1.0
 92
        8
 66
     8
 43
1.0
 76
     1
 77
     6
 78
     2
 67
     7
 79
     5
170
     0
171
     0
290
     0
174
     0
 93
       13
 44
0.0
173
     0
291
     0
 45
0.0
1001
ACAD
1000
AcDbSavedByObjectVersion
1070
     0
  0
VISUALSTYLE
  5
37
102
{ACAD_REACTORS
330
2A
102
}
330
2A
100
AcDbVisualStyle
  2
Thicken
 70
    13
 71
     2
 72
     2
 73
     0
 90
        0
 40
-0.6
 41
-30.0
 62
     5
 63
     7
 74
     1
 91
        4
 64
     7
 65
   257
 75
     1
175
     1
 42
1.0
 92
       12
 66
     7
 43
1.0
 76
     1
 77
     6
 78
     2
 67
     7
 79
     5
170
     0
171
     0
290
     0
174
     0
 93
        1
 44
0.0
173
     0
291
     1
 45
0.0
1001
ACAD
1000
AcDbSavedByObjectVersion
1070
     0
  0
DICTIONARYVAR
  5
100
102
{ACAD_REACTORS
330
FD
102
}
330
FD
100
DictionaryVariables
280
     0
  1
1:1
  0
ENDSEC
  0
EOF
