  0
SECTION
  2
HEADER
  9
$ACADVER
  1
AC1015
  9
$ACADMAINTVER
 70
     6
  9
$DWGCODEPAGE
  3
ANSI_1252
  9
$INSBASE
 10
0.0
 20
0.0
 30
0.0
  9
$EXTMIN
 10
81.20980995719995
 20
256.4694188340317
 30
0.0
  9
$EXTMAX
 10
237.173783689429
 20
361.053682165972
 30
0.0
  9
$LIMMIN
 10
0.0
 20
0.0
  9
$LIMMAX
 10
12.0
 20
9.0
  9
$ORTHOMODE
 70
     0
  9
$REGENMODE
 70
     1
  9
$FILLMODE
 70
     1
  9
$QTEXTMODE
 70
     0
  9
$MIRRTEXT
 70
     1
  9
$LTSCALE
 40
1.0
  9
$ATTMODE
 70
     1
  9
$TEXTSIZE
 40
0.2
  9
$TRACEWID
 40
0.05
  9
$TEXTSTYLE
  7
Standard
  9
$CLAYER
  8
0
  9
$CELTYPE
  6
ByLayer
  9
$CECOLOR
 62
   256
  9
$CELTSCALE
 40
1.0
  9
$DISPSILH
 70
     0
  9
$DIMSCALE
 40
1.0
  9
$DIMASZ
 40
0.18
  9
$DIMEXO
 40
0.0625
  9
$DIMDLI
 40
0.38
  9
$DIMRND
 40
0.0
  9
$DIMDLE
 40
0.0
  9
$DIMEXE
 40
0.18
  9
$DIMTP
 40
0.0
  9
$DIMTM
 40
0.0
  9
$DIMTXT
 40
0.18
  9
$DIMCEN
 40
0.09
  9
$DIMTSZ
 40
0.0
  9
$DIMTOL
 70
     0
  9
$DIMLIM
 70
     0
  9
$DIMTIH
 70
     1
  9
$DIMTOH
 70
     1
  9
$DIMSE1
 70
     0
  9
$DIMSE2
 70
     0
  9
$DIMTAD
 70
     0
  9
$DIMZIN
 70
     0
  9
$DIMBLK
  1

  9
$DIMASO
 70
     1
  9
$DIMSHO
 70
     1
  9
$DIMPOST
  1

  9
$DIMAPOST
  1

  9
$DIMALT
 70
     0
  9
$DIMALTD
 70
     2
  9
$DIMALTF
 40
25.4
  9
$DIMLFAC
 40
1.0
  9
$DIMTOFL
 70
     0
  9
$DIMTVP
 40
0.0
  9
$DIMTIX
 70
     0
  9
$DIMSOXD
 70
     0
  9
$DIMSAH
 70
     0
  9
$DIMBLK1
  1

  9
$DIMBLK2
  1

  9
$DIMSTYLE
  2
Standard
  9
$DIMCLRD
 70
     0
  9
$DIMCLRE
 70
     0
  9
$DIMCLRT
 70
     0
  9
$DIMTFAC
 40
1.0
  9
$DIMGAP
 40
0.09
  9
$DIMJUST
 70
     0
  9
$DIMSD1
 70
     0
  9
$DIMSD2
 70
     0
  9
$DIMTOLJ
 70
     1
  9
$DIMTZIN
 70
     0
  9
$DIMALTZ
 70
     0
  9
$DIMALTTZ
 70
     0
  9
$DIMUPT
 70
     0
  9
$DIMDEC
 70
     4
  9
$DIMTDEC
 70
     4
  9
$DIMALTU
 70
     2
  9
$DIMALTTD
 70
     2
  9
$DIMTXSTY
  7
Standard
  9
$DIMAUNIT
 70
     0
  9
$DIMADEC
 70
     0
  9
$DIMALTRND
 40
0.0
  9
$DIMAZIN
 70
     0
  9
$DIMDSEP
 70
    46
  9
$DIMATFIT
 70
     3
  9
$DIMFRAC
 70
     0
  9
$DIMLDRBLK
  1

  9
$DIMLUNIT
 70
     2
  9
$DIMLWD
 70
    -2
  9
$DIMLWE
 70
    -2
  9
$DIMTMOVE
 70
     0
  9
$LUNITS
 70
     2
  9
$LUPREC
 70
     4
  9
$SKETCHINC
 40
0.1
  9
$FILLETRAD
 40
0.5
  9
$AUNITS
 70
     0
  9
$AUPREC
 70
     0
  9
$MENU
  1
.
  9
$ELEVATION
 40
0.0
  9
$PELEVATION
 40
0.0
  9
$THICKNESS
 40
0.0
  9
$LIMCHECK
 70
     0
  9
$CHAMFERA
 40
0.5
  9
$CHAMFERB
 40
0.5
  9
$CHAMFERC
 40
1.0
  9
$CHAMFERD
 40
0.0
  9
$SKPOLY
 70
     0
  9
$TDCREATE
 40
2456821.357345891
  9
$TDUCREATE
 40
2456821.274012558
  9
$TDUPDATE
 40
2456821.357345903
  9
$TDUUPDATE
 40
2456821.274012569
  9
$TDINDWG
 40
0.0000000116
  9
$TDUSRTIMER
 40
0.0000000116
  9
$USRTIMER
 70
     1
  9
$ANGBASE
 50
0.0
  9
$ANGDIR
 70
     0
  9
$PDMODE
 70
     0
  9
$PDSIZE
 40
0.0
  9
$PLINEWID
 40
0.0
  9
$SPLFRAME
 70
     0
  9
$SPLINETYPE
 70
     6
  9
$SPLINESEGS
 70
     8
  9
$HANDSEED
  5
101
  9
$SURFTAB1
 70
     6
  9
$SURFTAB2
 70
     6
  9
$SURFTYPE
 70
     6
  9
$SURFU
 70
     6
  9
$SURFV
 70
     6
  9
$UCSBASE
  2

  9
$UCSNAME
  2

  9
$UCSORG
 10
0.0
 20
0.0
 30
0.0
  9
$UCSXDIR
 10
1.0
 20
0.0
 30
0.0
  9
$UCSYDIR
 10
0.0
 20
1.0
 30
0.0
  9
$UCSORTHOREF
  2

  9
$UCSORTHOVIEW
 70
     0
  9
$UCSORGTOP
 10
0.0
 20
0.0
 30
0.0
  9
$UCSORGBOTTOM
 10
0.0
 20
0.0
 30
0.0
  9
$UCSORGLEFT
 10
0.0
 20
0.0
 30
0.0
  9
$UCSORGRIGHT
 10
0.0
 20
0.0
 30
0.0
  9
$UCSORGFRONT
 10
0.0
 20
0.0
 30
0.0
  9
$UCSORGBACK
 10
0.0
 20
0.0
 30
0.0
  9
$PUCSBASE
  2

  9
$PUCSNAME
  2

  9
$PUCSORG
 10
0.0
 20
0.0
 30
0.0
  9
$PUCSXDIR
 10
1.0
 20
0.0
 30
0.0
  9
$PUCSYDIR
 10
0.0
 20
1.0
 30
0.0
  9
$PUCSORTHOREF
  2

  9
$PUCSORTHOVIEW
 70
     0
  9
$PUCSORGTOP
 10
0.0
 20
0.0
 30
0.0
  9
$PUCSORGBOTTOM
 10
0.0
 20
0.0
 30
0.0
  9
$PUCSORGLEFT
 10
0.0
 20
0.0
 30
0.0
  9
$PUCSORGRIGHT
 10
0.0
 20
0.0
 30
0.0
  9
$PUCSORGFRONT
 10
0.0
 20
0.0
 30
0.0
  9
$PUCSORGBACK
 10
0.0
 20
0.0
 30
0.0
  9
$USERI1
 70
     0
  9
$USERI2
 70
     0
  9
$USERI3
 70
     0
  9
$USERI4
 70
     0
  9
$USERI5
 70
     0
  9
$USERR1
 40
16.5
  9
$USERR2
 40
0.0
  9
$USERR3
 40
0.0
  9
$USERR4
 40
0.0
  9
$USERR5
 40
0.0
  9
$WORLDVIEW
 70
     1
  9
$SHADEDGE
 70
     3
  9
$SHADEDIF
 70
    70
  9
$TILEMODE
 70
     1
  9
$MAXACTVP
 70
    64
  9
$PINSBASE
 10
0.0
 20
0.0
 30
0.0
  9
$PLIMCHECK
 70
     0
  9
$PEXTMIN
 10
1.00000000000000E+20
 20
1.00000000000000E+20
 30
1.00000000000000E+20
  9
$PEXTMAX
 10
-1.00000000000000E+20
 20
-1.00000000000000E+20
 30
-1.00000000000000E+20
  9
$PLIMMIN
 10
0.0
 20
0.0
  9
$PLIMMAX
 10
12.0
 20
9.0
  9
$UNITMODE
 70
     0
  9
$VISRETAIN
 70
     1
  9
$PLINEGEN
 70
     0
  9
$PSLTSCALE
 70
     1
  9
$TREEDEPTH
 70
  3020
  9
$CMLSTYLE
  2
Standard
  9
$CMLJUST
 70
     0
  9
$CMLSCALE
 40
1.0
  9
$PROXYGRAPHICS
 70
     1
  9
$MEASUREMENT
 70
     1
  9
$CELWEIGHT
370
    -1
  9
$ENDCAPS
280
     0
  9
$JOINSTYLE
280
     0
  9
$LWDISPLAY
290
     0
  9
$INSUNITS
 70
     1
  9
$HYPERLINKBASE
  1

  9
$STYLESHEET
  1

  9
$XEDIT
290
     1
  9
$CEPSNTYPE
380
     0
  9
$PSTYLEMODE
290
     1
  9
$FINGERPRINTGUID
  2
{354D6A64-3995-442A-9A9B-0047CB7A87E6}
  9
$VERSIONGUID
  2
{FAEB1C32-E019-11D5-929B-00C0DF256EC4}
  9
$EXTNAMES
290
     1
  9
$PSVPSCALE
 40
0.0
  9
$OLESTARTUP
290
     0
  0
ENDSEC
  0
SECTION
  2
CLASSES
  0
CLASS
  1
ACDBDICTIONARYWDFLT
  2
AcDbDictionaryWithDefault
  3
ObjectDBX Classes
 90
        0
280
     0
281
     0
  0
CLASS
  1
VISUALSTYLE
  2
AcDbVisualStyle
  3
ObjectDBX Classes
 90
     4095
280
     0
281
     0
  0
CLASS
  1
SCALE
  2
AcDbScale
  3
ObjectDBX Classes
 90
     1153
280
     0
281
     0
  0
CLASS
  1

  2
exOdDbPolyline
  3

 90
        0
280
     0
281
     1
  0
CLASS
  1

  2
exOdDbSpline
  3

 90
        0
280
     0
281
     1
  0
CLASS
  1
DICTIONARYVAR
  2
AcDbDictionaryVar
  3
ObjectDBX Classes
 90
        0
280
     0
281
     0
  0
CLASS
  1
ACDBPLACEHOLDER
  2
AcDbPlaceHolder
  3
ObjectDBX Classes
 90
        0
280
     0
281
     0
  0
CLASS
  1
LAYOUT
  2
AcDbLayout
  3
ObjectDBX Classes
 90
        0
280
     0
281
     0
  0
ENDSEC
  0
SECTION
  2
TABLES
  0
TABLE
  2
VPORT
  5
8
330
0
100
AcDbSymbolTable
 70
     1
  0
VPORT
  5
29
330
8
100
AcDbSymbolTableRecord
100
AcDbViewportTableRecord
  2
*Active
 70
     0
 10
0.0
 20
0.0
 11
1.0
 21
1.0
 12
159.1917968233145
 22
308.7615505000019
 13
0.0
 23
0.0
 14
0.5
 24
0.5
 15
0.5
 25
0.5
 16
0.0
 26
0.0
 36
1.0
 17
0.0
 27
0.0
 37
0.0
 40
115.0426896651343
 41
1.60267857142857
 42
50.0
 43
0.0
 44
0.0
 50
0.0
 51
0.0
 71
     0
 72
   100
 73
     1
 74
     3
 75
     0
 76
     0
 77
     0
 78
     0
281
     0
 65
     1
110
0.0
120
0.0
130
0.0
111
1.0
121
0.0
131
0.0
112
0.0
122
1.0
132
0.0
 79
     0
146
0.0
  0
ENDTAB
  0
TABLE
  2
LTYPE
  5
5
330
0
100
AcDbSymbolTable
 70
     8
  0
LTYPE
  5
14
330
5
100
AcDbSymbolTableRecord
100
AcDbLinetypeTableRecord
  2
ByBlock
 70
     0
  3

 72
    65
 73
     0
 40
0.0
  0
LTYPE
  5
15
330
5
100
AcDbSymbolTableRecord
100
AcDbLinetypeTableRecord
  2
ByLayer
 70
     0
  3

 72
    65
 73
     0
 40
0.0
  0
LTYPE
  5
16
330
5
100
AcDbSymbolTableRecord
100
AcDbLinetypeTableRecord
  2
Continuous
 70
     0
  3
Solid line
 72
    65
 73
     0
 40
0.0
  0
LTYPE
  5
3B
330
5
100
AcDbSymbolTableRecord
100
AcDbLinetypeTableRecord
  2
DASHED
 70
     0
  3
Dashed
 72
    65
 73
     2
 40
15.0
 49
7.0
 74
     0
 49
-8.0
 74
     0
  0
LTYPE
  5
3C
330
5
100
AcDbSymbolTableRecord
100
AcDbLinetypeTableRecord
  2
DOTTED
 70
     0
  3
Dotted
 72
    65
 73
     2
 40
1.0
 49
0.0
 74
     0
 49
-1.0
 74
     0
  0
LTYPE
  5
3D
330
5
100
AcDbSymbolTableRecord
100
AcDbLinetypeTableRecord
  2
DOT_CENTER
 70
     0
  3
Dot_Center
 72
    65
 73
     4
 40
14.0
 49
12.0
 74
     0
 49
-1.0
 74
     0
 49
0.0
 74
     0
 49
-1.0
 74
     0
  0
LTYPE
  5
3E
330
5
100
AcDbSymbolTableRecord
100
AcDbLinetypeTableRecord
  2
LONG_DASHED
 70
     0
  3
Long_Dashed
 72
    65
 73
     2
 40
15.0
 49
10.0
 74
     0
 49
-5.0
 74
     0
  0
LTYPE
  5
3F
330
5
100
AcDbSymbolTableRecord
100
AcDbLinetypeTableRecord
  2
DASH_CENTER
 70
     0
  3
Dash_Center
 72
    65
 73
     4
 40
14.0
 49
11.0
 74
     0
 49
-1.0
 74
     0
 49
1.0
 74
     0
 49
-1.0
 74
     0
  0
LTYPE
  5
40
330
5
100
AcDbSymbolTableRecord
100
AcDbLinetypeTableRecord
  2
PHANTOM
 70
     0
  3
Phantom
 72
    65
 73
     6
 40
13.0
 49
10.0
 74
     0
 49
-1.0
 74
     0
 49
0.0
 74
     0
 49
-1.0
 74
     0
 49
0.0
 74
     0
 49
-1.0
 74
     0
  0
LTYPE
  5
41
330
5
100
AcDbSymbolTableRecord
100
AcDbLinetypeTableRecord
  2
CENTER_DASH_DASH
 70
     0
  3
Center_Dash_Dash
 72
    65
 73
     6
 40
14.0
 49
9.0
 74
     0
 49
-1.0
 74
     0
 49
1.0
 74
     0
 49
-1.0
 74
     0
 49
1.0
 74
     0
 49
-1.0
 74
     0
  0
ENDTAB
  0
TABLE
  2
LAYER
  5
2
330
0
100
AcDbSymbolTable
 70
     6
  0
LAYER
  5
10
330
2
100
AcDbSymbolTableRecord
100
AcDbLayerTableRecord
  2
0
 70
     0
 62
     7
  6
Continuous
370
    -3
390
F
  0
LAYER
  5
42
330
2
100
AcDbSymbolTableRecord
100
AcDbLayerTableRecord
  2
1
 70
     0
 62
     7
  6
Continuous
370
    -3
390
F
  0
LAYER
  5
43
330
2
100
AcDbSymbolTableRecord
100
AcDbLayerTableRecord
  2
BEZUGSACHSEN
 70
     0
 62
     7
  6
Continuous
370
    -3
390
F
  0
LAYER
  5
44
330
2
100
AcDbSymbolTableRecord
100
AcDbLayerTableRecord
  2
DEFAULT_2
 70
     0
 62
     7
  6
Continuous
370
    -3
390
F
  0
LAYER
  5
45
330
2
100
AcDbSymbolTableRecord
100
AcDbLayerTableRecord
  2
RUNDUNGEN
 70
     0
 62
     7
  6
Continuous
370
    -3
390
F
  0
LAYER
  5
46
330
2
100
AcDbSymbolTableRecord
100
AcDbLayerTableRecord
  2
TEIL_STARTBEZUEGE
 70
     0
 62
     7
  6
Continuous
370
    -3
390
F
  0
ENDTAB
  0
TABLE
  2
STYLE
  5
3
330
0
100
AcDbSymbolTable
 70
     2
  0
STYLE
  5
11
330
3
100
AcDbSymbolTableRecord
100
AcDbTextStyleTableRecord
  2
Standard
 70
     0
 40
0.0
 41
1.0
 50
0.0
 71
     0
 42
0.2
  3
txt
  4

  0
STYLE
  5
6D
330
3
100
AcDbSymbolTableRecord
100
AcDbTextStyleTableRecord
  2
CONVERTER_11
 70
     0
 40
0.0
 41
0.72
 50
0.0
 71
     0
 42
0.2
  3
txt.shx
  4

  0
ENDTAB
  0
TABLE
  2
VIEW
  5
6
330
0
100
AcDbSymbolTable
 70
     0
  0
ENDTAB
  0
TABLE
  2
UCS
  5
7
330
0
100
AcDbSymbolTable
 70
     0
  0
ENDTAB
  0
TABLE
  2
APPID
  5
9
330
0
100
AcDbSymbolTable
 70
     1
  0
APPID
  5
12
330
9
100
AcDbSymbolTableRecord
100
AcDbRegAppTableRecord
  2
ACAD
 70
     0
  0
ENDTAB
  0
TABLE
  2
DIMSTYLE
  5
A
330
0
100
AcDbSymbolTable
 70
     6
100
AcDbDimStyleTable
  0
DIMSTYLE
105
27
330
A
100
AcDbSymbolTableRecord
100
AcDbDimStyleTableRecord
  2
Standard
 70
     0
340
11
  0
DIMSTYLE
105
C8
102
{ACAD_REACTORS
330
C9
102
}
330
A
100
AcDbSymbolTableRecord
100
AcDbDimStyleTableRecord
  2
ME10_DIM_10
 70
     0
  3
<>
 41
3.5
 42
2.0
 44
2.0
 71
     1
 73
     0
 74
     0
 77
     1
 78
     8
140
3.5
146
0.7
147
2.0
172
     1
173
     1
176
     2
177
     2
178
     3
271
     2
272
     0
340
6D
  0
DIMSTYLE
105
D3
102
{ACAD_REACTORS
330
D4
102
}
330
A
100
AcDbSymbolTableRecord
100
AcDbDimStyleTableRecord
  2
ME10_DIM_11
 70
     0
  3
<>
 41
3.5
 42
2.0
 44
2.0
 71
     1
 73
     0
 74
     0
 77
     1
 78
     8
140
3.5
146
0.7
147
2.0
172
     1
173
     1
176
     2
177
     2
178
     3
271
     2
272
     0
340
6D
  0
DIMSTYLE
105
DE
102
{ACAD_REACTORS
330
DF
102
}
330
A
100
AcDbSymbolTableRecord
100
AcDbDimStyleTableRecord
  2
ME10_DIM_12
 70
     0
  3
<>
 41
3.5
 42
2.0
 44
2.0
 71
     1
 73
     0
 74
     0
 77
     1
 78
     8
140
3.5
146
0.7
147
2.0
172
     1
173
     1
176
     2
177
     2
178
     3
271
     2
272
     0
340
6D
  0
DIMSTYLE
105
E9
102
{ACAD_REACTORS
330
EA
102
}
330
A
100
AcDbSymbolTableRecord
100
AcDbDimStyleTableRecord
  2
ME10_DIM_13
 70
     0
  3
\U+2300<>
 41
3.5
 42
2.0
 44
2.0
 71
     1
 73
     0
 74
     0
 77
     1
 78
     8
140
3.5
146
0.7
147
2.0
172
     1
173
     1
176
     2
177
     2
178
     3
271
     2
272
     0
340
6D
  0
DIMSTYLE
105
F4
102
{ACAD_REACTORS
330
F5
102
}
330
A
100
AcDbSymbolTableRecord
100
AcDbDimStyleTableRecord
  2
ME10_DIM_14
 70
     0
  3
\U+2300<>
 41
3.5
 42
2.0
 44
2.0
 71
     1
 73
     0
 74
     0
 77
     1
 78
     8
140
3.5
146
0.7
147
2.0
172
     1
173
     1
176
     2
177
     2
178
     3
271
     2
272
     0
340
6D
  0
ENDTAB
  0
TABLE
  2
BLOCK_RECORD
  5
1
330
0
100
AcDbSymbolTable
 70
     8
  0
BLOCK_RECORD
  5
1F
330
1
100
AcDbSymbolTableRecord
100
AcDbBlockTableRecord
  2
*Model_Space
340
22
  0
BLOCK_RECORD
  5
1B
330
1
100
AcDbSymbolTableRecord
100
AcDbBlockTableRecord
  2
*Paper_Space
340
1E
  0
BLOCK_RECORD
  5
23
330
1
100
AcDbSymbolTableRecord
100
AcDbBlockTableRecord
  2
*Paper_Space0
340
26
  0
BLOCK_RECORD
  5
47
330
1
100
AcDbSymbolTableRecord
100
AcDbBlockTableRecord
  2
Urheberrecht_DE-EN_horizontal
340
0
102
{BLKREFS
331
6C
102
}
  0
BLOCK_RECORD
  5
BF
330
1
100
AcDbSymbolTableRecord
100
AcDbBlockTableRecord
  2
*D2
340
0
  0
BLOCK_RECORD
  5
CA
330
1
100
AcDbSymbolTableRecord
100
AcDbBlockTableRecord
  2
*D3
340
0
  0
BLOCK_RECORD
  5
D5
330
1
100
AcDbSymbolTableRecord
100
AcDbBlockTableRecord
  2
*D4
340
0
  0
BLOCK_RECORD
  5
E0
330
1
100
AcDbSymbolTableRecord
100
AcDbBlockTableRecord
  2
*D5
340
0
  0
BLOCK_RECORD
  5
EB
330
1
100
AcDbSymbolTableRecord
100
AcDbBlockTableRecord
  2
*D6
340
0
  0
BLOCK_RECORD
  5
F6
330
1
100
AcDbSymbolTableRecord
100
AcDbBlockTableRecord
  2
*D7
340
0
102
{BLKREFS
331
FC
102
}
  0
ENDTAB
  0
ENDSEC
  0
SECTION
  2
BLOCKS
  0
BLOCK
  5
20
330
1F
100
AcDbEntity
  8
0
100
AcDbBlockBegin
  2
*Model_Space
 70
     0
 10
0.0
 20
0.0
 30
0.0
  3
*Model_Space
  1

  0
ENDBLK
  5
21
330
1F
100
AcDbEntity
  8
0
100
AcDbBlockEnd
  0
BLOCK
  5
1C
330
1B
100
AcDbEntity
 67
     1
  8
0
100
AcDbBlockBegin
  2
*Paper_Space
 70
     0
 10
0.0
 20
0.0
 30
0.0
  3
*Paper_Space
  1

  0
ENDBLK
  5
1D
330
1B
100
AcDbEntity
 67
     1
  8
0
100
AcDbBlockEnd
  0
BLOCK
  5
24
330
23
100
AcDbEntity
  8
0
100
AcDbBlockBegin
  2
*Paper_Space0
 70
     0
 10
0.0
 20
0.0
 30
0.0
  3
*Paper_Space0
  1

  0
ENDBLK
  5
25
330
23
100
AcDbEntity
  8
0
100
AcDbBlockEnd
  0
BLOCK
  5
48
330
47
100
AcDbEntity
  8
0
100
AcDbBlockBegin
  2
Urheberrecht_DE-EN_horizontal
 70
     0
 10
153.768968607992
 20
263.867426843936
 30
0.0
  3
Urheberrecht_DE-EN_horizontal
  1

  0
MTEXT
  5
6E
330
47
100
AcDbEntity
  8
1
 62
     1
100
AcDbMText
 10
156.604573135939
 20
257.0694188340317
 30
0.0
 40
2.0
 41
0.0
 71
     7
 72
     1
  1
We own the copyright of this document. It \Pdetermined and may neither be copied or \Pmade accessible to outsiders without our\Ppermission.
  7
CONVERTER_11
 73
     1
 44
0.90036014405762
  0
MTEXT
  5
6F
330
47
100
AcDbEntity
  8
1
 62
     1
100
AcDbMText
 10
100.3151862186328
 20
257.0694188340317
 30
0.0
 40
2.0
 41
0.0
 71
     7
 72
     1
  1
F\U+00fcr diese Unterlage behalten wir das Ur-\Pheberrecht. Sie darf nur f\U+00fcr den von uns \Pbestimmten Zweck benutzt und ohne unsere \PZustimmung weder vervielf\U+00e4ltigt noch\PDritten zug\U+00e4nglich gemacht werden.
  7
CONVERTER_11
 73
     1
 44
0.90036014405762
  0
ENDBLK
  5
49
330
47
100
AcDbEntity
  8
0
100
AcDbBlockEnd
  0
BLOCK
  5
C6
330
BF
100
AcDbEntity
  8
0
100
AcDbBlockBegin
  2
*D2
 70
     1
 10
0.0
 20
0.0
 30
0.0
  3
*D2
  1

  0
LINE
  5
C0
330
BF
100
AcDbEntity
  8
1
  6
Continuous
 62
     2
100
AcDbLine
 10
215.7348099572
 20
355.553682165972
 30
0.0
 11
84.33480995719998
 21
355.553682165972
 31
0.0
  0
LINE
  5
C1
330
BF
100
AcDbEntity
  8
1
  6
Continuous
 62
     2
100
AcDbLine
 10
84.3348099572
 20
318.3457962936
 30
0.0
 11
84.3348099572
 21
357.553682165972
 31
0.0
  0
LINE
  5
C2
330
BF
100
AcDbEntity
  8
1
  6
Continuous
 62
     2
100
AcDbLine
 10
215.7348099572
 20
322.8133443241
 30
0.0
 11
215.7348099572
 21
357.553682165972
 31
0.0
  0
SOLID
  5
C3
330
BF
100
AcDbEntity
  8
1
 62
     2
100
AcDbTrace
 10
212.2348099572
 20
355.0928984244161
 30
0.0
 11
212.2348099572
 21
356.0144659075279
 31
0.0
 12
215.7348099572
 22
355.553682165972
 32
0.0
 13
215.7348099572
 23
355.553682165972
 33
0.0
  0
SOLID
  5
C4
330
BF
100
AcDbEntity
  8
1
 62
     2
100
AcDbTrace
 10
87.83480995719998
 20
356.0144659075279
 30
0.0
 11
87.83480995719998
 21
355.0928984244161
 31
0.0
 12
84.33480995719998
 22
355.553682165972
 32
0.0
 13
84.33480995719998
 23
355.553682165972
 33
0.0
  0
MTEXT
  5
C5
330
BF
100
AcDbEntity
  8
1
 62
     3
100
AcDbMText
 10
151.7639813118544
 20
357.553682165972
 30
0.0
 40
3.5
 41
0.0
 71
     7
 72
     1
  1
\C3;\C3;\C3;131.4\C2;\H2.45;\S^ ;\C3;
  7
CONVERTER_11
 11
0.9999999999970619
 21
2.424068405545306E-6
 31
0.0
 73
     1
 44
0.60024009603842
  0
ENDBLK
  5
C7
330
BF
100
AcDbEntity
  8
0
100
AcDbBlockEnd
  0
BLOCK
  5
D1
330
CA
100
AcDbEntity
  8
0
100
AcDbBlockBegin
  2
*D3
 70
     1
 10
0.0
 20
0.0
 30
0.0
  3
*D3
  1

  0
LINE
  5
CB
330
CA
100
AcDbEntity
  8
1
  6
Continuous
 62
     2
100
AcDbLine
 10
215.7348099572
 20
348.659069298748
 30
0.0
 11
152.7348099572
 21
348.659069298748
 31
0.0
  0
LINE
  5
CC
330
CA
100
AcDbEntity
  8
1
  6
Continuous
 62
     2
100
AcDbLine
 10
152.7348099572
 20
333.6990464541001
 30
0.0
 11
152.7348099572
 21
350.659069298748
 31
0.0
  0
LINE
  5
CD
330
CA
100
AcDbEntity
  8
1
  6
Continuous
 62
     2
100
AcDbLine
 10
215.7348099572
 20
322.8133443241
 30
0.0
 11
215.7348099572
 21
350.659069298748
 31
0.0
  0
SOLID
  5
CE
330
CA
100
AcDbEntity
  8
1
 62
     2
100
AcDbTrace
 10
212.2348099572
 20
348.1982855571922
 30
0.0
 11
212.2348099572
 21
349.1198530403039
 31
0.0
 12
215.7348099572
 22
348.659069298748
 32
0.0
 13
215.7348099572
 23
348.659069298748
 33
0.0
  0
SOLID
  5
CF
330
CA
100
AcDbEntity
  8
1
 62
     2
100
AcDbTrace
 10
156.2348099572
 20
349.1198530403039
 30
0.0
 11
156.2348099572
 21
348.1982855571922
 31
0.0
 12
152.7348099572
 22
348.659069298748
 32
0.0
 13
152.7348099572
 23
348.659069298748
 33
0.0
  0
MTEXT
  5
D0
330
CA
100
AcDbEntity
  8
1
 62
     3
100
AcDbMText
 10
182.513289329784
 20
350.659069298748
 30
0.0
 40
3.5
 41
0.0
 71
     7
 72
     1
  1
\C3;\C3;\C3;63\C2;\H2.45;\S^ ;\C3;
  7
CONVERTER_11
 11
0.9999999999970619
 21
2.424068405545306E-6
 31
0.0
 73
     1
 44
0.60024009603842
  0
ENDBLK
  5
D2
330
CA
100
AcDbEntity
  8
0
100
AcDbBlockEnd
  0
BLOCK
  5
DC
330
D5
100
AcDbEntity
  8
0
100
AcDbBlockBegin
  2
*D4
 70
     1
 10
0.0
 20
0.0
 30
0.0
  3
*D4
  1

  0
LINE
  5
D6
330
D5
100
AcDbEntity
  8
1
  6
Continuous
 62
     2
100
AcDbLine
 10
215.7348099572001
 20
341.40158207009
 30
0.0
 11
171.8348099572001
 21
341.40158207009
 31
0.0
  0
LINE
  5
D7
330
D5
100
AcDbEntity
  8
1
  6
Continuous
 62
     2
100
AcDbLine
 10
171.8348099572001
 20
336.57319885
 30
0.0
 11
171.8348099572001
 21
343.40158207009
 31
0.0
  0
LINE
  5
D8
330
D5
100
AcDbEntity
  8
1
  6
Continuous
 62
     2
100
AcDbLine
 10
215.7348099572001
 20
322.8133443241
 30
0.0
 11
215.7348099572001
 21
343.40158207009
 31
0.0
  0
SOLID
  5
D9
330
D5
100
AcDbEntity
  8
1
 62
     2
100
AcDbTrace
 10
212.2348099572001
 20
340.9407983285341
 30
0.0
 11
212.2348099572001
 21
341.8623658116459
 31
0.0
 12
215.7348099572001
 22
341.40158207009
 32
0.0
 13
215.7348099572001
 23
341.40158207009
 33
0.0
  0
SOLID
  5
DA
330
D5
100
AcDbEntity
  8
1
 62
     2
100
AcDbTrace
 10
175.3348099572001
 20
341.8623658116459
 30
0.0
 11
175.3348099572001
 21
340.9407983285341
 31
0.0
 12
171.8348099572001
 22
341.40158207009
 32
0.0
 13
171.8348099572001
 23
341.40158207009
 33
0.0
  0
MTEXT
  5
DB
330
D5
100
AcDbEntity
  8
1
 62
     3
100
AcDbMText
 10
189.0494897229854
 20
343.40158207009
 30
0.0
 40
3.5
 41
0.0
 71
     7
 72
     1
  1
\C3;\C3;\C3;43.9\C2;\H2.45;\S^ ;\C3;
  7
CONVERTER_11
 11
0.9999999999970619
 21
2.424068405545306E-6
 31
0.0
 73
     1
 44
0.60024009603842
  0
ENDBLK
  5
DD
330
D5
100
AcDbEntity
  8
0
100
AcDbBlockEnd
  0
BLOCK
  5
E7
330
E0
100
AcDbEntity
  8
0
100
AcDbBlockBegin
  2
*D5
 70
     1
 10
0.0
 20
0.0
 30
0.0
  3
*D5
  1

  0
LINE
  5
E1
330
E0
100
AcDbEntity
  8
1
  6
Continuous
 62
     2
100
AcDbLine
 10
235.173783689429
 20
328.8962480927
 30
0.0
 11
235.173783689429
 21
280.8962480927
 31
0.0
  0
LINE
  5
E2
330
E0
100
AcDbEntity
  8
1
  6
Continuous
 62
     2
100
AcDbLine
 10
204.4668607647
 20
280.8962480927
 30
0.0
 11
237.173783689429
 21
280.8962480927
 31
0.0
  0
LINE
  5
E3
330
E0
100
AcDbEntity
  8
1
  6
Continuous
 62
     2
100
AcDbLine
 10
204.4668607647
 20
328.8962480927
 30
0.0
 11
237.173783689429
 21
328.8962480927
 31
0.0
  0
SOLID
  5
E4
330
E0
100
AcDbEntity
  8
1
 62
     2
100
AcDbTrace
 10
235.6345674309849
 20
325.3962480927
 30
0.0
 11
234.7129999478731
 21
325.3962480927
 31
0.0
 12
235.173783689429
 22
328.8962480927
 32
0.0
 13
235.173783689429
 23
328.8962480927
 33
0.0
  0
SOLID
  5
E5
330
E0
100
AcDbEntity
  8
1
 62
     2
100
AcDbTrace
 10
234.7129999478731
 20
284.3962480927
 30
0.0
 11
235.6345674309849
 21
284.3962480927
 31
0.0
 12
235.173783689429
 22
280.8962480927
 32
0.0
 13
235.173783689429
 23
280.8962480927
 33
0.0
  0
MTEXT
  5
E6
330
E0
100
AcDbEntity
  8
1
 62
     3
100
AcDbMText
 10
233.173783689429
 20
295.654355324417
 30
0.0
 40
3.5
 41
0.0
 71
     7
 72
     1
  1
\C3;%%c\C3;\C3;48\C2;\H2.45;\S^ ;\C3;
  7
CONVERTER_11
 11
0.0
 21
1.0
 31
0.0
 73
     1
 44
0.60024009603842
  0
ENDBLK
  5
E8
330
E0
100
AcDbEntity
  8
0
100
AcDbBlockEnd
  0
BLOCK
  5
F2
330
EB
100
AcDbEntity
  8
0
100
AcDbBlockBegin
  2
*D6
 70
     1
 10
0.0
 20
0.0
 30
0.0
  3
*D6
  1

  0
LINE
  5
EC
330
EB
100
AcDbEntity
  8
1
  6
Continuous
 62
     2
100
AcDbLine
 10
226.585757135518
 20
312.8962480927
 30
0.0
 11
226.585757135518
 21
296.8962480927
 31
0.0
  0
LINE
  5
ED
330
EB
100
AcDbEntity
  8
1
  6
Continuous
 62
     2
100
AcDbLine
 10
217.7348099572
 20
296.8962480927
 30
0.0
 11
228.585757135518
 21
296.8962480927
 31
0.0
  0
LINE
  5
EE
330
EB
100
AcDbEntity
  8
1
  6
Continuous
 62
     2
100
AcDbLine
 10
217.7348099572
 20
312.8962480927
 30
0.0
 11
228.585757135518
 21
312.8962480927
 31
0.0
  0
SOLID
  5
EF
330
EB
100
AcDbEntity
  8
1
 62
     2
100
AcDbTrace
 10
227.0465408770739
 20
309.3962480927
 30
0.0
 11
226.1249733939621
 21
309.3962480927
 31
0.0
 12
226.585757135518
 22
312.8962480927
 32
0.0
 13
226.585757135518
 23
312.8962480927
 33
0.0
  0
SOLID
  5
F0
330
EB
100
AcDbEntity
  8
1
 62
     2
100
AcDbTrace
 10
226.1249733939621
 20
300.3962480927
 30
0.0
 11
227.0465408770739
 21
300.3962480927
 31
0.0
 12
226.585757135518
 22
296.8962480927
 32
0.0
 13
226.585757135518
 23
296.8962480927
 33
0.0
  0
MTEXT
  5
F1
330
EB
100
AcDbEntity
  8
1
 62
     3
100
AcDbMText
 10
224.585757135518
 20
296.316271565372
 30
0.0
 40
3.5
 41
0.0
 71
     7
 72
     1
  1
\C3;%%c\C3;\C3;16\C2;\H2.45;\S^ ;\C3;
  7
CONVERTER_11
 11
0.0
 21
1.0
 31
0.0
 73
     1
 44
0.60024009603842
  0
ENDBLK
  5
F3
330
EB
100
AcDbEntity
  8
0
100
AcDbBlockEnd
  0
BLOCK
  5
FA
330
F6
100
AcDbEntity
  8
0
100
AcDbBlockBegin
  2
*D7
 70
     1
 10
0.0
 20
0.0
 30
0.0
  3
*D7
  1

  0
LINE
  5
F7
330
F6
100
AcDbEntity
  8
1
  6
Continuous
 62
     2
100
AcDbLine
 10
181.2297141176466
 20
333.3547300970003
 30
0.0
 11
171.9101999953005
 21
329.5153328549428
 31
0.0
  0
SOLID
  5
F8
330
F6
100
AcDbEntity
  8
1
 62
     2
100
AcDbTrace
 10
174.9708153134801
 20
331.2745814248177
 30
0.0
 11
175.3218544104191
 21
330.4224909493697
 31
0.0
 12
171.9101999953005
 22
329.5153328549428
 32
0.0
 13
171.9101999953005
 23
329.5153328549428
 33
0.0
  0
MTEXT
  5
F9
330
F6
100
AcDbEntity
  8
1
 62
     3
100
AcDbMText
 10
174.3839500928315
 20
332.6975277563562
 30
0.0
 40
3.5
 41
0.0
 71
     7
 72
     1
  1
\C3; R\C3;\C3;1\C2;\H2.45;\S^ ;\C3;
  7
CONVERTER_11
 11
0.9246099618997392
 21
0.3809152377573822
 31
0.0
 73
     1
 44
0.60024009603842
  0
ENDBLK
  5
FB
330
F6
100
AcDbEntity
  8
0
100
AcDbBlockEnd
  0
ENDSEC
  0
SECTION
  2
ENTITIES
  0
INSERT
  5
6C
330
1F
100
AcDbEntity
  8
0
100
AcDbBlockReference
  2
Urheberrecht_DE-EN_horizontal
 10
153.768968607992
 20
263.867426843936
 30
0.0
  0
LWPOLYLINE
  5
70
330
1F
100
AcDbEntity
  8
BEZUGSACHSEN
  6
DASHED
 62
     8
100
AcDbPolyline
 90
        2
 70
     0
 43
0.35
 10
184.7348099572
 20
312.8962480927
 10
184.7348099572
 20
328.8962480927
  0
LWPOLYLINE
  5
71
330
1F
100
AcDbEntity
  8
BEZUGSACHSEN
  6
DASHED
 62
     8
100
AcDbPolyline
 90
        2
 70
     0
 43
0.35
 10
198.7348099572
 20
312.8962480927
 10
198.7348099572
 20
328.8962480927
  0
LINE
  5
72
330
1F
100
AcDbEntity
  8
RUNDUNGEN
  6
Continuous
 62
     7
100
AcDbLine
 10
215.7348099572
 20
288.9791518614
 30
0.0
 11
215.7348099572
 21
320.8133443241
 31
0.0
  0
LINE
  5
73
330
1F
100
AcDbEntity
  8
RUNDUNGEN
  6
Continuous
 62
     9
100
AcDbLine
 10
215.2348099572
 20
288.1131264576
 30
0.0
 11
215.2348099572
 21
321.6793697279
 31
0.0
  0
LINE
  5
74
330
1F
100
AcDbEntity
  8
RUNDUNGEN
  6
Continuous
 62
     9
100
AcDbLine
 10
202.9668607647
 20
281.0302226889
 30
0.0
 11
202.9668607647
 21
328.7622734965
 31
0.0
  0
LINE
  5
75
330
1F
100
AcDbEntity
  8
RUNDUNGEN
  6
Continuous
 62
     9
100
AcDbLine
 10
202.4668607647
 20
280.8962480927
 30
0.0
 11
202.4668607647
 21
328.8962480927
 31
0.0
  0
LINE
  5
76
330
1F
100
AcDbEntity
  8
0
  6
Continuous
 62
     7
100
AcDbLine
 10
202.9668607647
 20
328.7622734965
 30
0.0
 11
215.2348099572
 21
321.6793697279
 31
0.0
  0
LINE
  5
77
330
1F
100
AcDbEntity
  8
RUNDUNGEN
  6
Continuous
 62
     7
100
AcDbLine
 10
215.2348099572
 20
321.6793697279
 30
0.0
 11
202.9668607647
 21
328.7622734965
 31
0.0
  0
LINE
  5
78
330
1F
100
AcDbEntity
  8
0
  6
Continuous
 62
     7
100
AcDbLine
 10
202.9668607647
 20
281.0302226889
 30
0.0
 11
215.2348099572
 21
288.1131264576
 31
0.0
  0
LWPOLYLINE
  5
79
330
1F
100
AcDbEntity
  8
BEZUGSACHSEN
  6
DASHED
 62
     8
100
AcDbPolyline
 90
        2
 70
     0
 43
0.35
 10
197.7348099572
 20
312.8962480927
 10
197.7348099572
 20
328.8962480927
  0
LWPOLYLINE
  5
7A
330
1F
100
AcDbEntity
  8
BEZUGSACHSEN
  6
DOT_CENTER
 62
     7
100
AcDbPolyline
 90
        2
 70
     0
 43
0.25
 10
191.7348099572
 20
331.8962480927
 10
191.7348099572
 20
307.1862123154
  0
LWPOLYLINE
  5
7B
330
1F
100
AcDbEntity
  8
BEZUGSACHSEN
  6
DASHED
 62
     8
100
AcDbPolyline
 90
        2
 70
     0
 43
0.35
 10
185.7348099572
 20
312.8962480927
 10
185.7348099572
 20
328.8962480927
  0
LINE
  5
7C
330
1F
100
AcDbEntity
  8
0
  6
Continuous
 62
     7
100
AcDbLine
 10
167.4388634776
 20
335.608564942
 30
0.0
 11
170.8348099572
 21
335.608564942
 31
0.0
  0
LINE
  5
7D
330
1F
100
AcDbEntity
  8
0
  6
Continuous
 62
     7
100
AcDbLine
 10
156.9348099572
 20
335.608564942
 30
0.0
 11
160.3807564368
 21
335.608564942
 31
0.0
  0
LINE
  5
7E
330
1F
100
AcDbEntity
  8
0
  6
Continuous
 62
     7
100
AcDbLine
 10
162.7473099572
 20
331.6990464541
 30
0.0
 11
165.0723099572
 21
331.6990464541
 31
0.0
  0
LINE
  5
7F
330
1F
100
AcDbEntity
  8
0
  6
Continuous
 62
     7
100
AcDbLine
 10
153.2848099572
 20
326.7712480927
 30
0.0
 11
152.2451276239
 21
327.0498301343
 31
0.0
  0
LINE
  5
80
330
1F
100
AcDbEntity
  8
0
  6
Continuous
 62
     7
100
AcDbLine
 10
197.7348099572
 20
328.8962480927
 30
0.0
 11
202.4668607647
 21
328.8962480927
 31
0.0
  0
LINE
  5
81
330
1F
100
AcDbEntity
  8
0
  6
Continuous
 62
     7
100
AcDbLine
 10
179.9348099572
 20
328.8962480927
 30
0.0
 11
185.7348099572
 21
328.8962480927
 31
0.0
  0
LINE
  5
82
330
1F
100
AcDbEntity
  8
BEZUGSACHSEN
  6
Continuous
 62
     7
100
AcDbLine
 10
185.7348099572
 20
328.8962480927
 30
0.0
 11
172.8348099572
 21
328.8962480927001
 31
0.0
  0
LINE
  5
83
330
1F
100
AcDbEntity
  8
BEZUGSACHSEN
  6
Continuous
 62
     7
100
AcDbLine
 10
202.4668607647
 20
328.8962480927
 30
0.0
 11
197.7348099572
 21
328.8962480927
 31
0.0
  0
LINE
  5
84
330
1F
100
AcDbEntity
  8
0
  6
Continuous
 62
     7
100
AcDbLine
 10
155.9348099572
 20
327.4462480927
 30
0.0
 11
155.8805239731
 21
327.4462480927
 31
0.0
  0
LINE
  5
85
330
1F
100
AcDbEntity
  8
0
  6
Continuous
 62
     7
100
AcDbLine
 10
154.9348099572
 20
326.7712480927
 30
0.0
 11
153.2848099572
 21
326.7712480927
 31
0.0
  0
LINE
  5
86
330
1F
100
AcDbEntity
  8
0
  6
Continuous
 62
     7
100
AcDbLine
 10
152.2451276239
 20
327.0498301343
 30
0.0
 11
85.14770722150001
 21
317.285850994
 31
0.0
  0
LINE
  5
87
330
1F
100
AcDbEntity
  8
RUNDUNGEN
  6
Continuous
 62
     9
100
AcDbLine
 10
172.8348099572
 20
328.8962480927001
 30
0.0
 11
172.8348099572
 21
280.8962480983
 31
0.0
  0
LINE
  5
88
330
1F
100
AcDbEntity
  8
0
  6
Continuous
 62
     7
100
AcDbLine
 10
171.8348099572
 20
334.57319885
 30
0.0
 11
171.8348099572
 21
275.2192973354
 31
0.0
  0
LINE
  5
89
330
1F
100
AcDbEntity
  8
0
  6
Continuous
 62
     9
100
AcDbLine
 10
170.8348099572
 20
335.608564942
 30
0.0
 11
170.8348099572
 21
274.1839312435
 31
0.0
  0
LINE
  5
8A
330
1F
100
AcDbEntity
  8
0
  6
Continuous
 62
     7
100
AcDbLine
 10
167.4388634776
 20
335.608564942
 30
0.0
 11
167.4388634776
 21
274.1839312435
 31
0.0
  0
LINE
  5
8B
330
1F
100
AcDbEntity
  8
0
  6
Continuous
 62
     7
100
AcDbLine
 10
165.8223099572
 20
332.7030662952
 30
0.0
 11
165.8223099572
 21
277.0894298903
 31
0.0
  0
LINE
  5
8C
330
1F
100
AcDbEntity
  8
0
  6
Continuous
 62
     9
100
AcDbLine
 10
165.0723099572
 20
331.6990464541
 30
0.0
 11
165.0723099572
 21
278.0934497314
 31
0.0
  0
LINE
  5
8D
330
1F
100
AcDbEntity
  8
0
  6
Continuous
 62
     9
100
AcDbLine
 10
162.7473099572
 20
331.6990464541
 30
0.0
 11
162.7473099572
 21
278.0934497314
 31
0.0
  0
LINE
  5
8E
330
1F
100
AcDbEntity
  8
0
  6
Continuous
 62
     7
100
AcDbLine
 10
161.9973099572
 20
332.7030662952
 30
0.0
 11
161.9973099572
 21
277.0894298903
 31
0.0
  0
LWPOLYLINE
  5
8F
330
1F
100
AcDbEntity
  8
DEFAULT_2
  6
DASHED
 62
     8
100
AcDbPolyline
 90
        2
 70
     0
 43
0.35
 10
185.7348099572
 20
312.8962480927
 10
215.7348099572
 20
312.8962480927
  0
LWPOLYLINE
  5
90
330
1F
100
AcDbEntity
  8
DEFAULT_2
  6
DASHED
 62
     8
100
AcDbPolyline
 90
        2
 70
     0
 43
0.35
 10
157.6348099572
 20
312.8962480927
 10
185.7348099572
 20
312.8962480927
  0
LINE
  5
91
330
1F
100
AcDbEntity
  8
0
  6
Continuous
 62
     7
100
AcDbLine
 10
160.3807564368
 20
335.608564942
 30
0.0
 11
160.3807564368
 21
274.1839312435
 31
0.0
  0
LWPOLYLINE
  5
92
330
1F
100
AcDbEntity
  8
DEFAULT_2
  6
DASHED
 62
     8
100
AcDbPolyline
 90
        2
 70
     0
 43
0.35
 10
157.6348099572
 20
312.8962480927
 10
157.6348099572
 20
296.8962480927
  0
LINE
  5
93
330
1F
100
AcDbEntity
  8
0
  6
Continuous
 62
     9
100
AcDbLine
 10
156.9348099572
 20
335.608564942
 30
0.0
 11
156.9348099572
 21
274.1839312435
 31
0.0
  0
LINE
  5
94
330
1F
100
AcDbEntity
  8
0
  6
Continuous
 62
     7
100
AcDbLine
 10
155.9348099572
 20
334.57319885
 30
0.0
 11
155.9348099572
 21
275.2192973354
 31
0.0
  0
LINE
  5
95
330
1F
100
AcDbEntity
  8
0
  6
Continuous
 62
     9
100
AcDbLine
 10
154.9348099572
 20
326.7712480927
 30
0.0
 11
154.9348099572
 21
283.0212480927
 31
0.0
  0
LINE
  5
96
330
1F
100
AcDbEntity
  8
0
  6
Continuous
 62
     7
100
AcDbLine
 10
153.2848099572
 20
326.7712480927
 30
0.0
 11
153.2848099572
 21
283.0212480927
 31
0.0
  0
LWPOLYLINE
  5
97
330
1F
100
AcDbEntity
  8
TEIL_STARTBEZUEGE
  6
DOT_CENTER
 62
     7
100
AcDbPolyline
 90
        2
 70
     0
 43
0.25
 10
152.7348099572
 20
278.0934497314
 10
152.7348099572
 20
331.6990464541001
  0
LINE
  5
98
330
1F
100
AcDbEntity
  8
0
  6
Continuous
 62
     7
100
AcDbLine
 10
152.2451276239
 20
327.0498301343
 30
0.0
 11
152.2451276239
 21
282.7426660512
 31
0.0
  0
LWPOLYLINE
  5
99
330
1F
100
AcDbEntity
  8
TEIL_STARTBEZUEGE
  6
DOT_CENTER
 62
     7
100
AcDbPolyline
 90
        2
 70
     0
 43
0.25
 10
218.7348099572
 20
304.8962480927
 10
81.33480995719995
 20
304.8962480927
  0
LWPOLYLINE
  5
9A
330
1F
100
AcDbEntity
  8
DEFAULT_2
  6
DASHED
 62
     8
100
AcDbPolyline
 90
        2
 70
     0
 43
0.35
 10
215.7348099572
 20
296.8962480927
 10
157.6348099572
 20
296.8962480927
  0
LINE
  5
9B
330
1F
100
AcDbEntity
  8
0
  6
Continuous
 62
     7
100
AcDbLine
 10
152.2451276239
 20
282.7426660512
 30
0.0
 11
85.14770722149999
 21
292.5066451914
 31
0.0
  0
LINE
  5
9C
330
1F
100
AcDbEntity
  8
0
  6
Continuous
 62
     7
100
AcDbLine
 10
154.9348099572
 20
283.0212480927
 30
0.0
 11
153.2848099572
 21
283.0212480927
 31
0.0
  0
LINE
  5
9D
330
1F
100
AcDbEntity
  8
0
  6
Continuous
 62
     7
100
AcDbLine
 10
153.2848099572
 20
283.0212480927
 30
0.0
 11
152.2451276239
 21
282.7426660512
 31
0.0
  0
LINE
  5
9E
330
1F
100
AcDbEntity
  8
0
  6
Continuous
 62
     7
100
AcDbLine
 10
172.8348099572
 20
280.8962480927
 30
0.0
 11
202.4668607647
 21
280.8962480927
 31
0.0
  0
LINE
  5
9F
330
1F
100
AcDbEntity
  8
RUNDUNGEN
  6
Continuous
 62
     7
100
AcDbLine
 10
202.4668607647
 20
280.8962480927
 30
0.0
 11
172.8348099572
 21
280.8962480927
 31
0.0
  0
LINE
  5
A0
330
1F
100
AcDbEntity
  8
RUNDUNGEN
  6
Continuous
 62
     7
100
AcDbLine
 10
171.8448565694
 20
280.0462480927
 30
0.0
 11
171.8348099572
 21
280.0462480927
 31
0.0
  0
LINE
  5
A1
330
1F
100
AcDbEntity
  8
0
  6
Continuous
 62
     7
100
AcDbLine
 10
162.7473099572
 20
278.0934497314
 30
0.0
 11
165.0723099572
 21
278.0934497314
 31
0.0
  0
LINE
  5
A2
330
1F
100
AcDbEntity
  8
0
  6
Continuous
 62
     7
100
AcDbLine
 10
167.4388634776
 20
274.1839312435
 30
0.0
 11
170.8348099572
 21
274.1839312435
 31
0.0
  0
LINE
  5
A3
330
1F
100
AcDbEntity
  8
0
  6
Continuous
 62
     7
100
AcDbLine
 10
156.9348099572
 20
274.1839312435
 30
0.0
 11
160.3807564368
 21
274.1839312435
 31
0.0
  0
LINE
  5
A4
330
1F
100
AcDbEntity
  8
0
  6
Continuous
 62
     9
100
AcDbLine
 10
85.14770722150001
 20
317.285850994
 30
0.0
 11
85.14770722149999
 21
292.5066451914
 31
0.0
  0
LINE
  5
A5
330
1F
100
AcDbEntity
  8
0
  6
Continuous
 62
     7
100
AcDbLine
 10
84.3348099572
 20
316.3457962936
 30
0.0
 11
84.3348099572
 21
293.4466998919
 31
0.0
  0
LINE
  5
A6
330
1F
100
AcDbEntity
  8
RUNDUNGEN
  6
Continuous
 62
     7
100
AcDbLine
 10
171.8348099572
 20
329.7462480927001
 30
0.0
 11
171.8448565694
 21
329.7462480927001
 31
0.0
  0
ARC
  5
A7
330
1F
100
AcDbEntity
  8
RUNDUNGEN
  6
Continuous
 62
     7
100
AcDbCircle
 10
214.7348099572
 20
320.8133443241
 30
0.0
 40
1.0
100
AcDbArc
 50
0.0
 51
60.00000000044565
  0
ARC
  5
A8
330
1F
100
AcDbEntity
  8
RUNDUNGEN
  6
Continuous
 62
     7
100
AcDbCircle
 10
202.4668607647
 20
327.8962480927
 30
0.0
 40
1.000000000013472
100
AcDbArc
 50
60.00000000044565
 51
90.0
  0
ARC
  5
A9
330
1F
100
AcDbEntity
  8
0
  6
Continuous
 62
     7
100
AcDbCircle
 10
1129.9600247414
 20
811.6113216383
 30
0.0
 40
1102.39520401132
100
AcDbArc
 50
209.0041652430531
 51
209.1769749559854
  0
ARC
  5
AA
330
1F
100
AcDbEntity
  8
RUNDUNGEN
  6
Continuous
 62
     7
100
AcDbCircle
 10
172.8348099572
 20
279.8962480927
 30
0.0
 40
1.0
100
AcDbArc
 50
90.0
 51
172.3370689397001
  0
ARC
  5
AB
330
1F
100
AcDbEntity
  8
RUNDUNGEN
  6
Continuous
 62
     7
100
AcDbCircle
 10
202.4668607647
 20
281.8962480927
 30
0.0
 40
1.0
100
AcDbArc
 50
270.0
 51
299.9999999995543
  0
ARC
  5
AC
330
1F
100
AcDbEntity
  8
RUNDUNGEN
  6
Continuous
 62
     7
100
AcDbCircle
 10
214.7348099572
 20
288.9791518614
 30
0.0
 40
1.000000000013472
100
AcDbArc
 50
299.9999999995543
 51
0.0
  0
ARC
  5
AD
330
1F
100
AcDbEntity
  8
0
  6
Continuous
 62
     7
100
AcDbCircle
 10
1129.9600247705
 20
-201.818825469
 30
0.0
 40
1102.395204044634
100
AcDbArc
 50
150.8230250440167
 51
150.9958347569439
  0
ARC
  5
AE
330
1F
100
AcDbEntity
  8
0
  6
Continuous
 62
     7
100
AcDbCircle
 10
85.2848099572
 20
316.3457962936
 30
0.0
 40
0.9499999999371026
100
AcDbArc
 50
98.29782682802794
 51
180.0
  0
ARC
  5
AF
330
1F
100
AcDbEntity
  8
0
  6
Continuous
 62
     7
100
AcDbCircle
 10
154.9348099572
 20
327.7712480927
 30
0.0
 40
1.0
100
AcDbArc
 50
270.0
 51
341.0344250098692
  0
ARC
  5
B0
330
1F
100
AcDbEntity
  8
0
  6
Continuous
 62
     7
100
AcDbCircle
 10
-802.1404048271
 20
811.6113216383
 30
0.0
 40
1102.395204011416
100
AcDbArc
 50
330.8230250440171
 51
330.9958347569494
  0
ARC
  5
B1
330
1F
100
AcDbEntity
  8
0
  6
Continuous
 62
     7
100
AcDbCircle
 10
85.2848099572
 20
293.4466998919
 30
0.0
 40
0.9500000000000028
100
AcDbArc
 50
180.0
 51
261.7021731728407
  0
ARC
  5
B2
330
1F
100
AcDbEntity
  8
0
  6
Continuous
 62
     7
100
AcDbCircle
 10
154.9348099572
 20
282.0212480927
 30
0.0
 40
1.0
100
AcDbArc
 50
0.0
 51
90.0
  0
ARC
  5
B3
330
1F
100
AcDbEntity
  8
0
  6
Continuous
 62
     7
100
AcDbCircle
 10
-802.1404048335
 20
-201.8188254564
 30
0.0
 40
1102.395204018751
100
AcDbArc
 50
29.00416524305295
 51
29.1769749559841
  0
ARC
  5
B4
330
1F
100
AcDbEntity
  8
RUNDUNGEN
  6
Continuous
 62
     7
100
AcDbCircle
 10
172.8348099572
 20
329.8962480927001
 30
0.0
 40
0.9999999999997059
100
AcDbArc
 50
187.6629310602966
 51
270.0
  0
SPLINE
  5
B5
330
1F
100
AcDbEntity
  8
0
  6
Continuous
 62
     7
100
AcDbSpline
210
0.0
220
0.0
230
1.0
 70
     8
 71
     3
 72
    15
 73
    11
 74
     9
 42
0.0000000001
 43
0.0000000001
 44
0.00000001
 40
0.0
 40
0.0
 40
0.0
 40
0.0
 40
0.149889055456128
 40
0.3004342038314407
 40
0.4507212547390015
 40
0.6008661227846722
 40
0.7509994132668179
 40
0.9012890816221304
 40
1.051768580279162
 40
1.201718088783823
 40
1.201718088783823
 40
1.201718088783823
 40
1.201718088783823
 10
165.0723099572
 20
278.0934497314
 30
0.0
 10
165.1223509613707
 20
278.0903339533752
 30
0.0
 10
165.2226520087101
 20
278.0840887589723
 30
0.0
 10
165.3666960059521
 20
278.0359446505013
 30
0.0
 10
165.498089250038
 20
277.9612334033941
 30
0.0
 10
165.6117855279911
 20
277.8615189921192
 30
0.0
 10
165.7039902944651
 20
277.7417287253431
 30
0.0
 10
165.7713973526629
 20
277.6065843041407
 30
0.0
 10
165.8141778161882
 20
277.4612030246872
 30
0.0
 10
165.8196024334053
 20
277.3609291065845
 30
0.0
 10
165.8223099572
 20
277.3108805947
 30
0.0
 11
165.0723099572
 21
278.0934497314
 31
0.0
 11
165.2213659904519
 21
278.077669113645
 31
0.0
 11
165.3646514843409
 21
278.031483521299
 31
0.0
 11
165.4951978687964
 21
277.9570265593944
 31
0.0
 11
165.6082073418854
 21
277.8581714108557
 31
0.0
 11
165.6998207027624
 21
277.7392302614589
 31
0.0
 11
165.7672703418781
 21
277.6049263873618
 31
0.0
 11
165.8084350014466
 21
277.4601867925072
 31
0.0
 11
165.8223099572
 21
277.3108805947
 31
0.0
  0
SPLINE
  5
B6
330
1F
100
AcDbEntity
  8
0
  6
Continuous
 62
     7
100
AcDbSpline
210
0.0
220
0.0
230
1.0
 70
     8
 71
     3
 72
    15
 73
    11
 74
     9
 42
0.0000000001
 43
0.0000000001
 44
0.00000001
 40
0.0
 40
0.0
 40
0.0
 40
0.0
 40
0.1499521789458388
 40
0.3004343667390794
 40
0.4507255054092205
 40
0.6008602661591531
 40
0.7510040236202614
 40
0.9012899196393896
 40
1.051832040742476
 40
1.201718121843523
 40
1.201718121843523
 40
1.201718121843523
 40
1.201718121843523
 10
161.9973099572
 20
277.3108805947
 30
0.0
 10
162.0000175776266
 20
277.360929999916
 30
0.0
 10
162.005442388616
 20
277.4612057109291
 30
0.0
 10
162.0482242526441
 20
277.6065890252349
 30
0.0
 10
162.1156332362465
 20
277.7417346084945
 30
0.0
 10
162.2078395719634
 20
277.8615244681081
 30
0.0
 10
162.3215365942426
 20
277.9612375904214
 30
0.0
 10
162.4529289259963
 20
278.035946860922
 30
0.0
 10
162.5969709096193
 20
278.0840891886716
 30
0.0
 10
162.6972699484467
 20
278.0903340961236
 30
0.0
 10
162.7473099572
 20
278.0934497314
 30
0.0
 11
161.9973099572
 21
277.3108805947
 31
0.0
 11
162.0111854058615
 21
277.4601894286484
 31
0.0
 11
162.0523515247783
 21
277.6049314042339
 31
0.0
 11
162.1198028875248
 21
277.7392360580118
 31
0.0
 11
162.2114183104264
 21
277.8581774749867
 31
0.0
 11
162.3244279125361
 21
277.9570307892232
 31
0.0
 11
162.4549739303847
 21
278.0314860628185
 31
0.0
 11
162.5982568425855
 21
278.0776697969408
 31
0.0
 11
162.7473099572
 21
278.0934497314
 31
0.0
  0
SPLINE
  5
B7
330
1F
100
AcDbEntity
  8
0
  6
Continuous
 62
     7
100
AcDbSpline
210
0.0
220
0.0
230
1.0
 70
     8
 71
     3
 72
    15
 73
    11
 74
     9
 42
0.0000000001
 43
0.0000000001
 44
0.00000001
 40
0.0
 40
0.0
 40
0.0
 40
0.0
 40
0.1498887298089543
 40
0.300433547993289
 40
0.4507207373816334
 40
0.6008657480987412
 40
0.7509990952810376
 40
0.9012888186867974
 40
1.051768450198396
 40
1.201718090863115
 40
1.201718090863115
 40
1.201718090863115
 40
1.201718090863115
 10
162.7473099572
 20
331.6990464541
 30
0.0
 10
162.6972690619862
 20
331.7021622166787
 30
0.0
 10
162.5969682340787
 20
331.7084073800568
 30
0.0
 10
162.452924373102
 20
331.7565513236206
 30
0.0
 10
162.3215310851714
 20
331.8312624679571
 30
0.0
 10
162.2078346663179
 20
331.9309768924081
 30
0.0
 10
162.1156297922848
 20
332.0507671848155
 30
0.0
 10
162.0482226450291
 20
332.1859116537323
 30
0.0
 10
162.0054421130405
 20
332.3312930278573
 30
0.0
 10
162.0000174859305
 20
332.431567034608
 30
0.0
 10
161.9973099572
 20
332.4816155907
 30
0.0
 11
162.7473099572
 21
331.6990464541
 31
0.0
 11
162.598254243569
 21
331.7148269977437
 31
0.0
 11
162.454969031651
 21
331.7610123885917
 31
0.0
 11
162.3244224706818
 21
331.835469320528
 31
0.0
 11
162.2114128351815
 21
331.9343245000954
 31
0.0
 11
162.1197993857619
 21
332.0532656528627
 31
0.0
 11
162.0523496703061
 21
332.1875695502235
 31
0.0
 11
162.0111849378775
 21
332.3323092624796
 31
0.0
 11
161.9973099572
 21
332.4816155907
 31
0.0
  0
SPLINE
  5
B8
330
1F
100
AcDbEntity
  8
0
  6
Continuous
 62
     7
100
AcDbSpline
210
0.0
220
0.0
230
1.0
 70
     8
 71
     3
 72
    15
 73
    11
 74
     9
 42
0.0000000001
 43
0.0000000001
 44
0.00000001
 40
0.0
 40
0.0
 40
0.0
 40
0.0
 40
0.1499520084747559
 40
0.3004340248029332
 40
0.4507251465003808
 40
0.6008598893869289
 40
0.7510035493159821
 40
0.901289351027388
 40
1.051831757273303
 40
1.201718119592587
 40
1.201718119592587
 40
1.201718119592587
 40
1.201718119592587
 10
165.8223099572
 20
332.4816155907
 30
0.0
 10
165.8196023432074
 20
332.4315662425029
 30
0.0
 10
165.8141775451157
 20
332.3312906458598
 30
0.0
 10
165.7713957643312
 20
332.1859074362313
 30
0.0
 10
165.7039868723354
 20
332.0507618844065
 30
0.0
 10
165.611780621284
 20
331.9309720159333
 30
0.0
 10
165.4980837051481
 20
331.8312588805301
 30
0.0
 10
165.3666913977716
 20
331.7565495096695
 30
0.0
 10
165.2226492883732
 20
331.7084070368695
 30
0.0
 10
165.1223500600471
 20
331.7021621026854
 30
0.0
 10
165.0723099572
 20
331.6990464541
 30
0.0
 11
165.8223099572
 21
332.4816155907
 31
0.0
 11
165.8084345408635
 21
332.3323069249532
 31
0.0
 11
165.7672685156033
 21
332.1875651009959
 31
0.0
 11
165.6998172208763
 21
332.0532604320498
 31
0.0
 11
165.6082018652674
 21
331.9343189857905
 31
0.0
 11
165.4951923893002
 21
331.8354656754842
 31
0.0
 11
165.3646465035079
 21
331.7610103607059
 31
0.0
 11
165.2213633478377
 21
331.7148264524747
 31
0.0
 11
165.0723099572
 21
331.6990464541
 31
0.0
  0
SPLINE
  5
B9
330
1F
100
AcDbEntity
  8
BEZUGSACHSEN
  6
Continuous
 62
     7
100
AcDbSpline
210
0.0
220
0.0
230
1.0
 70
     8
 71
     3
 72
    23
 73
    19
 74
    17
 42
0.0000000001
 43
0.0000000001
 44
0.00000001
 40
0.0
 40
0.0
 40
0.0
 40
0.0
 40
0.2361073618177286
 40
0.4722226684302703
 40
1.13511115131122
 40
1.798039136789444
 40
2.778004491830098
 40
3.758032092527071
 40
4.910563591544967
 40
6.063122723458845
 40
7.215681936878513
 40
8.368213517507325
 40
9.348241247254622
 40
10.32820673108799
 40
10.99113545981782
 40
11.65402468620306
 40
11.89014032988782
 40
12.1262480284866
 40
12.1262480284866
 40
12.1262480284866
 40
12.1262480284866
 10
197.7348099572
 20
328.8962480927
 30
0.0
 10
197.6584106036229
 20
328.8773456646741
 30
0.0
 10
197.5056093257007
 20
328.8395401725728
 30
0.0
 10
197.1373549282061
 20
328.7526116732739
 30
0.0
 10
196.6287484232874
 20
328.6410346586291
 30
0.0
 10
195.8740017632902
 20
328.49540061799
 30
0.0
 10
195.0104251717045
 20
328.3573416672334
 30
0.0
 10
193.9799587580394
 20
328.2343579747504
 30
0.0
 10
192.8874731104773
 20
328.1533419440798
 30
0.0
 10
191.7348112197779
 20
328.124582172214
 30
0.0
 10
190.5821492979818
 20
328.1533417953949
 30
0.0
 10
189.4896635434906
 20
328.2343577062369
 30
0.0
 10
188.4591970056105
 20
328.3573413157439
 30
0.0
 10
187.5956200745535
 20
328.4954002594461
 30
0.0
 10
186.840872880612
 20
328.6410343766241
 30
0.0
 10
186.332265779176
 20
328.7526115093564
 30
0.0
 10
185.9640109186336
 20
328.8395401034583
 30
0.0
 10
185.8112094207239
 20
328.8773456416436
 30
0.0
 10
185.7348099572
 20
328.8962480927
 30
0.0
 11
197.7348099572
 21
328.8962480927
 31
0.0
 11
197.5055124294372
 21
328.8399512893592
 31
0.0
 11
197.2757345628423
 21
328.7856137329196
 31
0.0
 11
196.6281974199987
 21
328.6437800649345
 31
0.0
 11
195.9772648155203
 21
328.5182401973338
 31
0.0
 11
195.0095497022555
 21
328.3637748075568
 31
0.0
 11
194.0364009712704
 21
328.2478625756312
 31
0.0
 11
192.8870156751882
 21
328.1627608871734
 31
0.0
 11
191.7348112463007
 21
328.134168814669
 31
0.0
 11
190.5826067322739
 21
328.1627607417618
 31
0.0
 11
189.4332213450468
 21
328.2478623044705
 31
0.0
 11
188.4600724751111
 21
328.3637744609361
 31
0.0
 11
187.4923572240353
 21
328.518239804428
 31
0.0
 11
186.8414238847947
 21
328.643779787065
 31
0.0
 11
186.1938860115231
 21
328.7856135952224
 31
0.0
 11
185.9641078147945
 21
328.8399512203163
 31
0.0
 11
185.7348099572
 21
328.8962480927
 31
0.0
  0
SPLINE
  5
BA
330
1F
100
AcDbEntity
  8
0
  6
Continuous
 62
     7
100
AcDbSpline
210
0.0
220
0.0
230
1.0
 70
     8
 71
     3
 72
    15
 73
    11
 74
     9
 42
0.0000000001
 43
0.0000000001
 44
0.00000001
 40
0.0
 40
0.0
 40
0.0
 40
0.0
 40
0.1991719800662015
 40
0.3990534796242746
 40
0.5986806085074468
 40
0.7980986750409607
 40
0.9975251470173729
 40
1.197147680699478
 40
1.397095016830792
 40
1.596192537772039
 40
1.596192537772039
 40
1.596192537772039
 40
1.596192537772039
 10
155.9348099572
 20
275.2192973354
 30
0.0
 10
155.9384350509411
 20
275.1528185695995
 30
0.0
 10
155.9456981522612
 20
275.0196242176378
 30
0.0
 10
156.0029902851338
 20
274.8266211073215
 30
0.0
 10
156.0932971986436
 20
274.6474784148421
 30
0.0
 10
156.2166555025312
 20
274.4890320397445
 30
0.0
 10
156.3685071839146
 20
274.3575413483744
 30
0.0
 10
156.5435835125405
 20
274.2593154748884
 30
0.0
 10
156.7351231493695
 20
274.1961678834004
 30
0.0
 10
156.8683422567576
 20
274.188004328368
 30
0.0
 10
156.9348099572
 20
274.1839312435
 30
0.0
 11
155.9348099572
 21
275.2192973354
 31
0.0
 11
155.9533890825457
 21
275.0209937959841
 31
0.0
 11
156.0085232612681
 21
274.8288666604665
 31
0.0
 11
156.0988553943125
 21
274.6508467280831
 31
0.0
 11
156.2214010348244
 21
274.4935249837135
 31
0.0
 11
156.3722993339433
 21
274.3631385540208
 31
0.0
 11
156.5462471662874
 21
274.2652033326935
 31
0.0
 11
156.7367877972983
 21
274.2045963598276
 31
0.0
 11
156.9348099572
 21
274.1839312435
 31
0.0
  0
SPLINE
  5
BB
330
1F
100
AcDbEntity
  8
0
  6
Continuous
 62
     7
100
AcDbSpline
210
0.0
220
0.0
230
1.0
 70
     8
 71
     3
 72
    15
 73
    11
 74
     9
 42
0.0000000001
 43
0.0000000001
 44
0.00000001
 40
0.0
 40
0.0
 40
0.0
 40
0.0
 40
0.1991002754503207
 40
0.3990504136623096
 40
0.5986744171471158
 40
0.798102320322603
 40
0.9975187550527777
 40
1.197144245782725
 40
1.397023128136962
 40
1.59619251282347
 40
1.59619251282347
 40
1.59619251282347
 40
1.59619251282347
 10
156.9348099572
 20
335.608564942
 30
0.0
 10
156.8683413349059
 20
335.6044917279773
 30
0.0
 10
156.7351203679231
 20
335.5963279133516
 30
0.0
 10
156.5435787290315
 20
335.5331786518333
 30
0.0
 10
156.36850132779
 20
335.4349507782997
 30
0.0
 10
156.2166502693531
 20
335.3034586758165
 30
0.0
 10
156.0932935461777
 20
335.1450118821576
 30
0.0
 10
156.0029885899224
 20
334.9658704277084
 30
0.0
 10
155.9456978616325
 20
334.7728693556109
 30
0.0
 10
155.938434954256
 20
334.6396767475139
 30
0.0
 10
155.9348099572
 20
334.57319885
 30
0.0
 11
156.9348099572
 21
335.608564942
 31
0.0
 11
156.7367850926748
 21
335.5878992043124
 31
0.0
 11
156.5462420627997
 21
335.5272905288855
 31
0.0
 11
156.3722935540364
 21
335.4293535130727
 31
0.0
 11
156.2213951377813
 21
335.2989650299284
 31
0.0
 11
156.0988516729182
 21
335.1416436592891
 31
0.0
 11
156.0085213329858
 21
334.9636246540203
 31
0.0
 11
155.9533885926588
 21
334.7714998285676
 31
0.0
 11
155.9348099572
 21
334.57319885
 31
0.0
  0
SPLINE
  5
BC
330
1F
100
AcDbEntity
  8
0
  6
Continuous
 62
     7
100
AcDbSpline
210
0.0
220
0.0
230
1.0
 70
     8
 71
     3
 72
    15
 73
    11
 74
     9
 42
0.0000000001
 43
0.0000000001
 44
0.00000001
 40
0.0
 40
0.0
 40
0.0
 40
0.0
 40
0.1991000959061665
 40
0.3990500500807075
 40
0.598674160199376
 40
0.7981021741946922
 40
0.9975186421997936
 40
1.19714416511399
 40
1.397023090625983
 40
1.596192517386399
 40
1.596192517386399
 40
1.596192517386399
 40
1.596192517386399
 10
170.8348099572
 20
274.1839312435
 30
0.0
 10
170.9012785194241
 20
274.1880044468923
 30
0.0
 10
171.0344993647661
 20
274.1961682401354
 30
0.0
 10
171.226040942132
 20
274.2593174002927
 30
0.0
 10
171.4011183817653
 20
274.3575452357888
 30
0.0
 10
171.5529695210634
 20
274.4890373749323
 30
0.0
 10
171.6763262949732
 20
274.6474842041064
 30
0.0
 10
171.7666312830367
 20
274.8266256828699
 30
0.0
 10
171.8239220437748
 20
275.0196267871996
 30
0.0
 10
171.8311849571556
 20
275.1528194238101
 30
0.0
 10
171.8348099572
 20
275.2192973354
 30
0.0
 11
170.8348099572
 21
274.1839312435
 31
0.0
 11
171.0328346462444
 21
274.2045969329083
 31
0.0
 11
171.2233775212603
 21
274.2652054880394
 31
0.0
 11
171.3973261503951
 21
274.363142507408
 31
0.0
 11
171.5482246682762
 21
274.4935310424385
 31
0.0
 11
171.6707681676866
 21
274.6508524283461
 31
0.0
 11
171.761098538541
 21
274.8288714540149
 31
0.0
 11
171.816231308754
 21
275.0209963157909
 31
0.0
 11
171.8348099572
 21
275.2192973354
 31
0.0
  0
SPLINE
  5
BD
330
1F
100
AcDbEntity
  8
0
  6
Continuous
 62
     7
100
AcDbSpline
210
0.0
220
0.0
230
1.0
 70
     8
 71
     3
 72
    15
 73
    11
 74
     9
 42
0.0000000001
 43
0.0000000001
 44
0.00000001
 40
0.0
 40
0.0
 40
0.0
 40
0.0
 40
0.199172057359447
 40
0.3990536357192955
 40
0.5986807642896445
 40
0.7980988307833368
 40
0.9975253742461532
 40
1.197147976138822
 40
1.397095164895312
 40
1.596192542394533
 40
1.596192542394533
 40
1.596192542394533
 40
1.596192542394533
 10
171.8348099572
 20
334.57319885
 30
0.0
 10
171.8311848590331
 20
334.639677641654
 30
0.0
 10
171.8239217488231
 20
334.772872045826
 30
0.0
 10
171.766629569301
 20
334.9658751982964
 30
0.0
 10
171.6763226208731
 20
335.1450179015831
 30
0.0
 10
171.5529642855733
 20
335.3034642821906
 30
0.0
 10
171.4011125527731
 20
335.4349549867273
 30
0.0
 10
171.2260362027773
 20
335.5331808227774
 30
0.0
 10
171.0344966197373
 20
335.5963283288346
 30
0.0
 10
170.9012776096491
 20
335.6044918660083
 30
0.0
 10
170.8348099572
 20
335.608564942
 30
0.0
 11
171.8348099572
 21
334.57319885
 31
0.0
 11
171.8162308118472
 21
334.7715024651732
 31
0.0
 11
171.7610965837678
 21
334.9636296685092
 31
0.0
 11
171.6707644263047
 21
335.141649588151
 31
0.0
 11
171.5482187690039
 21
335.2989713193925
 31
0.0
 11
171.3973203992414
 21
335.4293577766668
 31
0.0
 11
171.2233724846271
 21
335.5272929909042
 31
0.0
 11
171.0328319770506
 21
335.5878998656309
 31
0.0
 11
170.8348099572
 21
335.608564942
 31
0.0
  0
SPLINE
  5
BE
330
1F
100
AcDbEntity
  8
0
  6
Continuous
 62
     2
100
AcDbSpline
210
0.0
220
0.0
230
1.0
 70
     8
 71
     3
 72
    45
 73
    41
 74
    39
 42
0.0000000001
 43
0.0000000001
 44
0.00000001
 40
0.0
 40
0.0
 40
0.0
 40
0.0
 40
0.0252057562588303
 40
0.1000284256893917
 40
0.2232867275022585
 40
0.3938415693638339
 40
0.6104136568703862
 40
0.8711076013534442
 40
1.174066091210229
 40
1.518163839954451
 40
1.90192115926132
 40
2.321632033925058
 40
2.773446997901443
 40
3.255058668945734
 40
3.763682841541244
 40
4.292927346157238
 40
4.836460215570513
 40
5.39165566151949
 40
5.95627998266124
 40
6.525859490897851
 40
7.096229499098457
 40
7.666655478649132
 40
8.23638988288701
 40
8.801202009698246
 40
9.356561427725278
 40
9.900267653826523
 40
10.42976627116902
 40
10.93886024436386
 40
11.42126414894883
 40
11.87412259577085
 40
12.29500983840284
 40
12.67994634079408
 40
13.02511347257922
 40
13.32900171347555
 40
13.59048037566548
 40
13.80770261498345
 40
13.97878304973255
 40
14.10243499674717
 40
14.17750653139652
 40
14.20279927850696
 40
14.20279927850696
 40
14.20279927850696
 40
14.20279927850696
 10
184.7348099572
 20
328.896277744
 30
0.0
 10
184.7428741685181
 20
328.8939196157033
 30
0.0
 10
184.7748767934064
 20
328.8845614413774
 30
0.0
 10
184.8463801861214
 20
328.8638986980152
 30
0.0
 10
184.9645186914038
 20
328.8300975199585
 30
0.0
 10
185.128345964414
 20
328.7842208234675
 30
0.0
 10
185.3366540223489
 20
328.7273104243732
 30
0.0
 10
185.5881133425462
 20
328.66090972103
 30
0.0
 10
185.8814200159632
 20
328.5865356832297
 30
0.0
 10
186.2154791760052
 20
328.5060685630005
 30
0.0
 10
186.5885436187179
 20
328.4214766628893
 30
0.0
 10
186.9979749142475
 20
328.3350906011634
 30
0.0
 10
187.4408255609142
 20
328.2493776951283
 30
0.0
 10
187.9143900373495
 20
328.1667796119598
 30
0.0
 10
188.4150294035998
 20
328.089763308588
 30
0.0
 10
188.9376326462631
 20
328.0204837910976
 30
0.0
 10
189.4771023717109
 20
327.9613083307577
 30
0.0
 10
190.0295595030911
 20
327.9137155185829
 30
0.0
 10
190.5916731935456
 20
327.8789465750515
 30
0.0
 10
191.1595191505154
 20
327.8575686302014
 30
0.0
 10
191.7296577628113
 20
327.8503163053031
 30
0.0
 10
192.2998512478468
 20
327.8573128108829
 30
0.0
 10
192.8678394060206
 20
327.878445799182
 30
0.0
 10
193.4301367971234
 20
327.9129805690004
 30
0.0
 10
193.9827884091682
 20
327.9603558243414
 30
0.0
 10
194.5224781047089
 20
328.019334091267
 30
0.0
 10
195.0454053885671
 20
328.0884454940077
 30
0.0
 10
195.5465726157341
 20
328.1653551306789
 30
0.0
 10
196.020921837613
 20
328.2479272820862
 30
0.0
 10
196.4647841627762
 20
328.33369776756
 30
0.0
 10
196.8753452436036
 20
328.4202181018665
 30
0.0
 10
197.2495400428988
 20
328.5049880895792
 30
0.0
 10
197.5846415861392
 20
328.5856522096861
 30
0.0
 10
197.8788561411167
 20
328.6602214309551
 30
0.0
 10
198.1310830290608
 20
328.726802738843
 30
0.0
 10
198.3400245905939
 20
328.783874014347
 30
0.0
 10
198.5043572028686
 20
328.8298861424068
 30
0.0
 10
198.6228706545647
 20
328.8637923411722
 30
0.0
 10
198.6946078440156
 20
328.8845219459039
 30
0.0
 10
198.726717915782
 20
328.8939115597183
 30
0.0
 10
198.7348099572
 20
328.8962778311
 30
0.0
 11
184.7348099572
 21
328.896277744
 31
0.0
 11
184.7590044709856
 21
328.8892098128134
 31
0.0
 11
184.8308764661776
 21
328.8684048093805
 31
0.0
 11
184.9493878479302
 21
328.8345276583657
 31
0.0
 11
185.1136174175638
 21
328.7885102427454
 31
0.0
 11
185.3225391825095
 21
328.7314561875088
 31
0.0
 11
185.5745910802118
 21
328.6648891269247
 31
0.0
 11
185.8682634457962
 21
328.5904553424692
 31
0.0
 11
186.2027922734578
 21
328.509871695529
 31
0.0
 11
186.5770523629238
 21
328.4250243882381
 31
0.0
 11
186.987728078532
 21
328.3384064055748
 31
0.0
 11
187.4313186454769
 21
328.2525916598112
 31
0.0
 11
187.9057731663832
 21
328.1698709896151
 31
0.0
 11
188.4084816109609
 21
328.0925226302354
 31
0.0
 11
188.9331475410038
 21
328.0230574769682
 31
0.0
 11
189.4734419152471
 21
327.9638124831406
 31
0.0
 11
190.0265916872733
 21
327.9161961738563
 31
0.0
 11
190.5901371178902
 21
327.8813081865881
 31
0.0
 11
191.1593157024481
 21
327.8599410369484
 31
0.0
 11
191.7296396453313
 21
327.8526921453829
 31
0.0
 11
192.300022752302
 21
327.8596856730149
 31
0.0
 11
192.8693655010077
 21
327.8808073649109
 31
0.0
 11
193.4331134552598
 21
327.9154625617732
 31
0.0
 11
193.9864465768862
 21
327.9628602379031
 31
0.0
 11
194.5269373338297
 21
328.0219043058514
 31
0.0
 11
195.0518825189099
 21
328.0911959967584
 31
0.0
 11
195.5550837178495
 21
328.1684308783152
 31
0.0
 11
196.0303464327856
 21
328.2511283930925
 31
0.0
 11
196.4749870394359
 21
328.3370091463249
 31
0.0
 11
196.8868350988054
 21
328.4237688547379
 31
0.0
 11
197.2622620383077
 21
328.5088025184787
 31
0.0
 11
197.5978428450517
 21
328.5895853818212
 31
0.0
 11
197.8924248799058
 21
328.6642143821916
 31
0.0
 11
198.1452409161927
 21
328.7309612366254
 31
0.0
 11
198.3547930017356
 21
328.7881750872119
 31
0.0
 11
198.5195302460604
 21
328.834328694722
 31
0.0
 11
198.6384207326478
 21
328.868311869964
 31
0.0
 11
198.7105319407739
 21
328.8891855130865
 31
0.0
 11
198.7348099572
 21
328.8962778311
 31
0.0
  0
DIMENSION
  5
C9
330
1F
100
AcDbEntity
  8
1
100
AcDbDimension
  2
*D2
 10
215.7348099572
 20
355.553682165972
 30
0.0
 11
155.9989813118544
 21
359.303682165972
 31
0.0
 70
    32
  1
<>
 71
     5
 42
-1.0
 53
0.00013888888889
  3
ME10_DIM_10
100
AcDbAlignedDimension
 13
84.3348099572
 23
316.3457962936
 33
0.0
 14
215.7348099572
 24
320.8133443241
 34
0.0
100
AcDbRotatedDimension
  0
DIMENSION
  5
D4
330
1F
100
AcDbEntity
  8
1
100
AcDbDimension
  2
*D3
 10
215.7348099572
 20
348.659069298748
 30
0.0
 11
184.613289329784
 21
352.409069298748
 31
0.0
 70
    32
  1
<>
 71
     5
 42
-1.0
 53
0.00013888888889
  3
ME10_DIM_11
100
AcDbAlignedDimension
 13
152.7348099572
 23
331.6990464541001
 33
0.0
 14
215.7348099572
 24
320.8133443241
 34
0.0
100
AcDbRotatedDimension
  0
DIMENSION
  5
DF
330
1F
100
AcDbEntity
  8
1
100
AcDbDimension
  2
*D4
 10
215.7348099572001
 20
341.40158207009
 30
0.0
 11
192.8644897229854
 21
345.15158207009
 31
0.0
 70
    32
  1
<>
 71
     5
 42
-1.0
 53
0.00013888888889
  3
ME10_DIM_12
100
AcDbAlignedDimension
 13
171.8348099572
 23
334.57319885
 33
0.0
 14
215.7348099572
 24
320.8133443241
 34
0.0
100
AcDbRotatedDimension
  0
DIMENSION
  5
EA
330
1F
100
AcDbEntity
  8
1
100
AcDbDimension
  2
*D5
 10
235.173783689429
 20
328.8962480927
 30
0.0
 11
231.423783689429
 21
304.509355324417
 31
0.0
 70
    32
  1
<>
 71
     5
 42
-1.0
 53
90.0
  3
ME10_DIM_13
100
AcDbAlignedDimension
 13
202.4668607647
 23
280.8962480927
 33
0.0
 14
202.4668607647
 24
328.8962480927
 34
0.0
 50
90.0
100
AcDbRotatedDimension
  0
DIMENSION
  5
F5
330
1F
100
AcDbEntity
  8
1
100
AcDbDimension
  2
*D6
 10
226.585757135518
 20
312.8962480927
 30
0.0
 11
222.835757135518
 21
304.751271565372
 31
0.0
 70
    32
  1
<>
 71
     5
 42
-1.0
 53
90.0
  3
ME10_DIM_14
100
AcDbAlignedDimension
 13
215.7348099572
 23
296.8962480927
 33
0.0
 14
215.7348099572
 24
312.8962480927
 34
0.0
 50
90.0
100
AcDbRotatedDimension
  0
INSERT
  5
FC
330
1F
100
AcDbEntity
  8
1
100
AcDbBlockReference
  2
*D7
 10
0.0
 20
0.0
 30
0.0
  0
ENDSEC
  0
SECTION
  2
OBJECTS
  0
DICTIONARY
  5
C
330
0
100
AcDbDictionary
281
     1
  3
ACAD_GROUP
350
D
  3
ACAD_LAYOUT
350
1A
  3
ACAD_MLEADERSTYLE
350
FF
  3
ACAD_MLINESTYLE
350
17
  3
ACAD_PLOTSETTINGS
350
19
  3
ACAD_PLOTSTYLENAME
350
E
  3
ACAD_SCALELIST
350
4A
  3
ACAD_VISUALSTYLE
350
2A
  3
AcDbVariableDictionary
350
FD
  0
DICTIONARY
  5
D
102
{ACAD_REACTORS
330
C
102
}
330
C
100
AcDbDictionary
281
     1
  0
DICTIONARY
  5
1A
102
{ACAD_REACTORS
330
C
102
}
330
C
100
AcDbDictionary
281
     1
  3
Layout1
350
1E
  3
Layout2
350
26
  3
Model
350
22
  0
DICTIONARY
  5
FF
102
{ACAD_REACTORS
330
C
102
}
330
C
100
AcDbDictionary
281
     1
  0
DICTIONARY
  5
17
102
{ACAD_REACTORS
330
C
102
}
330
C
100
AcDbDictionary
281
     1
  3
Standard
350
18
  0
DICTIONARY
  5
19
102
{ACAD_REACTORS
330
C
102
}
330
C
100
AcDbDictionary
281
     1
  0
ACDBDICTIONARYWDFLT
  5
E
102
{ACAD_REACTORS
330
C
102
}
330
C
100
AcDbDictionary
281
     1
  3
Normal
350
F
100
AcDbDictionaryWithDefault
340
F
  0
DICTIONARY
  5
4A
102
{ACAD_REACTORS
330
C
102
}
330
C
100
AcDbDictionary
281
     1
  3
A0
350
4B
  3
A1
350
4C
  3
A2
350
4D
  3
A3
350
4E
  3
A4
350
4F
  3
A5
350
50
  3
A6
350
51
  3
A7
350
52
  3
A8
350
53
  3
A9
350
54
  3
B0
350
55
  3
B1
350
56
  3
B2
350
57
  3
B3
350
58
  3
B4
350
59
  3
B5
350
5A
  3
B6
350
5B
  3
B7
350
5C
  3
B8
350
5D
  3
B9
350
5E
  3
C0
350
5F
  3
C1
350
60
  3
C2
350
61
  3
C3
350
62
  3
C4
350
63
  3
C5
350
64
  3
C6
350
65
  3
C7
350
66
  3
C8
350
67
  3
C9
350
68
  3
D0
350
69
  3
D1
350
6A
  3
D2
350
6B
  0
DICTIONARY
  5
2A
102
{ACAD_REACTORS
330
C
102
}
330
C
100
AcDbDictionary
281
     1
  3
2dWireframe
350
2F
  3
3D Hidden
350
31
  3
3dWireframe
350
30
  3
Basic
350
32
  3
Brighten
350
36
  3
ColorChange
350
3A
  3
Conceptual
350
34
  3
Dim
350
35
  3
Facepattern
350
39
  3
Flat
350
2B
  3
FlatWithEdges
350
2C
  3
Gouraud
350
2D
  3
GouraudWithEdges
350
2E
  3
Linepattern
350
38
  3
Realistic
350
33
  3
Thicken
350
37
  0
DICTIONARY
  5
FD
102
{ACAD_REACTORS
330
C
102
}
330
C
100
AcDbDictionary
281
     1
  3
CANNOSCALE
350
100
  0
LAYOUT
  5
1E
102
{ACAD_REACTORS
330
1A
102
}
330
1A
100
AcDbPlotSettings
  1

  2
none_device
  4

  6

 40
0.0
 41
0.0
 42
0.0
 43
0.0
 44
0.0
 45
0.0
 46
0.0
 47
0.0
 48
0.0
 49
0.0
140
0.0
141
0.0
142
1.0
143
1.0
 70
   688
 72
     0
 73
     0
 74
     5
  7

 75
    16
147
1.0
148
0.0
149
0.0
100
AcDbLayout
  1
Layout1
 70
     1
 71
     1
 10
0.0
 20
0.0
 11
12.0
 21
9.0
 12
0.0
 22
0.0
 32
0.0
 14
1.00000000000000E+20
 24
1.00000000000000E+20
 34
1.00000000000000E+20
 15
-1.00000000000000E+20
 25
-1.00000000000000E+20
 35
-1.00000000000000E+20
146
0.0
 13
0.0
 23
0.0
 33
0.0
 16
1.0
 26
0.0
 36
0.0
 17
0.0
 27
1.0
 37
0.0
 76
     0
330
1B
  0
LAYOUT
  5
26
102
{ACAD_REACTORS
330
1A
102
}
330
1A
100
AcDbPlotSettings
  1

  2
none_device
  4

  6

 40
0.0
 41
0.0
 42
0.0
 43
0.0
 44
0.0
 45
0.0
 46
0.0
 47
0.0
 48
0.0
 49
0.0
140
0.0
141
0.0
142
1.0
143
1.0
 70
   688
 72
     0
 73
     0
 74
     5
  7

 75
    16
147
1.0
148
0.0
149
0.0
100
AcDbLayout
  1
Layout2
 70
     1
 71
     2
 10
0.0
 20
0.0
 11
0.0
 21
0.0
 12
0.0
 22
0.0
 32
0.0
 14
0.0
 24
0.0
 34
0.0
 15
0.0
 25
0.0
 35
0.0
146
0.0
 13
0.0
 23
0.0
 33
0.0
 16
1.0
 26
0.0
 36
0.0
 17
0.0
 27
1.0
 37
0.0
 76
     0
330
23
  0
LAYOUT
  5
22
102
{ACAD_REACTORS
330
1A
102
}
330
1A
100
AcDbPlotSettings
  1

  2
none_device
  4

  6

 40
0.0
 41
0.0
 42
0.0
 43
0.0
 44
0.0
 45
0.0
 46
0.0
 47
0.0
 48
0.0
 49
0.0
140
0.0
141
0.0
142
1.0
143
1.0
 70
  1712
 72
     0
 73
     0
 74
     0
  7

 75
     0
147
1.0
148
0.0
149
0.0
100
AcDbLayout
  1
Model
 70
     1
 71
     0
 10
0.0
 20
0.0
 11
12.0
 21
9.0
 12
0.0
 22
0.0
 32
0.0
 14
81.20980995719995
 24
256.4694188340317
 34
0.0
 15
237.173783689429
 25
361.053682165972
 35
0.0
146
0.0
 13
0.0
 23
0.0
 33
0.0
 16
1.0
 26
0.0
 36
0.0
 17
0.0
 27
1.0
 37
0.0
 76
     0
330
1F
331
29
  0
MLINESTYLE
  5
18
102
{ACAD_REACTORS
330
17
102
}
330
17
100
AcDbMlineStyle
  2
Standard
 70
     0
  3

 62
   256
 51
90.0
 52
90.0
 71
     2
 49
0.5
 62
   256
  6
BYLAYER
 49
-0.5
 62
   256
  6
BYLAYER
  0
ACDBPLACEHOLDER
  5
F
102
{ACAD_REACTORS
330
E
102
}
330
E
  0
SCALE
  5
4B
102
{ACAD_REACTORS
330
4A
102
}
330
4A
100
AcDbScale
 70
     0
300
1:1
140
1.0
141
1.0
290
     1
  0
SCALE
  5
4C
102
{ACAD_REACTORS
330
4A
102
}
330
4A
100
AcDbScale
 70
     0
300
1:2
140
1.0
141
2.0
290
     0
  0
SCALE
  5
4D
102
{ACAD_REACTORS
330
4A
102
}
330
4A
100
AcDbScale
 70
     0
300
1:4
140
1.0
141
4.0
290
     0
  0
SCALE
  5
4E
102
{ACAD_REACTORS
330
4A
102
}
330
4A
100
AcDbScale
 70
     0
300
1:5
140
1.0
141
5.0
290
     0
  0
SCALE
  5
4F
102
{ACAD_REACTORS
330
4A
102
}
330
4A
100
AcDbScale
 70
     0
300
1:8
140
1.0
141
8.0
290
     0
  0
SCALE
  5
50
102
{ACAD_REACTORS
330
4A
102
}
330
4A
100
AcDbScale
 70
     0
300
1:10
140
1.0
141
10.0
290
     0
  0
SCALE
  5
51
102
{ACAD_REACTORS
330
4A
102
}
330
4A
100
AcDbScale
 70
     0
300
1:16
140
1.0
141
16.0
290
     0
  0
SCALE
  5
52
102
{ACAD_REACTORS
330
4A
102
}
330
4A
100
AcDbScale
 70
     0
300
1:20
140
1.0
141
20.0
290
     0
  0
SCALE
  5
53
102
{ACAD_REACTORS
330
4A
102
}
330
4A
100
AcDbScale
 70
     0
300
1:30
140
1.0
141
30.0
290
     0
  0
SCALE
  5
54
102
{ACAD_REACTORS
330
4A
102
}
330
4A
100
AcDbScale
 70
     0
300
1:40
140
1.0
141
40.0
290
     0
  0
SCALE
  5
55
102
{ACAD_REACTORS
330
4A
102
}
330
4A
100
AcDbScale
 70
     0
300
1:50
140
1.0
141
50.0
290
     0
  0
SCALE
  5
56
102
{ACAD_REACTORS
330
4A
102
}
330
4A
100
AcDbScale
 70
     0
300
1:100
140
1.0
141
100.0
290
     0
  0
SCALE
  5
57
102
{ACAD_REACTORS
330
4A
102
}
330
4A
100
AcDbScale
 70
     0
300
2:1
140
2.0
141
1.0
290
     0
  0
SCALE
  5
58
102
{ACAD_REACTORS
330
4A
102
}
330
4A
100
AcDbScale
 70
     0
300
4:1
140
4.0
141
1.0
290
     0
  0
SCALE
  5
59
102
{ACAD_REACTORS
330
4A
102
}
330
4A
100
AcDbScale
 70
     0
300
8:1
140
8.0
141
1.0
290
     0
  0
SCALE
  5
5A
102
{ACAD_REACTORS
330
4A
102
}
330
4A
100
AcDbScale
 70
     0
300
10:1
140
10.0
141
1.0
290
     0
  0
SCALE
  5
5B
102
{ACAD_REACTORS
330
4A
102
}
330
4A
100
AcDbScale
 70
     0
300
100:1
140
100.0
141
1.0
290
     0
  0
SCALE
  5
5C
102
{ACAD_REACTORS
330
4A
102
}
330
4A
100
AcDbScale
 70
     0
300
1/128" = 1'-0"
140
0.0078125
141
12.0
290
     0
  0
SCALE
  5
5D
102
{ACAD_REACTORS
330
4A
102
}
330
4A
100
AcDbScale
 70
     0
300
1/64" = 1'-0"
140
0.015625
141
12.0
290
     0
  0
SCALE
  5
5E
102
{ACAD_REACTORS
330
4A
102
}
330
4A
100
AcDbScale
 70
     0
300
1/32" = 1'-0"
140
0.03125
141
12.0
290
     0
  0
SCALE
  5
5F
102
{ACAD_REACTORS
330
4A
102
}
330
4A
100
AcDbScale
 70
     0
300
1/16" = 1'-0"
140
0.0625
141
12.0
290
     0
  0
SCALE
  5
60
102
{ACAD_REACTORS
330
4A
102
}
330
4A
100
AcDbScale
 70
     0
300
3/32" = 1'-0"
140
0.09375
141
12.0
290
     0
  0
SCALE
  5
61
102
{ACAD_REACTORS
330
4A
102
}
330
4A
100
AcDbScale
 70
     0
300
1/8" = 1'-0"
140
0.125
141
12.0
290
     0
  0
SCALE
  5
62
102
{ACAD_REACTORS
330
4A
102
}
330
4A
100
AcDbScale
 70
     0
300
3/16" = 1'-0"
140
0.1875
141
12.0
290
     0
  0
SCALE
  5
63
102
{ACAD_REACTORS
330
4A
102
}
330
4A
100
AcDbScale
 70
     0
300
1/4" = 1'-0"
140
0.25
141
12.0
290
     0
  0
SCALE
  5
64
102
{ACAD_REACTORS
330
4A
102
}
330
4A
100
AcDbScale
 70
     0
300
3/8" = 1'-0"
140
0.375
141
12.0
290
     0
  0
SCALE
  5
65
102
{ACAD_REACTORS
330
4A
102
}
330
4A
100
AcDbScale
 70
     0
300
1/2" = 1'-0"
140
0.5
141
12.0
290
     0
  0
SCALE
  5
66
102
{ACAD_REACTORS
330
4A
102
}
330
4A
100
AcDbScale
 70
     0
300
3/4" = 1'-0"
140
0.75
141
12.0
290
     0
  0
SCALE
  5
67
102
{ACAD_REACTORS
330
4A
102
}
330
4A
100
AcDbScale
 70
     0
300
1" = 1'-0"
140
1.0
141
12.0
290
     0
  0
SCALE
  5
68
102
{ACAD_REACTORS
330
4A
102
}
330
4A
100
AcDbScale
 70
     0
300
1-1/2" = 1'-0"
140
1.5
141
12.0
290
     0
  0
SCALE
  5
69
102
{ACAD_REACTORS
330
4A
102
}
330
4A
100
AcDbScale
 70
     0
300
3" = 1'-0"
140
3.0
141
12.0
290
     0
  0
SCALE
  5
6A
102
{ACAD_REACTORS
330
4A
102
}
330
4A
100
AcDbScale
 70
     0
300
6" = 1'-0"
140
6.0
141
12.0
290
     0
  0
SCALE
  5
6B
102
{ACAD_REACTORS
330
4A
102
}
330
4A
100
AcDbScale
 70
     0
300
1'-0" = 1'-0"
140
12.0
141
12.0
290
     0
  0
VISUALSTYLE
  5
2F
102
{ACAD_REACTORS
330
2A
102
}
330
2A
100
AcDbVisualStyle
  2
2dWireframe
 70
     4
 71
     0
 72
     2
 73
     0
 90
        0
 40
-0.6
 41
-30.0
 62
     5
 63
     7
 74
     1
 91
        4
 64
     7
 65
   257
 75
     1
175
     1
 42
1.0
 92
        0
 66
   257
 43
1.0
 76
     1
 77
     6
 78
     2
 67
     7
 79
     5
170
     0
171
     0
290
     0
174
     0
 93
        1
 44
0.0
173
     0
291
     0
 45
0.0
1001
ACAD
1000
AcDbSavedByObjectVersion
1070
     0
  0
VISUALSTYLE
  5
31
102
{ACAD_REACTORS
330
2A
102
}
330
2A
100
AcDbVisualStyle
  2
3D Hidden
 70
     6
 71
     1
 72
     2
 73
     2
 90
        0
 40
-0.6
 41
-30.0
 62
     5
 63
     7
 74
     2
 91
        2
 64
     7
 65
   257
 75
     2
175
     1
 42
40.0
 92
        0
 66
   257
 43
1.0
 76
     1
 77
     6
 78
     2
 67
     7
 79
     3
170
     0
171
     0
290
     0
174
     0
 93
        1
 44
0.0
173
     0
291
     0
 45
0.0
1001
ACAD
1000
AcDbSavedByObjectVersion
1070
     0
  0
VISUALSTYLE
  5
30
102
{ACAD_REACTORS
330
2A
102
}
330
2A
100
AcDbVisualStyle
  2
3dWireframe
 70
     5
 71
     0
 72
     2
 73
     0
 90
        0
 40
-0.6
 41
-30.0
 62
     5
 63
     7
 74
     1
 91
        4
 64
     7
 65
   257
 75
     1
175
     1
 42
1.0
 92
        0
 66
   257
 43
1.0
 76
     1
 77
     6
 78
     2
 67
     7
 79
     5
170
     0
171
     0
290
     0
174
     0
 93
        1
 44
0.0
173
     0
291
     0
 45
0.0
1001
ACAD
1000
AcDbSavedByObjectVersion
1070
     0
  0
VISUALSTYLE
  5
32
102
{ACAD_REACTORS
330
2A
102
}
330
2A
100
AcDbVisualStyle
  2
Basic
 70
     7
 71
     1
 72
     0
 73
     1
 90
        0
 40
-0.6
 41
-30.0
 62
     5
 63
     7
 74
     0
 91
        4
 64
     7
 65
   257
 75
     1
175
     1
 42
1.0
 92
        8
 66
     7
 43
1.0
 76
     1
 77
     6
 78
     2
 67
     7
 79
     5
170
     0
171
     0
290
     0
174
     0
 93
        1
 44
0.0
173
     0
291
     1
 45
0.0
1001
ACAD
1000
AcDbSavedByObjectVersion
1070
     0
  0
VISUALSTYLE
  5
36
102
{ACAD_REACTORS
330
2A
102
}
330
2A
100
AcDbVisualStyle
  2
Brighten
 70
    12
 71
     2
 72
     2
 73
     0
 90
        0
 40
-0.6
 41
-30.0
 62
     5
 63
     7
 74
     1
 91
        4
 64
     7
 65
   257
 75
     1
175
     1
 42
1.0
 92
        8
 66
     7
 43
1.0
 76
     1
 77
     6
 78
     2
 67
     7
 79
     5
170
     0
171
     0
290
     0
174
     0
 93
        1
 44
50.0
173
     0
291
     1
 45
0.0
1001
ACAD
1000
AcDbSavedByObjectVersion
1070
     0
  0
VISUALSTYLE
  5
3A
102
{ACAD_REACTORS
330
2A
102
}
330
2A
100
AcDbVisualStyle
  2
ColorChange
 70
    16
 71
     2
 72
     2
 73
     3
 90
        0
 40
-0.6
 41
-30.0
 62
     5
 63
     8
 74
     1
 91
        4
 64
     7
 65
   257
 75
     1
175
     1
 42
1.0
 92
        8
 66
     8
 43
1.0
 76
     1
 77
     6
 78
     2
 67
     7
 79
     5
170
     0
171
     0
290
     0
174
     0
 93
        1
 44
0.0
173
     0
291
     1
 45
0.0
1001
ACAD
1000
AcDbSavedByObjectVersion
1070
     0
  0
VISUALSTYLE
  5
34
102
{ACAD_REACTORS
330
2A
102
}
330
2A
100
AcDbVisualStyle
  2
Conceptual
 70
     9
 71
     3
 72
     2
 73
     0
 90
        0
 40
-0.6
 41
-30.0
 62
     5
 63
     7
 74
     2
 91
        2
 64
     7
 65
   257
 75
     1
175
     1
 42
40.0
 92
        8
 66
     7
 43
1.0
 76
     1
 77
     6
 78
     2
 67
     7
 79
     3
170
     0
171
     0
290
     0
174
     0
 93
        1
 44
0.0
173
     0
291
     0
 45
0.0
1001
ACAD
1000
AcDbSavedByObjectVersion
1070
     0
  0
VISUALSTYLE
  5
35
102
{ACAD_REACTORS
330
2A
102
}
330
2A
100
AcDbVisualStyle
  2
Dim
 70
    11
 71
     2
 72
     2
 73
     0
 90
        0
 40
-0.6
 41
-30.0
 62
     5
 63
     7
 74
     1
 91
        4
 64
     7
 65
   257
 75
     1
175
     1
 42
1.0
 92
        8
 66
     7
 43
1.0
 76
     1
 77
     6
 78
     2
 67
     7
 79
     5
170
     0
171
     0
290
     0
174
     0
 93
        1
 44
-50.0
173
     0
291
     1
 45
0.0
1001
ACAD
1000
AcDbSavedByObjectVersion
1070
     0
  0
VISUALSTYLE
  5
39
102
{ACAD_REACTORS
330
2A
102
}
330
2A
100
AcDbVisualStyle
  2
Facepattern
 70
    15
 71
     2
 72
     2
 73
     0
 90
        0
 40
-0.6
 41
-30.0
 62
     5
 63
     7
 74
     1
 91
        4
 64
     7
 65
   257
 75
     1
175
     1
 42
1.0
 92
        8
 66
     7
 43
1.0
 76
     1
 77
     6
 78
     2
 67
     7
 79
     5
170
     0
171
     0
290
     0
174
     0
 93
        1
 44
0.0
173
     0
291
     1
 45
0.0
1001
ACAD
1000
AcDbSavedByObjectVersion
1070
     0
  0
VISUALSTYLE
  5
2B
102
{ACAD_REACTORS
330
2A
102
}
330
2A
100
AcDbVisualStyle
  2
Flat
 70
     0
 71
     2
 72
     1
 73
     1
 90
        2
 40
-0.6
 41
30.0
 62
     5
 63
     7
 74
     0
 91
        4
 64
     7
 65
   257
 75
     1
175
     1
 42
1.0
 92
        8
 66
     7
 43
1.0
 76
     1
 77
     6
 78
     2
 67
     7
 79
     5
170
     0
171
     0
290
     0
174
     0
 93
       13
 44
0.0
173
     0
291
     1
 45
0.0
1001
ACAD
1000
AcDbSavedByObjectVersion
1070
     0
  0
VISUALSTYLE
  5
2C
102
{ACAD_REACTORS
330
2A
102
}
330
2A
100
AcDbVisualStyle
  2
FlatWithEdges
 70
     1
 71
     2
 72
     1
 73
     1
 90
        2
 40
-0.6
 41
30.0
 62
     5
 63
     7
 74
     1
 91
        4
 64
     7
 65
   257
 75
     1
175
     1
 42
1.0
 92
        0
 66
   257
 43
1.0
 76
     1
 77
     6
 78
     2
 67
     7
 79
     5
170
     0
171
     0
290
     0
174
     0
 93
       13
 44
0.0
173
     0
291
     1
 45
0.0
1001
ACAD
1000
AcDbSavedByObjectVersion
1070
     0
  0
VISUALSTYLE
  5
2D
102
{ACAD_REACTORS
330
2A
102
}
330
2A
100
AcDbVisualStyle
  2
Gouraud
 70
     2
 71
     2
 72
     2
 73
     1
 90
        2
 40
-0.6
 41
30.0
 62
     5
 63
     7
 74
     0
 91
        4
 64
     7
 65
   257
 75
     1
175
     1
 42
1.0
 92
        0
 66
     7
 43
1.0
 76
     1
 77
     6
 78
     2
 67
     7
 79
     5
170
     0
171
     0
290
     0
174
     0
 93
       13
 44
0.0
173
     0
291
     1
 45
0.0
1001
ACAD
1000
AcDbSavedByObjectVersion
1070
     0
  0
VISUALSTYLE
  5
2E
102
{ACAD_REACTORS
330
2A
102
}
330
2A
100
AcDbVisualStyle
  2
GouraudWithEdges
 70
     3
 71
     2
 72
     2
 73
     1
 90
        2
 40
-0.6
 41
30.0
 62
     5
 63
     7
 74
     1
 91
        4
 64
     7
 65
   257
 75
     1
175
     1
 42
1.0
 92
        0
 66
   257
 43
1.0
 76
     1
 77
     6
 78
     2
 67
     7
 79
     5
170
     0
171
     0
290
     0
174
     0
 93
       13
 44
0.0
173
     0
291
     1
 45
0.0
1001
ACAD
1000
AcDbSavedByObjectVersion
1070
     0
  0
VISUALSTYLE
  5
38
102
{ACAD_REACTORS
330
2A
102
}
330
2A
100
AcDbVisualStyle
  2
Linepattern
 70
    14
 71
     2
 72
     2
 73
     0
 90
        0
 40
-0.6
 41
-30.0
 62
     5
 63
     7
 74
     1
 91
        4
 64
     7
 65
   257
 75
     7
175
     7
 42
1.0
 92
        8
 66
     7
 43
1.0
 76
     1
 77
     6
 78
     2
 67
     7
 79
     5
170
     0
171
     0
290
     0
174
     0
 93
        1
 44
0.0
173
     0
291
     1
 45
0.0
1001
ACAD
1000
AcDbSavedByObjectVersion
1070
     0
  0
VISUALSTYLE
  5
33
102
{ACAD_REACTORS
330
2A
102
}
330
2A
100
AcDbVisualStyle
  2
Realistic
 70
     8
 71
     2
 72
     2
 73
     0
 90
        0
 40
-0.6
 41
-30.0
 62
     5
 63
     7
 74
     1
 91
        0
 64
     7
 65
   257
 75
     1
175
     1
 42
1.0
 92
        8
 66
     8
 43
1.0
 76
     1
 77
     6
 78
     2
 67
     7
 79
     5
170
     0
171
     0
290
     0
174
     0
 93
       13
 44
0.0
173
     0
291
     0
 45
0.0
1001
ACAD
1000
AcDbSavedByObjectVersion
1070
     0
  0
VISUALSTYLE
  5
37
102
{ACAD_REACTORS
330
2A
102
}
330
2A
100
AcDbVisualStyle
  2
Thicken
 70
    13
 71
     2
 72
     2
 73
     0
 90
        0
 40
-0.6
 41
-30.0
 62
     5
 63
     7
 74
     1
 91
        4
 64
     7
 65
   257
 75
     1
175
     1
 42
1.0
 92
       12
 66
     7
 43
1.0
 76
     1
 77
     6
 78
     2
 67
     7
 79
     5
170
     0
171
     0
290
     0
174
     0
 93
        1
 44
0.0
173
     0
291
     1
 45
0.0
1001
ACAD
1000
AcDbSavedByObjectVersion
1070
     0
  0
DICTIONARYVAR
  5
100
102
{ACAD_REACTORS
330
FD
102
}
330
FD
100
DictionaryVariables
280
     0
  1
1:1
  0
ENDSEC
  0
EOF
