  0
SECTION
  2
HEADER
  9
$ACADVER
  1
AC1015
  9
$ACADMAINTVER
 70
     6
  9
$DWGCODEPAGE
  3
ANSI_1252
  9
$INSBASE
 10
0.0
 20
0.0
 30
0.0
  9
$EXTMIN
 10
63.83096225910001
 20
234.2968303132257
 30
0.0
  9
$EXTMAX
 10
207.848463663812
 20
338.643105947809
 30
0.0
  9
$LIMMIN
 10
0.0
 20
0.0
  9
$LIMMAX
 10
12.0
 20
9.0
  9
$ORTHOMODE
 70
     0
  9
$REGENMODE
 70
     1
  9
$FILLMODE
 70
     1
  9
$QTEXTMODE
 70
     0
  9
$MIRRTEXT
 70
     1
  9
$LTSCALE
 40
1.0
  9
$ATTMODE
 70
     1
  9
$TEXTSIZE
 40
0.2
  9
$TRACEWID
 40
0.05
  9
$TEXTSTYLE
  7
Standard
  9
$CLAYER
  8
0
  9
$CELTYPE
  6
ByLayer
  9
$CECOLOR
 62
   256
  9
$CELTSCALE
 40
1.0
  9
$DISPSILH
 70
     0
  9
$DIMSCALE
 40
1.0
  9
$DIMASZ
 40
0.18
  9
$DIMEXO
 40
0.0625
  9
$DIMDLI
 40
0.38
  9
$DIMRND
 40
0.0
  9
$DIMDLE
 40
0.0
  9
$DIMEXE
 40
0.18
  9
$DIMTP
 40
0.0
  9
$DIMTM
 40
0.0
  9
$DIMTXT
 40
0.18
  9
$DIMCEN
 40
0.09
  9
$DIMTSZ
 40
0.0
  9
$DIMTOL
 70
     0
  9
$DIMLIM
 70
     0
  9
$DIMTIH
 70
     1
  9
$DIMTOH
 70
     1
  9
$DIMSE1
 70
     0
  9
$DIMSE2
 70
     0
  9
$DIMTAD
 70
     0
  9
$DIMZIN
 70
     0
  9
$DIMBLK
  1

  9
$DIMASO
 70
     1
  9
$DIMSHO
 70
     1
  9
$DIMPOST
  1

  9
$DIMAPOST
  1

  9
$DIMALT
 70
     0
  9
$DIMALTD
 70
     2
  9
$DIMALTF
 40
25.4
  9
$DIMLFAC
 40
1.0
  9
$DIMTOFL
 70
     0
  9
$DIMTVP
 40
0.0
  9
$DIMTIX
 70
     0
  9
$DIMSOXD
 70
     0
  9
$DIMSAH
 70
     0
  9
$DIMBLK1
  1

  9
$DIMBLK2
  1

  9
$DIMSTYLE
  2
Standard
  9
$DIMCLRD
 70
     0
  9
$DIMCLRE
 70
     0
  9
$DIMCLRT
 70
     0
  9
$DIMTFAC
 40
1.0
  9
$DIMGAP
 40
0.09
  9
$DIMJUST
 70
     0
  9
$DIMSD1
 70
     0
  9
$DIMSD2
 70
     0
  9
$DIMTOLJ
 70
     1
  9
$DIMTZIN
 70
     0
  9
$DIMALTZ
 70
     0
  9
$DIMALTTZ
 70
     0
  9
$DIMUPT
 70
     0
  9
$DIMDEC
 70
     4
  9
$DIMTDEC
 70
     4
  9
$DIMALTU
 70
     2
  9
$DIMALTTD
 70
     2
  9
$DIMTXSTY
  7
Standard
  9
$DIMAUNIT
 70
     0
  9
$DIMADEC
 70
     0
  9
$DIMALTRND
 40
0.0
  9
$DIMAZIN
 70
     0
  9
$DIMDSEP
 70
    46
  9
$DIMATFIT
 70
     3
  9
$DIMFRAC
 70
     0
  9
$DIMLDRBLK
  1

  9
$DIMLUNIT
 70
     2
  9
$DIMLWD
 70
    -2
  9
$DIMLWE
 70
    -2
  9
$DIMTMOVE
 70
     0
  9
$LUNITS
 70
     2
  9
$LUPREC
 70
     4
  9
$SKETCHINC
 40
0.1
  9
$FILLETRAD
 40
0.5
  9
$AUNITS
 70
     0
  9
$AUPREC
 70
     0
  9
$MENU
  1
.
  9
$ELEVATION
 40
0.0
  9
$PELEVATION
 40
0.0
  9
$THICKNESS
 40
0.0
  9
$LIMCHECK
 70
     0
  9
$CHAMFERA
 40
0.5
  9
$CHAMFERB
 40
0.5
  9
$CHAMFERC
 40
1.0
  9
$CHAMFERD
 40
0.0
  9
$SKPOLY
 70
     0
  9
$TDCREATE
 40
2456821.357514861
  9
$TDUCREATE
 40
2456821.274181528
  9
$TDUPDATE
 40
2456821.357514873
  9
$TDUUPDATE
 40
2456821.274181539
  9
$TDINDWG
 40
0.0000000116
  9
$TDUSRTIMER
 40
0.0000000116
  9
$USRTIMER
 70
     1
  9
$ANGBASE
 50
0.0
  9
$ANGDIR
 70
     0
  9
$PDMODE
 70
     0
  9
$PDSIZE
 40
0.0
  9
$PLINEWID
 40
0.0
  9
$SPLFRAME
 70
     0
  9
$SPLINETYPE
 70
     6
  9
$SPLINESEGS
 70
     8
  9
$HANDSEED
  5
FE
  9
$SURFTAB1
 70
     6
  9
$SURFTAB2
 70
     6
  9
$SURFTYPE
 70
     6
  9
$SURFU
 70
     6
  9
$SURFV
 70
     6
  9
$UCSBASE
  2

  9
$UCSNAME
  2

  9
$UCSORG
 10
0.0
 20
0.0
 30
0.0
  9
$UCSXDIR
 10
1.0
 20
0.0
 30
0.0
  9
$UCSYDIR
 10
0.0
 20
1.0
 30
0.0
  9
$UCSORTHOREF
  2

  9
$UCSORTHOVIEW
 70
     0
  9
$UCSORGTOP
 10
0.0
 20
0.0
 30
0.0
  9
$UCSORGBOTTOM
 10
0.0
 20
0.0
 30
0.0
  9
$UCSORGLEFT
 10
0.0
 20
0.0
 30
0.0
  9
$UCSORGRIGHT
 10
0.0
 20
0.0
 30
0.0
  9
$UCSORGFRONT
 10
0.0
 20
0.0
 30
0.0
  9
$UCSORGBACK
 10
0.0
 20
0.0
 30
0.0
  9
$PUCSBASE
  2

  9
$PUCSNAME
  2

  9
$PUCSORG
 10
0.0
 20
0.0
 30
0.0
  9
$PUCSXDIR
 10
1.0
 20
0.0
 30
0.0
  9
$PUCSYDIR
 10
0.0
 20
1.0
 30
0.0
  9
$PUCSORTHOREF
  2

  9
$PUCSORTHOVIEW
 70
     0
  9
$PUCSORGTOP
 10
0.0
 20
0.0
 30
0.0
  9
$PUCSORGBOTTOM
 10
0.0
 20
0.0
 30
0.0
  9
$PUCSORGLEFT
 10
0.0
 20
0.0
 30
0.0
  9
$PUCSORGRIGHT
 10
0.0
 20
0.0
 30
0.0
  9
$PUCSORGFRONT
 10
0.0
 20
0.0
 30
0.0
  9
$PUCSORGBACK
 10
0.0
 20
0.0
 30
0.0
  9
$USERI1
 70
     0
  9
$USERI2
 70
     0
  9
$USERI3
 70
     0
  9
$USERI4
 70
     0
  9
$USERI5
 70
     0
  9
$USERR1
 40
16.5
  9
$USERR2
 40
0.0
  9
$USERR3
 40
0.0
  9
$USERR4
 40
0.0
  9
$USERR5
 40
0.0
  9
$WORLDVIEW
 70
     1
  9
$SHADEDGE
 70
     3
  9
$SHADEDIF
 70
    70
  9
$TILEMODE
 70
     1
  9
$MAXACTVP
 70
    64
  9
$PINSBASE
 10
0.0
 20
0.0
 30
0.0
  9
$PLIMCHECK
 70
     0
  9
$PEXTMIN
 10
1.00000000000000E+20
 20
1.00000000000000E+20
 30
1.00000000000000E+20
  9
$PEXTMAX
 10
-1.00000000000000E+20
 20
-1.00000000000000E+20
 30
-1.00000000000000E+20
  9
$PLIMMIN
 10
0.0
 20
0.0
  9
$PLIMMAX
 10
12.0
 20
9.0
  9
$UNITMODE
 70
     0
  9
$VISRETAIN
 70
     1
  9
$PLINEGEN
 70
     0
  9
$PSLTSCALE
 70
     1
  9
$TREEDEPTH
 70
  3020
  9
$CMLSTYLE
  2
Standard
  9
$CMLJUST
 70
     0
  9
$CMLSCALE
 40
1.0
  9
$PROXYGRAPHICS
 70
     1
  9
$MEASUREMENT
 70
     1
  9
$CELWEIGHT
370
    -1
  9
$ENDCAPS
280
     0
  9
$JOINSTYLE
280
     0
  9
$LWDISPLAY
290
     0
  9
$INSUNITS
 70
     1
  9
$HYPERLINKBASE
  1

  9
$STYLESHEET
  1

  9
$XEDIT
290
     1
  9
$CEPSNTYPE
380
     0
  9
$PSTYLEMODE
290
     1
  9
$FINGERPRINTGUID
  2
{9111C472-6356-436E-8A04-903339449D52}
  9
$VERSIONGUID
  2
{FAEB1C32-E019-11D5-929B-00C0DF256EC4}
  9
$EXTNAMES
290
     1
  9
$PSVPSCALE
 40
0.0
  9
$OLESTARTUP
290
     0
  0
ENDSEC
  0
SECTION
  2
CLASSES
  0
CLASS
  1
ACDBDICTIONARYWDFLT
  2
AcDbDictionaryWithDefault
  3
ObjectDBX Classes
 90
        0
280
     0
281
     0
  0
CLASS
  1
VISUALSTYLE
  2
AcDbVisualStyle
  3
ObjectDBX Classes
 90
     4095
280
     0
281
     0
  0
CLASS
  1
SCALE
  2
AcDbScale
  3
ObjectDBX Classes
 90
     1153
280
     0
281
     0
  0
CLASS
  1

  2
exOdDbPolyline
  3

 90
        0
280
     0
281
     1
  0
CLASS
  1

  2
exOdDbSpline
  3

 90
        0
280
     0
281
     1
  0
CLASS
  1
DICTIONARYVAR
  2
AcDbDictionaryVar
  3
ObjectDBX Classes
 90
        0
280
     0
281
     0
  0
CLASS
  1
ACDBPLACEHOLDER
  2
AcDbPlaceHolder
  3
ObjectDBX Classes
 90
        0
280
     0
281
     0
  0
CLASS
  1
LAYOUT
  2
AcDbLayout
  3
ObjectDBX Classes
 90
        0
280
     0
281
     0
  0
ENDSEC
  0
SECTION
  2
TABLES
  0
TABLE
  2
VPORT
  5
8
330
0
100
AcDbSymbolTable
 70
     1
  0
VPORT
  5
29
330
8
100
AcDbSymbolTableRecord
100
AcDbViewportTableRecord
  2
*Active
 70
     0
 10
0.0
 20
0.0
 11
1.0
 21
1.0
 12
135.839712961456
 22
286.4699681305174
 13
0.0
 23
0.0
 14
0.5
 24
0.5
 15
0.5
 25
0.5
 16
0.0
 26
0.0
 36
1.0
 17
0.0
 27
0.0
 37
0.0
 40
114.7809031980416
 41
1.60267857142857
 42
50.0
 43
0.0
 44
0.0
 50
0.0
 51
0.0
 71
     0
 72
   100
 73
     1
 74
     3
 75
     0
 76
     0
 77
     0
 78
     0
281
     0
 65
     1
110
0.0
120
0.0
130
0.0
111
1.0
121
0.0
131
0.0
112
0.0
122
1.0
132
0.0
 79
     0
146
0.0
  0
ENDTAB
  0
TABLE
  2
LTYPE
  5
5
330
0
100
AcDbSymbolTable
 70
     8
  0
LTYPE
  5
14
330
5
100
AcDbSymbolTableRecord
100
AcDbLinetypeTableRecord
  2
ByBlock
 70
     0
  3

 72
    65
 73
     0
 40
0.0
  0
LTYPE
  5
15
330
5
100
AcDbSymbolTableRecord
100
AcDbLinetypeTableRecord
  2
ByLayer
 70
     0
  3

 72
    65
 73
     0
 40
0.0
  0
LTYPE
  5
16
330
5
100
AcDbSymbolTableRecord
100
AcDbLinetypeTableRecord
  2
Continuous
 70
     0
  3
Solid line
 72
    65
 73
     0
 40
0.0
  0
LTYPE
  5
3B
330
5
100
AcDbSymbolTableRecord
100
AcDbLinetypeTableRecord
  2
DASHED
 70
     0
  3
Dashed
 72
    65
 73
     2
 40
15.0
 49
7.0
 74
     0
 49
-8.0
 74
     0
  0
LTYPE
  5
3C
330
5
100
AcDbSymbolTableRecord
100
AcDbLinetypeTableRecord
  2
DOTTED
 70
     0
  3
Dotted
 72
    65
 73
     2
 40
1.0
 49
0.0
 74
     0
 49
-1.0
 74
     0
  0
LTYPE
  5
3D
330
5
100
AcDbSymbolTableRecord
100
AcDbLinetypeTableRecord
  2
DOT_CENTER
 70
     0
  3
Dot_Center
 72
    65
 73
     4
 40
14.0
 49
12.0
 74
     0
 49
-1.0
 74
     0
 49
0.0
 74
     0
 49
-1.0
 74
     0
  0
LTYPE
  5
3E
330
5
100
AcDbSymbolTableRecord
100
AcDbLinetypeTableRecord
  2
LONG_DASHED
 70
     0
  3
Long_Dashed
 72
    65
 73
     2
 40
15.0
 49
10.0
 74
     0
 49
-5.0
 74
     0
  0
LTYPE
  5
3F
330
5
100
AcDbSymbolTableRecord
100
AcDbLinetypeTableRecord
  2
DASH_CENTER
 70
     0
  3
Dash_Center
 72
    65
 73
     4
 40
14.0
 49
11.0
 74
     0
 49
-1.0
 74
     0
 49
1.0
 74
     0
 49
-1.0
 74
     0
  0
LTYPE
  5
40
330
5
100
AcDbSymbolTableRecord
100
AcDbLinetypeTableRecord
  2
PHANTOM
 70
     0
  3
Phantom
 72
    65
 73
     6
 40
13.0
 49
10.0
 74
     0
 49
-1.0
 74
     0
 49
0.0
 74
     0
 49
-1.0
 74
     0
 49
0.0
 74
     0
 49
-1.0
 74
     0
  0
LTYPE
  5
41
330
5
100
AcDbSymbolTableRecord
100
AcDbLinetypeTableRecord
  2
CENTER_DASH_DASH
 70
     0
  3
Center_Dash_Dash
 72
    65
 73
     6
 40
14.0
 49
9.0
 74
     0
 49
-1.0
 74
     0
 49
1.0
 74
     0
 49
-1.0
 74
     0
 49
1.0
 74
     0
 49
-1.0
 74
     0
  0
ENDTAB
  0
TABLE
  2
LAYER
  5
2
330
0
100
AcDbSymbolTable
 70
     6
  0
LAYER
  5
10
330
2
100
AcDbSymbolTableRecord
100
AcDbLayerTableRecord
  2
0
 70
     0
 62
     7
  6
Continuous
370
    -3
390
F
  0
LAYER
  5
42
330
2
100
AcDbSymbolTableRecord
100
AcDbLayerTableRecord
  2
1
 70
     0
 62
     7
  6
Continuous
370
    -3
390
F
  0
LAYER
  5
43
330
2
100
AcDbSymbolTableRecord
100
AcDbLayerTableRecord
  2
BEZUGSACHSEN
 70
     0
 62
     7
  6
Continuous
370
    -3
390
F
  0
LAYER
  5
44
330
2
100
AcDbSymbolTableRecord
100
AcDbLayerTableRecord
  2
DEFAULT_2
 70
     0
 62
     7
  6
Continuous
370
    -3
390
F
  0
LAYER
  5
45
330
2
100
AcDbSymbolTableRecord
100
AcDbLayerTableRecord
  2
RUNDUNGEN
 70
     0
 62
     7
  6
Continuous
370
    -3
390
F
  0
LAYER
  5
46
330
2
100
AcDbSymbolTableRecord
100
AcDbLayerTableRecord
  2
TEIL_STARTBEZUEGE
 70
     0
 62
     7
  6
Continuous
370
    -3
390
F
  0
ENDTAB
  0
TABLE
  2
STYLE
  5
3
330
0
100
AcDbSymbolTable
 70
     2
  0
STYLE
  5
11
330
3
100
AcDbSymbolTableRecord
100
AcDbTextStyleTableRecord
  2
Standard
 70
     0
 40
0.0
 41
1.0
 50
0.0
 71
     0
 42
0.2
  3
txt
  4

  0
STYLE
  5
6D
330
3
100
AcDbSymbolTableRecord
100
AcDbTextStyleTableRecord
  2
CONVERTER_11
 70
     0
 40
0.0
 41
0.72
 50
0.0
 71
     0
 42
0.2
  3
txt.shx
  4

  0
ENDTAB
  0
TABLE
  2
VIEW
  5
6
330
0
100
AcDbSymbolTable
 70
     0
  0
ENDTAB
  0
TABLE
  2
UCS
  5
7
330
0
100
AcDbSymbolTable
 70
     0
  0
ENDTAB
  0
TABLE
  2
APPID
  5
9
330
0
100
AcDbSymbolTable
 70
     1
  0
APPID
  5
12
330
9
100
AcDbSymbolTableRecord
100
AcDbRegAppTableRecord
  2
ACAD
 70
     0
  0
ENDTAB
  0
TABLE
  2
DIMSTYLE
  5
A
330
0
100
AcDbSymbolTable
 70
     6
100
AcDbDimStyleTable
  0
DIMSTYLE
105
27
330
A
100
AcDbSymbolTableRecord
100
AcDbDimStyleTableRecord
  2
Standard
 70
     0
340
11
  0
DIMSTYLE
105
C5
102
{ACAD_REACTORS
330
C6
102
}
330
A
100
AcDbSymbolTableRecord
100
AcDbDimStyleTableRecord
  2
ME10_DIM_10
 70
     0
  3
\U+2300<>
 41
3.5
 42
2.0
 44
2.0
 71
     1
 73
     0
 74
     0
 77
     1
 78
     8
140
3.5
146
0.7
147
2.0
172
     1
173
     1
176
     2
177
     2
178
     3
271
     2
272
     0
340
6D
  0
DIMSTYLE
105
D0
102
{ACAD_REACTORS
330
D1
102
}
330
A
100
AcDbSymbolTableRecord
100
AcDbDimStyleTableRecord
  2
ME10_DIM_11
 70
     0
  3
\U+2300<>
 41
3.5
 42
2.0
 44
2.0
 71
     1
 73
     0
 74
     0
 77
     1
 78
     8
140
3.5
146
0.7
147
2.0
172
     1
173
     1
176
     2
177
     2
178
     3
271
     2
272
     0
340
6D
  0
DIMSTYLE
105
DB
102
{ACAD_REACTORS
330
DC
102
}
330
A
100
AcDbSymbolTableRecord
100
AcDbDimStyleTableRecord
  2
ME10_DIM_12
 70
     0
  3
<>
 41
3.5
 42
2.0
 44
2.0
 71
     1
 73
     0
 74
     0
 77
     1
 78
     8
140
3.5
146
0.7
147
2.0
172
     1
173
     1
176
     2
177
     2
178
     3
271
     2
272
     0
340
6D
  0
DIMSTYLE
105
E6
102
{ACAD_REACTORS
330
E7
102
}
330
A
100
AcDbSymbolTableRecord
100
AcDbDimStyleTableRecord
  2
ME10_DIM_13
 70
     0
  3
<>
 41
3.5
 42
2.0
 44
2.0
 71
     1
 73
     0
 74
     0
 77
     1
 78
     8
140
3.5
146
0.7
147
2.0
172
     1
173
     1
176
     2
177
     2
178
     3
271
     2
272
     0
340
6D
  0
DIMSTYLE
105
F1
102
{ACAD_REACTORS
330
F2
102
}
330
A
100
AcDbSymbolTableRecord
100
AcDbDimStyleTableRecord
  2
ME10_DIM_14
 70
     0
  3
<>
 41
3.5
 42
2.0
 44
2.0
 71
     1
 73
     0
 74
     0
 77
     1
 78
     8
140
3.5
146
0.7
147
2.0
172
     1
173
     1
176
     2
177
     2
178
     3
271
     2
272
     0
340
6D
  0
ENDTAB
  0
TABLE
  2
BLOCK_RECORD
  5
1
330
0
100
AcDbSymbolTable
 70
     8
  0
BLOCK_RECORD
  5
1F
330
1
100
AcDbSymbolTableRecord
100
AcDbBlockTableRecord
  2
*Model_Space
340
22
  0
BLOCK_RECORD
  5
1B
330
1
100
AcDbSymbolTableRecord
100
AcDbBlockTableRecord
  2
*Paper_Space
340
1E
  0
BLOCK_RECORD
  5
23
330
1
100
AcDbSymbolTableRecord
100
AcDbBlockTableRecord
  2
*Paper_Space0
340
26
  0
BLOCK_RECORD
  5
47
330
1
100
AcDbSymbolTableRecord
100
AcDbBlockTableRecord
  2
Urheberrecht_DE-EN_horizontal
340
0
102
{BLKREFS
331
6C
102
}
  0
BLOCK_RECORD
  5
BC
330
1
100
AcDbSymbolTableRecord
100
AcDbBlockTableRecord
  2
*D2
340
0
  0
BLOCK_RECORD
  5
C7
330
1
100
AcDbSymbolTableRecord
100
AcDbBlockTableRecord
  2
*D3
340
0
  0
BLOCK_RECORD
  5
D2
330
1
100
AcDbSymbolTableRecord
100
AcDbBlockTableRecord
  2
*D4
340
0
  0
BLOCK_RECORD
  5
DD
330
1
100
AcDbSymbolTableRecord
100
AcDbBlockTableRecord
  2
*D5
340
0
  0
BLOCK_RECORD
  5
E8
330
1
100
AcDbSymbolTableRecord
100
AcDbBlockTableRecord
  2
*D6
340
0
  0
BLOCK_RECORD
  5
F3
330
1
100
AcDbSymbolTableRecord
100
AcDbBlockTableRecord
  2
*D7
340
0
102
{BLKREFS
331
F9
102
}
  0
ENDTAB
  0
ENDSEC
  0
SECTION
  2
BLOCKS
  0
BLOCK
  5
20
330
1F
100
AcDbEntity
  8
0
100
AcDbBlockBegin
  2
*Model_Space
 70
     0
 10
0.0
 20
0.0
 30
0.0
  3
*Model_Space
  1

  0
ENDBLK
  5
21
330
1F
100
AcDbEntity
  8
0
100
AcDbBlockEnd
  0
BLOCK
  5
1C
330
1B
100
AcDbEntity
 67
     1
  8
0
100
AcDbBlockBegin
  2
*Paper_Space
 70
     0
 10
0.0
 20
0.0
 30
0.0
  3
*Paper_Space
  1

  0
ENDBLK
  5
1D
330
1B
100
AcDbEntity
 67
     1
  8
0
100
AcDbBlockEnd
  0
BLOCK
  5
24
330
23
100
AcDbEntity
  8
0
100
AcDbBlockBegin
  2
*Paper_Space0
 70
     0
 10
0.0
 20
0.0
 30
0.0
  3
*Paper_Space0
  1

  0
ENDBLK
  5
25
330
23
100
AcDbEntity
  8
0
100
AcDbBlockEnd
  0
BLOCK
  5
48
330
47
100
AcDbEntity
  8
0
100
AcDbBlockBegin
  2
Urheberrecht_DE-EN_horizontal
 70
     0
 10
132.748742367877
 20
241.69483832313
 30
0.0
  3
Urheberrecht_DE-EN_horizontal
  1

  0
MTEXT
  5
6E
330
47
100
AcDbEntity
  8
1
 62
     1
100
AcDbMText
 10
79.29495997851778
 20
234.8968303132257
 30
0.0
 40
2.0
 41
0.0
 71
     7
 72
     1
  1
F\U+00fcr diese Unterlage behalten wir das Ur-\Pheberrecht. Sie darf nur f\U+00fcr den von uns \Pbestimmten Zweck benutzt und ohne unsere \PZustimmung weder vervielf\U+00e4ltigt noch\PDritten zug\U+00e4nglich gemacht werden.
  7
CONVERTER_11
 73
     1
 44
0.90036014405762
  0
MTEXT
  5
6F
330
47
100
AcDbEntity
  8
1
 62
     1
100
AcDbMText
 10
135.584346895824
 20
234.8968303132257
 30
0.0
 40
2.0
 41
0.0
 71
     7
 72
     1
  1
We own the copyright of this document. It \Pdetermined and may neither be copied or \Pmade accessible to outsiders without our\Ppermission.
  7
CONVERTER_11
 73
     1
 44
0.90036014405762
  0
ENDBLK
  5
49
330
47
100
AcDbEntity
  8
0
100
AcDbBlockEnd
  0
BLOCK
  5
C3
330
BC
100
AcDbEntity
  8
0
100
AcDbBlockBegin
  2
*D2
 70
     1
 10
0.0
 20
0.0
 30
0.0
  3
*D2
  1

  0
LINE
  5
BD
330
BC
100
AcDbEntity
  8
1
  6
Continuous
 62
     2
100
AcDbLine
 10
196.515093209745
 20
275.8223053732
 30
0.0
 11
196.515093209745
 21
287.8223053732
 31
0.0
  0
LINE
  5
BE
330
BC
100
AcDbEntity
  8
1
  6
Continuous
 62
     2
100
AcDbLine
 10
187.3559622591
 20
275.8223053732
 30
0.0
 11
198.515093209745
 21
275.8223053732
 31
0.0
  0
LINE
  5
BF
330
BC
100
AcDbEntity
  8
1
  6
Continuous
 62
     2
100
AcDbLine
 10
187.3559622591
 20
287.8223053732
 30
0.0
 11
198.515093209745
 21
287.8223053732
 31
0.0
  0
SOLID
  5
C0
330
BC
100
AcDbEntity
  8
1
 62
     2
100
AcDbTrace
 10
196.0543094681891
 20
279.3223053732
 30
0.0
 11
196.9758769513009
 21
279.3223053732
 31
0.0
 12
196.515093209745
 22
275.8223053732
 32
0.0
 13
196.515093209745
 23
275.8223053732
 33
0.0
  0
SOLID
  5
C1
330
BC
100
AcDbEntity
  8
1
 62
     2
100
AcDbTrace
 10
196.9758769513009
 20
284.3223053732
 30
0.0
 11
196.0543094681891
 21
284.3223053732
 31
0.0
 12
196.515093209745
 22
287.8223053732
 32
0.0
 13
196.515093209745
 23
287.8223053732
 33
0.0
  0
MTEXT
  5
C2
330
BC
100
AcDbEntity
  8
1
 62
     3
100
AcDbMText
 10
194.515093209745
 20
273.220721684717
 30
0.0
 40
3.5
 41
0.0
 71
     7
 72
     1
  1
\C3;%%c\C3;\C3;12\C2;\H2.45;\S^ ;\C3;
  7
CONVERTER_11
 11
0.0
 21
1.0
 31
0.0
 73
     1
 44
0.60024009603842
  0
ENDBLK
  5
C4
330
BC
100
AcDbEntity
  8
0
100
AcDbBlockEnd
  0
BLOCK
  5
CE
330
C7
100
AcDbEntity
  8
0
100
AcDbBlockBegin
  2
*D3
 70
     1
 10
0.0
 20
0.0
 30
0.0
  3
*D3
  1

  0
LINE
  5
C8
330
C7
100
AcDbEntity
  8
1
  6
Continuous
 62
     2
100
AcDbLine
 10
205.848463663812
 20
302.8223053732
 30
0.0
 11
205.848463663812
 21
260.8223053732
 31
0.0
  0
LINE
  5
C9
330
C7
100
AcDbEntity
  8
1
  6
Continuous
 62
     2
100
AcDbLine
 10
174.0880130667
 20
302.8223053732
 30
0.0
 11
207.848463663812
 21
302.8223053732
 31
0.0
  0
LINE
  5
CA
330
C7
100
AcDbEntity
  8
1
  6
Continuous
 62
     2
100
AcDbLine
 10
174.0880130667
 20
260.8223053732
 30
0.0
 11
207.848463663812
 21
260.8223053732
 31
0.0
  0
SOLID
  5
CB
330
C7
100
AcDbEntity
  8
1
 62
     2
100
AcDbTrace
 10
206.3092474053679
 20
299.3223053732
 30
0.0
 11
205.3876799222561
 21
299.3223053732
 31
0.0
 12
205.848463663812
 22
302.8223053732
 32
0.0
 13
205.848463663812
 23
302.8223053732
 33
0.0
  0
SOLID
  5
CC
330
C7
100
AcDbEntity
  8
1
 62
     2
100
AcDbTrace
 10
205.3876799222561
 20
264.3223053732
 30
0.0
 11
206.3092474053679
 21
264.3223053732
 31
0.0
 12
205.848463663812
 22
260.8223053732
 32
0.0
 13
205.848463663812
 23
260.8223053732
 33
0.0
  0
MTEXT
  5
CD
330
C7
100
AcDbEntity
  8
1
 62
     3
100
AcDbMText
 10
203.848463663812
 20
273.518673258107
 30
0.0
 40
3.5
 41
0.0
 71
     7
 72
     1
  1
\C3;%%c\C3;\C3;42\C2;\H2.45;\S^ ;\C3;
  7
CONVERTER_11
 11
0.0
 21
1.0
 31
0.0
 73
     1
 44
0.60024009603842
  0
ENDBLK
  5
CF
330
C7
100
AcDbEntity
  8
0
100
AcDbBlockEnd
  0
BLOCK
  5
D9
330
D2
100
AcDbEntity
  8
0
100
AcDbBlockBegin
  2
*D4
 70
     1
 10
0.0
 20
0.0
 30
0.0
  3
*D4
  1

  0
LINE
  5
D3
330
D2
100
AcDbEntity
  8
1
  6
Continuous
 62
     2
100
AcDbLine
 10
185.3559622591
 20
318.476380948562
 30
0.0
 11
154.4559622591
 21
318.476380948562
 31
0.0
  0
LINE
  5
D4
330
D2
100
AcDbEntity
  8
1
  6
Continuous
 62
     2
100
AcDbLine
 10
185.3559622591
 20
296.7394016046
 30
0.0
 11
185.3559622591
 21
320.476380948562
 31
0.0
  0
LINE
  5
D5
330
D2
100
AcDbEntity
  8
1
  6
Continuous
 62
     2
100
AcDbLine
 10
154.4559622591
 20
313.4992561305
 30
0.0
 11
154.4559622591
 21
320.476380948562
 31
0.0
  0
SOLID
  5
D6
330
D2
100
AcDbEntity
  8
1
 62
     2
100
AcDbTrace
 10
181.8559622591
 20
318.0155972070061
 30
0.0
 11
181.8559622591
 21
318.9371646901179
 31
0.0
 12
185.3559622591
 22
318.476380948562
 32
0.0
 13
185.3559622591
 23
318.476380948562
 33
0.0
  0
SOLID
  5
D7
330
D2
100
AcDbEntity
  8
1
 62
     2
100
AcDbTrace
 10
157.9559622591
 20
318.9371646901179
 30
0.0
 11
157.9559622591
 21
318.0155972070061
 31
0.0
 12
154.4559622591
 22
318.476380948562
 32
0.0
 13
154.4559622591
 23
318.476380948562
 33
0.0
  0
MTEXT
  5
D8
330
D2
100
AcDbEntity
  8
1
 62
     3
100
AcDbMText
 10
164.1690721137042
 20
320.476380948562
 30
0.0
 40
3.5
 41
0.0
 71
     7
 72
     1
  1
\C3;\C3;\C3;30.9\C2;\H2.45;\S^ ;\C3;
  7
CONVERTER_11
 11
0.9999999999970619
 21
2.424068405545306E-6
 31
0.0
 73
     1
 44
0.60024009603842
  0
ENDBLK
  5
DA
330
D2
100
AcDbEntity
  8
0
100
AcDbBlockEnd
  0
BLOCK
  5
E4
330
DD
100
AcDbEntity
  8
0
100
AcDbBlockBegin
  2
*D5
 70
     1
 10
0.0
 20
0.0
 30
0.0
  3
*D5
  1

  0
LINE
  5
DE
330
DD
100
AcDbEntity
  8
1
  6
Continuous
 62
     2
100
AcDbLine
 10
185.3559622591
 20
326.16871923488
 30
0.0
 11
135.3559622591
 21
326.16871923488
 31
0.0
  0
LINE
  5
DF
330
DD
100
AcDbEntity
  8
1
  6
Continuous
 62
     2
100
AcDbLine
 10
185.3559622591
 20
296.7394016046
 30
0.0
 11
185.3559622591
 21
328.16871923488
 31
0.0
  0
LINE
  5
E0
330
DD
100
AcDbEntity
  8
1
  6
Continuous
 62
     2
100
AcDbLine
 10
135.3559622591
 20
310.6251037346
 30
0.0
 11
135.3559622591
 21
328.16871923488
 31
0.0
  0
SOLID
  5
E1
330
DD
100
AcDbEntity
  8
1
 62
     2
100
AcDbTrace
 10
181.8559622591
 20
325.7079354933241
 30
0.0
 11
181.8559622591
 21
326.6295029764358
 31
0.0
 12
185.3559622591
 22
326.16871923488
 32
0.0
 13
185.3559622591
 23
326.16871923488
 33
0.0
  0
SOLID
  5
E2
330
DD
100
AcDbEntity
  8
1
 62
     2
100
AcDbTrace
 10
138.8559622591
 20
326.6295029764358
 30
0.0
 11
138.8559622591
 21
325.7079354933241
 31
0.0
 12
135.3559622591
 22
326.16871923488
 32
0.0
 13
135.3559622591
 23
326.16871923488
 33
0.0
  0
MTEXT
  5
E3
330
DD
100
AcDbEntity
  8
1
 62
     3
100
AcDbMText
 10
157.491869435416
 20
328.16871923488
 30
0.0
 40
3.5
 41
0.0
 71
     7
 72
     1
  1
\C3;\C3;\C3;50\C2;\H2.45;\S^ ;\C3;
  7
CONVERTER_11
 11
0.9999999999970619
 21
2.424068405545306E-6
 31
0.0
 73
     1
 44
0.60024009603842
  0
ENDBLK
  5
E5
330
DD
100
AcDbEntity
  8
0
100
AcDbBlockEnd
  0
BLOCK
  5
EF
330
E8
100
AcDbEntity
  8
0
100
AcDbBlockBegin
  2
*D6
 70
     1
 10
0.0
 20
0.0
 30
0.0
  3
*D6
  1

  0
LINE
  5
E9
330
E8
100
AcDbEntity
  8
1
  6
Continuous
 62
     2
100
AcDbLine
 10
185.3559622591
 20
333.143105947809
 30
0.0
 11
66.95596225909996
 21
333.143105947809
 31
0.0
  0
LINE
  5
EA
330
E8
100
AcDbEntity
  8
1
  6
Continuous
 62
     2
100
AcDbLine
 10
185.3559622591
 20
296.7394016046
 30
0.0
 11
185.3559622591
 21
335.143105947809
 31
0.0
  0
LINE
  5
EB
330
E8
100
AcDbEntity
  8
1
  6
Continuous
 62
     2
100
AcDbLine
 10
66.95596225909996
 20
295.2718535741
 30
0.0
 11
66.95596225909996
 21
335.143105947809
 31
0.0
  0
SOLID
  5
EC
330
E8
100
AcDbEntity
  8
1
 62
     2
100
AcDbTrace
 10
181.8559622591
 20
332.6823222062531
 30
0.0
 11
181.8559622591
 21
333.6038896893648
 31
0.0
 12
185.3559622591
 22
333.143105947809
 32
0.0
 13
185.3559622591
 23
333.143105947809
 33
0.0
  0
SOLID
  5
ED
330
E8
100
AcDbEntity
  8
1
 62
     2
100
AcDbTrace
 10
70.45596225909996
 20
333.6038896893648
 30
0.0
 11
70.45596225909996
 21
332.6823222062531
 31
0.0
 12
66.95596225909996
 22
333.143105947809
 32
0.0
 13
66.95596225909996
 23
333.143105947809
 33
0.0
  0
MTEXT
  5
EE
330
E8
100
AcDbEntity
  8
1
 62
     3
100
AcDbMText
 10
127.0831690101251
 20
335.143105947809
 30
0.0
 40
3.5
 41
0.0
 71
     7
 72
     1
  1
\C3;\C3;\C3;118.4\C2;\H2.45;\S^ ;\C3;
  7
CONVERTER_11
 11
0.9999999999970619
 21
2.424068405545306E-6
 31
0.0
 73
     1
 44
0.60024009603842
  0
ENDBLK
  5
F0
330
E8
100
AcDbEntity
  8
0
100
AcDbBlockEnd
  0
BLOCK
  5
F7
330
F3
100
AcDbEntity
  8
0
100
AcDbBlockBegin
  2
*D7
 70
     1
 10
0.0
 20
0.0
 30
0.0
  3
*D7
  1

  0
LINE
  5
F4
330
F3
100
AcDbEntity
  8
1
  6
Continuous
 62
     2
100
AcDbLine
 10
164.0424385784359
 20
311.6341328580051
 30
0.0
 11
154.716276929488
 21
303.149352467599
 31
0.0
  0
SOLID
  5
F5
330
F3
100
AcDbEntity
  8
1
 62
     2
100
AcDbTrace
 10
156.9950898253964
 20
305.845522610955
 30
0.0
 11
157.6152613408638
 21
305.1638526634497
 31
0.0
 12
154.716276929488
 22
303.149352467599
 32
0.0
 13
154.716276929488
 23
303.149352467599
 33
0.0
  0
MTEXT
  5
F6
330
F3
100
AcDbEntity
  8
1
 62
     3
100
AcDbMText
 10
157.8294032983868
 20
308.6854733983752
 30
0.0
 40
3.5
 41
0.0
 71
     7
 72
     1
  1
\C3; R\C3;\C3;1\C2;\H2.45;\S^ ;\C3;
  7
CONVERTER_11
 11
0.7396853296120488
 21
0.6729529056009155
 31
0.0
 73
     1
 44
0.60024009603842
  0
ENDBLK
  5
F8
330
F3
100
AcDbEntity
  8
0
100
AcDbBlockEnd
  0
ENDSEC
  0
SECTION
  2
ENTITIES
  0
INSERT
  5
6C
330
1F
100
AcDbEntity
  8
0
100
AcDbBlockReference
  2
Urheberrecht_DE-EN_horizontal
 10
132.748742367877
 20
241.69483832313
 30
0.0
  0
LINE
  5
70
330
1F
100
AcDbEntity
  8
0
  6
Continuous
 62
     7
100
AcDbLine
 10
66.95596225909999
 20
293.2718535741
 30
0.0
 11
66.95596225909999
 21
270.3727571724
 31
0.0
  0
LINE
  5
71
330
1F
100
AcDbEntity
  8
0
  6
Continuous
 62
     9
100
AcDbLine
 10
67.7688595234
 20
294.2119082744999
 30
0.0
 11
67.76885952339998
 21
269.432702472
 31
0.0
  0
LINE
  5
72
330
1F
100
AcDbEntity
  8
0
  6
Continuous
 62
     7
100
AcDbLine
 10
139.5559622591
 20
251.109988524
 30
0.0
 11
143.0019087387
 21
251.109988524
 31
0.0
  0
LINE
  5
73
330
1F
100
AcDbEntity
  8
0
  6
Continuous
 62
     7
100
AcDbLine
 10
150.0600157795
 20
251.109988524
 30
0.0
 11
153.4559622591
 21
251.109988524
 31
0.0
  0
LINE
  5
74
330
1F
100
AcDbEntity
  8
0
  6
Continuous
 62
     7
100
AcDbLine
 10
145.3684622591
 20
255.0195070119
 30
0.0
 11
147.6934622591
 21
255.0195070119
 31
0.0
  0
LINE
  5
75
330
1F
100
AcDbEntity
  8
0
  6
Continuous
 62
     7
100
AcDbLine
 10
135.9059622591
 20
259.9473053732
 30
0.0
 11
134.8662799259
 21
259.6687233317
 31
0.0
  0
LINE
  5
76
330
1F
100
AcDbEntity
  8
0
  6
Continuous
 62
     7
100
AcDbLine
 10
137.5559622591
 20
259.9473053732
 30
0.0
 11
135.9059622591
 21
259.9473053732
 31
0.0
  0
LINE
  5
77
330
1F
100
AcDbEntity
  8
0
  6
Continuous
 62
     7
100
AcDbLine
 10
155.4559622591
 20
260.8223053732
 30
0.0
 11
172.0880130667
 21
260.8223053732
 31
0.0
  0
LINE
  5
78
330
1F
100
AcDbEntity
  8
0
  6
Continuous
 62
     7
100
AcDbLine
 10
134.8662799259
 20
259.6687233317
 30
0.0
 11
67.76885952339998
 21
269.432702472
 31
0.0
  0
LWPOLYLINE
  5
79
330
1F
100
AcDbEntity
  8
DEFAULT_2
  6
DASHED
 62
     8
100
AcDbPolyline
 90
        2
 70
     0
 43
0.35
 10
185.3559622591
 20
275.8223053732
 10
138.3559622591
 20
275.8223053732
  0
LWPOLYLINE
  5
7A
330
1F
100
AcDbEntity
  8
TEIL_STARTBEZUEGE
  6
DOT_CENTER
 62
     7
100
AcDbPolyline
 90
        2
 70
     0
 43
0.25
 10
188.3559622591
 20
281.8223053732
 10
63.95596225910001
 20
281.8223053732
  0
LINE
  5
7B
330
1F
100
AcDbEntity
  8
0
  6
Continuous
 62
     7
100
AcDbLine
 10
134.8662799259
 20
303.9758874148
 30
0.0
 11
134.8662799259
 21
259.6687233317
 31
0.0
  0
LWPOLYLINE
  5
7C
330
1F
100
AcDbEntity
  8
TEIL_STARTBEZUEGE
  6
DOT_CENTER
 62
     7
100
AcDbPolyline
 90
        2
 70
     0
 43
0.25
 10
135.3559622591
 20
255.0195070119
 10
135.3559622591
 20
308.6251037346
  0
LWPOLYLINE
  5
7D
330
1F
100
AcDbEntity
  8
DEFAULT_2
  6
DASHED
 62
     8
100
AcDbPolyline
 90
        2
 70
     0
 43
0.35
 10
138.3559622591
 20
287.8223053732
 10
157.7559622591
 20
287.8223053732
  0
LWPOLYLINE
  5
7E
330
1F
100
AcDbEntity
  8
DEFAULT_2
  6
DASHED
 62
     8
100
AcDbPolyline
 90
        2
 70
     0
 43
0.35
 10
157.7559622591
 20
287.8223053732
 10
185.3559622591
 20
287.8223053732
  0
LINE
  5
7F
330
1F
100
AcDbEntity
  8
0
  6
Continuous
 62
     7
100
AcDbLine
 10
135.9059622591
 20
303.6973053732
 30
0.0
 11
135.9059622591
 21
259.9473053732
 31
0.0
  0
LINE
  5
80
330
1F
100
AcDbEntity
  8
0
  6
Continuous
 62
     9
100
AcDbLine
 10
137.5559622591
 20
303.6973053732
 30
0.0
 11
137.5559622591
 21
259.9473053732
 31
0.0
  0
LINE
  5
81
330
1F
100
AcDbEntity
  8
0
  6
Continuous
 62
     7
100
AcDbLine
 10
138.5559622591
 20
311.4992561305
 30
0.0
 11
138.5559622591
 21
252.145354616
 31
0.0
  0
LINE
  5
82
330
1F
100
AcDbEntity
  8
0
  6
Continuous
 62
     9
100
AcDbLine
 10
139.5559622591
 20
312.5346222225
 30
0.0
 11
139.5559622591
 21
251.109988524
 31
0.0
  0
LINE
  5
83
330
1F
100
AcDbEntity
  8
0
  6
Continuous
 62
     7
100
AcDbLine
 10
143.0019087387
 20
312.5346222225
 30
0.0
 11
143.0019087387
 21
251.109988524
 31
0.0
  0
LINE
  5
84
330
1F
100
AcDbEntity
  8
0
  6
Continuous
 62
     7
100
AcDbLine
 10
144.6184622591
 20
309.6291235757
 30
0.0
 11
144.6184622591
 21
254.0154871708
 31
0.0
  0
LINE
  5
85
330
1F
100
AcDbEntity
  8
0
  6
Continuous
 62
     9
100
AcDbLine
 10
145.3684622591
 20
308.6251037346
 30
0.0
 11
145.3684622591
 21
255.0195070119
 31
0.0
  0
LINE
  5
86
330
1F
100
AcDbEntity
  8
0
  6
Continuous
 62
     9
100
AcDbLine
 10
147.6934622591
 20
308.6251037346
 30
0.0
 11
147.6934622591
 21
255.0195070119
 31
0.0
  0
LINE
  5
87
330
1F
100
AcDbEntity
  8
0
  6
Continuous
 62
     7
100
AcDbLine
 10
148.4434622591
 20
309.6291235757
 30
0.0
 11
148.4434622591
 21
254.0154871708
 31
0.0
  0
LINE
  5
88
330
1F
100
AcDbEntity
  8
0
  6
Continuous
 62
     7
100
AcDbLine
 10
134.8662799259
 20
303.9758874148
 30
0.0
 11
67.7688595234
 21
294.2119082744999
 31
0.0
  0
LINE
  5
89
330
1F
100
AcDbEntity
  8
BEZUGSACHSEN
  6
Continuous
 62
     7
100
AcDbLine
 10
172.0880130667
 20
302.8223053732
 30
0.0
 11
167.9559622591
 21
302.8223053732
 31
0.0
  0
LINE
  5
8A
330
1F
100
AcDbEntity
  8
BEZUGSACHSEN
  6
Continuous
 62
     7
100
AcDbLine
 10
157.7559622591
 20
302.8223053732
 30
0.0
 11
155.4559622591
 21
302.8223053732
 31
0.0
  0
LINE
  5
8B
330
1F
100
AcDbEntity
  8
0
  6
Continuous
 62
     7
100
AcDbLine
 10
155.4559622591
 20
302.8223053732
 30
0.0
 11
157.7559622591
 21
302.8223053732
 31
0.0
  0
LINE
  5
8C
330
1F
100
AcDbEntity
  8
0
  6
Continuous
 62
     7
100
AcDbLine
 10
167.9559622591
 20
302.8223053732
 30
0.0
 11
172.0880130667
 21
302.8223053732
 31
0.0
  0
LINE
  5
8D
330
1F
100
AcDbEntity
  8
0
  6
Continuous
 62
     7
100
AcDbLine
 10
137.5559622591
 20
303.6973053732
 30
0.0
 11
135.9059622591
 21
303.6973053732
 31
0.0
  0
LINE
  5
8E
330
1F
100
AcDbEntity
  8
0
  6
Continuous
 62
     7
100
AcDbLine
 10
138.5559622591
 20
304.3723053732
 30
0.0
 11
138.5016762751
 21
304.3723053732
 31
0.0
  0
LINE
  5
8F
330
1F
100
AcDbEntity
  8
0
  6
Continuous
 62
     7
100
AcDbLine
 10
150.0600157795
 20
312.5346222225
 30
0.0
 11
150.0600157795
 21
251.109988524
 31
0.0
  0
LWPOLYLINE
  5
90
330
1F
100
AcDbEntity
  8
DEFAULT_2
  6
DASHED
 62
     8
100
AcDbPolyline
 90
        2
 70
     0
 43
0.35
 10
138.3559622591
 20
287.8223053732
 10
138.3559622591
 20
275.8223053732
  0
LINE
  5
91
330
1F
100
AcDbEntity
  8
0
  6
Continuous
 62
     9
100
AcDbLine
 10
153.4559622591
 20
312.5346222225
 30
0.0
 11
153.4559622591
 21
251.109988524
 31
0.0
  0
LINE
  5
92
330
1F
100
AcDbEntity
  8
0
  6
Continuous
 62
     7
100
AcDbLine
 10
145.3684622591
 20
308.6251037346
 30
0.0
 11
147.6934622591
 21
308.6251037346
 31
0.0
  0
LINE
  5
93
330
1F
100
AcDbEntity
  8
0
  6
Continuous
 62
     7
100
AcDbLine
 10
135.9059622591
 20
303.6973053732
 30
0.0
 11
134.8662799259
 21
303.9758874148
 31
0.0
  0
LINE
  5
94
330
1F
100
AcDbEntity
  8
0
  6
Continuous
 62
     7
100
AcDbLine
 10
154.4559622591
 20
311.4992561305
 30
0.0
 11
154.4559622591
 21
252.145354616
 31
0.0
  0
LINE
  5
95
330
1F
100
AcDbEntity
  8
RUNDUNGEN
  6
Continuous
 62
     9
100
AcDbLine
 10
155.4559622591
 20
302.8223053732
 30
0.0
 11
155.4559622591
 21
260.8223053732
 31
0.0
  0
LWPOLYLINE
  5
96
330
1F
100
AcDbEntity
  8
BEZUGSACHSEN
  6
DASHED
 62
     8
100
AcDbPolyline
 90
        2
 70
     0
 43
0.35
 10
157.7559622591
 20
287.8223053732
 10
157.7559622591
 20
302.8223053732
  0
LINE
  5
97
330
1F
100
AcDbEntity
  8
0
  6
Continuous
 62
     7
100
AcDbLine
 10
139.5559622591
 20
312.5346222225
 30
0.0
 11
143.0019087387
 21
312.5346222225
 31
0.0
  0
LINE
  5
98
330
1F
100
AcDbEntity
  8
0
  6
Continuous
 62
     7
100
AcDbLine
 10
150.0600157795
 20
312.5346222225
 30
0.0
 11
153.4559622591
 21
312.5346222225
 31
0.0
  0
LWPOLYLINE
  5
99
330
1F
100
AcDbEntity
  8
BEZUGSACHSEN
  6
DOT_CENTER
 62
     7
100
AcDbPolyline
 90
        2
 70
     0
 43
0.25
 10
162.8559622591
 20
305.8223053732
 10
162.8559622591
 20
281.9829997117
  0
LWPOLYLINE
  5
9A
330
1F
100
AcDbEntity
  8
BEZUGSACHSEN
  6
DASHED
 62
     8
100
AcDbPolyline
 90
        2
 70
     0
 43
0.35
 10
167.9559622591
 20
287.8223053732
 10
167.9559622591
 20
302.8223053732
  0
LINE
  5
9B
330
1F
100
AcDbEntity
  8
0
  6
Continuous
 62
     7
100
AcDbLine
 10
172.5880130667
 20
260.9562799695
 30
0.0
 11
184.8559622591
 21
268.0391837381
 31
0.0
  0
LINE
  5
9C
330
1F
100
AcDbEntity
  8
0
  6
Continuous
 62
     7
100
AcDbLine
 10
172.5880130667
 20
302.688330777
 30
0.0
 11
184.8559622591
 21
295.6054270084
 31
0.0
  0
LINE
  5
9D
330
1F
100
AcDbEntity
  8
RUNDUNGEN
  6
Continuous
 62
     7
100
AcDbLine
 10
184.8559622591
 20
295.6054270084
 30
0.0
 11
172.5880130667
 21
302.688330777
 31
0.0
  0
LINE
  5
9E
330
1F
100
AcDbEntity
  8
RUNDUNGEN
  6
Continuous
 62
     9
100
AcDbLine
 10
172.0880130667
 20
260.8223053732
 30
0.0
 11
172.0880130667
 21
302.8223053732
 31
0.0
  0
LINE
  5
9F
330
1F
100
AcDbEntity
  8
RUNDUNGEN
  6
Continuous
 62
     9
100
AcDbLine
 10
172.5880130667
 20
260.9562799695
 30
0.0
 11
172.5880130667
 21
302.688330777
 31
0.0
  0
LINE
  5
A0
330
1F
100
AcDbEntity
  8
RUNDUNGEN
  6
Continuous
 62
     9
100
AcDbLine
 10
184.8559622591
 20
268.0391837381
 30
0.0
 11
184.8559622591
 21
295.6054270084
 31
0.0
  0
LINE
  5
A1
330
1F
100
AcDbEntity
  8
RUNDUNGEN
  6
Continuous
 62
     7
100
AcDbLine
 10
185.3559622591
 20
294.7394016046
 30
0.0
 11
185.3559622591
 21
268.9052091419
 31
0.0
  0
LWPOLYLINE
  5
A2
330
1F
100
AcDbEntity
  8
BEZUGSACHSEN
  6
DASHED
 62
     8
100
AcDbPolyline
 90
        2
 70
     0
 43
0.35
 10
168.8559622591
 20
287.8223053732
 10
168.8559622591
 20
302.8223053732
  0
LWPOLYLINE
  5
A3
330
1F
100
AcDbEntity
  8
BEZUGSACHSEN
  6
DASHED
 62
     8
100
AcDbPolyline
 90
        2
 70
     0
 43
0.35
 10
156.8559622591
 20
287.8223053732
 10
156.8559622591
 20
302.8223053732
  0
ARC
  5
A4
330
1F
100
AcDbEntity
  8
0
  6
Continuous
 62
     7
100
AcDbCircle
 10
-819.5192525611
 20
-224.8927681924
 30
0.0
 40
1102.395204052551
100
AcDbArc
 50
29.00416524305954
 51
29.17697495598539
  0
ARC
  5
A5
330
1F
100
AcDbEntity
  8
0
  6
Continuous
 62
     7
100
AcDbCircle
 10
137.5559622591
 20
258.9473053732
 30
0.0
 40
1.0
100
AcDbArc
 50
0.0
 51
90.0
  0
ARC
  5
A6
330
1F
100
AcDbEntity
  8
0
  6
Continuous
 62
     7
100
AcDbCircle
 10
67.9059622591
 20
270.3727571724
 30
0.0
 40
0.9500000000000028
100
AcDbArc
 50
180.0
 51
261.7021731719703
  0
ARC
  5
A7
330
1F
100
AcDbEntity
  8
0
  6
Continuous
 62
     7
100
AcDbCircle
 10
-819.5192525547
 20
788.5373789353
 30
0.0
 40
1102.395204045217
100
AcDbArc
 50
330.8230250440158
 51
330.9958347569428
  0
ARC
  5
A8
330
1F
100
AcDbEntity
  8
0
  6
Continuous
 62
     7
100
AcDbCircle
 10
137.5559622591
 20
304.6973053732
 30
0.0
 40
1.0
100
AcDbArc
 50
270.0
 51
341.0344250117316
  0
ARC
  5
A9
330
1F
100
AcDbEntity
  8
0
  6
Continuous
 62
     7
100
AcDbCircle
 10
67.9059622591
 20
293.2718535741
 30
0.0
 40
0.9499999999369922
100
AcDbArc
 50
98.29782682802978
 51
180.0
  0
ARC
  5
AA
330
1F
100
AcDbEntity
  8
0
  6
Continuous
 62
     7
100
AcDbCircle
 10
1112.5811770736
 20
-224.8927681892
 30
0.0
 40
1102.395204046023
100
AcDbArc
 50
150.8230250440154
 51
150.9958347569423
  0
ARC
  5
AB
330
1F
100
AcDbEntity
  8
RUNDUNGEN
  6
Continuous
 62
     7
100
AcDbCircle
 10
172.0880130667
 20
261.8223053732
 30
0.0
 40
1.0
100
AcDbArc
 50
270.0
 51
300.0000000024187
  0
ARC
  5
AC
330
1F
100
AcDbEntity
  8
RUNDUNGEN
  6
Continuous
 62
     7
100
AcDbCircle
 10
155.4559622591
 20
259.8223053732
 30
0.0
 40
1.0
100
AcDbArc
 50
90.0
 51
180.0
  0
ARC
  5
AD
330
1F
100
AcDbEntity
  8
RUNDUNGEN
  6
Continuous
 62
     7
100
AcDbCircle
 10
184.3559622591
 20
268.9052091419
 30
0.0
 40
1.000000000013472
100
AcDbArc
 50
299.9999999995543
 51
0.0
  0
ARC
  5
AE
330
1F
100
AcDbEntity
  8
0
  6
Continuous
 62
     7
100
AcDbCircle
 10
1112.5811770673
 20
788.5373789322
 30
0.0
 40
1102.395204038807
100
AcDbArc
 50
209.0041652430574
 51
209.1769749559854
  0
ARC
  5
AF
330
1F
100
AcDbEntity
  8
RUNDUNGEN
  6
Continuous
 62
     7
100
AcDbCircle
 10
172.0880130667
 20
301.8223053732
 30
0.0
 40
1.000000000013472
100
AcDbArc
 50
60.00000000044565
 51
90.0
  0
ARC
  5
B0
330
1F
100
AcDbEntity
  8
RUNDUNGEN
  6
Continuous
 62
     7
100
AcDbCircle
 10
155.4559622591
 20
303.8223053732
 30
0.0
 40
1.0
100
AcDbArc
 50
180.0
 51
270.0
  0
ARC
  5
B1
330
1F
100
AcDbEntity
  8
RUNDUNGEN
  6
Continuous
 62
     7
100
AcDbCircle
 10
184.3559622591
 20
294.7394016046
 30
0.0
 40
1.0
100
AcDbArc
 50
0.0
 51
60.00000000044565
  0
SPLINE
  5
B2
330
1F
100
AcDbEntity
  8
0
  6
Continuous
 62
     2
100
AcDbSpline
210
0.0
220
0.0
230
1.0
 70
     8
 71
     3
 72
    41
 73
    37
 74
    35
 42
0.0000000001
 43
0.0000000001
 44
0.00000001
 40
0.0
 40
0.0
 40
0.0
 40
0.0
 40
0.0257075150989064
 40
0.1034164873796915
 40
0.2335576643391736
 40
0.4147659642542462
 40
0.6453242226625557
 40
0.9238833669350452
 40
1.248569513796479
 40
1.614972724296508
 40
2.018568897206606
 40
2.45679936093071
 40
2.926530414261892
 40
3.420172367405947
 40
3.930422562107021
 40
4.455412044881029
 40
4.993470579276956
 40
5.538133488700779
 40
6.083203676093303
 40
6.628278145604707
 40
7.172951485129178
 40
7.711014322513715
 40
8.235995169335178
 40
8.746249043112234
 40
9.239924772853717
 40
9.709675155244826
 40
10.14787391927103
 40
10.55144523554712
 40
10.91788659919535
 40
11.24262880087645
 40
11.5212098203802
 40
11.75177689878565
 40
11.93300952066888
 40
12.06317575732063
 40
12.14089193932401
 40
12.16659821445686
 40
12.16659821445686
 40
12.16659821445686
 40
12.16659821445686
 10
156.8559622591
 20
302.8223299602
 30
0.0
 10
156.8641998968027
 20
302.8199694342276
 30
0.0
 10
156.8973383604868
 20
302.8104734831991
 30
0.0
 10
156.9722619853178
 20
302.7893191572131
 30
0.0
 10
157.097177466575
 20
302.7544660806782
 30
0.0
 10
157.2714951718897
 20
302.7071028253326
 30
0.0
 10
157.4940155413378
 20
302.6484846008668
 30
0.0
 10
157.76353557177
 20
302.5805868004124
 30
0.0
 10
158.0779213019001
 20
302.5055100350126
 30
0.0
 10
158.4340434631282
 20
302.4259095358378
 30
0.0
 10
158.8285089553106
 20
302.3445705590148
 30
0.0
 10
159.2583053027941
 20
302.2643699797956
 30
0.0
 10
159.7192929796605
 20
302.1882122263698
 30
0.0
 10
160.2055969152257
 20
302.1186763579454
 30
0.0
 10
160.711720988054
 20
302.0585873040316
 30
0.0
 10
161.2339430441268
 20
302.0098548746363
 30
0.0
 10
161.7687083294682
 20
301.9740240301205
 30
0.0
 10
162.3109151342166
 20
301.9518249324404
 30
0.0
 10
162.8558682382098
 20
301.9443515963947
 30
0.0
 10
163.4008248986194
 20
301.9518197452224
 30
0.0
 10
163.9430382143186
 20
301.974014854858
 30
0.0
 10
164.4778058453491
 20
302.0098409188103
 30
0.0
 10
165.0000282107662
 20
302.0585677349014
 30
0.0
 10
165.5061622546144
 20
302.118654463287
 30
0.0
 10
165.9924852175838
 20
302.1881909633056
 30
0.0
 10
166.4534806023784
 20
302.2643457427235
 30
0.0
 10
166.8832655788971
 20
302.3445396659829
 30
0.0
 10
167.2777253504033
 20
302.4258760643304
 30
0.0
 10
167.6338703378706
 20
302.5054803812274
 30
0.0
 10
167.9482943575164
 20
302.5805633939605
 30
0.0
 10
168.2178428053362
 20
302.6484667949808
 30
0.0
 10
168.4403808747749
 20
302.7070898291797
 30
0.0
 10
168.6147173045833
 20
302.7544581570178
 30
0.0
 10
168.7396510545919
 20
302.7893159471245
 30
0.0
 10
168.8145846749372
 20
302.8104729387239
 30
0.0
 10
168.8477250252627
 20
302.8199695297555
 30
0.0
 10
168.8559622591
 20
302.8223299647
 30
0.0
 11
156.8559622591
 21
302.8223299602
 31
0.0
 11
156.8806774464625
 21
302.8152563581334
 31
0.0
 11
156.9554501986
 21
302.7940969651667
 31
0.0
 11
157.0808140778854
 21
302.7591595395187
 31
0.0
 11
157.2556737558834
 21
302.7116143928833
 31
0.0
 11
157.4786369040087
 21
302.6529241458373
 31
0.0
 11
157.7487520838858
 21
302.584858101015
 31
0.0
 11
158.0645622021347
 21
302.5094587430909
 31
0.0
 11
158.4221466551465
 21
302.4295546028417
 31
0.0
 11
158.8174369603367
 21
302.3480963594878
 31
0.0
 11
159.2482366253474
 21
302.2677372407612
 31
0.0
 11
159.711681857947
 21
302.1911488679864
 31
0.0
 11
160.200367677391
 21
302.1213738883858
 31
0.0
 11
160.7070645325447
 21
302.061261009817
 31
0.0
 11
161.2297857835667
 21
302.01251215595
 31
0.0
 11
161.7666367447625
 21
301.9764839461771
 31
0.0
 11
162.3108476357334
 21
301.9542985669667
 31
0.0
 11
162.8558668240625
 21
301.9468424595917
 31
0.0
 11
163.4008903639667
 21
301.9542935174666
 31
0.0
 11
163.9451118617979
 21
301.976474772775
 31
0.0
 11
164.4819674458167
 21
302.0124983606333
 31
0.0
 11
165.0046805760157
 21
302.0612412888066
 31
0.0
 11
165.5113815174089
 21
302.1213509527191
 31
0.0
 11
166.0001011599071
 21
302.1911280060551
 31
0.0
 11
166.4635660879859
 21
302.2677157478779
 31
0.0
 11
166.8943352850153
 21
302.3480653321003
 31
0.0
 11
167.2896016310369
 21
302.429516685825
 31
0.0
 11
167.6472236923571
 21
302.5094274751431
 31
0.0
 11
167.9630888824642
 21
302.5848375489484
 31
0.0
 11
168.2332255947038
 21
302.6529076681498
 31
0.0
 11
168.4561972987667
 21
302.71160005975
 31
0.0
 11
168.6310804755333
 21
302.7591514815865
 31
0.0
 11
168.7564685743
 21
302.7940953487416
 31
0.0
 11
168.831248280925
 21
302.8152566441239
 31
0.0
 11
168.8559622591
 21
302.8223299647
 31
0.0
  0
SPLINE
  5
B3
330
1F
100
AcDbEntity
  8
0
  6
Continuous
 62
     7
100
AcDbSpline
210
0.0
220
0.0
230
1.0
 70
     8
 71
     3
 72
    15
 73
    11
 74
     9
 42
0.0000000001
 43
0.0000000001
 44
0.00000001
 40
0.0
 40
0.0
 40
0.0
 40
0.0
 40
0.1991720574206268
 40
0.3990536357614066
 40
0.5986807643402209
 40
0.7980988308461829
 40
0.9975253742967566
 40
1.197147976174088
 40
1.397095164926105
 40
1.596192542425148
 40
1.596192542425148
 40
1.596192542425148
 40
1.596192542425148
 10
154.4559622591
 20
311.4992561305
 30
0.0
 10
154.4523371609355
 20
311.5657349221748
 30
0.0
 10
154.4450740507319
 20
311.698929326362
 30
0.0
 10
154.3877818711951
 20
311.8919324788458
 30
0.0
 10
154.2974749227711
 20
312.0710751821335
 30
0.0
 10
154.1741165874835
 20
312.2295215627553
 30
0.0
 10
154.0222648546742
 20
312.3610122672773
 30
0.0
 10
153.8471885046715
 20
312.4592381032924
 30
0.0
 10
153.6556489216354
 20
312.5223856093345
 30
0.0
 10
153.522429911549
 20
312.5305491465083
 30
0.0
 10
153.4559622591
 20
312.5346222225
 30
0.0
 11
154.4559622591
 21
311.4992561305
 31
0.0
 11
154.4373831137472
 21
311.6975597457346
 31
0.0
 11
154.3822488856678
 21
311.8896869490508
 31
0.0
 11
154.2919167282047
 21
312.0677068687021
 31
0.0
 11
154.1693710709039
 21
312.2250285999592
 31
0.0
 11
154.0184727011414
 21
312.3554150572147
 31
0.0
 11
153.8445247865271
 21
312.4533502714208
 31
0.0
 11
153.6539842789507
 21
312.5139571461329
 31
0.0
 11
153.4559622591
 21
312.5346222225
 31
0.0
  0
SPLINE
  5
B4
330
1F
100
AcDbEntity
  8
0
  6
Continuous
 62
     7
100
AcDbSpline
210
0.0
220
0.0
230
1.0
 70
     8
 71
     3
 72
    15
 73
    11
 74
     9
 42
0.0000000001
 43
0.0000000001
 44
0.00000001
 40
0.0
 40
0.0
 40
0.0
 40
0.0
 40
0.199100095932066
 40
0.3990500501373578
 40
0.5986741602460983
 40
0.7981021742185357
 40
0.9975186422146549
 40
1.1971441651279
 40
1.397023090651975
 40
1.59619251749949
 40
1.59619251749949
 40
1.59619251749949
 40
1.59619251749949
 10
153.4559622591
 20
251.109988524
 30
0.0
 10
153.5224308213325
 20
251.1140617273928
 30
0.0
 10
153.655651666693
 20
251.1222255206372
 30
0.0
 10
153.847193244079
 20
251.1853746807834
 30
0.0
 10
154.0222706837111
 20
251.2836025162845
 30
0.0
 10
154.1741218229818
 20
251.4150946554382
 30
0.0
 10
154.2974785968748
 20
251.5735414846099
 30
0.0
 10
154.3877835849394
 20
251.7526829633734
 30
0.0
 10
154.445074345682
 20
251.9456840677367
 30
0.0
 10
154.4523372590576
 20
252.0788767043808
 30
0.0
 10
154.4559622591
 20
252.145354616
 30
0.0
 11
153.4559622591
 21
251.109988524
 31
0.0
 11
153.6539869481704
 21
251.1306542134083
 31
0.0
 11
153.8445298232186
 21
251.1912627685394
 31
0.0
 11
154.018478452342
 21
251.289199787908
 31
0.0
 11
154.1693769701929
 21
251.4195883229385
 31
0.0
 11
154.2919204695887
 21
251.576909708846
 31
0.0
 11
154.382250840441
 21
251.7549287345148
 31
0.0
 11
154.4373836106541
 21
251.9470535963034
 31
0.0
 11
154.4559622591
 21
252.145354616
 31
0.0
  0
SPLINE
  5
B5
330
1F
100
AcDbEntity
  8
0
  6
Continuous
 62
     7
100
AcDbSpline
210
0.0
220
0.0
230
1.0
 70
     8
 71
     3
 72
    15
 73
    11
 74
     9
 42
0.0000000001
 43
0.0000000001
 44
0.00000001
 40
0.0
 40
0.0
 40
0.0
 40
0.0
 40
0.199100275424433
 40
0.3990504136056267
 40
0.5986744170975737
 40
0.7981023202752788
 40
0.9975187549696933
 40
1.197144245665641
 40
1.397023128026817
 40
1.596192512800702
 40
1.596192512800702
 40
1.596192512800702
 40
1.596192512800702
 10
139.5559622591
 20
312.5346222225
 30
0.0
 10
139.4894936368143
 20
312.5305490084779
 30
0.0
 10
139.35627266985
 20
312.5223851938533
 30
0.0
 10
139.1647310309793
 20
312.4592359323241
 30
0.0
 10
138.9896536297435
 20
312.3610080588001
 30
0.0
 10
138.8378025712933
 20
312.2295159563455
 30
0.0
 10
138.7144458481257
 20
312.0710691627066
 30
0.0
 10
138.6241408918834
 20
311.891927708277
 30
0.0
 10
138.5668501635474
 20
311.6989266361722
 30
0.0
 10
138.5595872561614
 20
311.5657340280434
 30
0.0
 10
138.5559622591
 20
311.4992561305
 30
0.0
 11
139.5559622591
 21
312.5346222225
 31
0.0
 11
139.3579373946008
 21
312.5139564848124
 31
0.0
 11
139.167394364758
 21
312.4533478093855
 31
0.0
 11
138.9934458559853
 21
312.3554107935748
 31
0.0
 11
138.8425474397147
 21
312.2250223104451
 31
0.0
 11
138.7200039748671
 21
312.067700939839
 31
0.0
 11
138.6296736349441
 21
311.8896819346036
 31
0.0
 11
138.5745408945848
 21
311.697557109153
 31
0.0
 11
138.5559622591
 21
311.4992561305
 31
0.0
  0
SPLINE
  5
B6
330
1F
100
AcDbEntity
  8
0
  6
Continuous
 62
     7
100
AcDbSpline
210
0.0
220
0.0
230
1.0
 70
     8
 71
     3
 72
    15
 73
    11
 74
     9
 42
0.0000000001
 43
0.0000000001
 44
0.00000001
 40
0.0
 40
0.0
 40
0.0
 40
0.0
 40
0.1991719801557615
 40
0.399053479734761
 40
0.5986806086127373
 40
0.7980986751277477
 40
0.9975251470930474
 40
1.197147680773383
 40
1.397095016904705
 40
1.59619253784595
 40
1.59619253784595
 40
1.59619253784595
 40
1.59619253784595
 10
138.5559622591
 20
252.145354616
 30
0.0
 10
138.5595873528467
 20
252.0788758501693
 30
0.0
 10
138.5668504541768
 20
251.9456814981703
 30
0.0
 10
138.6241425870984
 20
251.7526783878327
 30
0.0
 10
138.7144495005891
 20
251.5735356953481
 30
0.0
 10
138.8378078044467
 20
251.4150893202408
 30
0.0
 10
138.9896594858187
 20
251.2835986288717
 30
0.0
 10
139.1647358144411
 20
251.1853727553881
 30
0.0
 10
139.3562754512695
 20
251.1222251639004
 30
0.0
 10
139.4894945586576
 20
251.114061608868
 30
0.0
 10
139.5559622591
 20
251.109988524
 30
0.0
 11
138.5559622591
 21
252.145354616
 31
0.0
 11
138.5745413844718
 21
251.9470510764966
 31
0.0
 11
138.6296755632264
 21
251.7549239409665
 31
0.0
 11
138.7200076962594
 21
251.5769040085831
 31
0.0
 11
138.8425533367411
 21
251.4195822642134
 31
0.0
 11
138.9934516358453
 21
251.2891958345209
 31
0.0
 11
139.1673994681874
 21
251.1912606131935
 31
0.0
 11
139.3579400991983
 21
251.1306536403276
 31
0.0
 11
139.5559622591
 21
251.109988524
 31
0.0
  0
SPLINE
  5
B7
330
1F
100
AcDbEntity
  8
BEZUGSACHSEN
  6
Continuous
 62
     7
100
AcDbSpline
210
0.0
220
0.0
230
1.0
 70
     8
 71
     3
 72
    19
 73
    15
 74
    13
 42
0.0000000001
 43
0.0000000001
 44
0.00000001
 40
0.0
 40
0.0
 40
0.0
 40
0.0
 40
0.7630987639407023
 40
1.526289176720621
 40
2.358916213654088
 40
3.191543571752946
 40
4.170993924739241
 40
5.150489400582517
 40
6.129987935697084
 40
7.109441345287816
 40
7.9420935066226
 40
8.774745363748261
 40
9.537965971147571
 40
10.30109489474573
 40
10.30109489474573
 40
10.30109489474573
 40
10.30109489474573
 10
167.9559622591
 20
302.8223053732
 30
0.0
 10
167.7082337382739
 20
302.7644751728209
 30
0.0
 10
167.2127469442065
 20
302.6488078266042
 30
0.0
 10
166.4400479757671
 20
302.5020042329738
 30
0.0
 10
165.6400306589618
 20
302.377517195495
 30
0.0
 10
164.764067964599
 20
302.2762025759916
 30
0.0
 10
163.8355921622923
 20
302.2094045604378
 30
0.0
 10
162.8560193055736
 20
302.1857393267571
 30
0.0
 10
161.8764452839754
 20
302.2093987572821
 30
0.0
 10
160.9479588214276
 20
302.2761923860566
 30
0.0
 10
160.0719782198221
 20
302.3775052288464
 30
0.0
 10
159.2719342286961
 20
302.5019939843296
 30
0.0
 10
158.499207073437
 20
302.6488014455484
 30
0.0
 10
158.0037006092891
 20
302.7644730466791
 30
0.0
 10
157.7559622591
 20
302.8223053732
 30
0.0
 11
167.9559622591
 21
302.8223053732
 31
0.0
 11
167.2116587072275
 21
302.653984411351
 31
0.0
 11
166.4621101652929
 21
302.5103300015928
 31
0.0
 11
165.6392906747876
 21
302.3829099534171
 31
0.0
 11
164.8121676257733
 21
302.287328683055
 31
0.0
 11
163.8352325612092
 21
302.217179744431
 31
0.0
 11
162.8560203011062
 21
302.1936268919183
 31
0.0
 11
161.8768048435942
 21
302.2171740374162
 31
0.0
 11
160.8998663462251
 21
302.287317846246
 31
0.0
 11
160.0727182388507
 21
302.3828983371547
 31
0.0
 11
159.2498738343716
 21
302.5103196901229
 31
0.0
 11
158.5002953703415
 21
302.6539783892026
 31
0.0
 11
157.7559622591
 21
302.8223053732
 31
0.0
  0
SPLINE
  5
B8
330
1F
100
AcDbEntity
  8
0
  6
Continuous
 62
     7
100
AcDbSpline
210
0.0
220
0.0
230
1.0
 70
     8
 71
     3
 72
    15
 73
    11
 74
     9
 42
0.0000000001
 43
0.0000000001
 44
0.00000001
 40
0.0
 40
0.0
 40
0.0
 40
0.0
 40
0.1499520084135152
 40
0.3004340247607195
 40
0.4507251464498743
 40
0.6008598893240383
 40
0.7510035492654046
 40
0.9012893509922993
 40
1.051831757242724
 40
1.201718119562229
 40
1.201718119562229
 40
1.201718119562229
 40
1.201718119562229
 10
148.4434622591
 20
309.4076728712
 30
0.0
 10
148.440754645105
 20
309.3576235230238
 30
0.0
 10
148.4353298470069
 20
309.2573479263957
 30
0.0
 10
148.3925480662369
 20
309.1119647167809
 30
0.0
 10
148.3251391742376
 20
308.976819164957
 30
0.0
 10
148.2329329231739
 20
308.8570292964978
 30
0.0
 10
148.1192360070469
 20
308.7573161610799
 30
0.0
 10
147.9878436996775
 20
308.6826067901846
 30
0.0
 10
147.843801590275
 20
308.6344643173695
 30
0.0
 10
147.7435023619472
 20
308.6282193831854
 30
0.0
 10
147.6934622591
 20
308.6251037346
 30
0.0
 11
148.4434622591
 21
309.4076728712
 31
0.0
 11
148.4295868427635
 21
309.2583642055147
 31
0.0
 11
148.3884208175033
 21
309.1136223815377
 31
0.0
 11
148.3209695227764
 21
308.9793177126008
 31
0.0
 11
148.2293541671674
 21
308.8603762663571
 31
0.0
 11
148.1163446912003
 21
308.7615229560321
 31
0.0
 11
147.9857988054079
 21
308.6870676412225
 31
0.0
 11
147.8425156497377
 21
308.6408837329767
 31
0.0
 11
147.6934622591
 21
308.6251037346
 31
0.0
  0
SPLINE
  5
B9
330
1F
100
AcDbEntity
  8
0
  6
Continuous
 62
     7
100
AcDbSpline
210
0.0
220
0.0
230
1.0
 70
     8
 71
     3
 72
    15
 73
    11
 74
     9
 42
0.0000000001
 43
0.0000000001
 44
0.00000001
 40
0.0
 40
0.0
 40
0.0
 40
0.0
 40
0.1498887297830424
 40
0.30043354793662
 40
0.4507207373349069
 40
0.6008657480748079
 40
0.7509990952660465
 40
0.9012888186726995
 40
1.05176845018436
 40
1.20171809084902
 40
1.20171809084902
 40
1.20171809084902
 40
1.20171809084902
 10
145.3684622591
 20
308.6251037346
 30
0.0
 10
145.3184213638946
 20
308.628219497178
 30
0.0
 10
145.2181205360056
 20
308.634464660555
 30
0.0
 10
145.0740766750491
 20
308.68260860413
 30
0.0
 10
144.9426833871172
 20
308.7573197484614
 30
0.0
 10
144.8289869682362
 20
308.857034172902
 30
0.0
 10
144.7367820941867
 20
308.9768244653123
 30
0.0
 10
144.6693749469291
 20
309.1119689342319
 30
0.0
 10
144.6265944149406
 20
309.2573503083576
 30
0.0
 10
144.6211697878305
 20
309.357624315108
 30
0.0
 10
144.6184622591
 20
309.4076728712
 30
0.0
 11
145.3684622591
 21
308.6251037346
 31
0.0
 11
145.219406545495
 21
308.6408842782437
 31
0.0
 11
145.0761213336094
 21
308.6870696690917
 31
0.0
 11
144.9455747726287
 21
308.7615266010279
 31
0.0
 11
144.8325651370982
 21
308.8603817805954
 31
0.0
 11
144.740951687664
 21
308.9793229333628
 31
0.0
 11
144.6735019722061
 21
309.1136268307235
 31
0.0
 11
144.6323372397775
 21
309.2583665429796
 31
0.0
 11
144.6184622591
 21
309.4076728712
 31
0.0
  0
SPLINE
  5
BA
330
1F
100
AcDbEntity
  8
0
  6
Continuous
 62
     7
100
AcDbSpline
210
0.0
220
0.0
230
1.0
 70
     8
 71
     3
 72
    15
 73
    11
 74
     9
 42
0.0000000001
 43
0.0000000001
 44
0.00000001
 40
0.0
 40
0.0
 40
0.0
 40
0.0
 40
0.1499521789460591
 40
0.300434366743261
 40
0.4507255054274334
 40
0.6008602661888127
 40
0.7510040236381712
 40
0.9012899196490959
 40
1.051832040771046
 40
1.201718121810986
 40
1.201718121810986
 40
1.201718121810986
 40
1.201718121810986
 10
144.6184622591
 20
254.2369378752
 30
0.0
 10
144.6211698795266
 20
254.2869872804162
 30
0.0
 10
144.6265946905161
 20
254.3872629914308
 30
0.0
 10
144.6693765545587
 20
254.5326463057404
 30
0.0
 10
144.7367855381966
 20
254.6677918889936
 30
0.0
 10
144.8289918739292
 20
254.787581748598
 30
0.0
 10
144.9426888961926
 20
254.8872948709235
 30
0.0
 10
145.0740812279455
 20
254.9620041414283
 30
0.0
 10
145.2181232115556
 20
255.0101464691618
 30
0.0
 10
145.3184222503677
 20
255.0163913766208
 30
0.0
 10
145.3684622591
 20
255.0195070119
 30
0.0
 11
144.6184622591
 21
254.2369378752
 31
0.0
 11
144.6323377077636
 21
254.3862467091485
 31
0.0
 11
144.6735038266949
 21
254.5309886847339
 31
0.0
 11
144.7409551894727
 21
254.6652933385118
 31
0.0
 11
144.8325706123931
 21
254.7842347554867
 31
0.0
 11
144.9455802144871
 21
254.8830880697233
 31
0.0
 11
145.0761262323263
 21
254.9575433433185
 31
0.0
 11
145.2194091445469
 21
255.0037270774408
 31
0.0
 11
145.3684622591
 21
255.0195070119
 31
0.0
  0
SPLINE
  5
BB
330
1F
100
AcDbEntity
  8
0
  6
Continuous
 62
     7
100
AcDbSpline
210
0.0
220
0.0
230
1.0
 70
     8
 71
     3
 72
    15
 73
    11
 74
     9
 42
0.0000000001
 43
0.0000000001
 44
0.00000001
 40
0.0
 40
0.0
 40
0.0
 40
0.0
 40
0.1498890554579728
 40
0.3004342038426722
 40
0.4507212547627177
 40
0.6008661228114726
 40
0.7509994132915003
 40
0.901289081655714
 40
1.051768580344989
 40
1.201718088875038
 40
1.201718088875038
 40
1.201718088875038
 40
1.201718088875038
 10
147.6934622591
 20
255.0195070119
 30
0.0
 10
147.7435032632713
 20
255.0163912338751
 30
0.0
 10
147.8438043106142
 20
255.0101460394716
 30
0.0
 10
147.9878483078661
 20
254.9620019310126
 30
0.0
 10
148.1192415519836
 20
254.8872906839472
 30
0.0
 10
148.2329378299767
 20
254.7875762727089
 30
0.0
 10
148.3251425964682
 20
254.667786005939
 30
0.0
 10
148.3925496546498
 20
254.5326415847094
 30
0.0
 10
148.4353301181085
 20
254.3872603052142
 30
0.0
 10
148.4407547353121
 20
254.2869863870927
 30
0.0
 10
148.4434622591
 20
254.2369378752
 30
0.0
 11
147.6934622591
 21
255.0195070119
 31
0.0
 11
147.842518292354
 21
255.003726394147
 31
0.0
 11
147.9858037862575
 21
254.9575408018157
 31
0.0
 11
148.1163501707464
 21
254.8830838399443
 31
0.0
 11
148.2293596438687
 21
254.784228691439
 31
0.0
 11
148.3209730047572
 21
254.6652875420538
 31
0.0
 11
148.3884226438532
 21
254.5309836679368
 31
0.0
 11
148.4295873033747
 21
254.3862440730353
 31
0.0
 11
148.4434622591
 21
254.2369378752
 31
0.0
  0
DIMENSION
  5
C6
330
1F
100
AcDbEntity
  8
1
100
AcDbDimension
  2
*D2
 10
196.515093209745
 20
275.8223053732
 30
0.0
 11
192.765093209745
 21
281.655721684717
 31
0.0
 70
    32
  1
<>
 71
     5
 42
-1.0
 53
90.0
  3
ME10_DIM_10
100
AcDbAlignedDimension
 13
185.3559622591
 23
287.8223053732
 33
0.0
 14
185.3559622591
 24
275.8223053732
 34
0.0
 50
90.0
100
AcDbRotatedDimension
  0
DIMENSION
  5
D1
330
1F
100
AcDbEntity
  8
1
100
AcDbDimension
  2
*D3
 10
205.848463663812
 20
302.8223053732
 30
0.0
 11
202.098463663812
 21
282.373673258107
 31
0.0
 70
    32
  1
<>
 71
     5
 42
-1.0
 53
90.0
  3
ME10_DIM_11
100
AcDbAlignedDimension
 13
172.0880130667
 23
260.8223053732
 33
0.0
 14
172.0880130667
 24
302.8223053732
 34
0.0
 50
90.0
100
AcDbRotatedDimension
  0
DIMENSION
  5
DC
330
1F
100
AcDbEntity
  8
1
100
AcDbDimension
  2
*D4
 10
185.3559622591
 20
318.476380948562
 30
0.0
 11
167.9840721137042
 21
322.226380948562
 31
0.0
 70
    32
  1
<>
 71
     5
 42
-1.0
 53
0.00013888888889
  3
ME10_DIM_12
100
AcDbAlignedDimension
 13
154.4559622591
 23
311.4992561305
 33
0.0
 14
185.3559622591
 24
294.7394016046
 34
0.0
100
AcDbRotatedDimension
  0
DIMENSION
  5
E7
330
1F
100
AcDbEntity
  8
1
100
AcDbDimension
  2
*D5
 10
185.3559622591
 20
326.16871923488
 30
0.0
 11
159.591869435416
 21
329.91871923488
 31
0.0
 70
    32
  1
<>
 71
     5
 42
-1.0
 53
0.00013888888889
  3
ME10_DIM_13
100
AcDbAlignedDimension
 13
135.3559622591
 23
308.6251037346
 33
0.0
 14
185.3559622591
 24
294.7394016046
 34
0.0
100
AcDbRotatedDimension
  0
DIMENSION
  5
F2
330
1F
100
AcDbEntity
  8
1
100
AcDbDimension
  2
*D6
 10
185.3559622591
 20
333.143105947809
 30
0.0
 11
131.3181690101251
 21
336.893105947809
 31
0.0
 70
    32
  1
<>
 71
     5
 42
-1.0
 53
0.00013888888889
  3
ME10_DIM_14
100
AcDbAlignedDimension
 13
66.95596225909999
 23
293.2718535741
 33
0.0
 14
185.3559622591
 24
294.7394016046
 34
0.0
100
AcDbRotatedDimension
  0
INSERT
  5
F9
330
1F
100
AcDbEntity
  8
1
100
AcDbBlockReference
  2
*D7
 10
0.0
 20
0.0
 30
0.0
  0
ENDSEC
  0
SECTION
  2
OBJECTS
  0
DICTIONARY
  5
C
330
0
100
AcDbDictionary
281
     1
  3
ACAD_GROUP
350
D
  3
ACAD_LAYOUT
350
1A
  3
ACAD_MLEADERSTYLE
350
FC
  3
ACAD_MLINESTYLE
350
17
  3
ACAD_PLOTSETTINGS
350
19
  3
ACAD_PLOTSTYLENAME
350
E
  3
ACAD_SCALELIST
350
4A
  3
ACAD_VISUALSTYLE
350
2A
  3
AcDbVariableDictionary
350
FA
  0
DICTIONARY
  5
D
102
{ACAD_REACTORS
330
C
102
}
330
C
100
AcDbDictionary
281
     1
  0
DICTIONARY
  5
1A
102
{ACAD_REACTORS
330
C
102
}
330
C
100
AcDbDictionary
281
     1
  3
Layout1
350
1E
  3
Layout2
350
26
  3
Model
350
22
  0
DICTIONARY
  5
FC
102
{ACAD_REACTORS
330
C
102
}
330
C
100
AcDbDictionary
281
     1
  0
DICTIONARY
  5
17
102
{ACAD_REACTORS
330
C
102
}
330
C
100
AcDbDictionary
281
     1
  3
Standard
350
18
  0
DICTIONARY
  5
19
102
{ACAD_REACTORS
330
C
102
}
330
C
100
AcDbDictionary
281
     1
  0
ACDBDICTIONARYWDFLT
  5
E
102
{ACAD_REACTORS
330
C
102
}
330
C
100
AcDbDictionary
281
     1
  3
Normal
350
F
100
AcDbDictionaryWithDefault
340
F
  0
DICTIONARY
  5
4A
102
{ACAD_REACTORS
330
C
102
}
330
C
100
AcDbDictionary
281
     1
  3
A0
350
4B
  3
A1
350
4C
  3
A2
350
4D
  3
A3
350
4E
  3
A4
350
4F
  3
A5
350
50
  3
A6
350
51
  3
A7
350
52
  3
A8
350
53
  3
A9
350
54
  3
B0
350
55
  3
B1
350
56
  3
B2
350
57
  3
B3
350
58
  3
B4
350
59
  3
B5
350
5A
  3
B6
350
5B
  3
B7
350
5C
  3
B8
350
5D
  3
B9
350
5E
  3
C0
350
5F
  3
C1
350
60
  3
C2
350
61
  3
C3
350
62
  3
C4
350
63
  3
C5
350
64
  3
C6
350
65
  3
C7
350
66
  3
C8
350
67
  3
C9
350
68
  3
D0
350
69
  3
D1
350
6A
  3
D2
350
6B
  0
DICTIONARY
  5
2A
102
{ACAD_REACTORS
330
C
102
}
330
C
100
AcDbDictionary
281
     1
  3
2dWireframe
350
2F
  3
3D Hidden
350
31
  3
3dWireframe
350
30
  3
Basic
350
32
  3
Brighten
350
36
  3
ColorChange
350
3A
  3
Conceptual
350
34
  3
Dim
350
35
  3
Facepattern
350
39
  3
Flat
350
2B
  3
FlatWithEdges
350
2C
  3
Gouraud
350
2D
  3
GouraudWithEdges
350
2E
  3
Linepattern
350
38
  3
Realistic
350
33
  3
Thicken
350
37
  0
DICTIONARY
  5
FA
102
{ACAD_REACTORS
330
C
102
}
330
C
100
AcDbDictionary
281
     1
  3
CANNOSCALE
350
FD
  0
LAYOUT
  5
1E
102
{ACAD_REACTORS
330
1A
102
}
330
1A
100
AcDbPlotSettings
  1

  2
none_device
  4

  6

 40
0.0
 41
0.0
 42
0.0
 43
0.0
 44
0.0
 45
0.0
 46
0.0
 47
0.0
 48
0.0
 49
0.0
140
0.0
141
0.0
142
1.0
143
1.0
 70
   688
 72
     0
 73
     0
 74
     5
  7

 75
    16
147
1.0
148
0.0
149
0.0
100
AcDbLayout
  1
Layout1
 70
     1
 71
     1
 10
0.0
 20
0.0
 11
12.0
 21
9.0
 12
0.0
 22
0.0
 32
0.0
 14
1.00000000000000E+20
 24
1.00000000000000E+20
 34
1.00000000000000E+20
 15
-1.00000000000000E+20
 25
-1.00000000000000E+20
 35
-1.00000000000000E+20
146
0.0
 13
0.0
 23
0.0
 33
0.0
 16
1.0
 26
0.0
 36
0.0
 17
0.0
 27
1.0
 37
0.0
 76
     0
330
1B
  0
LAYOUT
  5
26
102
{ACAD_REACTORS
330
1A
102
}
330
1A
100
AcDbPlotSettings
  1

  2
none_device
  4

  6

 40
0.0
 41
0.0
 42
0.0
 43
0.0
 44
0.0
 45
0.0
 46
0.0
 47
0.0
 48
0.0
 49
0.0
140
0.0
141
0.0
142
1.0
143
1.0
 70
   688
 72
     0
 73
     0
 74
     5
  7

 75
    16
147
1.0
148
0.0
149
0.0
100
AcDbLayout
  1
Layout2
 70
     1
 71
     2
 10
0.0
 20
0.0
 11
0.0
 21
0.0
 12
0.0
 22
0.0
 32
0.0
 14
0.0
 24
0.0
 34
0.0
 15
0.0
 25
0.0
 35
0.0
146
0.0
 13
0.0
 23
0.0
 33
0.0
 16
1.0
 26
0.0
 36
0.0
 17
0.0
 27
1.0
 37
0.0
 76
     0
330
23
  0
LAYOUT
  5
22
102
{ACAD_REACTORS
330
1A
102
}
330
1A
100
AcDbPlotSettings
  1

  2
none_device
  4

  6

 40
0.0
 41
0.0
 42
0.0
 43
0.0
 44
0.0
 45
0.0
 46
0.0
 47
0.0
 48
0.0
 49
0.0
140
0.0
141
0.0
142
1.0
143
1.0
 70
  1712
 72
     0
 73
     0
 74
     0
  7

 75
     0
147
1.0
148
0.0
149
0.0
100
AcDbLayout
  1
Model
 70
     1
 71
     0
 10
0.0
 20
0.0
 11
12.0
 21
9.0
 12
0.0
 22
0.0
 32
0.0
 14
63.83096225910001
 24
234.2968303132257
 34
0.0
 15
207.848463663812
 25
338.643105947809
 35
0.0
146
0.0
 13
0.0
 23
0.0
 33
0.0
 16
1.0
 26
0.0
 36
0.0
 17
0.0
 27
1.0
 37
0.0
 76
     0
330
1F
331
29
  0
MLINESTYLE
  5
18
102
{ACAD_REACTORS
330
17
102
}
330
17
100
AcDbMlineStyle
  2
Standard
 70
     0
  3

 62
   256
 51
90.0
 52
90.0
 71
     2
 49
0.5
 62
   256
  6
BYLAYER
 49
-0.5
 62
   256
  6
BYLAYER
  0
ACDBPLACEHOLDER
  5
F
102
{ACAD_REACTORS
330
E
102
}
330
E
  0
SCALE
  5
4B
102
{ACAD_REACTORS
330
4A
102
}
330
4A
100
AcDbScale
 70
     0
300
1:1
140
1.0
141
1.0
290
     1
  0
SCALE
  5
4C
102
{ACAD_REACTORS
330
4A
102
}
330
4A
100
AcDbScale
 70
     0
300
1:2
140
1.0
141
2.0
290
     0
  0
SCALE
  5
4D
102
{ACAD_REACTORS
330
4A
102
}
330
4A
100
AcDbScale
 70
     0
300
1:4
140
1.0
141
4.0
290
     0
  0
SCALE
  5
4E
102
{ACAD_REACTORS
330
4A
102
}
330
4A
100
AcDbScale
 70
     0
300
1:5
140
1.0
141
5.0
290
     0
  0
SCALE
  5
4F
102
{ACAD_REACTORS
330
4A
102
}
330
4A
100
AcDbScale
 70
     0
300
1:8
140
1.0
141
8.0
290
     0
  0
SCALE
  5
50
102
{ACAD_REACTORS
330
4A
102
}
330
4A
100
AcDbScale
 70
     0
300
1:10
140
1.0
141
10.0
290
     0
  0
SCALE
  5
51
102
{ACAD_REACTORS
330
4A
102
}
330
4A
100
AcDbScale
 70
     0
300
1:16
140
1.0
141
16.0
290
     0
  0
SCALE
  5
52
102
{ACAD_REACTORS
330
4A
102
}
330
4A
100
AcDbScale
 70
     0
300
1:20
140
1.0
141
20.0
290
     0
  0
SCALE
  5
53
102
{ACAD_REACTORS
330
4A
102
}
330
4A
100
AcDbScale
 70
     0
300
1:30
140
1.0
141
30.0
290
     0
  0
SCALE
  5
54
102
{ACAD_REACTORS
330
4A
102
}
330
4A
100
AcDbScale
 70
     0
300
1:40
140
1.0
141
40.0
290
     0
  0
SCALE
  5
55
102
{ACAD_REACTORS
330
4A
102
}
330
4A
100
AcDbScale
 70
     0
300
1:50
140
1.0
141
50.0
290
     0
  0
SCALE
  5
56
102
{ACAD_REACTORS
330
4A
102
}
330
4A
100
AcDbScale
 70
     0
300
1:100
140
1.0
141
100.0
290
     0
  0
SCALE
  5
57
102
{ACAD_REACTORS
330
4A
102
}
330
4A
100
AcDbScale
 70
     0
300
2:1
140
2.0
141
1.0
290
     0
  0
SCALE
  5
58
102
{ACAD_REACTORS
330
4A
102
}
330
4A
100
AcDbScale
 70
     0
300
4:1
140
4.0
141
1.0
290
     0
  0
SCALE
  5
59
102
{ACAD_REACTORS
330
4A
102
}
330
4A
100
AcDbScale
 70
     0
300
8:1
140
8.0
141
1.0
290
     0
  0
SCALE
  5
5A
102
{ACAD_REACTORS
330
4A
102
}
330
4A
100
AcDbScale
 70
     0
300
10:1
140
10.0
141
1.0
290
     0
  0
SCALE
  5
5B
102
{ACAD_REACTORS
330
4A
102
}
330
4A
100
AcDbScale
 70
     0
300
100:1
140
100.0
141
1.0
290
     0
  0
SCALE
  5
5C
102
{ACAD_REACTORS
330
4A
102
}
330
4A
100
AcDbScale
 70
     0
300
1/128" = 1'-0"
140
0.0078125
141
12.0
290
     0
  0
SCALE
  5
5D
102
{ACAD_REACTORS
330
4A
102
}
330
4A
100
AcDbScale
 70
     0
300
1/64" = 1'-0"
140
0.015625
141
12.0
290
     0
  0
SCALE
  5
5E
102
{ACAD_REACTORS
330
4A
102
}
330
4A
100
AcDbScale
 70
     0
300
1/32" = 1'-0"
140
0.03125
141
12.0
290
     0
  0
SCALE
  5
5F
102
{ACAD_REACTORS
330
4A
102
}
330
4A
100
AcDbScale
 70
     0
300
1/16" = 1'-0"
140
0.0625
141
12.0
290
     0
  0
SCALE
  5
60
102
{ACAD_REACTORS
330
4A
102
}
330
4A
100
AcDbScale
 70
     0
300
3/32" = 1'-0"
140
0.09375
141
12.0
290
     0
  0
SCALE
  5
61
102
{ACAD_REACTORS
330
4A
102
}
330
4A
100
AcDbScale
 70
     0
300
1/8" = 1'-0"
140
0.125
141
12.0
290
     0
  0
SCALE
  5
62
102
{ACAD_REACTORS
330
4A
102
}
330
4A
100
AcDbScale
 70
     0
300
3/16" = 1'-0"
140
0.1875
141
12.0
290
     0
  0
SCALE
  5
63
102
{ACAD_REACTORS
330
4A
102
}
330
4A
100
AcDbScale
 70
     0
300
1/4" = 1'-0"
140
0.25
141
12.0
290
     0
  0
SCALE
  5
64
102
{ACAD_REACTORS
330
4A
102
}
330
4A
100
AcDbScale
 70
     0
300
3/8" = 1'-0"
140
0.375
141
12.0
290
     0
  0
SCALE
  5
65
102
{ACAD_REACTORS
330
4A
102
}
330
4A
100
AcDbScale
 70
     0
300
1/2" = 1'-0"
140
0.5
141
12.0
290
     0
  0
SCALE
  5
66
102
{ACAD_REACTORS
330
4A
102
}
330
4A
100
AcDbScale
 70
     0
300
3/4" = 1'-0"
140
0.75
141
12.0
290
     0
  0
SCALE
  5
67
102
{ACAD_REACTORS
330
4A
102
}
330
4A
100
AcDbScale
 70
     0
300
1" = 1'-0"
140
1.0
141
12.0
290
     0
  0
SCALE
  5
68
102
{ACAD_REACTORS
330
4A
102
}
330
4A
100
AcDbScale
 70
     0
300
1-1/2" = 1'-0"
140
1.5
141
12.0
290
     0
  0
SCALE
  5
69
102
{ACAD_REACTORS
330
4A
102
}
330
4A
100
AcDbScale
 70
     0
300
3" = 1'-0"
140
3.0
141
12.0
290
     0
  0
SCALE
  5
6A
102
{ACAD_REACTORS
330
4A
102
}
330
4A
100
AcDbScale
 70
     0
300
6" = 1'-0"
140
6.0
141
12.0
290
     0
  0
SCALE
  5
6B
102
{ACAD_REACTORS
330
4A
102
}
330
4A
100
AcDbScale
 70
     0
300
1'-0" = 1'-0"
140
12.0
141
12.0
290
     0
  0
VISUALSTYLE
  5
2F
102
{ACAD_REACTORS
330
2A
102
}
330
2A
100
AcDbVisualStyle
  2
2dWireframe
 70
     4
 71
     0
 72
     2
 73
     0
 90
        0
 40
-0.6
 41
-30.0
 62
     5
 63
     7
 74
     1
 91
        4
 64
     7
 65
   257
 75
     1
175
     1
 42
1.0
 92
        0
 66
   257
 43
1.0
 76
     1
 77
     6
 78
     2
 67
     7
 79
     5
170
     0
171
     0
290
     0
174
     0
 93
        1
 44
0.0
173
     0
291
     0
 45
0.0
1001
ACAD
1000
AcDbSavedByObjectVersion
1070
     0
  0
VISUALSTYLE
  5
31
102
{ACAD_REACTORS
330
2A
102
}
330
2A
100
AcDbVisualStyle
  2
3D Hidden
 70
     6
 71
     1
 72
     2
 73
     2
 90
        0
 40
-0.6
 41
-30.0
 62
     5
 63
     7
 74
     2
 91
        2
 64
     7
 65
   257
 75
     2
175
     1
 42
40.0
 92
        0
 66
   257
 43
1.0
 76
     1
 77
     6
 78
     2
 67
     7
 79
     3
170
     0
171
     0
290
     0
174
     0
 93
        1
 44
0.0
173
     0
291
     0
 45
0.0
1001
ACAD
1000
AcDbSavedByObjectVersion
1070
     0
  0
VISUALSTYLE
  5
30
102
{ACAD_REACTORS
330
2A
102
}
330
2A
100
AcDbVisualStyle
  2
3dWireframe
 70
     5
 71
     0
 72
     2
 73
     0
 90
        0
 40
-0.6
 41
-30.0
 62
     5
 63
     7
 74
     1
 91
        4
 64
     7
 65
   257
 75
     1
175
     1
 42
1.0
 92
        0
 66
   257
 43
1.0
 76
     1
 77
     6
 78
     2
 67
     7
 79
     5
170
     0
171
     0
290
     0
174
     0
 93
        1
 44
0.0
173
     0
291
     0
 45
0.0
1001
ACAD
1000
AcDbSavedByObjectVersion
1070
     0
  0
VISUALSTYLE
  5
32
102
{ACAD_REACTORS
330
2A
102
}
330
2A
100
AcDbVisualStyle
  2
Basic
 70
     7
 71
     1
 72
     0
 73
     1
 90
        0
 40
-0.6
 41
-30.0
 62
     5
 63
     7
 74
     0
 91
        4
 64
     7
 65
   257
 75
     1
175
     1
 42
1.0
 92
        8
 66
     7
 43
1.0
 76
     1
 77
     6
 78
     2
 67
     7
 79
     5
170
     0
171
     0
290
     0
174
     0
 93
        1
 44
0.0
173
     0
291
     1
 45
0.0
1001
ACAD
1000
AcDbSavedByObjectVersion
1070
     0
  0
VISUALSTYLE
  5
36
102
{ACAD_REACTORS
330
2A
102
}
330
2A
100
AcDbVisualStyle
  2
Brighten
 70
    12
 71
     2
 72
     2
 73
     0
 90
        0
 40
-0.6
 41
-30.0
 62
     5
 63
     7
 74
     1
 91
        4
 64
     7
 65
   257
 75
     1
175
     1
 42
1.0
 92
        8
 66
     7
 43
1.0
 76
     1
 77
     6
 78
     2
 67
     7
 79
     5
170
     0
171
     0
290
     0
174
     0
 93
        1
 44
50.0
173
     0
291
     1
 45
0.0
1001
ACAD
1000
AcDbSavedByObjectVersion
1070
     0
  0
VISUALSTYLE
  5
3A
102
{ACAD_REACTORS
330
2A
102
}
330
2A
100
AcDbVisualStyle
  2
ColorChange
 70
    16
 71
     2
 72
     2
 73
     3
 90
        0
 40
-0.6
 41
-30.0
 62
     5
 63
     8
 74
     1
 91
        4
 64
     7
 65
   257
 75
     1
175
     1
 42
1.0
 92
        8
 66
     8
 43
1.0
 76
     1
 77
     6
 78
     2
 67
     7
 79
     5
170
     0
171
     0
290
     0
174
     0
 93
        1
 44
0.0
173
     0
291
     1
 45
0.0
1001
ACAD
1000
AcDbSavedByObjectVersion
1070
     0
  0
VISUALSTYLE
  5
34
102
{ACAD_REACTORS
330
2A
102
}
330
2A
100
AcDbVisualStyle
  2
Conceptual
 70
     9
 71
     3
 72
     2
 73
     0
 90
        0
 40
-0.6
 41
-30.0
 62
     5
 63
     7
 74
     2
 91
        2
 64
     7
 65
   257
 75
     1
175
     1
 42
40.0
 92
        8
 66
     7
 43
1.0
 76
     1
 77
     6
 78
     2
 67
     7
 79
     3
170
     0
171
     0
290
     0
174
     0
 93
        1
 44
0.0
173
     0
291
     0
 45
0.0
1001
ACAD
1000
AcDbSavedByObjectVersion
1070
     0
  0
VISUALSTYLE
  5
35
102
{ACAD_REACTORS
330
2A
102
}
330
2A
100
AcDbVisualStyle
  2
Dim
 70
    11
 71
     2
 72
     2
 73
     0
 90
        0
 40
-0.6
 41
-30.0
 62
     5
 63
     7
 74
     1
 91
        4
 64
     7
 65
   257
 75
     1
175
     1
 42
1.0
 92
        8
 66
     7
 43
1.0
 76
     1
 77
     6
 78
     2
 67
     7
 79
     5
170
     0
171
     0
290
     0
174
     0
 93
        1
 44
-50.0
173
     0
291
     1
 45
0.0
1001
ACAD
1000
AcDbSavedByObjectVersion
1070
     0
  0
VISUALSTYLE
  5
39
102
{ACAD_REACTORS
330
2A
102
}
330
2A
100
AcDbVisualStyle
  2
Facepattern
 70
    15
 71
     2
 72
     2
 73
     0
 90
        0
 40
-0.6
 41
-30.0
 62
     5
 63
     7
 74
     1
 91
        4
 64
     7
 65
   257
 75
     1
175
     1
 42
1.0
 92
        8
 66
     7
 43
1.0
 76
     1
 77
     6
 78
     2
 67
     7
 79
     5
170
     0
171
     0
290
     0
174
     0
 93
        1
 44
0.0
173
     0
291
     1
 45
0.0
1001
ACAD
1000
AcDbSavedByObjectVersion
1070
     0
  0
VISUALSTYLE
  5
2B
102
{ACAD_REACTORS
330
2A
102
}
330
2A
100
AcDbVisualStyle
  2
Flat
 70
     0
 71
     2
 72
     1
 73
     1
 90
        2
 40
-0.6
 41
30.0
 62
     5
 63
     7
 74
     0
 91
        4
 64
     7
 65
   257
 75
     1
175
     1
 42
1.0
 92
        8
 66
     7
 43
1.0
 76
     1
 77
     6
 78
     2
 67
     7
 79
     5
170
     0
171
     0
290
     0
174
     0
 93
       13
 44
0.0
173
     0
291
     1
 45
0.0
1001
ACAD
1000
AcDbSavedByObjectVersion
1070
     0
  0
VISUALSTYLE
  5
2C
102
{ACAD_REACTORS
330
2A
102
}
330
2A
100
AcDbVisualStyle
  2
FlatWithEdges
 70
     1
 71
     2
 72
     1
 73
     1
 90
        2
 40
-0.6
 41
30.0
 62
     5
 63
     7
 74
     1
 91
        4
 64
     7
 65
   257
 75
     1
175
     1
 42
1.0
 92
        0
 66
   257
 43
1.0
 76
     1
 77
     6
 78
     2
 67
     7
 79
     5
170
     0
171
     0
290
     0
174
     0
 93
       13
 44
0.0
173
     0
291
     1
 45
0.0
1001
ACAD
1000
AcDbSavedByObjectVersion
1070
     0
  0
VISUALSTYLE
  5
2D
102
{ACAD_REACTORS
330
2A
102
}
330
2A
100
AcDbVisualStyle
  2
Gouraud
 70
     2
 71
     2
 72
     2
 73
     1
 90
        2
 40
-0.6
 41
30.0
 62
     5
 63
     7
 74
     0
 91
        4
 64
     7
 65
   257
 75
     1
175
     1
 42
1.0
 92
        0
 66
     7
 43
1.0
 76
     1
 77
     6
 78
     2
 67
     7
 79
     5
170
     0
171
     0
290
     0
174
     0
 93
       13
 44
0.0
173
     0
291
     1
 45
0.0
1001
ACAD
1000
AcDbSavedByObjectVersion
1070
     0
  0
VISUALSTYLE
  5
2E
102
{ACAD_REACTORS
330
2A
102
}
330
2A
100
AcDbVisualStyle
  2
GouraudWithEdges
 70
     3
 71
     2
 72
     2
 73
     1
 90
        2
 40
-0.6
 41
30.0
 62
     5
 63
     7
 74
     1
 91
        4
 64
     7
 65
   257
 75
     1
175
     1
 42
1.0
 92
        0
 66
   257
 43
1.0
 76
     1
 77
     6
 78
     2
 67
     7
 79
     5
170
     0
171
     0
290
     0
174
     0
 93
       13
 44
0.0
173
     0
291
     1
 45
0.0
1001
ACAD
1000
AcDbSavedByObjectVersion
1070
     0
  0
VISUALSTYLE
  5
38
102
{ACAD_REACTORS
330
2A
102
}
330
2A
100
AcDbVisualStyle
  2
Linepattern
 70
    14
 71
     2
 72
     2
 73
     0
 90
        0
 40
-0.6
 41
-30.0
 62
     5
 63
     7
 74
     1
 91
        4
 64
     7
 65
   257
 75
     7
175
     7
 42
1.0
 92
        8
 66
     7
 43
1.0
 76
     1
 77
     6
 78
     2
 67
     7
 79
     5
170
     0
171
     0
290
     0
174
     0
 93
        1
 44
0.0
173
     0
291
     1
 45
0.0
1001
ACAD
1000
AcDbSavedByObjectVersion
1070
     0
  0
VISUALSTYLE
  5
33
102
{ACAD_REACTORS
330
2A
102
}
330
2A
100
AcDbVisualStyle
  2
Realistic
 70
     8
 71
     2
 72
     2
 73
     0
 90
        0
 40
-0.6
 41
-30.0
 62
     5
 63
     7
 74
     1
 91
        0
 64
     7
 65
   257
 75
     1
175
     1
 42
1.0
 92
        8
 66
     8
 43
1.0
 76
     1
 77
     6
 78
     2
 67
     7
 79
     5
170
     0
171
     0
290
     0
174
     0
 93
       13
 44
0.0
173
     0
291
     0
 45
0.0
1001
ACAD
1000
AcDbSavedByObjectVersion
1070
     0
  0
VISUALSTYLE
  5
37
102
{ACAD_REACTORS
330
2A
102
}
330
2A
100
AcDbVisualStyle
  2
Thicken
 70
    13
 71
     2
 72
     2
 73
     0
 90
        0
 40
-0.6
 41
-30.0
 62
     5
 63
     7
 74
     1
 91
        4
 64
     7
 65
   257
 75
     1
175
     1
 42
1.0
 92
       12
 66
     7
 43
1.0
 76
     1
 77
     6
 78
     2
 67
     7
 79
     5
170
     0
171
     0
290
     0
174
     0
 93
        1
 44
0.0
173
     0
291
     1
 45
0.0
1001
ACAD
1000
AcDbSavedByObjectVersion
1070
     0
  0
DICTIONARYVAR
  5
FD
102
{ACAD_REACTORS
330
FA
102
}
330
FA
100
DictionaryVariables
280
     0
  1
1:1
  0
ENDSEC
  0
EOF
