  0
SECTION
  2
HEADER
  9
$ACADVER
  1
AC1015
  9
$ACADMAINTVER
 70
     6
  9
$DWGCODEPAGE
  3
ANSI_1252
  9
$INSBASE
 10
0.0
 20
0.0
 30
0.0
  9
$EXTMIN
 10
96.8320663812
 20
225.4513696057437
 30
0.0
  9
$EXTMAX
 10
239.831456341722
 20
331.054536244913
 30
0.0
  9
$LIMMIN
 10
0.0
 20
0.0
  9
$LIMMAX
 10
12.0
 20
9.0
  9
$ORTHOMODE
 70
     0
  9
$REGENMODE
 70
     1
  9
$FILLMODE
 70
     1
  9
$QTEXTMODE
 70
     0
  9
$MIRRTEXT
 70
     1
  9
$LTSCALE
 40
1.0
  9
$ATTMODE
 70
     1
  9
$TEXTSIZE
 40
0.2
  9
$TRACEWID
 40
0.05
  9
$TEXTSTYLE
  7
Standard
  9
$CLAYER
  8
0
  9
$CELTYPE
  6
ByLayer
  9
$CECOLOR
 62
   256
  9
$CELTSCALE
 40
1.0
  9
$DISPSILH
 70
     0
  9
$DIMSCALE
 40
1.0
  9
$DIMASZ
 40
0.18
  9
$DIMEXO
 40
0.0625
  9
$DIMDLI
 40
0.38
  9
$DIMRND
 40
0.0
  9
$DIMDLE
 40
0.0
  9
$DIMEXE
 40
0.18
  9
$DIMTP
 40
0.0
  9
$DIMTM
 40
0.0
  9
$DIMTXT
 40
0.18
  9
$DIMCEN
 40
0.09
  9
$DIMTSZ
 40
0.0
  9
$DIMTOL
 70
     0
  9
$DIMLIM
 70
     0
  9
$DIMTIH
 70
     1
  9
$DIMTOH
 70
     1
  9
$DIMSE1
 70
     0
  9
$DIMSE2
 70
     0
  9
$DIMTAD
 70
     0
  9
$DIMZIN
 70
     0
  9
$DIMBLK
  1

  9
$DIMASO
 70
     1
  9
$DIMSHO
 70
     1
  9
$DIMPOST
  1

  9
$DIMAPOST
  1

  9
$DIMALT
 70
     0
  9
$DIMALTD
 70
     2
  9
$DIMALTF
 40
25.4
  9
$DIMLFAC
 40
1.0
  9
$DIMTOFL
 70
     0
  9
$DIMTVP
 40
0.0
  9
$DIMTIX
 70
     0
  9
$DIMSOXD
 70
     0
  9
$DIMSAH
 70
     0
  9
$DIMBLK1
  1

  9
$DIMBLK2
  1

  9
$DIMSTYLE
  2
Standard
  9
$DIMCLRD
 70
     0
  9
$DIMCLRE
 70
     0
  9
$DIMCLRT
 70
     0
  9
$DIMTFAC
 40
1.0
  9
$DIMGAP
 40
0.09
  9
$DIMJUST
 70
     0
  9
$DIMSD1
 70
     0
  9
$DIMSD2
 70
     0
  9
$DIMTOLJ
 70
     1
  9
$DIMTZIN
 70
     0
  9
$DIMALTZ
 70
     0
  9
$DIMALTTZ
 70
     0
  9
$DIMUPT
 70
     0
  9
$DIMDEC
 70
     4
  9
$DIMTDEC
 70
     4
  9
$DIMALTU
 70
     2
  9
$DIMALTTD
 70
     2
  9
$DIMTXSTY
  7
Standard
  9
$DIMAUNIT
 70
     0
  9
$DIMADEC
 70
     0
  9
$DIMALTRND
 40
0.0
  9
$DIMAZIN
 70
     0
  9
$DIMDSEP
 70
    46
  9
$DIMATFIT
 70
     3
  9
$DIMFRAC
 70
     0
  9
$DIMLDRBLK
  1

  9
$DIMLUNIT
 70
     2
  9
$DIMLWD
 70
    -2
  9
$DIMLWE
 70
    -2
  9
$DIMTMOVE
 70
     0
  9
$LUNITS
 70
     2
  9
$LUPREC
 70
     4
  9
$SKETCHINC
 40
0.1
  9
$FILLETRAD
 40
0.5
  9
$AUNITS
 70
     0
  9
$AUPREC
 70
     0
  9
$MENU
  1
.
  9
$ELEVATION
 40
0.0
  9
$PELEVATION
 40
0.0
  9
$THICKNESS
 40
0.0
  9
$LIMCHECK
 70
     0
  9
$CHAMFERA
 40
0.5
  9
$CHAMFERB
 40
0.5
  9
$CHAMFERC
 40
1.0
  9
$CHAMFERD
 40
0.0
  9
$SKPOLY
 70
     0
  9
$TDCREATE
 40
2456821.357598264
  9
$TDUCREATE
 40
2456821.274264931
  9
$TDUPDATE
 40
2456821.357598275
  9
$TDUUPDATE
 40
2456821.274264942
  9
$TDINDWG
 40
0.0000000116
  9
$TDUSRTIMER
 40
0.0000000116
  9
$USRTIMER
 70
     1
  9
$ANGBASE
 50
0.0
  9
$ANGDIR
 70
     0
  9
$PDMODE
 70
     0
  9
$PDSIZE
 40
0.0
  9
$PLINEWID
 40
0.0
  9
$SPLFRAME
 70
     0
  9
$SPLINETYPE
 70
     6
  9
$SPLINESEGS
 70
     8
  9
$HANDSEED
  5
FE
  9
$SURFTAB1
 70
     6
  9
$SURFTAB2
 70
     6
  9
$SURFTYPE
 70
     6
  9
$SURFU
 70
     6
  9
$SURFV
 70
     6
  9
$UCSBASE
  2

  9
$UCSNAME
  2

  9
$UCSORG
 10
0.0
 20
0.0
 30
0.0
  9
$UCSXDIR
 10
1.0
 20
0.0
 30
0.0
  9
$UCSYDIR
 10
0.0
 20
1.0
 30
0.0
  9
$UCSORTHOREF
  2

  9
$UCSORTHOVIEW
 70
     0
  9
$UCSORGTOP
 10
0.0
 20
0.0
 30
0.0
  9
$UCSORGBOTTOM
 10
0.0
 20
0.0
 30
0.0
  9
$UCSORGLEFT
 10
0.0
 20
0.0
 30
0.0
  9
$UCSORGRIGHT
 10
0.0
 20
0.0
 30
0.0
  9
$UCSORGFRONT
 10
0.0
 20
0.0
 30
0.0
  9
$UCSORGBACK
 10
0.0
 20
0.0
 30
0.0
  9
$PUCSBASE
  2

  9
$PUCSNAME
  2

  9
$PUCSORG
 10
0.0
 20
0.0
 30
0.0
  9
$PUCSXDIR
 10
1.0
 20
0.0
 30
0.0
  9
$PUCSYDIR
 10
0.0
 20
1.0
 30
0.0
  9
$PUCSORTHOREF
  2

  9
$PUCSORTHOVIEW
 70
     0
  9
$PUCSORGTOP
 10
0.0
 20
0.0
 30
0.0
  9
$PUCSORGBOTTOM
 10
0.0
 20
0.0
 30
0.0
  9
$PUCSORGLEFT
 10
0.0
 20
0.0
 30
0.0
  9
$PUCSORGRIGHT
 10
0.0
 20
0.0
 30
0.0
  9
$PUCSORGFRONT
 10
0.0
 20
0.0
 30
0.0
  9
$PUCSORGBACK
 10
0.0
 20
0.0
 30
0.0
  9
$USERI1
 70
     0
  9
$USERI2
 70
     0
  9
$USERI3
 70
     0
  9
$USERI4
 70
     0
  9
$USERI5
 70
     0
  9
$USERR1
 40
16.5
  9
$USERR2
 40
0.0
  9
$USERR3
 40
0.0
  9
$USERR4
 40
0.0
  9
$USERR5
 40
0.0
  9
$WORLDVIEW
 70
     1
  9
$SHADEDGE
 70
     3
  9
$SHADEDIF
 70
    70
  9
$TILEMODE
 70
     1
  9
$MAXACTVP
 70
    64
  9
$PINSBASE
 10
0.0
 20
0.0
 30
0.0
  9
$PLIMCHECK
 70
     0
  9
$PEXTMIN
 10
1.00000000000000E+20
 20
1.00000000000000E+20
 30
1.00000000000000E+20
  9
$PEXTMAX
 10
-1.00000000000000E+20
 20
-1.00000000000000E+20
 30
-1.00000000000000E+20
  9
$PLIMMIN
 10
0.0
 20
0.0
  9
$PLIMMAX
 10
12.0
 20
9.0
  9
$UNITMODE
 70
     0
  9
$VISRETAIN
 70
     1
  9
$PLINEGEN
 70
     0
  9
$PSLTSCALE
 70
     1
  9
$TREEDEPTH
 70
  3020
  9
$CMLSTYLE
  2
Standard
  9
$CMLJUST
 70
     0
  9
$CMLSCALE
 40
1.0
  9
$PROXYGRAPHICS
 70
     1
  9
$MEASUREMENT
 70
     1
  9
$CELWEIGHT
370
    -1
  9
$ENDCAPS
280
     0
  9
$JOINSTYLE
280
     0
  9
$LWDISPLAY
290
     0
  9
$INSUNITS
 70
     1
  9
$HYPERLINKBASE
  1

  9
$STYLESHEET
  1

  9
$XEDIT
290
     1
  9
$CEPSNTYPE
380
     0
  9
$PSTYLEMODE
290
     1
  9
$FINGERPRINTGUID
  2
{4EBCFA4F-C22B-45A0-8DF3-19BF235B90D5}
  9
$VERSIONGUID
  2
{FAEB1C32-E019-11D5-929B-00C0DF256EC4}
  9
$EXTNAMES
290
     1
  9
$PSVPSCALE
 40
0.0
  9
$OLESTARTUP
290
     0
  0
ENDSEC
  0
SECTION
  2
CLASSES
  0
CLASS
  1
ACDBDICTIONARYWDFLT
  2
AcDbDictionaryWithDefault
  3
ObjectDBX Classes
 90
        0
280
     0
281
     0
  0
CLASS
  1
VISUALSTYLE
  2
AcDbVisualStyle
  3
ObjectDBX Classes
 90
     4095
280
     0
281
     0
  0
CLASS
  1
SCALE
  2
AcDbScale
  3
ObjectDBX Classes
 90
     1153
280
     0
281
     0
  0
CLASS
  1

  2
exOdDbPolyline
  3

 90
        0
280
     0
281
     1
  0
CLASS
  1

  2
exOdDbSpline
  3

 90
        0
280
     0
281
     1
  0
CLASS
  1
DICTIONARYVAR
  2
AcDbDictionaryVar
  3
ObjectDBX Classes
 90
        0
280
     0
281
     0
  0
CLASS
  1
ACDBPLACEHOLDER
  2
AcDbPlaceHolder
  3
ObjectDBX Classes
 90
        0
280
     0
281
     0
  0
CLASS
  1
LAYOUT
  2
AcDbLayout
  3
ObjectDBX Classes
 90
        0
280
     0
281
     0
  0
ENDSEC
  0
SECTION
  2
TABLES
  0
TABLE
  2
VPORT
  5
8
330
0
100
AcDbSymbolTable
 70
     1
  0
VPORT
  5
29
330
8
100
AcDbSymbolTableRecord
100
AcDbViewportTableRecord
  2
*Active
 70
     0
 10
0.0
 20
0.0
 11
1.0
 21
1.0
 12
168.331761361461
 22
278.2529529253284
 13
0.0
 23
0.0
 14
0.5
 24
0.5
 15
0.5
 25
0.5
 16
0.0
 26
0.0
 36
1.0
 17
0.0
 27
0.0
 37
0.0
 40
116.1634833030862
 41
1.60267857142857
 42
50.0
 43
0.0
 44
0.0
 50
0.0
 51
0.0
 71
     0
 72
   100
 73
     1
 74
     3
 75
     0
 76
     0
 77
     0
 78
     0
281
     0
 65
     1
110
0.0
120
0.0
130
0.0
111
1.0
121
0.0
131
0.0
112
0.0
122
1.0
132
0.0
 79
     0
146
0.0
  0
ENDTAB
  0
TABLE
  2
LTYPE
  5
5
330
0
100
AcDbSymbolTable
 70
     8
  0
LTYPE
  5
14
330
5
100
AcDbSymbolTableRecord
100
AcDbLinetypeTableRecord
  2
ByBlock
 70
     0
  3

 72
    65
 73
     0
 40
0.0
  0
LTYPE
  5
15
330
5
100
AcDbSymbolTableRecord
100
AcDbLinetypeTableRecord
  2
ByLayer
 70
     0
  3

 72
    65
 73
     0
 40
0.0
  0
LTYPE
  5
16
330
5
100
AcDbSymbolTableRecord
100
AcDbLinetypeTableRecord
  2
Continuous
 70
     0
  3
Solid line
 72
    65
 73
     0
 40
0.0
  0
LTYPE
  5
3B
330
5
100
AcDbSymbolTableRecord
100
AcDbLinetypeTableRecord
  2
DASHED
 70
     0
  3
Dashed
 72
    65
 73
     2
 40
15.0
 49
7.0
 74
     0
 49
-8.0
 74
     0
  0
LTYPE
  5
3C
330
5
100
AcDbSymbolTableRecord
100
AcDbLinetypeTableRecord
  2
DOTTED
 70
     0
  3
Dotted
 72
    65
 73
     2
 40
1.0
 49
0.0
 74
     0
 49
-1.0
 74
     0
  0
LTYPE
  5
3D
330
5
100
AcDbSymbolTableRecord
100
AcDbLinetypeTableRecord
  2
DOT_CENTER
 70
     0
  3
Dot_Center
 72
    65
 73
     4
 40
14.0
 49
12.0
 74
     0
 49
-1.0
 74
     0
 49
0.0
 74
     0
 49
-1.0
 74
     0
  0
LTYPE
  5
3E
330
5
100
AcDbSymbolTableRecord
100
AcDbLinetypeTableRecord
  2
LONG_DASHED
 70
     0
  3
Long_Dashed
 72
    65
 73
     2
 40
15.0
 49
10.0
 74
     0
 49
-5.0
 74
     0
  0
LTYPE
  5
3F
330
5
100
AcDbSymbolTableRecord
100
AcDbLinetypeTableRecord
  2
DASH_CENTER
 70
     0
  3
Dash_Center
 72
    65
 73
     4
 40
14.0
 49
11.0
 74
     0
 49
-1.0
 74
     0
 49
1.0
 74
     0
 49
-1.0
 74
     0
  0
LTYPE
  5
40
330
5
100
AcDbSymbolTableRecord
100
AcDbLinetypeTableRecord
  2
PHANTOM
 70
     0
  3
Phantom
 72
    65
 73
     6
 40
13.0
 49
10.0
 74
     0
 49
-1.0
 74
     0
 49
0.0
 74
     0
 49
-1.0
 74
     0
 49
0.0
 74
     0
 49
-1.0
 74
     0
  0
LTYPE
  5
41
330
5
100
AcDbSymbolTableRecord
100
AcDbLinetypeTableRecord
  2
CENTER_DASH_DASH
 70
     0
  3
Center_Dash_Dash
 72
    65
 73
     6
 40
14.0
 49
9.0
 74
     0
 49
-1.0
 74
     0
 49
1.0
 74
     0
 49
-1.0
 74
     0
 49
1.0
 74
     0
 49
-1.0
 74
     0
  0
ENDTAB
  0
TABLE
  2
LAYER
  5
2
330
0
100
AcDbSymbolTable
 70
     6
  0
LAYER
  5
10
330
2
100
AcDbSymbolTableRecord
100
AcDbLayerTableRecord
  2
0
 70
     0
 62
     7
  6
Continuous
370
    -3
390
F
  0
LAYER
  5
42
330
2
100
AcDbSymbolTableRecord
100
AcDbLayerTableRecord
  2
1
 70
     0
 62
     7
  6
Continuous
370
    -3
390
F
  0
LAYER
  5
43
330
2
100
AcDbSymbolTableRecord
100
AcDbLayerTableRecord
  2
BEZUGSACHSEN
 70
     0
 62
     7
  6
Continuous
370
    -3
390
F
  0
LAYER
  5
44
330
2
100
AcDbSymbolTableRecord
100
AcDbLayerTableRecord
  2
DEFAULT_2
 70
     0
 62
     7
  6
Continuous
370
    -3
390
F
  0
LAYER
  5
45
330
2
100
AcDbSymbolTableRecord
100
AcDbLayerTableRecord
  2
RUNDUNGEN
 70
     0
 62
     7
  6
Continuous
370
    -3
390
F
  0
LAYER
  5
46
330
2
100
AcDbSymbolTableRecord
100
AcDbLayerTableRecord
  2
TEIL_STARTBEZUEGE
 70
     0
 62
     7
  6
Continuous
370
    -3
390
F
  0
ENDTAB
  0
TABLE
  2
STYLE
  5
3
330
0
100
AcDbSymbolTable
 70
     2
  0
STYLE
  5
11
330
3
100
AcDbSymbolTableRecord
100
AcDbTextStyleTableRecord
  2
Standard
 70
     0
 40
0.0
 41
1.0
 50
0.0
 71
     0
 42
0.2
  3
txt
  4

  0
STYLE
  5
6D
330
3
100
AcDbSymbolTableRecord
100
AcDbTextStyleTableRecord
  2
CONVERTER_11
 70
     0
 40
0.0
 41
0.72
 50
0.0
 71
     0
 42
0.2
  3
txt.shx
  4

  0
ENDTAB
  0
TABLE
  2
VIEW
  5
6
330
0
100
AcDbSymbolTable
 70
     0
  0
ENDTAB
  0
TABLE
  2
UCS
  5
7
330
0
100
AcDbSymbolTable
 70
     0
  0
ENDTAB
  0
TABLE
  2
APPID
  5
9
330
0
100
AcDbSymbolTable
 70
     1
  0
APPID
  5
12
330
9
100
AcDbSymbolTableRecord
100
AcDbRegAppTableRecord
  2
ACAD
 70
     0
  0
ENDTAB
  0
TABLE
  2
DIMSTYLE
  5
A
330
0
100
AcDbSymbolTable
 70
     6
100
AcDbDimStyleTable
  0
DIMSTYLE
105
27
330
A
100
AcDbSymbolTableRecord
100
AcDbDimStyleTableRecord
  2
Standard
 70
     0
340
11
  0
DIMSTYLE
105
C5
102
{ACAD_REACTORS
330
C6
102
}
330
A
100
AcDbSymbolTableRecord
100
AcDbDimStyleTableRecord
  2
ME10_DIM_10
 70
     0
  3
<>
 41
3.5
 42
2.0
 44
2.0
 71
     1
 73
     0
 74
     0
 77
     1
 78
     8
140
3.5
146
0.7
147
2.0
172
     1
173
     1
176
     2
177
     2
178
     3
271
     2
272
     0
340
6D
  0
DIMSTYLE
105
D0
102
{ACAD_REACTORS
330
D1
102
}
330
A
100
AcDbSymbolTableRecord
100
AcDbDimStyleTableRecord
  2
ME10_DIM_11
 70
     0
  3
<>
 41
3.5
 42
2.0
 44
2.0
 71
     1
 73
     0
 74
     0
 77
     1
 78
     8
140
3.5
146
0.7
147
2.0
172
     1
173
     1
176
     2
177
     2
178
     3
271
     2
272
     0
340
6D
  0
DIMSTYLE
105
DB
102
{ACAD_REACTORS
330
DC
102
}
330
A
100
AcDbSymbolTableRecord
100
AcDbDimStyleTableRecord
  2
ME10_DIM_12
 70
     0
  3
<>
 41
3.5
 42
2.0
 44
2.0
 71
     1
 73
     0
 74
     0
 77
     1
 78
     8
140
3.5
146
0.7
147
2.0
172
     1
173
     1
176
     2
177
     2
178
     3
271
     2
272
     0
340
6D
  0
DIMSTYLE
105
E6
102
{ACAD_REACTORS
330
E7
102
}
330
A
100
AcDbSymbolTableRecord
100
AcDbDimStyleTableRecord
  2
ME10_DIM_13
 70
     0
  3
\U+2300<>
 41
3.5
 42
2.0
 44
2.0
 71
     1
 73
     0
 74
     0
 77
     1
 78
     8
140
3.5
146
0.7
147
2.0
172
     1
173
     1
176
     2
177
     2
178
     3
271
     2
272
     0
340
6D
  0
DIMSTYLE
105
F1
102
{ACAD_REACTORS
330
F2
102
}
330
A
100
AcDbSymbolTableRecord
100
AcDbDimStyleTableRecord
  2
ME10_DIM_14
 70
     0
  3
\U+2300<>
 41
3.5
 42
2.0
 44
2.0
 71
     1
 73
     0
 74
     0
 77
     1
 78
     8
140
3.5
146
0.7
147
2.0
172
     1
173
     1
176
     2
177
     2
178
     3
271
     2
272
     0
340
6D
  0
ENDTAB
  0
TABLE
  2
BLOCK_RECORD
  5
1
330
0
100
AcDbSymbolTable
 70
     8
  0
BLOCK_RECORD
  5
1F
330
1
100
AcDbSymbolTableRecord
100
AcDbBlockTableRecord
  2
*Model_Space
340
22
  0
BLOCK_RECORD
  5
1B
330
1
100
AcDbSymbolTableRecord
100
AcDbBlockTableRecord
  2
*Paper_Space
340
1E
  0
BLOCK_RECORD
  5
23
330
1
100
AcDbSymbolTableRecord
100
AcDbBlockTableRecord
  2
*Paper_Space0
340
26
  0
BLOCK_RECORD
  5
47
330
1
100
AcDbSymbolTableRecord
100
AcDbBlockTableRecord
  2
Urheberrecht_DE-EN_horizontal
340
0
102
{BLKREFS
331
6C
102
}
  0
BLOCK_RECORD
  5
BC
330
1
100
AcDbSymbolTableRecord
100
AcDbBlockTableRecord
  2
*D2
340
0
  0
BLOCK_RECORD
  5
C7
330
1
100
AcDbSymbolTableRecord
100
AcDbBlockTableRecord
  2
*D3
340
0
  0
BLOCK_RECORD
  5
D2
330
1
100
AcDbSymbolTableRecord
100
AcDbBlockTableRecord
  2
*D4
340
0
  0
BLOCK_RECORD
  5
DD
330
1
100
AcDbSymbolTableRecord
100
AcDbBlockTableRecord
  2
*D5
340
0
  0
BLOCK_RECORD
  5
E8
330
1
100
AcDbSymbolTableRecord
100
AcDbBlockTableRecord
  2
*D6
340
0
  0
BLOCK_RECORD
  5
F3
330
1
100
AcDbSymbolTableRecord
100
AcDbBlockTableRecord
  2
*D7
340
0
102
{BLKREFS
331
F9
102
}
  0
ENDTAB
  0
ENDSEC
  0
SECTION
  2
BLOCKS
  0
BLOCK
  5
20
330
1F
100
AcDbEntity
  8
0
100
AcDbBlockBegin
  2
*Model_Space
 70
     0
 10
0.0
 20
0.0
 30
0.0
  3
*Model_Space
  1

  0
ENDBLK
  5
21
330
1F
100
AcDbEntity
  8
0
100
AcDbBlockEnd
  0
BLOCK
  5
1C
330
1B
100
AcDbEntity
 67
     1
  8
0
100
AcDbBlockBegin
  2
*Paper_Space
 70
     0
 10
0.0
 20
0.0
 30
0.0
  3
*Paper_Space
  1

  0
ENDBLK
  5
1D
330
1B
100
AcDbEntity
 67
     1
  8
0
100
AcDbBlockEnd
  0
BLOCK
  5
24
330
23
100
AcDbEntity
  8
0
100
AcDbBlockBegin
  2
*Paper_Space0
 70
     0
 10
0.0
 20
0.0
 30
0.0
  3
*Paper_Space0
  1

  0
ENDBLK
  5
25
330
23
100
AcDbEntity
  8
0
100
AcDbBlockEnd
  0
BLOCK
  5
48
330
47
100
AcDbEntity
  8
0
100
AcDbBlockBegin
  2
Urheberrecht_DE-EN_horizontal
 70
     0
 10
168.022923842772
 20
232.849377615648
 30
0.0
  3
Urheberrecht_DE-EN_horizontal
  1

  0
MTEXT
  5
6E
330
47
100
AcDbEntity
  8
1
 62
     1
100
AcDbMText
 10
170.8585283707189
 20
226.0513696057437
 30
0.0
 40
2.0
 41
0.0
 71
     7
 72
     1
  1
We own the copyright of this document. It \Pdetermined and may neither be copied or \Pmade accessible to outsiders without our\Ppermission.
  7
CONVERTER_11
 73
     1
 44
0.90036014405762
  0
MTEXT
  5
6F
330
47
100
AcDbEntity
  8
1
 62
     1
100
AcDbMText
 10
114.5691414534128
 20
226.0513696057437
 30
0.0
 40
2.0
 41
0.0
 71
     7
 72
     1
  1
F\U+00fcr diese Unterlage behalten wir das Ur-\Pheberrecht. Sie darf nur f\U+00fcr den von uns \Pbestimmten Zweck benutzt und ohne unsere \PZustimmung weder vervielf\U+00e4ltigt noch\PDritten zug\U+00e4nglich gemacht werden.
  7
CONVERTER_11
 73
     1
 44
0.90036014405762
  0
ENDBLK
  5
49
330
47
100
AcDbEntity
  8
0
100
AcDbBlockEnd
  0
BLOCK
  5
C3
330
BC
100
AcDbEntity
  8
0
100
AcDbBlockBegin
  2
*D2
 70
     1
 10
0.0
 20
0.0
 30
0.0
  3
*D2
  1

  0
LINE
  5
BD
330
BC
100
AcDbEntity
  8
1
  6
Continuous
 62
     2
100
AcDbLine
 10
218.3570663812
 20
325.554536244913
 30
0.0
 11
99.9570663812
 21
325.554536244913
 31
0.0
  0
LINE
  5
BE
330
BC
100
AcDbEntity
  8
1
  6
Continuous
 62
     2
100
AcDbLine
 10
99.9570663812
 20
287.7594071073
 30
0.0
 11
99.9570663812
 21
327.554536244913
 31
0.0
  0
LINE
  5
BF
330
BC
100
AcDbEntity
  8
1
  6
Continuous
 62
     2
100
AcDbLine
 10
218.3570663812
 20
285.7269551378
 30
0.0
 11
218.3570663812
 21
327.554536244913
 31
0.0
  0
SOLID
  5
C0
330
BC
100
AcDbEntity
  8
1
 62
     2
100
AcDbTrace
 10
214.8570663812
 20
325.0937525033571
 30
0.0
 11
214.8570663812
 21
326.0153199864689
 31
0.0
 12
218.3570663812
 22
325.554536244913
 32
0.0
 13
218.3570663812
 23
325.554536244913
 33
0.0
  0
SOLID
  5
C1
330
BC
100
AcDbEntity
  8
1
 62
     2
100
AcDbTrace
 10
103.4570663812
 20
326.0153199864689
 30
0.0
 11
103.4570663812
 21
325.0937525033571
 31
0.0
 12
99.9570663812
 22
325.554536244913
 32
0.0
 13
99.9570663812
 23
325.554536244913
 33
0.0
  0
MTEXT
  5
C2
330
BC
100
AcDbEntity
  8
1
 62
     3
100
AcDbMText
 10
158.6485529793254
 20
327.554536244913
 30
0.0
 40
3.5
 41
0.0
 71
     7
 72
     1
  1
\C3;\C3;\C3;118.4\C2;\H2.45;\S^ ;\C3;
  7
CONVERTER_11
 11
0.9999999999970619
 21
2.424068405545306E-6
 31
0.0
 73
     1
 44
0.60024009603842
  0
ENDBLK
  5
C4
330
BC
100
AcDbEntity
  8
0
100
AcDbBlockEnd
  0
BLOCK
  5
CE
330
C7
100
AcDbEntity
  8
0
100
AcDbBlockBegin
  2
*D3
 70
     1
 10
0.0
 20
0.0
 30
0.0
  3
*D3
  1

  0
LINE
  5
C8
330
C7
100
AcDbEntity
  8
1
  6
Continuous
 62
     2
100
AcDbLine
 10
218.3570663812
 20
317.947883192819
 30
0.0
 11
168.3570663812
 21
317.947883192819
 31
0.0
  0
LINE
  5
C9
330
C7
100
AcDbEntity
  8
1
  6
Continuous
 62
     2
100
AcDbLine
 10
168.3570663812
 20
311.0723589064
 30
0.0
 11
168.3570663812
 21
319.947883192819
 31
0.0
  0
LINE
  5
CA
330
C7
100
AcDbEntity
  8
1
  6
Continuous
 62
     2
100
AcDbLine
 10
218.3570663812
 20
285.7269551378
 30
0.0
 11
218.3570663812
 21
319.947883192819
 31
0.0
  0
SOLID
  5
CB
330
C7
100
AcDbEntity
  8
1
 62
     2
100
AcDbTrace
 10
214.8570663812
 20
317.4870994512631
 30
0.0
 11
214.8570663812
 21
318.4086669343749
 31
0.0
 12
218.3570663812
 22
317.947883192819
 32
0.0
 13
218.3570663812
 23
317.947883192819
 33
0.0
  0
SOLID
  5
CC
330
C7
100
AcDbEntity
  8
1
 62
     2
100
AcDbTrace
 10
171.8570663812
 20
318.4086669343749
 30
0.0
 11
171.8570663812
 21
317.4870994512631
 31
0.0
 12
168.3570663812
 22
317.947883192819
 32
0.0
 13
168.3570663812
 23
317.947883192819
 33
0.0
  0
MTEXT
  5
CD
330
C7
100
AcDbEntity
  8
1
 62
     3
100
AcDbMText
 10
191.217742423486
 20
319.947883192819
 30
0.0
 40
3.5
 41
0.0
 71
     7
 72
     1
  1
\C3;\C3;\C3;50\C2;\H2.45;\S^ ;\C3;
  7
CONVERTER_11
 11
0.9999999999970619
 21
2.424068405545306E-6
 31
0.0
 73
     1
 44
0.60024009603842
  0
ENDBLK
  5
CF
330
C7
100
AcDbEntity
  8
0
100
AcDbBlockEnd
  0
BLOCK
  5
D9
330
D2
100
AcDbEntity
  8
0
100
AcDbBlockBegin
  2
*D4
 70
     1
 10
0.0
 20
0.0
 30
0.0
  3
*D4
  1

  0
LINE
  5
D3
330
D2
100
AcDbEntity
  8
1
  6
Continuous
 62
     2
100
AcDbLine
 10
218.3570663812
 20
310.632692444018
 30
0.0
 11
187.4570663812
 21
310.632692444018
 31
0.0
  0
LINE
  5
D4
330
D2
100
AcDbEntity
  8
1
  6
Continuous
 62
     2
100
AcDbLine
 10
187.4570663812
 20
305.9868096637
 30
0.0
 11
187.4570663812
 21
312.632692444018
 31
0.0
  0
LINE
  5
D5
330
D2
100
AcDbEntity
  8
1
  6
Continuous
 62
     2
100
AcDbLine
 10
218.3570663812
 20
285.7269551378
 30
0.0
 11
218.3570663812
 21
312.632692444018
 31
0.0
  0
SOLID
  5
D6
330
D2
100
AcDbEntity
  8
1
 62
     2
100
AcDbTrace
 10
214.8570663812
 20
310.1719087024621
 30
0.0
 11
214.8570663812
 21
311.0934761855739
 31
0.0
 12
218.3570663812
 22
310.632692444018
 32
0.0
 13
218.3570663812
 23
310.632692444018
 33
0.0
  0
SOLID
  5
D7
330
D2
100
AcDbEntity
  8
1
 62
     2
100
AcDbTrace
 10
190.9570663812
 20
311.0934761855739
 30
0.0
 11
190.9570663812
 21
310.1719087024621
 31
0.0
 12
187.4570663812
 22
310.632692444018
 32
0.0
 13
187.4570663812
 23
310.632692444018
 33
0.0
  0
MTEXT
  5
D8
330
D2
100
AcDbEntity
  8
1
 62
     3
100
AcDbMText
 10
198.011998527579
 20
312.632692444018
 30
0.0
 40
3.5
 41
0.0
 71
     7
 72
     1
  1
\C3;\C3;\C3;30.9\C2;\H2.45;\S^ ;\C3;
  7
CONVERTER_11
 11
0.9999999999970619
 21
2.424068405545306E-6
 31
0.0
 73
     1
 44
0.60024009603842
  0
ENDBLK
  5
DA
330
D2
100
AcDbEntity
  8
0
100
AcDbBlockEnd
  0
BLOCK
  5
E4
330
DD
100
AcDbEntity
  8
0
100
AcDbBlockBegin
  2
*D5
 70
     1
 10
0.0
 20
0.0
 30
0.0
  3
*D5
  1

  0
LINE
  5
DE
330
DD
100
AcDbEntity
  8
1
  6
Continuous
 62
     2
100
AcDbLine
 10
237.831456341722
 20
291.8098589064
 30
0.0
 11
237.831456341722
 21
256.8098589064
 31
0.0
  0
LINE
  5
DF
330
DD
100
AcDbEntity
  8
1
  6
Continuous
 62
     2
100
AcDbLine
 10
207.0891171887
 20
256.8098589064
 30
0.0
 11
239.831456341722
 21
256.8098589064
 31
0.0
  0
LINE
  5
E0
330
DD
100
AcDbEntity
  8
1
  6
Continuous
 62
     2
100
AcDbLine
 10
207.0891171887
 20
291.8098589064
 30
0.0
 11
239.831456341722
 21
291.8098589064
 31
0.0
  0
SOLID
  5
E1
330
DD
100
AcDbEntity
  8
1
 62
     2
100
AcDbTrace
 10
238.2922400832779
 20
288.3098589064
 30
0.0
 11
237.3706726001661
 21
288.3098589064
 31
0.0
 12
237.831456341722
 22
291.8098589064
 32
0.0
 13
237.831456341722
 23
291.8098589064
 33
0.0
  0
SOLID
  5
E2
330
DD
100
AcDbEntity
  8
1
 62
     2
100
AcDbTrace
 10
237.3706726001661
 20
260.3098589064
 30
0.0
 11
238.2922400832779
 21
260.3098589064
 31
0.0
 12
237.831456341722
 22
256.8098589064
 32
0.0
 13
237.831456341722
 23
256.8098589064
 33
0.0
  0
MTEXT
  5
E3
330
DD
100
AcDbEntity
  8
1
 62
     3
100
AcDbMText
 10
235.831456341722
 20
265.9799504818
 30
0.0
 40
3.5
 41
0.0
 71
     7
 72
     1
  1
\C3;%%c\C3;\C3;35\C2;\H2.45;\S^ ;\C3;
  7
CONVERTER_11
 11
0.0
 21
1.0
 31
0.0
 73
     1
 44
0.60024009603842
  0
ENDBLK
  5
E5
330
DD
100
AcDbEntity
  8
0
100
AcDbBlockEnd
  0
BLOCK
  5
EF
330
E8
100
AcDbEntity
  8
0
100
AcDbBlockBegin
  2
*D6
 70
     1
 10
0.0
 20
0.0
 30
0.0
  3
*D6
  1

  0
LINE
  5
E9
330
E8
100
AcDbEntity
  8
1
  6
Continuous
 62
     2
100
AcDbLine
 10
228.72637849481
 20
279.3098589064
 30
0.0
 11
228.72637849481
 21
269.3098589064
 31
0.0
  0
LINE
  5
EA
330
E8
100
AcDbEntity
  8
1
  6
Continuous
 62
     2
100
AcDbLine
 10
220.3570663812
 20
269.3098589064
 30
0.0
 11
230.72637849481
 21
269.3098589064
 31
0.0
  0
LINE
  5
EB
330
E8
100
AcDbEntity
  8
1
  6
Continuous
 62
     2
100
AcDbLine
 10
220.3570663812
 20
279.3098589064
 30
0.0
 11
230.72637849481
 21
279.3098589064
 31
0.0
  0
SOLID
  5
EC
330
E8
100
AcDbEntity
  8
1
 62
     2
100
AcDbTrace
 10
229.1871622363659
 20
275.8098589064
 30
0.0
 11
228.2655947532541
 21
275.8098589064
 31
0.0
 12
228.72637849481
 22
279.3098589064
 32
0.0
 13
228.72637849481
 23
279.3098589064
 33
0.0
  0
SOLID
  5
ED
330
E8
100
AcDbEntity
  8
1
 62
     2
100
AcDbTrace
 10
228.2655947532541
 20
272.8098589064
 30
0.0
 11
229.1871622363659
 21
272.8098589064
 31
0.0
 12
228.72637849481
 22
269.3098589064
 32
0.0
 13
228.72637849481
 23
269.3098589064
 33
0.0
  0
MTEXT
  5
EE
330
E8
100
AcDbEntity
  8
1
 62
     3
100
AcDbMText
 10
226.72637849481
 20
265.855202234549
 30
0.0
 40
3.5
 41
0.0
 71
     7
 72
     1
  1
\C3;%%c\C3;\C3;10\C2;\H2.45;\S^ ;\C3;
  7
CONVERTER_11
 11
0.0
 21
1.0
 31
0.0
 73
     1
 44
0.60024009603842
  0
ENDBLK
  5
F0
330
E8
100
AcDbEntity
  8
0
100
AcDbBlockEnd
  0
BLOCK
  5
F7
330
F3
100
AcDbEntity
  8
0
100
AcDbBlockBegin
  2
*D7
 70
     1
 10
0.0
 20
0.0
 30
0.0
  3
*D7
  1

  0
LINE
  5
F4
330
F3
100
AcDbEntity
  8
1
  6
Continuous
 62
     2
100
AcDbLine
 10
197.2912608774415
 20
300.9920867878625
 30
0.0
 11
188.2322823659334
 21
292.79731422729
 31
0.0
  0
SOLID
  5
F5
330
F3
100
AcDbEntity
  8
1
 62
     2
100
AcDbTrace
 10
190.5187477613149
 20
295.4869977871545
 30
0.0
 11
191.1369796728407
 21
294.8035682520156
 31
0.0
 12
188.2322823659334
 22
292.79731422729
 32
0.0
 13
188.2322823659334
 23
292.79731422729
 33
0.0
  0
MTEXT
  5
F6
330
F3
100
AcDbEntity
  8
1
 62
     3
100
AcDbMText
 10
190.4469319602753
 20
297.4975822917082
 30
0.0
 40
3.5
 41
0.0
 71
     7
 72
     1
  1
\C3; R\C3;\C3;3\C2;\H2.45;\S^ ;\C3;
  7
CONVERTER_11
 11
0.7415946717555456
 21
0.6708482263700072
 31
0.0
 73
     1
 44
0.60024009603842
  0
ENDBLK
  5
F8
330
F3
100
AcDbEntity
  8
0
100
AcDbBlockEnd
  0
ENDSEC
  0
SECTION
  2
ENTITIES
  0
INSERT
  5
6C
330
1F
100
AcDbEntity
  8
0
100
AcDbBlockReference
  2
Urheberrecht_DE-EN_horizontal
 10
168.022923842772
 20
232.849377615648
 30
0.0
  0
LWPOLYLINE
  5
70
330
1F
100
AcDbEntity
  8
BEZUGSACHSEN
  6
DASHED
 62
     8
100
AcDbPolyline
 90
        2
 70
     0
 43
0.35
 10
193.3570663812
 20
279.3098589064
 10
193.3570663812
 20
291.8098589064
  0
LWPOLYLINE
  5
71
330
1F
100
AcDbEntity
  8
BEZUGSACHSEN
  6
DASHED
 62
     8
100
AcDbPolyline
 90
        2
 70
     0
 43
0.35
 10
203.3570663812
 20
279.3098589064
 10
203.3570663812
 20
291.8098589064
  0
LINE
  5
72
330
1F
100
AcDbEntity
  8
RUNDUNGEN
  6
Continuous
 62
     7
100
AcDbLine
 10
218.3570663812
 20
283.7269551378
 30
0.0
 11
218.3570663812
 21
264.8927626751
 31
0.0
  0
LINE
  5
73
330
1F
100
AcDbEntity
  8
RUNDUNGEN
  6
Continuous
 62
     9
100
AcDbLine
 10
217.8570663812
 20
264.0267372713
 30
0.0
 11
217.8570663812
 21
284.5929805416
 31
0.0
  0
LINE
  5
74
330
1F
100
AcDbEntity
  8
RUNDUNGEN
  6
Continuous
 62
     9
100
AcDbLine
 10
205.5891171887
 20
256.9438335026
 30
0.0
 11
205.5891171887
 21
291.6758843102
 31
0.0
  0
LINE
  5
75
330
1F
100
AcDbEntity
  8
RUNDUNGEN
  6
Continuous
 62
     9
100
AcDbLine
 10
205.0891171887
 20
256.8098589064
 30
0.0
 11
205.0891171887
 21
291.8098589064
 31
0.0
  0
LWPOLYLINE
  5
76
330
1F
100
AcDbEntity
  8
BEZUGSACHSEN
  6
DASHED
 62
     8
100
AcDbPolyline
 90
        2
 70
     0
 43
0.35
 10
202.6070663812
 20
279.3098589064
 10
202.6070663812
 20
291.8098589064
  0
LINE
  5
77
330
1F
100
AcDbEntity
  8
0
  6
Continuous
 62
     7
100
AcDbLine
 10
205.5891171887
 20
291.6758843102
 30
0.0
 11
217.8570663812
 21
284.5929805416
 31
0.0
  0
LINE
  5
78
330
1F
100
AcDbEntity
  8
RUNDUNGEN
  6
Continuous
 62
     7
100
AcDbLine
 10
217.8570663812
 20
284.5929805416
 30
0.0
 11
205.5891171887
 21
291.6758843102
 31
0.0
  0
LINE
  5
79
330
1F
100
AcDbEntity
  8
0
  6
Continuous
 62
     7
100
AcDbLine
 10
205.5891171887
 20
256.9438335026
 30
0.0
 11
217.8570663812
 21
264.0267372713
 31
0.0
  0
LWPOLYLINE
  5
7A
330
1F
100
AcDbEntity
  8
BEZUGSACHSEN
  6
DOT_CENTER
 62
     7
100
AcDbPolyline
 90
        2
 70
     0
 43
0.25
 10
198.3570663812
 20
294.8098589064
 10
198.3570663812
 20
273.9403984985
  0
LWPOLYLINE
  5
7B
330
1F
100
AcDbEntity
  8
BEZUGSACHSEN
  6
DASHED
 62
     8
100
AcDbPolyline
 90
        2
 70
     0
 43
0.35
 10
194.1070663812
 20
279.3098589064
 10
194.1070663812
 20
291.8098589064
  0
LINE
  5
7C
330
1F
100
AcDbEntity
  8
0
  6
Continuous
 62
     7
100
AcDbLine
 10
183.0611199016
 20
305.0221757557
 30
0.0
 11
186.4570663812
 21
305.0221757557
 31
0.0
  0
LINE
  5
7D
330
1F
100
AcDbEntity
  8
0
  6
Continuous
 62
     7
100
AcDbLine
 10
172.5570663812
 20
305.0221757557
 30
0.0
 11
176.0030128607
 21
305.0221757557
 31
0.0
  0
LINE
  5
7E
330
1F
100
AcDbEntity
  8
RUNDUNGEN
  6
Continuous
 62
     9
100
AcDbLine
 10
190.4570663812
 20
291.8098589064
 30
0.0
 11
190.4570663812
 21
256.8098589064
 31
0.0
  0
LINE
  5
7F
330
1F
100
AcDbEntity
  8
0
  6
Continuous
 62
     7
100
AcDbLine
 10
187.4570663812
 20
303.9868096637
 30
0.0
 11
187.4570663812
 21
244.6329081492
 31
0.0
  0
LINE
  5
80
330
1F
100
AcDbEntity
  8
0
  6
Continuous
 62
     7
100
AcDbLine
 10
168.9070663812
 20
296.1848589064
 30
0.0
 11
167.8673840479
 21
296.463440948
 31
0.0
  0
LINE
  5
81
330
1F
100
AcDbEntity
  8
0
  6
Continuous
 62
     7
100
AcDbLine
 10
178.3695663812
 20
301.1126572678
 30
0.0
 11
180.6945663812
 21
301.1126572678
 31
0.0
  0
LINE
  5
82
330
1F
100
AcDbEntity
  8
0
  6
Continuous
 62
     9
100
AcDbLine
 10
186.4570663812
 20
305.0221757557
 30
0.0
 11
186.4570663812
 21
243.5975420572
 31
0.0
  0
LWPOLYLINE
  5
83
330
1F
100
AcDbEntity
  8
DEFAULT_2
  6
DASHED
 62
     8
100
AcDbPolyline
 90
        2
 70
     0
 43
0.35
 10
183.3570663812
 20
279.3098589064
 10
183.3570663812
 20
269.3098589064
  0
LINE
  5
84
330
1F
100
AcDbEntity
  8
0
  6
Continuous
 62
     7
100
AcDbLine
 10
183.0611199016
 20
305.0221757557
 30
0.0
 11
183.0611199016
 21
243.5975420572
 31
0.0
  0
LINE
  5
85
330
1F
100
AcDbEntity
  8
0
  6
Continuous
 62
     7
100
AcDbLine
 10
171.5570663812
 20
296.8598589064
 30
0.0
 11
171.5027803971
 21
296.8598589064
 31
0.0
  0
LINE
  5
86
330
1F
100
AcDbEntity
  8
0
  6
Continuous
 62
     7
100
AcDbLine
 10
170.5570663812
 20
296.1848589064
 30
0.0
 11
168.9070663812
 21
296.1848589064
 31
0.0
  0
LINE
  5
87
330
1F
100
AcDbEntity
  8
0
  6
Continuous
 62
     7
100
AcDbLine
 10
167.8673840479
 20
296.463440948
 30
0.0
 11
100.7699636454
 21
286.6994618077
 31
0.0
  0
LINE
  5
88
330
1F
100
AcDbEntity
  8
0
  6
Continuous
 62
     7
100
AcDbLine
 10
181.4445663812
 20
302.1166771089
 30
0.0
 11
181.4445663812
 21
246.503040704
 31
0.0
  0
LINE
  5
89
330
1F
100
AcDbEntity
  8
0
  6
Continuous
 62
     9
100
AcDbLine
 10
180.6945663812
 20
301.1126572678
 30
0.0
 11
180.6945663812
 21
247.5070605451
 31
0.0
  0
LINE
  5
8A
330
1F
100
AcDbEntity
  8
0
  6
Continuous
 62
     9
100
AcDbLine
 10
178.3695663812
 20
301.1126572678
 30
0.0
 11
178.3695663812
 21
247.5070605451
 31
0.0
  0
LINE
  5
8B
330
1F
100
AcDbEntity
  8
0
  6
Continuous
 62
     7
100
AcDbLine
 10
202.6070663812
 20
291.8098589064
 30
0.0
 11
205.0891171887
 21
291.8098589064
 31
0.0
  0
LINE
  5
8C
330
1F
100
AcDbEntity
  8
0
  6
Continuous
 62
     7
100
AcDbLine
 10
190.4570663812
 20
291.8098589064
 30
0.0
 11
194.1070663812
 21
291.8098589064
 31
0.0
  0
LINE
  5
8D
330
1F
100
AcDbEntity
  8
BEZUGSACHSEN
  6
Continuous
 62
     7
100
AcDbLine
 10
194.1070663812
 20
291.8098589064
 30
0.0
 11
190.4570663812
 21
291.8098589064
 31
0.0
  0
LINE
  5
8E
330
1F
100
AcDbEntity
  8
BEZUGSACHSEN
  6
Continuous
 62
     7
100
AcDbLine
 10
205.0891171887
 20
291.8098589064
 30
0.0
 11
202.6070663812
 21
291.8098589064
 31
0.0
  0
LINE
  5
8F
330
1F
100
AcDbEntity
  8
0
  6
Continuous
 62
     7
100
AcDbLine
 10
177.6195663812
 20
302.1166771089
 30
0.0
 11
177.6195663812
 21
246.503040704
 31
0.0
  0
LINE
  5
90
330
1F
100
AcDbEntity
  8
0
  6
Continuous
 62
     7
100
AcDbLine
 10
176.0030128607
 20
305.0221757557
 30
0.0
 11
176.0030128607
 21
243.5975420572
 31
0.0
  0
LINE
  5
91
330
1F
100
AcDbEntity
  8
0
  6
Continuous
 62
     9
100
AcDbLine
 10
172.5570663812
 20
305.0221757557
 30
0.0
 11
172.5570663812
 21
243.5975420572
 31
0.0
  0
LINE
  5
92
330
1F
100
AcDbEntity
  8
0
  6
Continuous
 62
     7
100
AcDbLine
 10
171.5570663812
 20
303.9868096637
 30
0.0
 11
171.5570663812
 21
244.6329081492
 31
0.0
  0
LINE
  5
93
330
1F
100
AcDbEntity
  8
0
  6
Continuous
 62
     9
100
AcDbLine
 10
170.5570663812
 20
296.1848589064
 30
0.0
 11
170.5570663812
 21
252.4348589064
 31
0.0
  0
LINE
  5
94
330
1F
100
AcDbEntity
  8
0
  6
Continuous
 62
     7
100
AcDbLine
 10
168.9070663812
 20
296.1848589064
 30
0.0
 11
168.9070663812
 21
252.4348589064
 31
0.0
  0
LWPOLYLINE
  5
95
330
1F
100
AcDbEntity
  8
TEIL_STARTBEZUEGE
  6
DOT_CENTER
 62
     7
100
AcDbPolyline
 90
        2
 70
     0
 43
0.25
 10
168.3570663812
 20
240.5975420572
 10
168.3570663812
 20
309.0723589064
  0
LINE
  5
96
330
1F
100
AcDbEntity
  8
0
  6
Continuous
 62
     7
100
AcDbLine
 10
167.8673840479
 20
296.463440948
 30
0.0
 11
167.8673840479
 21
252.1562768649
 31
0.0
  0
LWPOLYLINE
  5
97
330
1F
100
AcDbEntity
  8
DEFAULT_2
  6
DASHED
 62
     8
100
AcDbPolyline
 90
        2
 70
     0
 43
0.35
 10
194.1070663812
 20
279.3098589064
 10
218.3570663812
 20
279.3098589064
  0
LWPOLYLINE
  5
98
330
1F
100
AcDbEntity
  8
BEZUGSACHSEN
  6
DASHED
 62
     8
100
AcDbPolyline
 90
        2
 70
     0
 43
0.35
 10
194.1070663812
 20
279.3098589064
 10
183.3570663812
 20
279.3098589064
  0
LWPOLYLINE
  5
99
330
1F
100
AcDbEntity
  8
TEIL_STARTBEZUEGE
  6
DOT_CENTER
 62
     7
100
AcDbPolyline
 90
        2
 70
     0
 43
0.25
 10
221.3570663812
 20
274.3098589064
 10
96.9570663812
 20
274.3098589064
  0
LWPOLYLINE
  5
9A
330
1F
100
AcDbEntity
  8
DEFAULT_2
  6
DASHED
 62
     8
100
AcDbPolyline
 90
        2
 70
     0
 43
0.35
 10
218.3570663812
 20
269.3098589064
 10
183.3570663812
 20
269.3098589064
  0
LINE
  5
9B
330
1F
100
AcDbEntity
  8
0
  6
Continuous
 62
     7
100
AcDbLine
 10
167.8673840479
 20
252.1562768649
 30
0.0
 11
100.7699636454
 21
261.9202560052
 31
0.0
  0
LINE
  5
9C
330
1F
100
AcDbEntity
  8
0
  6
Continuous
 62
     7
100
AcDbLine
 10
190.4570663812
 20
256.8098589064
 30
0.0
 11
205.0891171887
 21
256.8098589064
 31
0.0
  0
LINE
  5
9D
330
1F
100
AcDbEntity
  8
0
  6
Continuous
 62
     7
100
AcDbLine
 10
170.5570663812
 20
252.4348589064
 30
0.0
 11
168.9070663812
 21
252.4348589064
 31
0.0
  0
LINE
  5
9E
330
1F
100
AcDbEntity
  8
0
  6
Continuous
 62
     7
100
AcDbLine
 10
168.9070663812
 20
252.4348589064
 30
0.0
 11
167.8673840479
 21
252.1562768649
 31
0.0
  0
LINE
  5
9F
330
1F
100
AcDbEntity
  8
0
  6
Continuous
 62
     7
100
AcDbLine
 10
178.3695663812
 20
247.5070605451
 30
0.0
 11
180.6945663812
 21
247.5070605451
 31
0.0
  0
LINE
  5
A0
330
1F
100
AcDbEntity
  8
0
  6
Continuous
 62
     7
100
AcDbLine
 10
183.0611199016
 20
243.5975420572
 30
0.0
 11
186.4570663812
 21
243.5975420572
 31
0.0
  0
LINE
  5
A1
330
1F
100
AcDbEntity
  8
0
  6
Continuous
 62
     7
100
AcDbLine
 10
172.5570663812
 20
243.5975420572
 30
0.0
 11
176.0030128607
 21
243.5975420572
 31
0.0
  0
LINE
  5
A2
330
1F
100
AcDbEntity
  8
0
  6
Continuous
 62
     9
100
AcDbLine
 10
100.7699636454
 20
286.6994618077
 30
0.0
 11
100.7699636454
 21
261.9202560052
 31
0.0
  0
LINE
  5
A3
330
1F
100
AcDbEntity
  8
0
  6
Continuous
 62
     7
100
AcDbLine
 10
99.9570663812
 20
285.7594071073
 30
0.0
 11
99.9570663812
 21
262.8603107056
 31
0.0
  0
ARC
  5
A4
330
1F
100
AcDbEntity
  8
RUNDUNGEN
  6
Continuous
 62
     7
100
AcDbCircle
 10
205.0891171887
 20
290.8098589064
 30
0.0
 40
1.000000000013472
100
AcDbArc
 50
60.00000000044565
 51
90.0
  0
ARC
  5
A5
330
1F
100
AcDbEntity
  8
RUNDUNGEN
  6
Continuous
 62
     7
100
AcDbCircle
 10
217.3570663812
 20
283.7269551378
 30
0.0
 40
1.0
100
AcDbArc
 50
0.0
 51
60.00000000044565
  0
ARC
  5
A6
330
1F
100
AcDbEntity
  8
RUNDUNGEN
  6
Continuous
 62
     7
100
AcDbCircle
 10
190.4570663812
 20
294.8098589064
 30
0.0
 40
3.0
100
AcDbArc
 50
180.0
 51
270.0
  0
ARC
  5
A7
330
1F
100
AcDbEntity
  8
0
  6
Continuous
 62
     7
100
AcDbCircle
 10
1145.5822811654
 20
781.0249324521
 30
0.0
 40
1102.395204011369
100
AcDbArc
 50
209.0041652430576
 51
209.1769749559899
  0
ARC
  5
A8
330
1F
100
AcDbEntity
  8
RUNDUNGEN
  6
Continuous
 62
     7
100
AcDbCircle
 10
217.3570663812
 20
264.8927626751
 30
0.0
 40
1.000000000013472
100
AcDbArc
 50
299.9999999995543
 51
0.0
  0
ARC
  5
A9
330
1F
100
AcDbEntity
  8
RUNDUNGEN
  6
Continuous
 62
     7
100
AcDbCircle
 10
205.0891171887
 20
257.8098589064
 30
0.0
 40
1.0
100
AcDbArc
 50
270.0
 51
299.9999999995543
  0
ARC
  5
AA
330
1F
100
AcDbEntity
  8
RUNDUNGEN
  6
Continuous
 62
     7
100
AcDbCircle
 10
190.4570663812
 20
253.8098589064
 30
0.0
 40
3.0
100
AcDbArc
 50
90.0
 51
180.0
  0
ARC
  5
AB
330
1F
100
AcDbEntity
  8
0
  6
Continuous
 62
     7
100
AcDbCircle
 10
1145.5822811843
 20
-232.4052146497
 30
0.0
 40
1102.395204032998
100
AcDbArc
 50
150.8230250440124
 51
150.9958347569413
  0
ARC
  5
AC
330
1F
100
AcDbEntity
  8
0
  6
Continuous
 62
     7
100
AcDbCircle
 10
100.9070663812
 20
285.7594071073
 30
0.0
 40
0.9499999999515931
100
AcDbArc
 50
98.2978268339964
 51
180.0
  0
ARC
  5
AD
330
1F
100
AcDbEntity
  8
0
  6
Continuous
 62
     7
100
AcDbCircle
 10
170.5570663812
 20
297.1848589064
 30
0.0
 40
1.0
100
AcDbArc
 50
270.0
 51
341.0344250098692
  0
ARC
  5
AE
330
1F
100
AcDbEntity
  8
0
  6
Continuous
 62
     7
100
AcDbCircle
 10
-786.5181484031
 20
781.024932452
 30
0.0
 40
1102.395204011329
100
AcDbArc
 50
330.8230250440146
 51
330.9958347569494
  0
ARC
  5
AF
330
1F
100
AcDbEntity
  8
0
  6
Continuous
 62
     7
100
AcDbCircle
 10
100.9070663812
 20
262.8603107056
 30
0.0
 40
0.9500000000000028
100
AcDbArc
 50
180.0
 51
261.7021731660036
  0
ARC
  5
B0
330
1F
100
AcDbEntity
  8
0
  6
Continuous
 62
     7
100
AcDbCircle
 10
170.5570663812
 20
251.4348589064
 30
0.0
 40
1.0
100
AcDbArc
 50
0.0
 51
90.0
  0
ARC
  5
B1
330
1F
100
AcDbEntity
  8
0
  6
Continuous
 62
     7
100
AcDbCircle
 10
-786.518148422
 20
-232.4052146497
 30
0.0
 40
1102.395204033077
100
AcDbArc
 50
29.00416524305612
 51
29.17697495598757
  0
SPLINE
  5
B2
330
1F
100
AcDbEntity
  8
0
  6
Continuous
 62
     7
100
AcDbSpline
210
0.0
220
0.0
230
1.0
 70
     8
 71
     3
 72
    15
 73
    11
 74
     9
 42
0.0000000001
 43
0.0000000001
 44
0.00000001
 40
0.0
 40
0.0
 40
0.0
 40
0.0
 40
0.149889055456125
 40
0.3004342038314289
 40
0.4507212547390285
 40
0.6008661227846591
 40
0.7509994132667545
 40
0.9012890816221558
 40
1.051768580279215
 40
1.201718088783819
 40
1.201718088783819
 40
1.201718088783819
 40
1.201718088783819
 10
180.6945663812
 20
247.5070605451
 30
0.0
 10
180.7446073853707
 20
247.5039447670752
 30
0.0
 10
180.8449084327101
 20
247.4976995726722
 30
0.0
 10
180.988952429952
 20
247.4495554642012
 30
0.0
 10
181.1203456740381
 20
247.3748442170943
 30
0.0
 10
181.2340419519909
 20
247.275129805819
 30
0.0
 10
181.3262467184652
 20
247.1553395390433
 30
0.0
 10
181.3936537766629
 20
247.0201951178408
 30
0.0
 10
181.4364342401882
 20
246.874813838387
 30
0.0
 10
181.4418588574052
 20
246.7745399202844
 30
0.0
 10
181.4445663812
 20
246.7244914084
 30
0.0
 11
180.6945663812
 21
247.5070605451
 31
0.0
 11
180.8436224144519
 21
247.4912799273449
 31
0.0
 11
180.9869079083409
 21
247.4450943349991
 31
0.0
 11
181.1174542927965
 21
247.3706373730944
 31
0.0
 11
181.2304637658854
 21
247.2717822245557
 31
0.0
 11
181.3220771267624
 21
247.152841075159
 31
0.0
 11
181.3895267658781
 21
247.0185372010618
 31
0.0
 11
181.4306914254466
 21
246.8737976062071
 31
0.0
 11
181.4445663812
 21
246.7244914084
 31
0.0
  0
SPLINE
  5
B3
330
1F
100
AcDbEntity
  8
0
  6
Continuous
 62
     7
100
AcDbSpline
210
0.0
220
0.0
230
1.0
 70
     8
 71
     3
 72
    15
 73
    11
 74
     9
 42
0.0000000001
 43
0.0000000001
 44
0.00000001
 40
0.0
 40
0.0
 40
0.0
 40
0.0
 40
0.1499521789458362
 40
0.3004343667390494
 40
0.4507255054092414
 40
0.6008602661591792
 40
0.7510040236203062
 40
0.9012899196393533
 40
1.051832040742467
 40
1.201718121843514
 40
1.201718121843514
 40
1.201718121843514
 40
1.201718121843514
 10
177.6195663812
 20
246.7244914084
 30
0.0
 10
177.6222740016265
 20
246.774540813616
 30
0.0
 10
177.6276988126159
 20
246.874816524629
 30
0.0
 10
177.6704806766441
 20
247.0201998389351
 30
0.0
 10
177.7378896602465
 20
247.1553454221945
 30
0.0
 10
177.8300959959634
 20
247.2751352818081
 30
0.0
 10
177.9437930182426
 20
247.3748484041215
 30
0.0
 10
178.0751853499963
 20
247.4495576746219
 30
0.0
 10
178.2192273336193
 20
247.4977000023715
 30
0.0
 10
178.3195263724467
 20
247.5039449098236
 30
0.0
 10
178.3695663812
 20
247.5070605451
 30
0.0
 11
177.6195663812
 21
246.7244914084
 31
0.0
 11
177.6334418298615
 21
246.8738002423485
 31
0.0
 11
177.6746079487783
 21
247.0185422179339
 31
0.0
 11
177.7420593115248
 21
247.1528468717118
 31
0.0
 11
177.8336747344264
 21
247.2717882886867
 31
0.0
 11
177.9466843365361
 21
247.3706416029233
 31
0.0
 11
178.0772303543847
 21
247.4450968765185
 31
0.0
 11
178.2205132665855
 21
247.4912806106408
 31
0.0
 11
178.3695663812
 21
247.5070605451
 31
0.0
  0
SPLINE
  5
B4
330
1F
100
AcDbEntity
  8
0
  6
Continuous
 62
     7
100
AcDbSpline
210
0.0
220
0.0
230
1.0
 70
     8
 71
     3
 72
    15
 73
    11
 74
     9
 42
0.0000000001
 43
0.0000000001
 44
0.00000001
 40
0.0
 40
0.0
 40
0.0
 40
0.0
 40
0.1498887298089261
 40
0.3004335479932607
 40
0.450720737383432
 40
0.6008657481115514
 40
0.7509990953122664
 40
0.9012888187231415
 40
1.051768450225962
 40
1.201718090888213
 40
1.201718090888213
 40
1.201718090888213
 40
1.201718090888213
 10
178.3695663812
 20
301.1126572678
 30
0.0
 10
178.3195254859862
 20
301.1157730303786
 30
0.0
 10
178.2192246580787
 20
301.1220181937568
 30
0.0
 10
178.0751807971014
 20
301.1701621373207
 30
0.0
 10
177.9437875091674
 20
301.2448732816597
 30
0.0
 10
177.8300910903023
 20
301.3445877061118
 30
0.0
 10
177.7378862162396
 20
301.4643779985095
 30
0.0
 10
177.6704790689618
 20
301.5995224674246
 30
0.0
 10
177.6276985370179
 20
301.7449038415618
 30
0.0
 10
177.622273909923
 20
301.8451778483086
 30
0.0
 10
177.6195663812
 20
301.8952264044
 30
0.0
 11
178.3695663812
 21
301.1126572678
 31
0.0
 11
178.220510667569
 21
301.1284378114437
 31
0.0
 11
178.077225455651
 21
301.1746232022916
 31
0.0
 11
177.9466788946798
 21
301.2490801342279
 31
0.0
 11
177.8336692591648
 21
301.3479353137955
 31
0.0
 11
177.7420558097151
 21
301.4668764665627
 31
0.0
 11
177.6746060942477
 21
301.6011803639235
 31
0.0
 11
177.6334413618515
 21
301.7459200761796
 31
0.0
 11
177.6195663812
 21
301.8952264044
 31
0.0
  0
SPLINE
  5
B5
330
1F
100
AcDbEntity
  8
0
  6
Continuous
 62
     7
100
AcDbSpline
210
0.0
220
0.0
230
1.0
 70
     8
 71
     3
 72
    15
 73
    11
 74
     9
 42
0.0000000001
 43
0.0000000001
 44
0.00000001
 40
0.0
 40
0.0
 40
0.0
 40
0.0
 40
0.1499520084746427
 40
0.3004340248028747
 40
0.4507251465003095
 40
0.6008598893869199
 40
0.7510035493159197
 40
0.9012893510273537
 40
1.051831757273242
 40
1.201718119592532
 40
1.201718119592532
 40
1.201718119592532
 40
1.201718119592532
 10
181.4445663812
 20
301.8952264044
 30
0.0
 10
181.4418587672073
 20
301.8451770562028
 30
0.0
 10
181.4364339691156
 20
301.7449014595597
 30
0.0
 10
181.3936521883311
 20
301.5995182499312
 30
0.0
 10
181.3262432963355
 20
301.4643726981066
 30
0.0
 10
181.2340370452841
 20
301.3445828296334
 30
0.0
 10
181.1203401291479
 20
301.24486969423
 30
0.0
 10
180.9889478217716
 20
301.1701603233695
 30
0.0
 10
180.8449057123731
 20
301.1220178505695
 30
0.0
 10
180.7446064840471
 20
301.1157729163854
 30
0.0
 10
180.6945663812
 20
301.1126572678
 30
0.0
 11
181.4445663812
 21
301.8952264044
 31
0.0
 11
181.4306909648635
 21
301.7459177386532
 31
0.0
 11
181.3895249396033
 21
301.6011759146959
 31
0.0
 11
181.3220736448764
 21
301.4668712457498
 31
0.0
 11
181.2304582892674
 21
301.3479297994904
 31
0.0
 11
181.1174488133002
 21
301.2490764891842
 31
0.0
 11
180.9869029275079
 21
301.1746211744059
 31
0.0
 11
180.8436197718377
 21
301.1284372661747
 31
0.0
 11
180.6945663812
 21
301.1126572678
 31
0.0
  0
SPLINE
  5
B6
330
1F
100
AcDbEntity
  8
BEZUGSACHSEN
  6
Continuous
 62
     7
100
AcDbSpline
210
0.0
220
0.0
230
1.0
 70
     8
 71
     3
 72
    19
 73
    15
 74
    13
 42
0.0000000001
 43
0.0000000001
 44
0.00000001
 40
0.0
 40
0.0
 40
0.0
 40
0.0
 40
0.635906058494264
 40
1.271888515979065
 40
1.965733561252856
 40
2.659578890077346
 40
3.475799355840059
 40
4.292057362047773
 40
5.108319047369394
 40
5.924543188448611
 40
6.618417086919487
 40
7.31229072190157
 40
7.948307992038028
 40
8.584248822157063
 40
8.584248822157063
 40
8.584248822157063
 40
8.584248822157063
 10
202.6070663812
 20
291.8098589064
 30
0.0
 10
202.4006289887161
 20
291.7616681106084
 30
0.0
 10
201.9877294019584
 20
291.6652807292893
 30
0.0
 10
201.3438238782579
 20
291.5429439902948
 30
0.0
 10
200.6771536990159
 20
291.4392023150159
 30
0.0
 10
199.9471887275805
 20
291.3547679423193
 30
0.0
 10
199.1734550611932
 20
291.2990963245227
 30
0.0
 10
198.3571321895728
 20
291.2793712365237
 30
0.0
 10
197.5408079169597
 20
291.2990893528727
 30
0.0
 10
196.7670618525423
 20
291.3547557312803
 30
0.0
 10
196.0370761953386
 20
291.4391880102579
 30
0.0
 10
195.3703752889723
 20
291.5429317299826
 30
0.0
 10
194.7264373053592
 20
291.6652730881415
 30
0.0
 10
194.313515084216
 20
291.761665564592
 30
0.0
 10
194.1070663812
 20
291.8098589064
 30
0.0
 11
202.6070663812
 21
291.8098589064
 31
0.0
 11
201.9868226703526
 21
291.6695939628684
 31
0.0
 11
201.3622086403129
 21
291.549881809325
 31
0.0
 11
200.676537059529
 21
291.4436959809094
 31
0.0
 11
199.9872792104796
 21
291.3640407371686
 31
0.0
 11
199.1731552958726
 21
291.3055762146367
 31
0.0
 11
198.3571333867628
 21
291.285945204707
 31
0.0
 11
197.5411076328192
 21
291.3055693690175
 31
0.0
 11
196.7269795961685
 21
291.3640278022829
 31
0.0
 11
196.0376928778927
 21
291.4436820990136
 31
0.0
 11
195.3519926093331
 21
291.5498694947847
 31
0.0
 11
194.7273441121044
 21
291.6695867567886
 31
0.0
 11
194.1070663812
 21
291.8098589064
 31
0.0
  0
SPLINE
  5
B7
330
1F
100
AcDbEntity
  8
0
  6
Continuous
 62
     7
100
AcDbSpline
210
0.0
220
0.0
230
1.0
 70
     8
 71
     3
 72
    15
 73
    11
 74
     9
 42
0.0000000001
 43
0.0000000001
 44
0.00000001
 40
0.0
 40
0.0
 40
0.0
 40
0.0
 40
0.1991719801533304
 40
0.3990534797234239
 40
0.5986806086066214
 40
0.7980986751401578
 40
0.9975251471165114
 40
1.197147680798669
 40
1.397095016929983
 40
1.596192537871227
 40
1.596192537871227
 40
1.596192537871227
 40
1.596192537871227
 10
171.5570663812
 20
244.6329081492
 30
0.0
 10
171.5606914749392
 20
244.5664293833701
 30
0.0
 10
171.5679545762542
 20
244.4332350313749
 30
0.0
 10
171.6252467091312
 20
244.2402319210249
 30
0.0
 10
171.7155536226438
 20
244.0610892285421
 30
0.0
 10
171.8389119265311
 20
243.9026428534444
 30
0.0
 10
171.9907636079147
 20
243.7711521620745
 30
0.0
 10
172.1658399365404
 20
243.6729262885882
 30
0.0
 10
172.3573795733695
 20
243.6097786971004
 30
0.0
 10
172.4905986807576
 20
243.601615142068
 30
0.0
 10
172.5570663812
 20
243.5975420572
 30
0.0
 11
171.5570663812
 21
244.6329081492
 31
0.0
 11
171.5756455065457
 21
244.4346046096966
 31
0.0
 11
171.6307796852681
 21
244.2424774741665
 31
0.0
 11
171.7211118183125
 21
244.0644575417831
 31
0.0
 11
171.8436574588244
 21
243.9071357974134
 31
0.0
 11
171.9945557579432
 21
243.7767493677209
 31
0.0
 11
172.1685035902874
 21
243.6788141463935
 31
0.0
 11
172.3590442212983
 21
243.6182071735276
 31
0.0
 11
172.5570663812
 21
243.5975420572
 31
0.0
  0
SPLINE
  5
B8
330
1F
100
AcDbEntity
  8
0
  6
Continuous
 62
     7
100
AcDbSpline
210
0.0
220
0.0
230
1.0
 70
     8
 71
     3
 72
    15
 73
    11
 74
     9
 42
0.0000000001
 43
0.0000000001
 44
0.00000001
 40
0.0
 40
0.0
 40
0.0
 40
0.0
 40
0.1991002754502924
 40
0.3990504136622813
 40
0.5986744171461609
 40
0.798102320312038
 40
0.9975187550159612
 40
1.197144245716128
 40
1.397023128068391
 40
1.596192512839904
 40
1.596192512839904
 40
1.596192512839904
 40
1.596192512839904
 10
172.5570663812
 20
305.0221757557
 30
0.0
 10
172.4905977589059
 20
305.0181025416773
 30
0.0
 10
172.3573767919232
 20
305.0099387270516
 30
0.0
 10
172.1658351530317
 20
304.9467894655334
 30
0.0
 10
171.9907577517937
 20
304.8485615920018
 30
0.0
 10
171.8389066933594
 20
304.7170694895358
 30
0.0
 10
171.7155499701787
 20
304.5586226959094
 30
0.0
 10
171.6252450139161
 20
304.3794812414844
 30
0.0
 10
171.5679542856248
 20
304.1864801693678
 30
0.0
 10
171.5606913782539
 20
304.0532875612427
 30
0.0
 10
171.5570663812
 20
303.9868096637
 30
0.0
 11
172.5570663812
 21
305.0221757557
 31
0.0
 11
172.3590415166748
 21
305.0015100180124
 31
0.0
 11
172.1684984867997
 21
304.9409013425856
 31
0.0
 11
171.9945499780363
 21
304.8429643267747
 31
0.0
 11
171.8436515617813
 21
304.712575843645
 31
0.0
 11
171.7211080969182
 21
304.555254473039
 31
0.0
 11
171.6307777569858
 21
304.3772354678036
 31
0.0
 11
171.5756450166588
 21
304.185110642353
 31
0.0
 11
171.5570663812
 21
303.9868096637
 31
0.0
  0
SPLINE
  5
B9
330
1F
100
AcDbEntity
  8
0
  6
Continuous
 62
     7
100
AcDbSpline
210
0.0
220
0.0
230
1.0
 70
     8
 71
     3
 72
    15
 73
    11
 74
     9
 42
0.0000000001
 43
0.0000000001
 44
0.00000001
 40
0.0
 40
0.0
 40
0.0
 40
0.0
 40
0.1991000959061382
 40
0.3990500500807149
 40
0.5986741601994082
 40
0.798102174194703
 40
0.9975186421997994
 40
1.197144165113996
 40
1.397023090638001
 40
1.596192517485575
 40
1.596192517485575
 40
1.596192517485575
 40
1.596192517485575
 10
186.4570663812
 20
243.5975420572
 30
0.0
 10
186.5235349434241
 20
243.6016152605922
 30
0.0
 10
186.6567557887661
 20
243.6097790538353
 30
0.0
 10
186.848297366132
 20
243.6729282139928
 30
0.0
 10
187.0233748057654
 20
243.7711560494889
 30
0.0
 10
187.1752259450635
 20
243.9026481886323
 30
0.0
 10
187.298582718973
 20
244.0610950178065
 30
0.0
 10
187.3888877070394
 20
244.2402364965731
 30
0.0
 10
187.446178467782
 20
244.4332376009367
 30
0.0
 10
187.4534413811576
 20
244.5664302375808
 30
0.0
 10
187.4570663812
 20
244.6329081492
 30
0.0
 11
186.4570663812
 21
243.5975420572
 31
0.0
 11
186.6550910702444
 21
243.6182077466082
 31
0.0
 11
186.8456339452603
 21
243.6788163017395
 31
0.0
 11
187.0195825743951
 21
243.776753321108
 31
0.0
 11
187.1704810922762
 21
243.9071418561385
 31
0.0
 11
187.2930245916866
 21
244.0644632420461
 31
0.0
 11
187.383354962541
 21
244.2424822677148
 31
0.0
 11
187.438487732754
 21
244.4346071295034
 31
0.0
 11
187.4570663812
 21
244.6329081492
 31
0.0
  0
SPLINE
  5
BA
330
1F
100
AcDbEntity
  8
0
  6
Continuous
 62
     7
100
AcDbSpline
210
0.0
220
0.0
230
1.0
 70
     8
 71
     3
 72
    15
 73
    11
 74
     9
 42
0.0000000001
 43
0.0000000001
 44
0.00000001
 40
0.0
 40
0.0
 40
0.0
 40
0.0
 40
0.1991720574209613
 40
0.3990536357566128
 40
0.5986807643023891
 40
0.7980988307750043
 40
0.9975253742268255
 40
1.197147976117684
 40
1.397095164874129
 40
1.596192542373384
 40
1.596192542373384
 40
1.596192542373384
 40
1.596192542373384
 10
187.4570663812
 20
303.9868096637
 30
0.0
 10
187.4534412830282
 20
304.0532884553749
 30
0.0
 10
187.4461781728099
 20
304.1864828595603
 30
0.0
 10
187.3888859932314
 20
304.3794860120181
 30
0.0
 10
187.2985790448227
 20
304.5586287152838
 30
0.0
 10
187.1752207095572
 20
304.7170750958949
 30
0.0
 10
187.023368976769
 20
304.84856580043
 30
0.0
 10
186.8482926267767
 20
304.9467916364775
 30
0.0
 10
186.6567530437372
 20
305.0099391425346
 30
0.0
 10
186.5235340336491
 20
305.0181026797084
 30
0.0
 10
186.4570663812
 20
305.0221757557
 30
0.0
 11
187.4570663812
 21
303.9868096637
 31
0.0
 11
187.4384872358212
 21
304.1851132789325
 31
0.0
 11
187.3833530077094
 21
304.3772404822341
 31
0.0
 11
187.2930208502578
 21
304.5552604018542
 31
0.0
 11
187.1704751929873
 21
304.7125821330925
 31
0.0
 11
187.0195768232394
 21
304.8429685903669
 31
0.0
 11
186.8456289086271
 21
304.9409038046042
 31
0.0
 11
186.6550884010507
 21
305.0015106793309
 31
0.0
 11
186.4570663812
 21
305.0221757557
 31
0.0
  0
SPLINE
  5
BB
330
1F
100
AcDbEntity
  8
0
  6
Continuous
 62
     2
100
AcDbSpline
210
0.0
220
0.0
230
1.0
 70
     8
 71
     3
 72
    41
 73
    37
 74
    35
 42
0.0000000001
 43
0.0000000001
 44
0.00000001
 40
0.0
 40
0.0
 40
0.0
 40
0.0
 40
0.0223462784281312
 40
0.0891156320901663
 40
0.1996136947391197
 40
0.3519850033971493
 40
0.5442238333877037
 40
0.7748675454889475
 40
1.042149560049824
 40
1.34248943241695
 40
1.672410803779746
 40
2.0305811761367
 40
2.415422503414329
 40
2.822087191529022
 40
3.24583463471827
 40
3.685474735941311
 40
4.139499280775845
 40
4.601405447942065
 40
5.06472363601901
 40
5.528023634172075
 40
5.989900219354289
 40
6.444009612491954
 40
6.883979519482251
 40
7.308349095780201
 40
7.715923047484926
 40
8.101825005480292
 40
8.461062805891721
 40
8.792009395171439
 40
9.093305074463496
 40
9.361439738767297
 40
9.592806807798816
 40
9.785651445642152
 40
9.93852425408613
 40
10.04940141935875
 40
10.11640480146024
 40
10.1388304832536
 40
10.1388304832536
 40
10.1388304832536
 40
10.1388304832536
 10
193.3570663812
 20
291.8098796764
 30
0.0
 10
193.3642269941899
 20
291.8078279255159
 30
0.0
 10
193.3927830938014
 20
291.7996456647641
 30
0.0
 10
193.4568194739165
 20
291.7815719044153
 30
0.0
 10
193.5626632922517
 20
291.7520643936917
 30
0.0
 10
193.7090694809105
 20
291.7123229259466
 30
0.0
 10
193.8945138806401
 20
291.6635382329299
 30
0.0
 10
194.1176183995133
 20
291.6073954334796
 30
0.0
 10
194.3764482084482
 20
291.5456348828678
 30
0.0
 10
194.6684327430368
 20
291.480356192361
 30
0.0
 10
194.9911141038817
 20
291.4137010957398
 30
0.0
 10
195.3426672779974
 20
291.3478515412343
 30
0.0
 10
195.7207221973213
 20
291.2849427303917
 30
0.0
 10
196.1216826090681
 20
291.2270470471684
 30
0.0
 10
196.5420384734783
 20
291.1764270588468
 30
0.0
 10
196.97925761372
 20
291.1349001847066
 30
0.0
 10
197.4301130951729
 20
291.1040591135678
 30
0.0
 10
197.8895127555451
 20
291.084740894891
 30
0.0
 10
198.3523679123848
 20
291.078153141378
 30
0.0
 10
198.8152167818348
 20
291.0844820748264
 30
0.0
 10
199.2746396561099
 20
291.1035413211513
 30
0.0
 10
199.7256400554993
 20
291.1341447940605
 30
0.0
 10
200.1632255020849
 20
291.1754704543775
 30
0.0
 10
200.5842227917583
 20
291.225954742137
 30
0.0
 10
200.9860638922596
 20
291.2837983792091
 30
0.0
 10
201.3651422604753
 20
291.346725938594
 30
0.0
 10
201.7177496872029
 20
291.412657415402
 30
0.0
 10
202.0414431883569
 20
291.479436543826
 30
0.0
 10
202.33436248158
 20
291.544863869713
 30
0.0
 10
202.5940225128163
 20
291.6067815063744
 30
0.0
 10
202.8178384678489
 20
291.6630775477053
 30
0.0
 10
203.0038764684032
 20
291.7120044481034
 30
0.0
 10
203.1507626063676
 20
291.751869196414
 30
0.0
 10
203.2569650387865
 20
291.7814739203358
 30
0.0
 10
203.3212238151493
 20
291.7996095757635
 30
0.0
 10
203.3498803295402
 20
291.8078206879221
 30
0.0
 10
203.3570663812
 20
291.8098797477
 30
0.0
 11
193.3570663812
 21
291.8098796764
 31
0.0
 11
193.3785502531688
 21
291.8037315543438
 31
0.0
 11
193.44279850065
 21
291.78555714145
 31
0.0
 11
193.5492462965979
 21
291.7559144596042
 31
0.0
 11
193.6962897163334
 21
291.7159738985833
 31
0.0
 11
193.8822113599497
 21
291.6670974196682
 31
0.0
 11
194.105879024264
 21
291.6108009022623
 31
0.0
 11
194.3658648267568
 21
291.5487762474075
 31
0.0
 11
194.6589729708393
 21
291.4832655245751
 31
0.0
 11
194.9820815419929
 21
291.4165649808815
 31
0.0
 11
195.3341320647039
 21
291.3506374062769
 31
0.0
 11
195.7137524293401
 21
291.2874612562338
 31
0.0
 11
196.1162525517746
 21
291.2294111055049
 31
0.0
 11
196.5369659938031
 21
291.1787939611173
 31
0.0
 11
196.97463887895
 21
291.1372504392333
 31
0.0
 11
197.4276008705416
 21
291.1062065753375
 31
0.0
 11
197.8891032293834
 21
291.0868964730666
 31
0.0
 11
198.3523745721042
 21
291.08030811845
 31
0.0
 11
198.81563134115
 21
291.0866369589334
 31
0.0
 11
199.2771149075875
 21
291.105686836825
 31
0.0
 11
199.73017853115
 21
291.1364877124666
 31
0.0
 11
200.1682018478448
 21
291.1778288915589
 31
0.0
 11
200.5895581101086
 21
291.2283109432049
 31
0.0
 11
200.9929838149572
 21
291.2863128981338
 31
0.0
 11
201.3736748212949
 21
291.3495163701769
 31
0.0
 11
201.7267955176633
 21
291.4155282709273
 31
0.0
 11
202.0509250457118
 21
291.482354119242
 31
0.0
 11
202.3449789196041
 21
291.5480154138451
 31
0.0
 11
202.6058033894695
 21
291.6101989656957
 31
0.0
 11
202.8301786135691
 21
291.6666478757161
 31
0.0
 11
203.0166896500833
 21
291.7156650931333
 31
0.0
 11
203.1642188144208
 21
291.7557305549604
 31
0.0
 11
203.2710325509833
 21
291.78547230105
 31
0.0
 11
203.3355061781479
 21
291.8037097518937
 31
0.0
 11
203.3570663812
 21
291.8098797477
 31
0.0
  0
DIMENSION
  5
C6
330
1F
100
AcDbEntity
  8
1
100
AcDbDimension
  2
*D2
 10
218.3570663812
 20
325.554536244913
 30
0.0
 11
162.8835529793254
 21
329.304536244913
 31
0.0
 70
    32
  1
<>
 71
     5
 42
-1.0
 53
0.00013888888889
  3
ME10_DIM_10
100
AcDbAlignedDimension
 13
99.9570663812
 23
285.7594071073
 33
0.0
 14
218.3570663812
 24
283.7269551378
 34
0.0
100
AcDbRotatedDimension
  0
DIMENSION
  5
D1
330
1F
100
AcDbEntity
  8
1
100
AcDbDimension
  2
*D3
 10
218.3570663812
 20
317.947883192819
 30
0.0
 11
193.317742423486
 21
321.697883192819
 31
0.0
 70
    32
  1
<>
 71
     5
 42
-1.0
 53
0.00013888888889
  3
ME10_DIM_11
100
AcDbAlignedDimension
 13
168.3570663812
 23
309.0723589064
 33
0.0
 14
218.3570663812
 24
283.7269551378
 34
0.0
100
AcDbRotatedDimension
  0
DIMENSION
  5
DC
330
1F
100
AcDbEntity
  8
1
100
AcDbDimension
  2
*D4
 10
218.3570663812
 20
310.632692444018
 30
0.0
 11
201.826998527579
 21
314.382692444018
 31
0.0
 70
    32
  1
<>
 71
     5
 42
-1.0
 53
0.00013888888889
  3
ME10_DIM_12
100
AcDbAlignedDimension
 13
187.4570663812
 23
303.9868096637
 33
0.0
 14
218.3570663812
 24
283.7269551378
 34
0.0
100
AcDbRotatedDimension
  0
DIMENSION
  5
E7
330
1F
100
AcDbEntity
  8
1
100
AcDbDimension
  2
*D5
 10
237.831456341722
 20
291.8098589064
 30
0.0
 11
234.081456341722
 21
274.8349504818
 31
0.0
 70
    32
  1
<>
 71
     5
 42
-1.0
 53
90.0
  3
ME10_DIM_13
100
AcDbAlignedDimension
 13
205.0891171887
 23
256.8098589064
 33
0.0
 14
205.0891171887
 24
291.8098589064
 34
0.0
 50
90.0
100
AcDbRotatedDimension
  0
DIMENSION
  5
F2
330
1F
100
AcDbEntity
  8
1
100
AcDbDimension
  2
*D6
 10
228.72637849481
 20
279.3098589064
 30
0.0
 11
224.97637849481
 21
274.290202234549
 31
0.0
 70
    32
  1
<>
 71
     5
 42
-1.0
 53
90.0
  3
ME10_DIM_14
100
AcDbAlignedDimension
 13
218.3570663812
 23
269.3098589064
 33
0.0
 14
218.3570663812
 24
279.3098589064
 34
0.0
 50
90.0
100
AcDbRotatedDimension
  0
INSERT
  5
F9
330
1F
100
AcDbEntity
  8
1
100
AcDbBlockReference
  2
*D7
 10
0.0
 20
0.0
 30
0.0
  0
ENDSEC
  0
SECTION
  2
OBJECTS
  0
DICTIONARY
  5
C
330
0
100
AcDbDictionary
281
     1
  3
ACAD_GROUP
350
D
  3
ACAD_LAYOUT
350
1A
  3
ACAD_MLEADERSTYLE
350
FC
  3
ACAD_MLINESTYLE
350
17
  3
ACAD_PLOTSETTINGS
350
19
  3
ACAD_PLOTSTYLENAME
350
E
  3
ACAD_SCALELIST
350
4A
  3
ACAD_VISUALSTYLE
350
2A
  3
AcDbVariableDictionary
350
FA
  0
DICTIONARY
  5
D
102
{ACAD_REACTORS
330
C
102
}
330
C
100
AcDbDictionary
281
     1
  0
DICTIONARY
  5
1A
102
{ACAD_REACTORS
330
C
102
}
330
C
100
AcDbDictionary
281
     1
  3
Layout1
350
1E
  3
Layout2
350
26
  3
Model
350
22
  0
DICTIONARY
  5
FC
102
{ACAD_REACTORS
330
C
102
}
330
C
100
AcDbDictionary
281
     1
  0
DICTIONARY
  5
17
102
{ACAD_REACTORS
330
C
102
}
330
C
100
AcDbDictionary
281
     1
  3
Standard
350
18
  0
DICTIONARY
  5
19
102
{ACAD_REACTORS
330
C
102
}
330
C
100
AcDbDictionary
281
     1
  0
ACDBDICTIONARYWDFLT
  5
E
102
{ACAD_REACTORS
330
C
102
}
330
C
100
AcDbDictionary
281
     1
  3
Normal
350
F
100
AcDbDictionaryWithDefault
340
F
  0
DICTIONARY
  5
4A
102
{ACAD_REACTORS
330
C
102
}
330
C
100
AcDbDictionary
281
     1
  3
A0
350
4B
  3
A1
350
4C
  3
A2
350
4D
  3
A3
350
4E
  3
A4
350
4F
  3
A5
350
50
  3
A6
350
51
  3
A7
350
52
  3
A8
350
53
  3
A9
350
54
  3
B0
350
55
  3
B1
350
56
  3
B2
350
57
  3
B3
350
58
  3
B4
350
59
  3
B5
350
5A
  3
B6
350
5B
  3
B7
350
5C
  3
B8
350
5D
  3
B9
350
5E
  3
C0
350
5F
  3
C1
350
60
  3
C2
350
61
  3
C3
350
62
  3
C4
350
63
  3
C5
350
64
  3
C6
350
65
  3
C7
350
66
  3
C8
350
67
  3
C9
350
68
  3
D0
350
69
  3
D1
350
6A
  3
D2
350
6B
  0
DICTIONARY
  5
2A
102
{ACAD_REACTORS
330
C
102
}
330
C
100
AcDbDictionary
281
     1
  3
2dWireframe
350
2F
  3
3D Hidden
350
31
  3
3dWireframe
350
30
  3
Basic
350
32
  3
Brighten
350
36
  3
ColorChange
350
3A
  3
Conceptual
350
34
  3
Dim
350
35
  3
Facepattern
350
39
  3
Flat
350
2B
  3
FlatWithEdges
350
2C
  3
Gouraud
350
2D
  3
GouraudWithEdges
350
2E
  3
Linepattern
350
38
  3
Realistic
350
33
  3
Thicken
350
37
  0
DICTIONARY
  5
FA
102
{ACAD_REACTORS
330
C
102
}
330
C
100
AcDbDictionary
281
     1
  3
CANNOSCALE
350
FD
  0
LAYOUT
  5
1E
102
{ACAD_REACTORS
330
1A
102
}
330
1A
100
AcDbPlotSettings
  1

  2
none_device
  4

  6

 40
0.0
 41
0.0
 42
0.0
 43
0.0
 44
0.0
 45
0.0
 46
0.0
 47
0.0
 48
0.0
 49
0.0
140
0.0
141
0.0
142
1.0
143
1.0
 70
   688
 72
     0
 73
     0
 74
     5
  7

 75
    16
147
1.0
148
0.0
149
0.0
100
AcDbLayout
  1
Layout1
 70
     1
 71
     1
 10
0.0
 20
0.0
 11
12.0
 21
9.0
 12
0.0
 22
0.0
 32
0.0
 14
1.00000000000000E+20
 24
1.00000000000000E+20
 34
1.00000000000000E+20
 15
-1.00000000000000E+20
 25
-1.00000000000000E+20
 35
-1.00000000000000E+20
146
0.0
 13
0.0
 23
0.0
 33
0.0
 16
1.0
 26
0.0
 36
0.0
 17
0.0
 27
1.0
 37
0.0
 76
     0
330
1B
  0
LAYOUT
  5
26
102
{ACAD_REACTORS
330
1A
102
}
330
1A
100
AcDbPlotSettings
  1

  2
none_device
  4

  6

 40
0.0
 41
0.0
 42
0.0
 43
0.0
 44
0.0
 45
0.0
 46
0.0
 47
0.0
 48
0.0
 49
0.0
140
0.0
141
0.0
142
1.0
143
1.0
 70
   688
 72
     0
 73
     0
 74
     5
  7

 75
    16
147
1.0
148
0.0
149
0.0
100
AcDbLayout
  1
Layout2
 70
     1
 71
     2
 10
0.0
 20
0.0
 11
0.0
 21
0.0
 12
0.0
 22
0.0
 32
0.0
 14
0.0
 24
0.0
 34
0.0
 15
0.0
 25
0.0
 35
0.0
146
0.0
 13
0.0
 23
0.0
 33
0.0
 16
1.0
 26
0.0
 36
0.0
 17
0.0
 27
1.0
 37
0.0
 76
     0
330
23
  0
LAYOUT
  5
22
102
{ACAD_REACTORS
330
1A
102
}
330
1A
100
AcDbPlotSettings
  1

  2
none_device
  4

  6

 40
0.0
 41
0.0
 42
0.0
 43
0.0
 44
0.0
 45
0.0
 46
0.0
 47
0.0
 48
0.0
 49
0.0
140
0.0
141
0.0
142
1.0
143
1.0
 70
  1712
 72
     0
 73
     0
 74
     0
  7

 75
     0
147
1.0
148
0.0
149
0.0
100
AcDbLayout
  1
Model
 70
     1
 71
     0
 10
0.0
 20
0.0
 11
12.0
 21
9.0
 12
0.0
 22
0.0
 32
0.0
 14
96.8320663812
 24
225.4513696057437
 34
0.0
 15
239.831456341722
 25
331.054536244913
 35
0.0
146
0.0
 13
0.0
 23
0.0
 33
0.0
 16
1.0
 26
0.0
 36
0.0
 17
0.0
 27
1.0
 37
0.0
 76
     0
330
1F
331
29
  0
MLINESTYLE
  5
18
102
{ACAD_REACTORS
330
17
102
}
330
17
100
AcDbMlineStyle
  2
Standard
 70
     0
  3

 62
   256
 51
90.0
 52
90.0
 71
     2
 49
0.5
 62
   256
  6
BYLAYER
 49
-0.5
 62
   256
  6
BYLAYER
  0
ACDBPLACEHOLDER
  5
F
102
{ACAD_REACTORS
330
E
102
}
330
E
  0
SCALE
  5
4B
102
{ACAD_REACTORS
330
4A
102
}
330
4A
100
AcDbScale
 70
     0
300
1:1
140
1.0
141
1.0
290
     1
  0
SCALE
  5
4C
102
{ACAD_REACTORS
330
4A
102
}
330
4A
100
AcDbScale
 70
     0
300
1:2
140
1.0
141
2.0
290
     0
  0
SCALE
  5
4D
102
{ACAD_REACTORS
330
4A
102
}
330
4A
100
AcDbScale
 70
     0
300
1:4
140
1.0
141
4.0
290
     0
  0
SCALE
  5
4E
102
{ACAD_REACTORS
330
4A
102
}
330
4A
100
AcDbScale
 70
     0
300
1:5
140
1.0
141
5.0
290
     0
  0
SCALE
  5
4F
102
{ACAD_REACTORS
330
4A
102
}
330
4A
100
AcDbScale
 70
     0
300
1:8
140
1.0
141
8.0
290
     0
  0
SCALE
  5
50
102
{ACAD_REACTORS
330
4A
102
}
330
4A
100
AcDbScale
 70
     0
300
1:10
140
1.0
141
10.0
290
     0
  0
SCALE
  5
51
102
{ACAD_REACTORS
330
4A
102
}
330
4A
100
AcDbScale
 70
     0
300
1:16
140
1.0
141
16.0
290
     0
  0
SCALE
  5
52
102
{ACAD_REACTORS
330
4A
102
}
330
4A
100
AcDbScale
 70
     0
300
1:20
140
1.0
141
20.0
290
     0
  0
SCALE
  5
53
102
{ACAD_REACTORS
330
4A
102
}
330
4A
100
AcDbScale
 70
     0
300
1:30
140
1.0
141
30.0
290
     0
  0
SCALE
  5
54
102
{ACAD_REACTORS
330
4A
102
}
330
4A
100
AcDbScale
 70
     0
300
1:40
140
1.0
141
40.0
290
     0
  0
SCALE
  5
55
102
{ACAD_REACTORS
330
4A
102
}
330
4A
100
AcDbScale
 70
     0
300
1:50
140
1.0
141
50.0
290
     0
  0
SCALE
  5
56
102
{ACAD_REACTORS
330
4A
102
}
330
4A
100
AcDbScale
 70
     0
300
1:100
140
1.0
141
100.0
290
     0
  0
SCALE
  5
57
102
{ACAD_REACTORS
330
4A
102
}
330
4A
100
AcDbScale
 70
     0
300
2:1
140
2.0
141
1.0
290
     0
  0
SCALE
  5
58
102
{ACAD_REACTORS
330
4A
102
}
330
4A
100
AcDbScale
 70
     0
300
4:1
140
4.0
141
1.0
290
     0
  0
SCALE
  5
59
102
{ACAD_REACTORS
330
4A
102
}
330
4A
100
AcDbScale
 70
     0
300
8:1
140
8.0
141
1.0
290
     0
  0
SCALE
  5
5A
102
{ACAD_REACTORS
330
4A
102
}
330
4A
100
AcDbScale
 70
     0
300
10:1
140
10.0
141
1.0
290
     0
  0
SCALE
  5
5B
102
{ACAD_REACTORS
330
4A
102
}
330
4A
100
AcDbScale
 70
     0
300
100:1
140
100.0
141
1.0
290
     0
  0
SCALE
  5
5C
102
{ACAD_REACTORS
330
4A
102
}
330
4A
100
AcDbScale
 70
     0
300
1/128" = 1'-0"
140
0.0078125
141
12.0
290
     0
  0
SCALE
  5
5D
102
{ACAD_REACTORS
330
4A
102
}
330
4A
100
AcDbScale
 70
     0
300
1/64" = 1'-0"
140
0.015625
141
12.0
290
     0
  0
SCALE
  5
5E
102
{ACAD_REACTORS
330
4A
102
}
330
4A
100
AcDbScale
 70
     0
300
1/32" = 1'-0"
140
0.03125
141
12.0
290
     0
  0
SCALE
  5
5F
102
{ACAD_REACTORS
330
4A
102
}
330
4A
100
AcDbScale
 70
     0
300
1/16" = 1'-0"
140
0.0625
141
12.0
290
     0
  0
SCALE
  5
60
102
{ACAD_REACTORS
330
4A
102
}
330
4A
100
AcDbScale
 70
     0
300
3/32" = 1'-0"
140
0.09375
141
12.0
290
     0
  0
SCALE
  5
61
102
{ACAD_REACTORS
330
4A
102
}
330
4A
100
AcDbScale
 70
     0
300
1/8" = 1'-0"
140
0.125
141
12.0
290
     0
  0
SCALE
  5
62
102
{ACAD_REACTORS
330
4A
102
}
330
4A
100
AcDbScale
 70
     0
300
3/16" = 1'-0"
140
0.1875
141
12.0
290
     0
  0
SCALE
  5
63
102
{ACAD_REACTORS
330
4A
102
}
330
4A
100
AcDbScale
 70
     0
300
1/4" = 1'-0"
140
0.25
141
12.0
290
     0
  0
SCALE
  5
64
102
{ACAD_REACTORS
330
4A
102
}
330
4A
100
AcDbScale
 70
     0
300
3/8" = 1'-0"
140
0.375
141
12.0
290
     0
  0
SCALE
  5
65
102
{ACAD_REACTORS
330
4A
102
}
330
4A
100
AcDbScale
 70
     0
300
1/2" = 1'-0"
140
0.5
141
12.0
290
     0
  0
SCALE
  5
66
102
{ACAD_REACTORS
330
4A
102
}
330
4A
100
AcDbScale
 70
     0
300
3/4" = 1'-0"
140
0.75
141
12.0
290
     0
  0
SCALE
  5
67
102
{ACAD_REACTORS
330
4A
102
}
330
4A
100
AcDbScale
 70
     0
300
1" = 1'-0"
140
1.0
141
12.0
290
     0
  0
SCALE
  5
68
102
{ACAD_REACTORS
330
4A
102
}
330
4A
100
AcDbScale
 70
     0
300
1-1/2" = 1'-0"
140
1.5
141
12.0
290
     0
  0
SCALE
  5
69
102
{ACAD_REACTORS
330
4A
102
}
330
4A
100
AcDbScale
 70
     0
300
3" = 1'-0"
140
3.0
141
12.0
290
     0
  0
SCALE
  5
6A
102
{ACAD_REACTORS
330
4A
102
}
330
4A
100
AcDbScale
 70
     0
300
6" = 1'-0"
140
6.0
141
12.0
290
     0
  0
SCALE
  5
6B
102
{ACAD_REACTORS
330
4A
102
}
330
4A
100
AcDbScale
 70
     0
300
1'-0" = 1'-0"
140
12.0
141
12.0
290
     0
  0
VISUALSTYLE
  5
2F
102
{ACAD_REACTORS
330
2A
102
}
330
2A
100
AcDbVisualStyle
  2
2dWireframe
 70
     4
 71
     0
 72
     2
 73
     0
 90
        0
 40
-0.6
 41
-30.0
 62
     5
 63
     7
 74
     1
 91
        4
 64
     7
 65
   257
 75
     1
175
     1
 42
1.0
 92
        0
 66
   257
 43
1.0
 76
     1
 77
     6
 78
     2
 67
     7
 79
     5
170
     0
171
     0
290
     0
174
     0
 93
        1
 44
0.0
173
     0
291
     0
 45
0.0
1001
ACAD
1000
AcDbSavedByObjectVersion
1070
     0
  0
VISUALSTYLE
  5
31
102
{ACAD_REACTORS
330
2A
102
}
330
2A
100
AcDbVisualStyle
  2
3D Hidden
 70
     6
 71
     1
 72
     2
 73
     2
 90
        0
 40
-0.6
 41
-30.0
 62
     5
 63
     7
 74
     2
 91
        2
 64
     7
 65
   257
 75
     2
175
     1
 42
40.0
 92
        0
 66
   257
 43
1.0
 76
     1
 77
     6
 78
     2
 67
     7
 79
     3
170
     0
171
     0
290
     0
174
     0
 93
        1
 44
0.0
173
     0
291
     0
 45
0.0
1001
ACAD
1000
AcDbSavedByObjectVersion
1070
     0
  0
VISUALSTYLE
  5
30
102
{ACAD_REACTORS
330
2A
102
}
330
2A
100
AcDbVisualStyle
  2
3dWireframe
 70
     5
 71
     0
 72
     2
 73
     0
 90
        0
 40
-0.6
 41
-30.0
 62
     5
 63
     7
 74
     1
 91
        4
 64
     7
 65
   257
 75
     1
175
     1
 42
1.0
 92
        0
 66
   257
 43
1.0
 76
     1
 77
     6
 78
     2
 67
     7
 79
     5
170
     0
171
     0
290
     0
174
     0
 93
        1
 44
0.0
173
     0
291
     0
 45
0.0
1001
ACAD
1000
AcDbSavedByObjectVersion
1070
     0
  0
VISUALSTYLE
  5
32
102
{ACAD_REACTORS
330
2A
102
}
330
2A
100
AcDbVisualStyle
  2
Basic
 70
     7
 71
     1
 72
     0
 73
     1
 90
        0
 40
-0.6
 41
-30.0
 62
     5
 63
     7
 74
     0
 91
        4
 64
     7
 65
   257
 75
     1
175
     1
 42
1.0
 92
        8
 66
     7
 43
1.0
 76
     1
 77
     6
 78
     2
 67
     7
 79
     5
170
     0
171
     0
290
     0
174
     0
 93
        1
 44
0.0
173
     0
291
     1
 45
0.0
1001
ACAD
1000
AcDbSavedByObjectVersion
1070
     0
  0
VISUALSTYLE
  5
36
102
{ACAD_REACTORS
330
2A
102
}
330
2A
100
AcDbVisualStyle
  2
Brighten
 70
    12
 71
     2
 72
     2
 73
     0
 90
        0
 40
-0.6
 41
-30.0
 62
     5
 63
     7
 74
     1
 91
        4
 64
     7
 65
   257
 75
     1
175
     1
 42
1.0
 92
        8
 66
     7
 43
1.0
 76
     1
 77
     6
 78
     2
 67
     7
 79
     5
170
     0
171
     0
290
     0
174
     0
 93
        1
 44
50.0
173
     0
291
     1
 45
0.0
1001
ACAD
1000
AcDbSavedByObjectVersion
1070
     0
  0
VISUALSTYLE
  5
3A
102
{ACAD_REACTORS
330
2A
102
}
330
2A
100
AcDbVisualStyle
  2
ColorChange
 70
    16
 71
     2
 72
     2
 73
     3
 90
        0
 40
-0.6
 41
-30.0
 62
     5
 63
     8
 74
     1
 91
        4
 64
     7
 65
   257
 75
     1
175
     1
 42
1.0
 92
        8
 66
     8
 43
1.0
 76
     1
 77
     6
 78
     2
 67
     7
 79
     5
170
     0
171
     0
290
     0
174
     0
 93
        1
 44
0.0
173
     0
291
     1
 45
0.0
1001
ACAD
1000
AcDbSavedByObjectVersion
1070
     0
  0
VISUALSTYLE
  5
34
102
{ACAD_REACTORS
330
2A
102
}
330
2A
100
AcDbVisualStyle
  2
Conceptual
 70
     9
 71
     3
 72
     2
 73
     0
 90
        0
 40
-0.6
 41
-30.0
 62
     5
 63
     7
 74
     2
 91
        2
 64
     7
 65
   257
 75
     1
175
     1
 42
40.0
 92
        8
 66
     7
 43
1.0
 76
     1
 77
     6
 78
     2
 67
     7
 79
     3
170
     0
171
     0
290
     0
174
     0
 93
        1
 44
0.0
173
     0
291
     0
 45
0.0
1001
ACAD
1000
AcDbSavedByObjectVersion
1070
     0
  0
VISUALSTYLE
  5
35
102
{ACAD_REACTORS
330
2A
102
}
330
2A
100
AcDbVisualStyle
  2
Dim
 70
    11
 71
     2
 72
     2
 73
     0
 90
        0
 40
-0.6
 41
-30.0
 62
     5
 63
     7
 74
     1
 91
        4
 64
     7
 65
   257
 75
     1
175
     1
 42
1.0
 92
        8
 66
     7
 43
1.0
 76
     1
 77
     6
 78
     2
 67
     7
 79
     5
170
     0
171
     0
290
     0
174
     0
 93
        1
 44
-50.0
173
     0
291
     1
 45
0.0
1001
ACAD
1000
AcDbSavedByObjectVersion
1070
     0
  0
VISUALSTYLE
  5
39
102
{ACAD_REACTORS
330
2A
102
}
330
2A
100
AcDbVisualStyle
  2
Facepattern
 70
    15
 71
     2
 72
     2
 73
     0
 90
        0
 40
-0.6
 41
-30.0
 62
     5
 63
     7
 74
     1
 91
        4
 64
     7
 65
   257
 75
     1
175
     1
 42
1.0
 92
        8
 66
     7
 43
1.0
 76
     1
 77
     6
 78
     2
 67
     7
 79
     5
170
     0
171
     0
290
     0
174
     0
 93
        1
 44
0.0
173
     0
291
     1
 45
0.0
1001
ACAD
1000
AcDbSavedByObjectVersion
1070
     0
  0
VISUALSTYLE
  5
2B
102
{ACAD_REACTORS
330
2A
102
}
330
2A
100
AcDbVisualStyle
  2
Flat
 70
     0
 71
     2
 72
     1
 73
     1
 90
        2
 40
-0.6
 41
30.0
 62
     5
 63
     7
 74
     0
 91
        4
 64
     7
 65
   257
 75
     1
175
     1
 42
1.0
 92
        8
 66
     7
 43
1.0
 76
     1
 77
     6
 78
     2
 67
     7
 79
     5
170
     0
171
     0
290
     0
174
     0
 93
       13
 44
0.0
173
     0
291
     1
 45
0.0
1001
ACAD
1000
AcDbSavedByObjectVersion
1070
     0
  0
VISUALSTYLE
  5
2C
102
{ACAD_REACTORS
330
2A
102
}
330
2A
100
AcDbVisualStyle
  2
FlatWithEdges
 70
     1
 71
     2
 72
     1
 73
     1
 90
        2
 40
-0.6
 41
30.0
 62
     5
 63
     7
 74
     1
 91
        4
 64
     7
 65
   257
 75
     1
175
     1
 42
1.0
 92
        0
 66
   257
 43
1.0
 76
     1
 77
     6
 78
     2
 67
     7
 79
     5
170
     0
171
     0
290
     0
174
     0
 93
       13
 44
0.0
173
     0
291
     1
 45
0.0
1001
ACAD
1000
AcDbSavedByObjectVersion
1070
     0
  0
VISUALSTYLE
  5
2D
102
{ACAD_REACTORS
330
2A
102
}
330
2A
100
AcDbVisualStyle
  2
Gouraud
 70
     2
 71
     2
 72
     2
 73
     1
 90
        2
 40
-0.6
 41
30.0
 62
     5
 63
     7
 74
     0
 91
        4
 64
     7
 65
   257
 75
     1
175
     1
 42
1.0
 92
        0
 66
     7
 43
1.0
 76
     1
 77
     6
 78
     2
 67
     7
 79
     5
170
     0
171
     0
290
     0
174
     0
 93
       13
 44
0.0
173
     0
291
     1
 45
0.0
1001
ACAD
1000
AcDbSavedByObjectVersion
1070
     0
  0
VISUALSTYLE
  5
2E
102
{ACAD_REACTORS
330
2A
102
}
330
2A
100
AcDbVisualStyle
  2
GouraudWithEdges
 70
     3
 71
     2
 72
     2
 73
     1
 90
        2
 40
-0.6
 41
30.0
 62
     5
 63
     7
 74
     1
 91
        4
 64
     7
 65
   257
 75
     1
175
     1
 42
1.0
 92
        0
 66
   257
 43
1.0
 76
     1
 77
     6
 78
     2
 67
     7
 79
     5
170
     0
171
     0
290
     0
174
     0
 93
       13
 44
0.0
173
     0
291
     1
 45
0.0
1001
ACAD
1000
AcDbSavedByObjectVersion
1070
     0
  0
VISUALSTYLE
  5
38
102
{ACAD_REACTORS
330
2A
102
}
330
2A
100
AcDbVisualStyle
  2
Linepattern
 70
    14
 71
     2
 72
     2
 73
     0
 90
        0
 40
-0.6
 41
-30.0
 62
     5
 63
     7
 74
     1
 91
        4
 64
     7
 65
   257
 75
     7
175
     7
 42
1.0
 92
        8
 66
     7
 43
1.0
 76
     1
 77
     6
 78
     2
 67
     7
 79
     5
170
     0
171
     0
290
     0
174
     0
 93
        1
 44
0.0
173
     0
291
     1
 45
0.0
1001
ACAD
1000
AcDbSavedByObjectVersion
1070
     0
  0
VISUALSTYLE
  5
33
102
{ACAD_REACTORS
330
2A
102
}
330
2A
100
AcDbVisualStyle
  2
Realistic
 70
     8
 71
     2
 72
     2
 73
     0
 90
        0
 40
-0.6
 41
-30.0
 62
     5
 63
     7
 74
     1
 91
        0
 64
     7
 65
   257
 75
     1
175
     1
 42
1.0
 92
        8
 66
     8
 43
1.0
 76
     1
 77
     6
 78
     2
 67
     7
 79
     5
170
     0
171
     0
290
     0
174
     0
 93
       13
 44
0.0
173
     0
291
     0
 45
0.0
1001
ACAD
1000
AcDbSavedByObjectVersion
1070
     0
  0
VISUALSTYLE
  5
37
102
{ACAD_REACTORS
330
2A
102
}
330
2A
100
AcDbVisualStyle
  2
Thicken
 70
    13
 71
     2
 72
     2
 73
     0
 90
        0
 40
-0.6
 41
-30.0
 62
     5
 63
     7
 74
     1
 91
        4
 64
     7
 65
   257
 75
     1
175
     1
 42
1.0
 92
       12
 66
     7
 43
1.0
 76
     1
 77
     6
 78
     2
 67
     7
 79
     5
170
     0
171
     0
290
     0
174
     0
 93
        1
 44
0.0
173
     0
291
     1
 45
0.0
1001
ACAD
1000
AcDbSavedByObjectVersion
1070
     0
  0
DICTIONARYVAR
  5
FD
102
{ACAD_REACTORS
330
FA
102
}
330
FA
100
DictionaryVariables
280
     0
  1
1:1
  0
ENDSEC
  0
EOF
