  0
SECTION
  2
HEADER
  9
$ACADVER
  1
AC1015
  9
$ACADMAINTVER
 70
     6
  9
$DWGCODEPAGE
  3
ANSI_1252
  9
$INSBASE
 10
0.0
 20
0.0
 30
0.0
  9
$EXTMIN
 10
81.80717344749999
 20
226.6721259655797
 30
0.0
  9
$EXTMAX
 10
226.62780138104
 20
334.179348173657
 30
0.0
  9
$LIMMIN
 10
0.0
 20
0.0
  9
$LIMMAX
 10
12.0
 20
9.0
  9
$ORTHOMODE
 70
     0
  9
$REGENMODE
 70
     1
  9
$FILLMODE
 70
     1
  9
$QTEXTMODE
 70
     0
  9
$MIRRTEXT
 70
     1
  9
$LTSCALE
 40
1.0
  9
$ATTMODE
 70
     1
  9
$TEXTSIZE
 40
0.2
  9
$TRACEWID
 40
0.05
  9
$TEXTSTYLE
  7
Standard
  9
$CLAYER
  8
0
  9
$CELTYPE
  6
ByLayer
  9
$CECOLOR
 62
   256
  9
$CELTSCALE
 40
1.0
  9
$DISPSILH
 70
     0
  9
$DIMSCALE
 40
1.0
  9
$DIMASZ
 40
0.18
  9
$DIMEXO
 40
0.0625
  9
$DIMDLI
 40
0.38
  9
$DIMRND
 40
0.0
  9
$DIMDLE
 40
0.0
  9
$DIMEXE
 40
0.18
  9
$DIMTP
 40
0.0
  9
$DIMTM
 40
0.0
  9
$DIMTXT
 40
0.18
  9
$DIMCEN
 40
0.09
  9
$DIMTSZ
 40
0.0
  9
$DIMTOL
 70
     0
  9
$DIMLIM
 70
     0
  9
$DIMTIH
 70
     1
  9
$DIMTOH
 70
     1
  9
$DIMSE1
 70
     0
  9
$DIMSE2
 70
     0
  9
$DIMTAD
 70
     0
  9
$DIMZIN
 70
     0
  9
$DIMBLK
  1

  9
$DIMASO
 70
     1
  9
$DIMSHO
 70
     1
  9
$DIMPOST
  1

  9
$DIMAPOST
  1

  9
$DIMALT
 70
     0
  9
$DIMALTD
 70
     2
  9
$DIMALTF
 40
25.4
  9
$DIMLFAC
 40
1.0
  9
$DIMTOFL
 70
     0
  9
$DIMTVP
 40
0.0
  9
$DIMTIX
 70
     0
  9
$DIMSOXD
 70
     0
  9
$DIMSAH
 70
     0
  9
$DIMBLK1
  1

  9
$DIMBLK2
  1

  9
$DIMSTYLE
  2
Standard
  9
$DIMCLRD
 70
     0
  9
$DIMCLRE
 70
     0
  9
$DIMCLRT
 70
     0
  9
$DIMTFAC
 40
1.0
  9
$DIMGAP
 40
0.09
  9
$DIMJUST
 70
     0
  9
$DIMSD1
 70
     0
  9
$DIMSD2
 70
     0
  9
$DIMTOLJ
 70
     1
  9
$DIMTZIN
 70
     0
  9
$DIMALTZ
 70
     0
  9
$DIMALTTZ
 70
     0
  9
$DIMUPT
 70
     0
  9
$DIMDEC
 70
     4
  9
$DIMTDEC
 70
     4
  9
$DIMALTU
 70
     2
  9
$DIMALTTD
 70
     2
  9
$DIMTXSTY
  7
Standard
  9
$DIMAUNIT
 70
     0
  9
$DIMADEC
 70
     0
  9
$DIMALTRND
 40
0.0
  9
$DIMAZIN
 70
     0
  9
$DIMDSEP
 70
    46
  9
$DIMATFIT
 70
     3
  9
$DIMFRAC
 70
     0
  9
$DIMLDRBLK
  1

  9
$DIMLUNIT
 70
     2
  9
$DIMLWD
 70
    -2
  9
$DIMLWE
 70
    -2
  9
$DIMTMOVE
 70
     0
  9
$LUNITS
 70
     2
  9
$LUPREC
 70
     4
  9
$SKETCHINC
 40
0.1
  9
$FILLETRAD
 40
0.5
  9
$AUNITS
 70
     0
  9
$AUPREC
 70
     0
  9
$MENU
  1
.
  9
$ELEVATION
 40
0.0
  9
$PELEVATION
 40
0.0
  9
$THICKNESS
 40
0.0
  9
$LIMCHECK
 70
     0
  9
$CHAMFERA
 40
0.5
  9
$CHAMFERB
 40
0.5
  9
$CHAMFERC
 40
1.0
  9
$CHAMFERD
 40
0.0
  9
$SKPOLY
 70
     0
  9
$TDCREATE
 40
2456821.357690891
  9
$TDUCREATE
 40
2456821.274357558
  9
$TDUPDATE
 40
2456821.357690903
  9
$TDUUPDATE
 40
2456821.274357569
  9
$TDINDWG
 40
0.0000000116
  9
$TDUSRTIMER
 40
0.0000000116
  9
$USRTIMER
 70
     1
  9
$ANGBASE
 50
0.0
  9
$ANGDIR
 70
     0
  9
$PDMODE
 70
     0
  9
$PDSIZE
 40
0.0
  9
$PLINEWID
 40
0.0
  9
$SPLFRAME
 70
     0
  9
$SPLINETYPE
 70
     6
  9
$SPLINESEGS
 70
     8
  9
$HANDSEED
  5
100
  9
$SURFTAB1
 70
     6
  9
$SURFTAB2
 70
     6
  9
$SURFTYPE
 70
     6
  9
$SURFU
 70
     6
  9
$SURFV
 70
     6
  9
$UCSBASE
  2

  9
$UCSNAME
  2

  9
$UCSORG
 10
0.0
 20
0.0
 30
0.0
  9
$UCSXDIR
 10
1.0
 20
0.0
 30
0.0
  9
$UCSYDIR
 10
0.0
 20
1.0
 30
0.0
  9
$UCSORTHOREF
  2

  9
$UCSORTHOVIEW
 70
     0
  9
$UCSORGTOP
 10
0.0
 20
0.0
 30
0.0
  9
$UCSORGBOTTOM
 10
0.0
 20
0.0
 30
0.0
  9
$UCSORGLEFT
 10
0.0
 20
0.0
 30
0.0
  9
$UCSORGRIGHT
 10
0.0
 20
0.0
 30
0.0
  9
$UCSORGFRONT
 10
0.0
 20
0.0
 30
0.0
  9
$UCSORGBACK
 10
0.0
 20
0.0
 30
0.0
  9
$PUCSBASE
  2

  9
$PUCSNAME
  2

  9
$PUCSORG
 10
0.0
 20
0.0
 30
0.0
  9
$PUCSXDIR
 10
1.0
 20
0.0
 30
0.0
  9
$PUCSYDIR
 10
0.0
 20
1.0
 30
0.0
  9
$PUCSORTHOREF
  2

  9
$PUCSORTHOVIEW
 70
     0
  9
$PUCSORGTOP
 10
0.0
 20
0.0
 30
0.0
  9
$PUCSORGBOTTOM
 10
0.0
 20
0.0
 30
0.0
  9
$PUCSORGLEFT
 10
0.0
 20
0.0
 30
0.0
  9
$PUCSORGRIGHT
 10
0.0
 20
0.0
 30
0.0
  9
$PUCSORGFRONT
 10
0.0
 20
0.0
 30
0.0
  9
$PUCSORGBACK
 10
0.0
 20
0.0
 30
0.0
  9
$USERI1
 70
     0
  9
$USERI2
 70
     0
  9
$USERI3
 70
     0
  9
$USERI4
 70
     0
  9
$USERI5
 70
     0
  9
$USERR1
 40
16.5
  9
$USERR2
 40
0.0
  9
$USERR3
 40
0.0
  9
$USERR4
 40
0.0
  9
$USERR5
 40
0.0
  9
$WORLDVIEW
 70
     1
  9
$SHADEDGE
 70
     3
  9
$SHADEDIF
 70
    70
  9
$TILEMODE
 70
     1
  9
$MAXACTVP
 70
    64
  9
$PINSBASE
 10
0.0
 20
0.0
 30
0.0
  9
$PLIMCHECK
 70
     0
  9
$PEXTMIN
 10
1.00000000000000E+20
 20
1.00000000000000E+20
 30
1.00000000000000E+20
  9
$PEXTMAX
 10
-1.00000000000000E+20
 20
-1.00000000000000E+20
 30
-1.00000000000000E+20
  9
$PLIMMIN
 10
0.0
 20
0.0
  9
$PLIMMAX
 10
12.0
 20
9.0
  9
$UNITMODE
 70
     0
  9
$VISRETAIN
 70
     1
  9
$PLINEGEN
 70
     0
  9
$PSLTSCALE
 70
     1
  9
$TREEDEPTH
 70
  3020
  9
$CMLSTYLE
  2
Standard
  9
$CMLJUST
 70
     0
  9
$CMLSCALE
 40
1.0
  9
$PROXYGRAPHICS
 70
     1
  9
$MEASUREMENT
 70
     1
  9
$CELWEIGHT
370
    -1
  9
$ENDCAPS
280
     0
  9
$JOINSTYLE
280
     0
  9
$LWDISPLAY
290
     0
  9
$INSUNITS
 70
     1
  9
$HYPERLINKBASE
  1

  9
$STYLESHEET
  1

  9
$XEDIT
290
     1
  9
$CEPSNTYPE
380
     0
  9
$PSTYLEMODE
290
     1
  9
$FINGERPRINTGUID
  2
{921BAB5C-8E9D-44F5-B89D-FAA51909D4C5}
  9
$VERSIONGUID
  2
{FAEB1C32-E019-11D5-929B-00C0DF256EC4}
  9
$EXTNAMES
290
     1
  9
$PSVPSCALE
 40
0.0
  9
$OLESTARTUP
290
     0
  0
ENDSEC
  0
SECTION
  2
CLASSES
  0
CLASS
  1
ACDBDICTIONARYWDFLT
  2
AcDbDictionaryWithDefault
  3
ObjectDBX Classes
 90
        0
280
     0
281
     0
  0
CLASS
  1
VISUALSTYLE
  2
AcDbVisualStyle
  3
ObjectDBX Classes
 90
     4095
280
     0
281
     0
  0
CLASS
  1
SCALE
  2
AcDbScale
  3
ObjectDBX Classes
 90
     1153
280
     0
281
     0
  0
CLASS
  1

  2
exOdDbPolyline
  3

 90
        0
280
     0
281
     1
  0
CLASS
  1

  2
exOdDbSpline
  3

 90
        0
280
     0
281
     1
  0
CLASS
  1
DICTIONARYVAR
  2
AcDbDictionaryVar
  3
ObjectDBX Classes
 90
        0
280
     0
281
     0
  0
CLASS
  1
ACDBPLACEHOLDER
  2
AcDbPlaceHolder
  3
ObjectDBX Classes
 90
        0
280
     0
281
     0
  0
CLASS
  1
LAYOUT
  2
AcDbLayout
  3
ObjectDBX Classes
 90
        0
280
     0
281
     0
  0
ENDSEC
  0
SECTION
  2
TABLES
  0
TABLE
  2
VPORT
  5
8
330
0
100
AcDbSymbolTable
 70
     1
  0
VPORT
  5
29
330
8
100
AcDbSymbolTableRecord
100
AcDbViewportTableRecord
  2
*Active
 70
     0
 10
0.0
 20
0.0
 11
1.0
 21
1.0
 12
154.21748741427
 22
280.4257370696183
 13
0.0
 23
0.0
 14
0.5
 24
0.5
 15
0.5
 25
0.5
 16
0.0
 26
0.0
 36
1.0
 17
0.0
 27
0.0
 37
0.0
 40
118.257944428885
 41
1.60267857142857
 42
50.0
 43
0.0
 44
0.0
 50
0.0
 51
0.0
 71
     0
 72
   100
 73
     1
 74
     3
 75
     0
 76
     0
 77
     0
 78
     0
281
     0
 65
     1
110
0.0
120
0.0
130
0.0
111
1.0
121
0.0
131
0.0
112
0.0
122
1.0
132
0.0
 79
     0
146
0.0
  0
ENDTAB
  0
TABLE
  2
LTYPE
  5
5
330
0
100
AcDbSymbolTable
 70
     8
  0
LTYPE
  5
14
330
5
100
AcDbSymbolTableRecord
100
AcDbLinetypeTableRecord
  2
ByBlock
 70
     0
  3

 72
    65
 73
     0
 40
0.0
  0
LTYPE
  5
15
330
5
100
AcDbSymbolTableRecord
100
AcDbLinetypeTableRecord
  2
ByLayer
 70
     0
  3

 72
    65
 73
     0
 40
0.0
  0
LTYPE
  5
16
330
5
100
AcDbSymbolTableRecord
100
AcDbLinetypeTableRecord
  2
Continuous
 70
     0
  3
Solid line
 72
    65
 73
     0
 40
0.0
  0
LTYPE
  5
3B
330
5
100
AcDbSymbolTableRecord
100
AcDbLinetypeTableRecord
  2
DASHED
 70
     0
  3
Dashed
 72
    65
 73
     2
 40
15.0
 49
7.0
 74
     0
 49
-8.0
 74
     0
  0
LTYPE
  5
3C
330
5
100
AcDbSymbolTableRecord
100
AcDbLinetypeTableRecord
  2
DOTTED
 70
     0
  3
Dotted
 72
    65
 73
     2
 40
1.0
 49
0.0
 74
     0
 49
-1.0
 74
     0
  0
LTYPE
  5
3D
330
5
100
AcDbSymbolTableRecord
100
AcDbLinetypeTableRecord
  2
DOT_CENTER
 70
     0
  3
Dot_Center
 72
    65
 73
     4
 40
14.0
 49
12.0
 74
     0
 49
-1.0
 74
     0
 49
0.0
 74
     0
 49
-1.0
 74
     0
  0
LTYPE
  5
3E
330
5
100
AcDbSymbolTableRecord
100
AcDbLinetypeTableRecord
  2
LONG_DASHED
 70
     0
  3
Long_Dashed
 72
    65
 73
     2
 40
15.0
 49
10.0
 74
     0
 49
-5.0
 74
     0
  0
LTYPE
  5
3F
330
5
100
AcDbSymbolTableRecord
100
AcDbLinetypeTableRecord
  2
DASH_CENTER
 70
     0
  3
Dash_Center
 72
    65
 73
     4
 40
14.0
 49
11.0
 74
     0
 49
-1.0
 74
     0
 49
1.0
 74
     0
 49
-1.0
 74
     0
  0
LTYPE
  5
40
330
5
100
AcDbSymbolTableRecord
100
AcDbLinetypeTableRecord
  2
PHANTOM
 70
     0
  3
Phantom
 72
    65
 73
     6
 40
13.0
 49
10.0
 74
     0
 49
-1.0
 74
     0
 49
0.0
 74
     0
 49
-1.0
 74
     0
 49
0.0
 74
     0
 49
-1.0
 74
     0
  0
LTYPE
  5
41
330
5
100
AcDbSymbolTableRecord
100
AcDbLinetypeTableRecord
  2
CENTER_DASH_DASH
 70
     0
  3
Center_Dash_Dash
 72
    65
 73
     6
 40
14.0
 49
9.0
 74
     0
 49
-1.0
 74
     0
 49
1.0
 74
     0
 49
-1.0
 74
     0
 49
1.0
 74
     0
 49
-1.0
 74
     0
  0
ENDTAB
  0
TABLE
  2
LAYER
  5
2
330
0
100
AcDbSymbolTable
 70
     6
  0
LAYER
  5
10
330
2
100
AcDbSymbolTableRecord
100
AcDbLayerTableRecord
  2
0
 70
     0
 62
     7
  6
Continuous
370
    -3
390
F
  0
LAYER
  5
42
330
2
100
AcDbSymbolTableRecord
100
AcDbLayerTableRecord
  2
1
 70
     0
 62
     7
  6
Continuous
370
    -3
390
F
  0
LAYER
  5
43
330
2
100
AcDbSymbolTableRecord
100
AcDbLayerTableRecord
  2
BEZUGSACHSEN
 70
     0
 62
     7
  6
Continuous
370
    -3
390
F
  0
LAYER
  5
44
330
2
100
AcDbSymbolTableRecord
100
AcDbLayerTableRecord
  2
DEFAULT_2
 70
     0
 62
     7
  6
Continuous
370
    -3
390
F
  0
LAYER
  5
45
330
2
100
AcDbSymbolTableRecord
100
AcDbLayerTableRecord
  2
RUNDUNGEN
 70
     0
 62
     7
  6
Continuous
370
    -3
390
F
  0
LAYER
  5
46
330
2
100
AcDbSymbolTableRecord
100
AcDbLayerTableRecord
  2
TEIL_STARTBEZUEGE
 70
     0
 62
     7
  6
Continuous
370
    -3
390
F
  0
ENDTAB
  0
TABLE
  2
STYLE
  5
3
330
0
100
AcDbSymbolTable
 70
     2
  0
STYLE
  5
11
330
3
100
AcDbSymbolTableRecord
100
AcDbTextStyleTableRecord
  2
Standard
 70
     0
 40
0.0
 41
1.0
 50
0.0
 71
     0
 42
0.2
  3
txt
  4

  0
STYLE
  5
6D
330
3
100
AcDbSymbolTableRecord
100
AcDbTextStyleTableRecord
  2
CONVERTER_11
 70
     0
 40
0.0
 41
0.72
 50
0.0
 71
     0
 42
0.2
  3
txt.shx
  4

  0
ENDTAB
  0
TABLE
  2
VIEW
  5
6
330
0
100
AcDbSymbolTable
 70
     0
  0
ENDTAB
  0
TABLE
  2
UCS
  5
7
330
0
100
AcDbSymbolTable
 70
     0
  0
ENDTAB
  0
TABLE
  2
APPID
  5
9
330
0
100
AcDbSymbolTable
 70
     1
  0
APPID
  5
12
330
9
100
AcDbSymbolTableRecord
100
AcDbRegAppTableRecord
  2
ACAD
 70
     0
  0
ENDTAB
  0
TABLE
  2
DIMSTYLE
  5
A
330
0
100
AcDbSymbolTable
 70
     6
100
AcDbDimStyleTable
  0
DIMSTYLE
105
27
330
A
100
AcDbSymbolTableRecord
100
AcDbDimStyleTableRecord
  2
Standard
 70
     0
340
11
  0
DIMSTYLE
105
C7
102
{ACAD_REACTORS
330
C8
102
}
330
A
100
AcDbSymbolTableRecord
100
AcDbDimStyleTableRecord
  2
ME10_DIM_10
 70
     0
  3
\U+2300<>
 41
3.5
 42
2.0
 44
2.0
 71
     1
 73
     0
 74
     0
 77
     1
 78
     8
140
3.5
146
0.7
147
2.0
172
     1
173
     1
176
     2
177
     2
178
     3
271
     2
272
     0
340
6D
  0
DIMSTYLE
105
D2
102
{ACAD_REACTORS
330
D3
102
}
330
A
100
AcDbSymbolTableRecord
100
AcDbDimStyleTableRecord
  2
ME10_DIM_11
 70
     0
  3
\U+2300<>
 41
3.5
 42
2.0
 44
2.0
 71
     1
 73
     0
 74
     0
 77
     1
 78
     8
140
3.5
146
0.7
147
2.0
172
     1
173
     1
176
     2
177
     2
178
     3
271
     2
272
     0
340
6D
  0
DIMSTYLE
105
DD
102
{ACAD_REACTORS
330
DE
102
}
330
A
100
AcDbSymbolTableRecord
100
AcDbDimStyleTableRecord
  2
ME10_DIM_12
 70
     0
  3
<>
 41
3.5
 42
2.0
 44
2.0
 71
     1
 73
     0
 74
     0
 77
     1
 78
     8
140
3.5
146
0.7
147
2.0
172
     1
173
     1
176
     2
177
     2
178
     3
271
     2
272
     0
340
6D
  0
DIMSTYLE
105
E8
102
{ACAD_REACTORS
330
E9
102
}
330
A
100
AcDbSymbolTableRecord
100
AcDbDimStyleTableRecord
  2
ME10_DIM_13
 70
     0
  3
<>
 41
3.5
 42
2.0
 44
2.0
 71
     1
 73
     0
 74
     0
 77
     1
 78
     8
140
3.5
146
0.7
147
2.0
172
     1
173
     1
176
     2
177
     2
178
     3
271
     2
272
     0
340
6D
  0
DIMSTYLE
105
F3
102
{ACAD_REACTORS
330
F4
102
}
330
A
100
AcDbSymbolTableRecord
100
AcDbDimStyleTableRecord
  2
ME10_DIM_14
 70
     0
  3
<>
 41
3.5
 42
2.0
 44
2.0
 71
     1
 73
     0
 74
     0
 77
     1
 78
     8
140
3.5
146
0.7
147
2.0
172
     1
173
     1
176
     2
177
     2
178
     3
271
     2
272
     0
340
6D
  0
ENDTAB
  0
TABLE
  2
BLOCK_RECORD
  5
1
330
0
100
AcDbSymbolTable
 70
     8
  0
BLOCK_RECORD
  5
1F
330
1
100
AcDbSymbolTableRecord
100
AcDbBlockTableRecord
  2
*Model_Space
340
22
  0
BLOCK_RECORD
  5
1B
330
1
100
AcDbSymbolTableRecord
100
AcDbBlockTableRecord
  2
*Paper_Space
340
1E
  0
BLOCK_RECORD
  5
23
330
1
100
AcDbSymbolTableRecord
100
AcDbBlockTableRecord
  2
*Paper_Space0
340
26
  0
BLOCK_RECORD
  5
47
330
1
100
AcDbSymbolTableRecord
100
AcDbBlockTableRecord
  2
Urheberrecht_DE-EN_horizontal
340
0
102
{BLKREFS
331
6C
102
}
  0
BLOCK_RECORD
  5
BC
330
1
100
AcDbSymbolTableRecord
100
AcDbBlockTableRecord
  2
*D2
340
0
  0
BLOCK_RECORD
  5
C9
330
1
100
AcDbSymbolTableRecord
100
AcDbBlockTableRecord
  2
*D3
340
0
  0
BLOCK_RECORD
  5
D4
330
1
100
AcDbSymbolTableRecord
100
AcDbBlockTableRecord
  2
*D4
340
0
  0
BLOCK_RECORD
  5
DF
330
1
100
AcDbSymbolTableRecord
100
AcDbBlockTableRecord
  2
*D5
340
0
  0
BLOCK_RECORD
  5
EA
330
1
100
AcDbSymbolTableRecord
100
AcDbBlockTableRecord
  2
*D6
340
0
  0
BLOCK_RECORD
  5
F5
330
1
100
AcDbSymbolTableRecord
100
AcDbBlockTableRecord
  2
*D7
340
0
102
{BLKREFS
331
FB
102
}
  0
ENDTAB
  0
ENDSEC
  0
SECTION
  2
BLOCKS
  0
BLOCK
  5
20
330
1F
100
AcDbEntity
  8
0
100
AcDbBlockBegin
  2
*Model_Space
 70
     0
 10
0.0
 20
0.0
 30
0.0
  3
*Model_Space
  1

  0
ENDBLK
  5
21
330
1F
100
AcDbEntity
  8
0
100
AcDbBlockEnd
  0
BLOCK
  5
1C
330
1B
100
AcDbEntity
 67
     1
  8
0
100
AcDbBlockBegin
  2
*Paper_Space
 70
     0
 10
0.0
 20
0.0
 30
0.0
  3
*Paper_Space
  1

  0
ENDBLK
  5
1D
330
1B
100
AcDbEntity
 67
     1
  8
0
100
AcDbBlockEnd
  0
BLOCK
  5
24
330
23
100
AcDbEntity
  8
0
100
AcDbBlockBegin
  2
*Paper_Space0
 70
     0
 10
0.0
 20
0.0
 30
0.0
  3
*Paper_Space0
  1

  0
ENDBLK
  5
25
330
23
100
AcDbEntity
  8
0
100
AcDbBlockEnd
  0
BLOCK
  5
48
330
47
100
AcDbEntity
  8
0
100
AcDbBlockBegin
  2
Urheberrecht_DE-EN_horizontal
 70
     0
 10
148.487438237769
 20
234.070133975484
 30
0.0
  3
Urheberrecht_DE-EN_horizontal
  1

  0
MTEXT
  5
6E
330
47
100
AcDbEntity
  8
1
 62
     1
100
AcDbMText
 10
95.03365584840977
 20
227.2721259655797
 30
0.0
 40
2.0
 41
0.0
 71
     7
 72
     1
  1
F\U+00fcr diese Unterlage behalten wir das Ur-\Pheberrecht. Sie darf nur f\U+00fcr den von uns \Pbestimmten Zweck benutzt und ohne unsere \PZustimmung weder vervielf\U+00e4ltigt noch\PDritten zug\U+00e4nglich gemacht werden.
  7
CONVERTER_11
 73
     1
 44
0.90036014405762
  0
MTEXT
  5
6F
330
47
100
AcDbEntity
  8
1
 62
     1
100
AcDbMText
 10
151.3230427657159
 20
227.2721259655797
 30
0.0
 40
2.0
 41
0.0
 71
     7
 72
     1
  1
We own the copyright of this document. It \Pdetermined and may neither be copied or \Pmade accessible to outsiders without our\Ppermission.
  7
CONVERTER_11
 73
     1
 44
0.90036014405762
  0
ENDBLK
  5
49
330
47
100
AcDbEntity
  8
0
100
AcDbBlockEnd
  0
BLOCK
  5
C5
330
BC
100
AcDbEntity
  8
0
100
AcDbBlockBegin
  2
*D2
 70
     1
 10
0.0
 20
0.0
 30
0.0
  3
*D2
  1

  0
LINE
  5
BD
330
BC
100
AcDbEntity
  8
1
  6
Continuous
 62
     2
100
AcDbLine
 10
214.10210011268
 20
290.139288778
 30
0.0
 11
214.10210011268
 21
283.139288778
 31
0.0
  0
LINE
  5
BE
330
BC
100
AcDbEntity
  8
1
  6
Continuous
 62
     2
100
AcDbLine
 10
214.10210011268
 20
283.139288778
 30
0.0
 11
214.10210011268
 21
275.139288778
 31
0.0
  0
LINE
  5
BF
330
BC
100
AcDbEntity
  8
1
  6
Continuous
 62
     2
100
AcDbLine
 10
214.10210011268
 20
275.139288778
 30
0.0
 11
214.10210011268
 21
268.139288778
 31
0.0
  0
LINE
  5
C0
330
BC
100
AcDbEntity
  8
1
  6
Continuous
 62
     2
100
AcDbLine
 10
205.3321734475
 20
283.139288778
 30
0.0
 11
216.10210011268
 21
283.139288778
 31
0.0
  0
LINE
  5
C1
330
BC
100
AcDbEntity
  8
1
  6
Continuous
 62
     2
100
AcDbLine
 10
205.3321734475
 20
275.139288778
 30
0.0
 11
216.10210011268
 21
275.139288778
 31
0.0
  0
SOLID
  5
C2
330
BC
100
AcDbEntity
  8
1
 62
     2
100
AcDbTrace
 10
213.6413163711241
 20
286.639288778
 30
0.0
 11
214.5628838542359
 21
286.639288778
 31
0.0
 12
214.10210011268
 22
283.139288778
 32
0.0
 13
214.10210011268
 23
283.139288778
 33
0.0
  0
SOLID
  5
C3
330
BC
100
AcDbEntity
  8
1
 62
     2
100
AcDbTrace
 10
214.5628838542359
 20
271.639288778
 30
0.0
 11
213.6413163711241
 21
271.639288778
 31
0.0
 12
214.10210011268
 22
275.139288778
 32
0.0
 13
214.10210011268
 23
275.139288778
 33
0.0
  0
MTEXT
  5
C4
330
BC
100
AcDbEntity
  8
1
 62
     3
100
AcDbMText
 10
212.10210011268
 20
271.579689677486
 30
0.0
 40
3.5
 41
0.0
 71
     7
 72
     1
  1
\C3;%%c\C3;\C3;8\C2;\H2.45;\S^ ;\C3;
  7
CONVERTER_11
 11
0.0
 21
1.0
 31
0.0
 73
     1
 44
0.60024009603842
  0
ENDBLK
  5
C6
330
BC
100
AcDbEntity
  8
0
100
AcDbBlockEnd
  0
BLOCK
  5
D0
330
C9
100
AcDbEntity
  8
0
100
AcDbBlockBegin
  2
*D3
 70
     1
 10
0.0
 20
0.0
 30
0.0
  3
*D3
  1

  0
LINE
  5
CA
330
C9
100
AcDbEntity
  8
1
  6
Continuous
 62
     2
100
AcDbLine
 10
224.62780138104
 20
293.139288778
 30
0.0
 11
224.62780138104
 21
265.139288778
 31
0.0
  0
LINE
  5
CB
330
C9
100
AcDbEntity
  8
1
  6
Continuous
 62
     2
100
AcDbLine
 10
194.0642242551
 20
293.139288778
 30
0.0
 11
226.62780138104
 21
293.139288778
 31
0.0
  0
LINE
  5
CC
330
C9
100
AcDbEntity
  8
1
  6
Continuous
 62
     2
100
AcDbLine
 10
194.0642242551
 20
265.139288778
 30
0.0
 11
226.62780138104
 21
265.139288778
 31
0.0
  0
SOLID
  5
CD
330
C9
100
AcDbEntity
  8
1
 62
     2
100
AcDbTrace
 10
225.0885851225959
 20
289.639288778
 30
0.0
 11
224.1670176394841
 21
289.639288778
 31
0.0
 12
224.62780138104
 22
293.139288778
 32
0.0
 13
224.62780138104
 23
293.139288778
 33
0.0
  0
SOLID
  5
CE
330
C9
100
AcDbEntity
  8
1
 62
     2
100
AcDbTrace
 10
224.1670176394841
 20
268.639288778
 30
0.0
 11
225.0885851225959
 21
268.639288778
 31
0.0
 12
224.62780138104
 22
265.139288778
 32
0.0
 13
224.62780138104
 23
265.139288778
 33
0.0
  0
MTEXT
  5
CF
330
C9
100
AcDbEntity
  8
1
 62
     3
100
AcDbMText
 10
222.62780138104
 20
270.377523200939
 30
0.0
 40
3.5
 41
0.0
 71
     7
 72
     1
  1
\C3;%%c\C3;\C3;28\C2;\H2.45;\S^ ;\C3;
  7
CONVERTER_11
 11
0.0
 21
1.0
 31
0.0
 73
     1
 44
0.60024009603842
  0
ENDBLK
  5
D1
330
C9
100
AcDbEntity
  8
0
100
AcDbBlockEnd
  0
BLOCK
  5
DB
330
D4
100
AcDbEntity
  8
0
100
AcDbBlockBegin
  2
*D4
 70
     1
 10
0.0
 20
0.0
 30
0.0
  3
*D4
  1

  0
LINE
  5
D5
330
D4
100
AcDbEntity
  8
1
  6
Continuous
 62
     2
100
AcDbLine
 10
203.3321734475
 20
313.82396326005
 30
0.0
 11
172.4321734475
 21
313.82396326005
 31
0.0
  0
LINE
  5
D6
330
D4
100
AcDbEntity
  8
1
  6
Continuous
 62
     2
100
AcDbLine
 10
203.3321734475
 20
288.2110855477
 30
0.0
 11
203.3321734475
 21
315.82396326005
 31
0.0
  0
LINE
  5
D7
330
D4
100
AcDbEntity
  8
1
  6
Continuous
 62
     2
100
AcDbLine
 10
172.4321734475
 20
310.8162395352
 30
0.0
 11
172.4321734475
 21
315.82396326005
 31
0.0
  0
SOLID
  5
D8
330
D4
100
AcDbEntity
  8
1
 62
     2
100
AcDbTrace
 10
199.8321734475
 20
313.3631795184941
 30
0.0
 11
199.8321734475
 21
314.2847470016059
 31
0.0
 12
203.3321734475
 22
313.82396326005
 32
0.0
 13
203.3321734475
 23
313.82396326005
 33
0.0
  0
SOLID
  5
D9
330
D4
100
AcDbEntity
  8
1
 62
     2
100
AcDbTrace
 10
175.9321734475
 20
314.2847470016059
 30
0.0
 11
175.9321734475
 21
313.3631795184941
 31
0.0
 12
172.4321734475
 22
313.82396326005
 32
0.0
 13
172.4321734475
 23
313.82396326005
 33
0.0
  0
MTEXT
  5
DA
330
D4
100
AcDbEntity
  8
1
 62
     3
100
AcDbMText
 10
182.9025998495037
 20
315.82396326005
 30
0.0
 40
3.5
 41
0.0
 71
     7
 72
     1
  1
\C3;\C3;\C3;30.9\C2;\H2.45;\S^ ;\C3;
  7
CONVERTER_11
 11
0.9999999999970619
 21
2.424068405545306E-6
 31
0.0
 73
     1
 44
0.60024009603842
  0
ENDBLK
  5
DC
330
D4
100
AcDbEntity
  8
0
100
AcDbBlockEnd
  0
BLOCK
  5
E6
330
DF
100
AcDbEntity
  8
0
100
AcDbBlockBegin
  2
*D5
 70
     1
 10
0.0
 20
0.0
 30
0.0
  3
*D5
  1

  0
LINE
  5
E0
330
DF
100
AcDbEntity
  8
1
  6
Continuous
 62
     2
100
AcDbLine
 10
203.3321734475
 20
321.121680801299
 30
0.0
 11
153.3321734475
 21
321.121680801299
 31
0.0
  0
LINE
  5
E1
330
DF
100
AcDbEntity
  8
1
  6
Continuous
 62
     2
100
AcDbLine
 10
203.3321734475
 20
288.2110855477
 30
0.0
 11
203.3321734475
 21
323.121680801299
 31
0.0
  0
LINE
  5
E2
330
DF
100
AcDbEntity
  8
1
  6
Continuous
 62
     2
100
AcDbLine
 10
153.3321734475
 20
315.901788778
 30
0.0
 11
153.3321734475
 21
323.121680801299
 31
0.0
  0
SOLID
  5
E3
330
DF
100
AcDbEntity
  8
1
 62
     2
100
AcDbTrace
 10
199.8321734475
 20
320.6608970597431
 30
0.0
 11
199.8321734475
 21
321.5824645428549
 31
0.0
 12
203.3321734475
 22
321.121680801299
 32
0.0
 13
203.3321734475
 23
321.121680801299
 33
0.0
  0
SOLID
  5
E4
330
DF
100
AcDbEntity
  8
1
 62
     2
100
AcDbTrace
 10
156.8321734475
 20
321.5824645428549
 30
0.0
 11
156.8321734475
 21
320.6608970597431
 31
0.0
 12
153.3321734475
 22
321.121680801299
 32
0.0
 13
153.3321734475
 23
321.121680801299
 33
0.0
  0
MTEXT
  5
E5
330
DF
100
AcDbEntity
  8
1
 62
     3
100
AcDbMText
 10
175.171568367152
 20
323.121680801299
 30
0.0
 40
3.5
 41
0.0
 71
     7
 72
     1
  1
\C3;\C3;\C3;50\C2;\H2.45;\S^ ;\C3;
  7
CONVERTER_11
 11
0.9999999999970619
 21
2.424068405545306E-6
 31
0.0
 73
     1
 44
0.60024009603842
  0
ENDBLK
  5
E7
330
DF
100
AcDbEntity
  8
0
100
AcDbBlockEnd
  0
BLOCK
  5
F1
330
EA
100
AcDbEntity
  8
0
100
AcDbBlockBegin
  2
*D6
 70
     1
 10
0.0
 20
0.0
 30
0.0
  3
*D6
  1

  0
LINE
  5
EB
330
EA
100
AcDbEntity
  8
1
  6
Continuous
 62
     2
100
AcDbLine
 10
84.93217344749999
 20
328.679348173657
 30
0.0
 11
203.3321734475
 21
328.679348173657
 31
0.0
  0
LINE
  5
EC
330
EA
100
AcDbEntity
  8
1
  6
Continuous
 62
     2
100
AcDbLine
 10
84.93217344749999
 20
292.5888369788
 30
0.0
 11
84.93217344749999
 21
330.679348173657
 31
0.0
  0
LINE
  5
ED
330
EA
100
AcDbEntity
  8
1
  6
Continuous
 62
     2
100
AcDbLine
 10
203.3321734475
 20
288.2110855477
 30
0.0
 11
203.3321734475
 21
330.679348173657
 31
0.0
  0
SOLID
  5
EE
330
EA
100
AcDbEntity
  8
1
 62
     2
100
AcDbTrace
 10
88.43217344749999
 20
329.1401319152129
 30
0.0
 11
88.43217344749999
 21
328.2185644321011
 31
0.0
 12
84.93217344749999
 22
328.679348173657
 32
0.0
 13
84.93217344749999
 23
328.679348173657
 33
0.0
  0
SOLID
  5
EF
330
EA
100
AcDbEntity
  8
1
 62
     2
100
AcDbTrace
 10
199.8321734475
 20
328.2185644321011
 30
0.0
 11
199.8321734475
 21
329.1401319152129
 31
0.0
 12
203.3321734475
 22
328.679348173657
 32
0.0
 13
203.3321734475
 23
328.679348173657
 33
0.0
  0
MTEXT
  5
F0
330
EA
100
AcDbEntity
  8
1
 62
     3
100
AcDbMText
 10
145.381918063401
 20
330.679348173657
 30
0.0
 40
3.5
 41
0.0
 71
     7
 72
     1
  1
\C3;\C3;\C3;118.4\C2;\H2.45;\S^ ;\C3;
  7
CONVERTER_11
 11
0.9999999999970619
 21
2.424068405545306E-6
 31
0.0
 73
     1
 44
0.60024009603842
  0
ENDBLK
  5
F2
330
EA
100
AcDbEntity
  8
0
100
AcDbBlockEnd
  0
BLOCK
  5
F9
330
F5
100
AcDbEntity
  8
0
100
AcDbBlockBegin
  2
*D7
 70
     1
 10
0.0
 20
0.0
 30
0.0
  3
*D7
  1

  0
LINE
  5
F6
330
F5
100
AcDbEntity
  8
1
  6
Continuous
 62
     2
100
AcDbLine
 10
183.6281558674782
 20
299.6408352790558
 30
0.0
 11
172.6733974169526
 21
294.9606646592594
 31
0.0
  0
SOLID
  5
F7
330
F5
100
AcDbEntity
  8
1
 62
     2
100
AcDbTrace
 10
175.7109391754842
 20
296.7594591782802
 30
0.0
 11
176.0729997296984
 21
295.9119930839666
 31
0.0
 12
172.6733974169526
 22
294.9606646592594
 32
0.0
 13
172.6733974169526
 23
294.9606646592594
 33
0.0
  0
MTEXT
  5
F8
330
F5
100
AcDbEntity
  8
1
 62
     3
100
AcDbMText
 10
176.0190337394305
 20
298.564888979069
 30
0.0
 40
3.5
 41
0.0
 71
     7
 72
     1
  1
\C3; R\C3;\C3;3\C2;\H2.45;\S^ ;\C3;
  7
CONVERTER_11
 11
0.9195920101824744
 21
0.3928747062468593
 31
0.0
 73
     1
 44
0.60024009603842
  0
ENDBLK
  5
FA
330
F5
100
AcDbEntity
  8
0
100
AcDbBlockEnd
  0
ENDSEC
  0
SECTION
  2
ENTITIES
  0
INSERT
  5
6C
330
1F
100
AcDbEntity
  8
0
100
AcDbBlockReference
  2
Urheberrecht_DE-EN_horizontal
 10
148.487438237769
 20
234.070133975484
 30
0.0
  0
LINE
  5
70
330
1F
100
AcDbEntity
  8
0
  6
Continuous
 62
     7
100
AcDbLine
 10
84.93217344749999
 20
290.5888369788
 30
0.0
 11
84.93217344749999
 21
267.6897405771
 31
0.0
  0
LINE
  5
71
330
1F
100
AcDbEntity
  8
0
  6
Continuous
 62
     9
100
AcDbLine
 10
85.74507071179998
 20
291.5288916792
 30
0.0
 11
85.74507071179997
 21
266.7496858767
 31
0.0
  0
LINE
  5
72
330
1F
100
AcDbEntity
  8
0
  6
Continuous
 62
     7
100
AcDbLine
 10
157.5321734475
 20
248.4269719287
 30
0.0
 11
160.9781199271
 21
248.4269719287
 31
0.0
  0
LINE
  5
73
330
1F
100
AcDbEntity
  8
0
  6
Continuous
 62
     7
100
AcDbLine
 10
168.036226968
 20
248.4269719287
 30
0.0
 11
171.4321734475
 21
248.4269719287
 31
0.0
  0
LINE
  5
74
330
1F
100
AcDbEntity
  8
0
  6
Continuous
 62
     7
100
AcDbLine
 10
163.3446734475
 20
252.3364904166
 30
0.0
 11
165.6696734475
 21
252.3364904166
 31
0.0
  0
LINE
  5
75
330
1F
100
AcDbEntity
  8
0
  6
Continuous
 62
     7
100
AcDbLine
 10
153.8821734475
 20
257.264288778
 30
0.0
 11
152.8424911143
 21
256.9857067364
 31
0.0
  0
LINE
  5
76
330
1F
100
AcDbEntity
  8
0
  6
Continuous
 62
     7
100
AcDbLine
 10
155.5321734475
 20
257.264288778
 30
0.0
 11
153.8821734475
 21
257.264288778
 31
0.0
  0
LINE
  5
77
330
1F
100
AcDbEntity
  8
0
  6
Continuous
 62
     7
100
AcDbLine
 10
152.8424911143
 20
256.9857067364
 30
0.0
 11
85.74507071179997
 21
266.7496858767
 31
0.0
  0
LINE
  5
78
330
1F
100
AcDbEntity
  8
0
  6
Continuous
 62
     7
100
AcDbLine
 10
175.4321734475
 20
265.139288778
 30
0.0
 11
192.0642242551
 21
265.139288778
 31
0.0
  0
LWPOLYLINE
  5
79
330
1F
100
AcDbEntity
  8
DEFAULT_2
  6
DASHED
 62
     8
100
AcDbPolyline
 90
        2
 70
     0
 43
0.35
 10
203.3321734475
 20
275.139288778
 10
170.3821734475
 20
275.139288778
  0
LWPOLYLINE
  5
7A
330
1F
100
AcDbEntity
  8
TEIL_STARTBEZUEGE
  6
DOT_CENTER
 62
     7
100
AcDbPolyline
 90
        2
 70
     0
 43
0.25
 10
206.3321734475
 20
279.139288778
 10
81.93217344749999
 20
279.139288778
  0
LWPOLYLINE
  5
7B
330
1F
100
AcDbEntity
  8
DEFAULT_2
  6
DASHED
 62
     8
100
AcDbPolyline
 90
        2
 70
     0
 43
0.35
 10
181.9321734475
 20
283.139288778
 10
203.3321734475
 20
283.139288778
  0
LINE
  5
7C
330
1F
100
AcDbEntity
  8
0
  6
Continuous
 62
     7
100
AcDbLine
 10
152.8424911143
 20
301.2928708195
 30
0.0
 11
152.8424911143
 21
256.9857067364
 31
0.0
  0
LWPOLYLINE
  5
7D
330
1F
100
AcDbEntity
  8
TEIL_STARTBEZUEGE
  6
DOT_CENTER
 62
     7
100
AcDbPolyline
 90
        2
 70
     0
 43
0.25
 10
153.3321734475
 20
245.4269719287
 10
153.3321734475
 20
313.901788778
  0
LINE
  5
7E
330
1F
100
AcDbEntity
  8
0
  6
Continuous
 62
     7
100
AcDbLine
 10
153.8821734475
 20
301.014288778
 30
0.0
 11
153.8821734475
 21
257.264288778
 31
0.0
  0
LINE
  5
7F
330
1F
100
AcDbEntity
  8
0
  6
Continuous
 62
     9
100
AcDbLine
 10
155.5321734475
 20
301.014288778
 30
0.0
 11
155.5321734475
 21
257.264288778
 31
0.0
  0
LINE
  5
80
330
1F
100
AcDbEntity
  8
0
  6
Continuous
 62
     7
100
AcDbLine
 10
156.5321734475
 20
308.8162395352
 30
0.0
 11
156.5321734475
 21
249.4623380207
 31
0.0
  0
LINE
  5
81
330
1F
100
AcDbEntity
  8
0
  6
Continuous
 62
     9
100
AcDbLine
 10
157.5321734475
 20
309.8516056272
 30
0.0
 11
157.5321734475
 21
248.4269719287
 31
0.0
  0
LINE
  5
82
330
1F
100
AcDbEntity
  8
BEZUGSACHSEN
  6
Continuous
 62
     7
100
AcDbLine
 10
192.0642242551
 20
293.139288778
 30
0.0
 11
188.7321734475
 21
293.139288778
 31
0.0
  0
LINE
  5
83
330
1F
100
AcDbEntity
  8
BEZUGSACHSEN
  6
Continuous
 62
     7
100
AcDbLine
 10
181.9321734475
 20
293.139288778
 30
0.0
 11
175.4321734475
 21
293.139288778
 31
0.0
  0
LINE
  5
84
330
1F
100
AcDbEntity
  8
0
  6
Continuous
 62
     7
100
AcDbLine
 10
175.4321734475
 20
293.139288778
 30
0.0
 11
181.9321734475
 21
293.139288778
 31
0.0
  0
LINE
  5
85
330
1F
100
AcDbEntity
  8
0
  6
Continuous
 62
     7
100
AcDbLine
 10
188.7321734475
 20
293.139288778
 30
0.0
 11
192.0642242551
 21
293.139288778
 31
0.0
  0
LINE
  5
86
330
1F
100
AcDbEntity
  8
0
  6
Continuous
 62
     7
100
AcDbLine
 10
160.9781199271
 20
309.8516056272
 30
0.0
 11
160.9781199271
 21
248.4269719287
 31
0.0
  0
LINE
  5
87
330
1F
100
AcDbEntity
  8
0
  6
Continuous
 62
     7
100
AcDbLine
 10
162.5946734475
 20
306.9461069804
 30
0.0
 11
162.5946734475
 21
251.3324705755
 31
0.0
  0
LINE
  5
88
330
1F
100
AcDbEntity
  8
0
  6
Continuous
 62
     9
100
AcDbLine
 10
163.3446734475
 20
305.9420871393
 30
0.0
 11
163.3446734475
 21
252.3364904166
 31
0.0
  0
LINE
  5
89
330
1F
100
AcDbEntity
  8
0
  6
Continuous
 62
     9
100
AcDbLine
 10
165.6696734475
 20
305.9420871393
 30
0.0
 11
165.6696734475
 21
252.3364904166
 31
0.0
  0
LINE
  5
8A
330
1F
100
AcDbEntity
  8
0
  6
Continuous
 62
     7
100
AcDbLine
 10
166.4196734475
 20
306.9461069804
 30
0.0
 11
166.4196734475
 21
251.3324705755
 31
0.0
  0
LINE
  5
8B
330
1F
100
AcDbEntity
  8
0
  6
Continuous
 62
     7
100
AcDbLine
 10
152.8424911143
 20
301.2928708195
 30
0.0
 11
85.74507071179998
 21
291.5288916792
 31
0.0
  0
LINE
  5
8C
330
1F
100
AcDbEntity
  8
0
  6
Continuous
 62
     7
100
AcDbLine
 10
155.5321734475
 20
301.014288778
 30
0.0
 11
153.8821734475
 21
301.014288778
 31
0.0
  0
LINE
  5
8D
330
1F
100
AcDbEntity
  8
0
  6
Continuous
 62
     7
100
AcDbLine
 10
156.5321734475
 20
301.689288778
 30
0.0
 11
156.4778874635
 21
301.689288778
 31
0.0
  0
LINE
  5
8E
330
1F
100
AcDbEntity
  8
0
  6
Continuous
 62
     7
100
AcDbLine
 10
168.036226968
 20
309.8516056272
 30
0.0
 11
168.036226968
 21
248.4269719287
 31
0.0
  0
LWPOLYLINE
  5
8F
330
1F
100
AcDbEntity
  8
DEFAULT_2
  6
DASHED
 62
     8
100
AcDbPolyline
 90
        2
 70
     0
 43
0.35
 10
170.3321734475
 20
283.139288778
 10
170.3321734475
 20
275.139288778
  0
LINE
  5
90
330
1F
100
AcDbEntity
  8
0
  6
Continuous
 62
     9
100
AcDbLine
 10
171.4321734475
 20
309.8516056272
 30
0.0
 11
171.4321734475
 21
248.4269719287
 31
0.0
  0
LINE
  5
91
330
1F
100
AcDbEntity
  8
0
  6
Continuous
 62
     7
100
AcDbLine
 10
163.3446734475
 20
305.9420871393
 30
0.0
 11
165.6696734475
 21
305.9420871393
 31
0.0
  0
LINE
  5
92
330
1F
100
AcDbEntity
  8
0
  6
Continuous
 62
     7
100
AcDbLine
 10
153.8821734475
 20
301.014288778
 30
0.0
 11
152.8424911143
 21
301.2928708195
 31
0.0
  0
LINE
  5
93
330
1F
100
AcDbEntity
  8
0
  6
Continuous
 62
     7
100
AcDbLine
 10
172.4321734475
 20
308.8162395352
 30
0.0
 11
172.4321734475
 21
249.4623380207
 31
0.0
  0
LINE
  5
94
330
1F
100
AcDbEntity
  8
RUNDUNGEN
  6
Continuous
 62
     9
100
AcDbLine
 10
175.4321734475
 20
293.139288778
 30
0.0
 11
175.4321734475
 21
265.139288778
 31
0.0
  0
LINE
  5
95
330
1F
100
AcDbEntity
  8
0
  6
Continuous
 62
     7
100
AcDbLine
 10
157.5321734475
 20
309.8516056272
 30
0.0
 11
160.9781199271
 21
309.8516056272
 31
0.0
  0
LINE
  5
96
330
1F
100
AcDbEntity
  8
0
  6
Continuous
 62
     7
100
AcDbLine
 10
168.036226968
 20
309.8516056272
 30
0.0
 11
171.4321734475
 21
309.8516056272
 31
0.0
  0
LINE
  5
97
330
1F
100
AcDbEntity
  8
RUNDUNGEN
  6
Continuous
 62
     7
100
AcDbLine
 10
202.8321734475
 20
287.0771109515
 30
0.0
 11
192.5642242551
 21
293.0053141817
 31
0.0
  0
LINE
  5
98
330
1F
100
AcDbEntity
  8
0
  6
Continuous
 62
     7
100
AcDbLine
 10
192.5642242551
 20
293.0053141817
 30
0.0
 11
202.8321734475
 21
287.0771109515
 31
0.0
  0
LWPOLYLINE
  5
99
330
1F
100
AcDbEntity
  8
BEZUGSACHSEN
  6
DASHED
 62
     8
100
AcDbPolyline
 90
        2
 70
     0
 43
0.35
 10
181.9321734475
 20
283.139288778
 10
181.9321734475
 20
293.139288778
  0
LINE
  5
9A
330
1F
100
AcDbEntity
  8
0
  6
Continuous
 62
     7
100
AcDbLine
 10
192.5642242551
 20
265.2732633742
 30
0.0
 11
202.8321734475
 21
271.2014666044
 31
0.0
  0
LWPOLYLINE
  5
9B
330
1F
100
AcDbEntity
  8
BEZUGSACHSEN
  6
DOT_CENTER
 62
     7
100
AcDbPolyline
 90
        2
 70
     0
 43
0.25
 10
185.3321734475
 20
296.139288778
 10
185.3321734475
 20
278.2439518034
  0
LWPOLYLINE
  5
9C
330
1F
100
AcDbEntity
  8
BEZUGSACHSEN
  6
DASHED
 62
     8
100
AcDbPolyline
 90
        2
 70
     0
 43
0.35
 10
188.7321734475
 20
283.139288778
 10
188.7321734475
 20
293.139288778
  0
LINE
  5
9D
330
1F
100
AcDbEntity
  8
RUNDUNGEN
  6
Continuous
 62
     9
100
AcDbLine
 10
192.0642242551
 20
265.139288778
 30
0.0
 11
192.0642242551
 21
293.139288778
 31
0.0
  0
LINE
  5
9E
330
1F
100
AcDbEntity
  8
RUNDUNGEN
  6
Continuous
 62
     9
100
AcDbLine
 10
192.5642242551
 20
265.2732633742
 30
0.0
 11
192.5642242551
 21
293.0053141817
 31
0.0
  0
LINE
  5
9F
330
1F
100
AcDbEntity
  8
RUNDUNGEN
  6
Continuous
 62
     9
100
AcDbLine
 10
202.8321734475
 20
271.2014666044
 30
0.0
 11
202.8321734475
 21
287.0771109515
 31
0.0
  0
LINE
  5
A0
330
1F
100
AcDbEntity
  8
RUNDUNGEN
  6
Continuous
 62
     7
100
AcDbLine
 10
203.3321734475
 20
286.2110855477
 30
0.0
 11
203.3321734475
 21
272.0674920082
 31
0.0
  0
LWPOLYLINE
  5
A1
330
1F
100
AcDbEntity
  8
BEZUGSACHSEN
  6
DASHED
 62
     8
100
AcDbPolyline
 90
        2
 70
     0
 43
0.35
 10
181.9321734475
 20
283.139288778
 10
170.3821734475
 20
283.139288778
  0
LWPOLYLINE
  5
A2
330
1F
100
AcDbEntity
  8
BEZUGSACHSEN
  6
DASHED
 62
     8
100
AcDbPolyline
 90
        2
 70
     0
 43
0.35
 10
189.3321734475
 20
283.139288778
 10
189.3321734475
 20
293.139288778
  0
LWPOLYLINE
  5
A3
330
1F
100
AcDbEntity
  8
BEZUGSACHSEN
  6
DASHED
 62
     8
100
AcDbPolyline
 90
        2
 70
     0
 43
0.35
 10
181.3321734475
 20
283.139288778
 10
181.3321734475
 20
293.139288778
  0
ARC
  5
A4
330
1F
100
AcDbEntity
  8
0
  6
Continuous
 62
     7
100
AcDbCircle
 10
-801.5430413556
 20
-227.5757847782
 30
0.0
 40
1102.395204032989
100
AcDbArc
 50
29.00416524305864
 51
29.17697495598756
  0
ARC
  5
A5
330
1F
100
AcDbEntity
  8
0
  6
Continuous
 62
     7
100
AcDbCircle
 10
155.5321734475
 20
256.264288778
 30
0.0
 40
1.0
100
AcDbArc
 50
0.0
 51
90.0
  0
ARC
  5
A6
330
1F
100
AcDbEntity
  8
0
  6
Continuous
 62
     7
100
AcDbCircle
 10
85.8821734475
 20
267.6897405771
 30
0.0
 40
0.9500000000000028
100
AcDbArc
 50
180.0
 51
261.7021731719695
  0
ARC
  5
A7
330
1F
100
AcDbEntity
  8
0
  6
Continuous
 62
     7
100
AcDbCircle
 10
-801.5430413368
 20
785.8543623236
 30
0.0
 40
1102.395204011465
100
AcDbArc
 50
330.8230250440126
 51
330.9958347569449
  0
ARC
  5
A8
330
1F
100
AcDbEntity
  8
0
  6
Continuous
 62
     7
100
AcDbCircle
 10
155.5321734475
 20
302.014288778
 30
0.0
 40
1.0
100
AcDbArc
 50
270.0
 51
341.0344250117311
  0
ARC
  5
A9
330
1F
100
AcDbEntity
  8
0
  6
Continuous
 62
     7
100
AcDbCircle
 10
85.8821734475
 20
290.5888369788
 30
0.0
 40
0.9499999999371631
100
AcDbArc
 50
98.29782682802914
 51
180.0
  0
ARC
  5
AA
330
1F
100
AcDbEntity
  8
0
  6
Continuous
 62
     7
100
AcDbCircle
 10
1130.5573882507
 20
-227.5757847782
 30
0.0
 40
1102.395204032998
100
AcDbArc
 50
150.8230250440124
 51
150.9958347569439
  0
ARC
  5
AB
330
1F
100
AcDbEntity
  8
RUNDUNGEN
  6
Continuous
 62
     7
100
AcDbCircle
 10
175.4321734475
 20
262.139288778
 30
0.0
 40
3.0
100
AcDbArc
 50
90.0
 51
180.0
  0
ARC
  5
AC
330
1F
100
AcDbEntity
  8
RUNDUNGEN
  6
Continuous
 62
     7
100
AcDbCircle
 10
202.3321734475
 20
272.0674920082
 30
0.0
 40
1.000000000013472
100
AcDbArc
 50
299.9999999995543
 51
0.0
  0
ARC
  5
AD
330
1F
100
AcDbEntity
  8
RUNDUNGEN
  6
Continuous
 62
     7
100
AcDbCircle
 10
192.0642242551
 20
266.139288778
 30
0.0
 40
1.0
100
AcDbArc
 50
270.0
 51
299.9999999995543
  0
ARC
  5
AE
330
1F
100
AcDbEntity
  8
0
  6
Continuous
 62
     7
100
AcDbCircle
 10
1130.5573882318
 20
785.8543623236
 30
0.0
 40
1102.395204011456
100
AcDbArc
 50
209.0041652430552
 51
209.1769749559899
  0
ARC
  5
AF
330
1F
100
AcDbEntity
  8
RUNDUNGEN
  6
Continuous
 62
     7
100
AcDbCircle
 10
175.4321734475
 20
296.139288778
 30
0.0
 40
3.0
100
AcDbArc
 50
180.0
 51
270.0
  0
ARC
  5
B0
330
1F
100
AcDbEntity
  8
RUNDUNGEN
  6
Continuous
 62
     7
100
AcDbCircle
 10
192.0642242551
 20
292.139288778
 30
0.0
 40
0.9999999999268803
100
AcDbArc
 50
59.99999999758122
 51
90.0
  0
ARC
  5
B1
330
1F
100
AcDbEntity
  8
RUNDUNGEN
  6
Continuous
 62
     7
100
AcDbCircle
 10
202.3321734475
 20
286.2110855477
 30
0.0
 40
1.0
100
AcDbArc
 50
0.0
 51
60.00000000044565
  0
SPLINE
  5
B2
330
1F
100
AcDbEntity
  8
0
  6
Continuous
 62
     2
100
AcDbSpline
210
0.0
220
0.0
230
1.0
 70
     8
 71
     3
 72
    39
 73
    35
 74
    33
 42
0.0000000001
 43
0.0000000001
 44
0.00000001
 40
0.0
 40
0.0
 40
0.0
 40
0.0
 40
0.0201984373404882
 40
0.0803636950276737
 40
0.1796799631141028
 40
0.3166482498647613
 40
0.4895157127499907
 40
0.6961764012818147
 40
0.9343967302416946
 40
1.201726923680104
 40
1.495630621565349
 40
1.813336718474728
 40
2.152040565129749
 40
2.508892696616174
 40
2.880908240410577
 40
3.264435145007075
 40
3.655672630557839
 40
4.050746135838143
 40
4.445792978024856
 40
4.837018021133956
 40
5.220659698324519
 40
5.593078165799515
 40
5.950732410433565
 40
6.290496490517905
 40
6.609342126112833
 40
6.904385361267584
 40
7.17280021951735
 40
7.41199611058362
 40
7.61948233641427
 40
7.793038365149136
 40
7.930575572569336
 40
8.030322367571172
 40
8.090754938191921
 40
8.111044661093352
 40
8.111044661093352
 40
8.111044661093352
 40
8.111044661093352
 10
181.3321734475
 20
293.1393074341
 30
0.0
 10
181.3386458507482
 20
293.1374530336436
 30
0.0
 10
181.3643976567898
 20
293.1300749147216
 30
0.0
 10
181.4220455336132
 20
293.1138281300406
 30
0.0
 10
181.5172526793421
 20
293.0873628493964
 30
0.0
 10
181.6489363508114
 20
293.0518597517547
 30
0.0
 10
181.8155607501261
 20
293.0085204807922
 30
0.0
 10
182.0154545714589
 20
292.959060344859
 30
0.0
 10
182.2466810052204
 20
292.9052172736957
 30
0.0
 10
182.5071845621465
 20
292.849010505614
 30
0.0
 10
182.7946801333534
 20
292.7924918443294
 30
0.0
 10
183.1067130250346
 20
292.7377638290254
 30
0.0
 10
183.4406554388382
 20
292.6869580751614
 30
0.0
 10
183.793701032161
 20
292.6420079458327
 30
0.0
 10
184.1626793952089
 20
292.60487051978
 30
0.0
 10
184.5439699277376
 20
292.5769597335158
 30
0.0
 10
184.9335903548937
 20
292.5597436469425
 30
0.0
 10
185.3273874432918
 20
292.5537353963573
 30
0.0
 10
185.7211846252893
 20
292.5594617140756
 30
0.0
 10
186.11084228085
 20
292.5764041462885
 30
0.0
 10
186.4923206190552
 20
292.6040559107959
 30
0.0
 10
186.8617615552612
 20
292.6409923655159
 30
0.0
 10
187.2155834870301
 20
292.685824784111
 30
0.0
 10
187.5505436053011
 20
292.7365956214674
 30
0.0
 10
187.8636979302032
 20
292.7913747261998
 30
0.0
 10
188.1523144545566
 20
292.8480051311897
 30
0.0
 10
188.4138766573741
 20
292.9043632239886
 30
0.0
 10
188.6460516791535
 20
292.9583745292381
 30
0.0
 10
188.8467588829255
 20
293.0080028288612
 30
0.0
 10
189.014059640534
 20
293.0515002121595
 30
0.0
 10
189.146288859318
 20
293.0871414179931
 30
0.0
 10
189.2419037585356
 20
293.1137164778836
 30
0.0
 10
189.299805110603
 20
293.1300335770646
 30
0.0
 10
189.3256717993825
 20
293.1374447127352
 30
0.0
 10
189.3321734475
 20
293.1393075177
 30
0.0
 11
181.3321734475
 21
293.1393074341
 31
0.0
 11
181.351592665725
 21
293.1337512812469
 31
0.0
 11
181.4094917561
 21
293.117394216525
 31
0.0
 11
181.5051891478021
 21
293.0908286311177
 31
0.0
 11
181.6374283725167
 21
293.0551481179167
 31
0.0
 11
181.8047359942479
 21
293.0116588153813
 31
0.0
 11
182.0053456037667
 21
292.9620158425333
 31
0.0
 11
182.2373639841646
 21
292.9080121733313
 31
0.0
 11
182.49868366105
 21
292.8516432209167
 31
0.0
 11
182.7870715944542
 21
292.7949706217396
 31
0.0
 11
183.1000067395834
 21
292.7401184663
 31
0.0
 11
183.4348603405938
 21
292.6891934073479
 31
0.0
 11
183.7888608022667
 21
292.6441698925834
 31
0.0
 11
184.1590059231979
 21
292.6069119501354
 31
0.0
 11
184.5415139166167
 21
292.5789741349
 31
0.0
 11
184.9323687559083
 21
292.5616748660605
 31
0.0
 11
185.32739704045
 21
292.5556974931833
 31
0.0
 11
185.7224028304063
 21
292.5613925281041
 31
0.0
 11
186.1132574031
 21
292.57841420135
 31
0.0
 11
186.4958994634333
 21
292.6060907282542
 31
0.0
 11
186.8664702094667
 21
292.6431425446833
 31
0.0
 11
187.2212937587792
 21
292.6880514252979
 31
0.0
 11
187.5572234138667
 21
292.7389522794
 31
0.0
 11
187.8713059263396
 21
292.7938586970271
 31
0.0
 11
188.16083265935
 21
292.8506458565167
 31
0.0
 11
188.4232286241688
 21
292.907169247923
 31
0.0
 11
188.656208813
 21
292.9613440198667
 31
0.0
 11
188.8576274809021
 21
293.0111542008542
 31
0.0
 11
189.0256059534167
 21
293.0547996803667
 31
0.0
 11
189.1583967254615
 21
293.0906199858469
 31
0.0
 11
189.254509898975
 21
293.1172973356083
 31
0.0
 11
189.3126664754406
 21
293.1337262188823
 31
0.0
 11
189.3321734475
 21
293.1393075177
 31
0.0
  0
SPLINE
  5
B3
330
1F
100
AcDbEntity
  8
0
  6
Continuous
 62
     7
100
AcDbSpline
210
0.0
220
0.0
230
1.0
 70
     8
 71
     3
 72
    15
 73
    11
 74
     9
 42
0.0000000001
 43
0.0000000001
 44
0.00000001
 40
0.0
 40
0.0
 40
0.0
 40
0.0
 40
0.1991002753653748
 40
0.3990504135793408
 40
0.5986744170903857
 40
0.7981023202705151
 40
0.9975187549648225
 40
1.197144245660821
 40
1.397023128021935
 40
1.596192512795876
 40
1.596192512795876
 40
1.596192512795876
 40
1.596192512795876
 10
157.5321734475
 20
309.8516056272
 30
0.0
 10
157.4657048252346
 20
309.847532413175
 30
0.0
 10
157.3324838582803
 20
309.839368598543
 30
0.0
 10
157.1409422194089
 20
309.7762193370269
 30
0.0
 10
156.9658648181498
 20
309.6779914635057
 30
0.0
 10
156.8140137596937
 20
309.5464993610459
 30
0.0
 10
156.6906570365257
 20
309.3880525674068
 30
0.0
 10
156.6003520802834
 20
309.2089111129769
 30
0.0
 10
156.5430613519474
 20
309.0159100408723
 30
0.0
 10
156.5357984445615
 20
308.8827174327433
 30
0.0
 10
156.5321734475
 20
308.8162395352
 30
0.0
 11
157.5321734475
 21
309.8516056272
 31
0.0
 11
157.3341485830602
 21
309.8309398895124
 31
0.0
 11
157.143605553183
 21
309.7703312140856
 31
0.0
 11
156.9696570443884
 21
309.6723941982748
 31
0.0
 11
156.8187586281146
 21
309.542005715145
 31
0.0
 11
156.6962151632671
 21
309.384684344539
 31
0.0
 11
156.6058848233441
 21
309.2066653393036
 31
0.0
 11
156.5507520829848
 21
309.014540513853
 31
0.0
 11
156.5321734475
 21
308.8162395352
 31
0.0
  0
SPLINE
  5
B4
330
1F
100
AcDbEntity
  8
0
  6
Continuous
 62
     7
100
AcDbSpline
210
0.0
220
0.0
230
1.0
 70
     8
 71
     3
 72
    15
 73
    11
 74
     9
 42
0.0000000001
 43
0.0000000001
 44
0.00000001
 40
0.0
 40
0.0
 40
0.0
 40
0.0
 40
0.1991719801557872
 40
0.3990534797347593
 40
0.5986806086127738
 40
0.7980986751277444
 40
0.9975251470954742
 40
1.197147680794844
 40
1.397095016958903
 40
1.596192537841095
 40
1.596192537841095
 40
1.596192537841095
 40
1.596192537841095
 10
156.5321734475
 20
249.4623380207
 30
0.0
 10
156.5357985412467
 20
249.3958592548693
 30
0.0
 10
156.5430616425768
 20
249.2626649028704
 30
0.0
 10
156.6003537754984
 20
249.0696617925327
 30
0.0
 10
156.6906606889891
 20
248.8905191000482
 30
0.0
 10
156.8140189928471
 20
248.7320727249402
 30
0.0
 10
156.9658706742251
 20
248.6005820335663
 30
0.0
 10
157.1409470028706
 20
248.5023561600853
 30
0.0
 10
157.3324866396998
 20
248.4392085686107
 30
0.0
 10
157.4657057470779
 20
248.4310450135709
 30
0.0
 10
157.5321734475
 20
248.4269719287
 30
0.0
 11
156.5321734475
 21
249.4623380207
 31
0.0
 11
156.5507525728717
 21
249.2640344811965
 31
0.0
 11
156.6058867516264
 21
249.0719073456665
 31
0.0
 11
156.6962188846594
 21
248.8938874132831
 31
0.0
 11
156.8187645251411
 21
248.7365656689134
 31
0.0
 11
156.9696628242485
 21
248.6061792392209
 31
0.0
 11
157.1436106566125
 21
248.5082440178935
 31
0.0
 11
157.3341512876577
 21
248.4476370450276
 31
0.0
 11
157.5321734475
 21
248.4269719287
 31
0.0
  0
SPLINE
  5
B5
330
1F
100
AcDbEntity
  8
BEZUGSACHSEN
  6
Continuous
 62
     7
100
AcDbSpline
210
0.0
220
0.0
230
1.0
 70
     8
 71
     3
 72
    19
 73
    15
 74
    13
 42
0.0000000001
 43
0.0000000001
 44
0.00000001
 40
0.0
 40
0.0
 40
0.0
 40
0.0
 40
0.5087194025015513
 40
1.017499915473866
 40
1.572572366800783
 40
2.127645049853597
 40
2.78062335597405
 40
3.433631692474962
 40
4.086643697765084
 40
4.739625668345577
 40
5.294727226058011
 40
5.849828573207326
 40
6.358644379279943
 40
6.867399031612154
 40
6.867399031612154
 40
6.867399031612154
 40
6.867399031612154
 10
188.7321734475
 20
293.139288778
 30
0.0
 10
188.5670253062441
 20
293.1007365319346
 30
0.0
 10
188.2367091851326
 20
293.0236274086734
 30
0.0
 10
187.721589553029
 20
292.9257587051472
 30
0.0
 10
187.1882576252438
 20
292.8427656435341
 30
0.0
 10
186.6042874540915
 20
292.7752177437202
 30
0.0
 10
185.9853004846255
 20
292.7306796330452
 30
0.0
 10
185.3322400318027
 20
292.7148986843969
 30
0.0
 10
184.679178178687
 20
292.7306725467089
 30
0.0
 10
184.0601787099405
 20
292.775205338183
 30
0.0
 10
183.4761876495481
 20
292.8427511317813
 30
0.0
 10
182.9428246332541
 20
292.9257462834717
 30
0.0
 10
182.4276721263094
 20
293.0236196808069
 30
0.0
 10
182.0973330562199
 20
293.1007339570682
 30
0.0
 10
181.9321734475
 20
293.139288778
 30
0.0
 11
188.7321734475
 21
293.139288778
 31
0.0
 11
188.2359838092779
 21
293.0270779344839
 31
0.0
 11
187.736297981417
 21
292.9313090260885
 31
0.0
 11
187.187764319906
 21
292.8463605216197
 31
0.0
 11
186.6363616639778
 21
292.7826361580938
 31
0.0
 11
185.9850606638345
 21
292.7358635648764
 31
0.0
 11
185.3322412250642
 21
292.7201579001902
 31
0.0
 11
184.6794179491206
 21
292.7358566083982
 31
0.0
 11
184.0281128315081
 21
292.7826230244981
 31
0.0
 11
183.4766809990155
 21
292.8463464384736
 31
0.0
 11
182.9281183450613
 21
292.9312965432038
 31
0.0
 11
182.4283975765318
 21
293.0270706420491
 31
0.0
 11
181.9321734475
 21
293.139288778
 31
0.0
  0
SPLINE
  5
B6
330
1F
100
AcDbEntity
  8
0
  6
Continuous
 62
     7
100
AcDbSpline
210
0.0
220
0.0
230
1.0
 70
     8
 71
     3
 72
    15
 73
    11
 74
     9
 42
0.0000000001
 43
0.0000000001
 44
0.00000001
 40
0.0
 40
0.0
 40
0.0
 40
0.0
 40
0.1499520084980775
 40
0.3004340248444892
 40
0.450725146523784
 40
0.6008598893960403
 40
0.7510035493374279
 40
0.901289351064298
 40
1.051831757326598
 40
1.201718119733099
 40
1.201718119733099
 40
1.201718119733099
 40
1.201718119733099
 10
166.4196734475
 20
306.724656276
 30
0.0
 10
166.4169658335144
 20
306.6746069277953
 30
0.0
 10
166.4115410354367
 20
306.5743313311388
 30
0.0
 10
166.3687592547213
 20
306.4289481214821
 30
0.0
 10
166.3013503627347
 20
306.2938025696535
 30
0.0
 10
166.2091441116735
 20
306.1740127011973
 30
0.0
 10
166.0954471955467
 20
306.0742995657803
 30
0.0
 10
165.9640548881743
 20
305.9995901948816
 30
0.0
 10
165.8200127787381
 20
305.9514477220616
 30
0.0
 10
165.7197135503766
 20
305.9452027878832
 30
0.0
 10
165.6696734475
 20
305.9420871393
 30
0.0
 11
166.4196734475
 21
306.724656276
 31
0.0
 11
166.4057980311916
 21
306.5753476102271
 31
0.0
 11
166.3646320059783
 21
306.4306057862376
 31
0.0
 11
166.2971807112732
 21
306.2963011173008
 31
0.0
 11
166.2055653556674
 21
306.1773596710571
 31
0.0
 11
166.0925558797002
 21
306.0785063607321
 31
0.0
 11
165.9620099939079
 21
306.0040510459226
 31
0.0
 11
165.8187268382252
 21
305.9578671376767
 31
0.0
 11
165.6696734475
 21
305.9420871393
 31
0.0
  0
SPLINE
  5
B7
330
1F
100
AcDbEntity
  8
0
  6
Continuous
 62
     7
100
AcDbSpline
210
0.0
220
0.0
230
1.0
 70
     8
 71
     3
 72
    15
 73
    11
 74
     9
 42
0.0000000001
 43
0.0000000001
 44
0.00000001
 40
0.0
 40
0.0
 40
0.0
 40
0.0
 40
0.1498887297810015
 40
0.3004335479207288
 40
0.4507207372929321
 40
0.6008657480282579
 40
0.7509990952548558
 40
0.9012888186857881
 40
1.051768450182356
 40
1.201718090908449
 40
1.201718090908449
 40
1.201718090908449
 40
1.201718090908449
 10
163.3446734475
 20
305.9420871393
 30
0.0
 10
163.2946325522953
 20
305.9452029018779
 30
0.0
 10
163.1943317244116
 20
305.9514480652542
 30
0.0
 10
163.0502878634683
 20
305.9995920088263
 30
0.0
 10
162.9188945755575
 20
306.0743031531673
 30
0.0
 10
162.8051981566956
 20
306.1740175776316
 30
0.0
 10
162.7129932826414
 20
306.2938078700582
 30
0.0
 10
162.6455861353496
 20
306.4289523389763
 30
0.0
 10
162.6028056033319
 20
306.5743337131199
 30
0.0
 10
162.5973809762281
 20
306.6746077198868
 30
0.0
 10
162.5946734475
 20
306.724656276
 30
0.0
 11
163.3446734475
 21
305.9420871393
 31
0.0
 11
163.1956177338971
 21
305.9578676829437
 31
0.0
 11
163.052332522026
 21
306.0040530737916
 31
0.0
 11
162.9217859610766
 21
306.07851000573
 31
0.0
 11
162.8087763255648
 21
306.1773651853121
 31
0.0
 11
162.7171628761119
 21
306.2963063381096
 31
0.0
 11
162.6497131606228
 21
306.4306102354819
 31
0.0
 11
162.6085484281796
 21
306.5753499477181
 31
0.0
 11
162.5946734475
 21
306.724656276
 31
0.0
  0
SPLINE
  5
B8
330
1F
100
AcDbEntity
  8
0
  6
Continuous
 62
     7
100
AcDbSpline
210
0.0
220
0.0
230
1.0
 70
     8
 71
     3
 72
    15
 73
    11
 74
     9
 42
0.0000000001
 43
0.0000000001
 44
0.00000001
 40
0.0
 40
0.0
 40
0.0
 40
0.0
 40
0.149952179007558
 40
0.3004343667805413
 40
0.450725505442865
 40
0.6008602662037796
 40
0.7510040236847955
 40
0.9012899197095419
 40
1.051832040790839
 40
1.20171812180212
 40
1.20171812180212
 40
1.20171812180212
 40
1.20171812180212
 10
162.5946734475
 20
251.5539212799
 30
0.0
 10
162.5973810679316
 20
251.6039706851372
 30
0.0
 10
162.6028058789294
 20
251.704246396165
 30
0.0
 10
162.6455877430283
 20
251.8496297104632
 30
0.0
 10
162.7129967266515
 20
251.9847752937021
 30
0.0
 10
162.8052030623674
 20
252.1045651533243
 30
0.0
 10
162.9189000846364
 20
252.2042782756665
 30
0.0
 10
163.0502924163847
 20
252.2789875461855
 30
0.0
 10
163.1943343999874
 20
252.3271298738864
 30
0.0
 10
163.294633438777
 20
252.333374781329
 30
0.0
 10
163.3446734475
 20
252.3364904166
 30
0.0
 11
162.5946734475
 21
251.5539212799
 31
0.0
 11
162.6085488961896
 21
251.7032301139078
 31
0.0
 11
162.6497150151533
 21
251.8479720894589
 31
0.0
 11
162.7171663779217
 21
251.982276743217
 31
0.0
 11
162.8087818008264
 21
252.1012181602034
 31
0.0
 11
162.9217914029361
 21
252.2000714744702
 31
0.0
 11
163.0523374207847
 21
252.2745267480769
 31
0.0
 11
163.195620332973
 21
252.3207104821668
 31
0.0
 11
163.3446734475
 21
252.3364904166
 31
0.0
  0
SPLINE
  5
B9
330
1F
100
AcDbEntity
  8
0
  6
Continuous
 62
     7
100
AcDbSpline
210
0.0
220
0.0
230
1.0
 70
     8
 71
     3
 72
    15
 73
    11
 74
     9
 42
0.0000000001
 43
0.0000000001
 44
0.00000001
 40
0.0
 40
0.0
 40
0.0
 40
0.0
 40
0.1498890555170188
 40
0.3004342038690047
 40
0.450721254770026
 40
0.6008661228164678
 40
0.7509994132964384
 40
0.901289081660652
 40
1.051768580349908
 40
1.201718088879984
 40
1.201718088879984
 40
1.201718088879984
 40
1.201718088879984
 10
165.6696734475
 20
252.3364904166
 30
0.0
 10
165.7197144516915
 20
252.3333746385778
 30
0.0
 10
165.8200154990445
 20
252.327129444182
 30
0.0
 10
165.9640594962957
 20
252.2789853357098
 30
0.0
 10
166.0954527403899
 20
252.2042740886417
 30
0.0
 10
166.2091490183772
 20
252.1045596774084
 30
0.0
 10
166.3013537848682
 20
251.984769410639
 30
0.0
 10
166.3687608430498
 20
251.8496249894095
 30
0.0
 10
166.4115413065086
 20
251.7042437099142
 30
0.0
 10
166.4169659237121
 20
251.6039697917927
 30
0.0
 10
166.4196734475
 20
251.5539212799
 30
0.0
 11
165.6696734475
 21
252.3364904166
 31
0.0
 11
165.8187294808134
 21
252.320709798847
 31
0.0
 11
165.9620149746825
 21
252.2745242065157
 31
0.0
 11
166.0925613591496
 21
252.2000672446443
 31
0.0
 11
166.2055708322687
 21
252.101212096139
 31
0.0
 11
166.2971841931572
 21
251.9822709467538
 31
0.0
 11
166.3646338322532
 21
251.8479670726368
 31
0.0
 11
166.4057984917748
 21
251.7032274777353
 31
0.0
 11
166.4196734475
 21
251.5539212799
 31
0.0
  0
SPLINE
  5
BA
330
1F
100
AcDbEntity
  8
0
  6
Continuous
 62
     7
100
AcDbSpline
210
0.0
220
0.0
230
1.0
 70
     8
 71
     3
 72
    15
 73
    11
 74
     9
 42
0.0000000001
 43
0.0000000001
 44
0.00000001
 40
0.0
 40
0.0
 40
0.0
 40
0.0
 40
0.1991720574204333
 40
0.3990536357571834
 40
0.5986807643209118
 40
0.7980988308063419
 40
0.9975253742458988
 40
1.197147976121472
 40
1.397095164885396
 40
1.596192542471471
 40
1.596192542471471
 40
1.596192542471471
 40
1.596192542471471
 10
172.4321734475
 20
308.8162395352
 30
0.0
 10
172.4285483493355
 20
308.8827183268747
 30
0.0
 10
172.4212852391319
 20
309.0159127310602
 30
0.0
 10
172.3639930596097
 20
309.2089158835402
 30
0.0
 10
172.2736861112231
 20
309.3880585868311
 30
0.0
 10
172.1503277759674
 20
309.5465049674593
 30
0.0
 10
171.9984760431701
 20
309.6779956719798
 30
0.0
 10
171.8233996931677
 20
309.7762215079953
 30
0.0
 10
171.6318601100986
 20
309.8393690140426
 30
0.0
 10
171.4986410999784
 20
309.8475325512105
 30
0.0
 10
171.4321734475
 20
309.8516056272
 30
0.0
 11
172.4321734475
 21
308.8162395352
 31
0.0
 11
172.4135943021493
 21
309.0145431504346
 31
0.0
 11
172.3584600740845
 21
309.2066703537508
 31
0.0
 11
172.2681279166547
 21
309.3846902734022
 31
0.0
 11
172.1455822593873
 21
309.5420120046591
 31
0.0
 11
171.9946838896394
 21
309.6723984619147
 31
0.0
 11
171.820735975027
 21
309.7703336761209
 31
0.0
 11
171.6301954674382
 21
309.830940550833
 31
0.0
 11
171.4321734475
 21
309.8516056272
 31
0.0
  0
SPLINE
  5
BB
330
1F
100
AcDbEntity
  8
0
  6
Continuous
 62
     7
100
AcDbSpline
210
0.0
220
0.0
230
1.0
 70
     8
 71
     3
 72
    15
 73
    11
 74
     9
 42
0.0000000001
 43
0.0000000001
 44
0.00000001
 40
0.0
 40
0.0
 40
0.0
 40
0.0
 40
0.1991000959938146
 40
0.3990500501762009
 40
0.5986741602602241
 40
0.7981021742105397
 40
0.9975186421951738
 40
1.197144165106531
 40
1.397023090630606
 40
1.596192517478148
 40
1.596192517478148
 40
1.596192517478148
 40
1.596192517478148
 10
171.4321734475
 20
248.4269719287
 30
0.0
 10
171.4986420097536
 20
248.4310451320975
 30
0.0
 10
171.6318628551281
 20
248.4392089253496
 30
0.0
 10
171.8234044325001
 20
248.5023580855527
 30
0.0
 10
171.9984818721112
 20
248.6005859210347
 30
0.0
 10
172.150333011386
 20
248.7320780601548
 30
0.0
 10
172.2736897852774
 20
248.8905248893143
 30
0.0
 10
172.3639947733395
 20
249.069666368074
 30
0.0
 10
172.421285534082
 20
249.2626674724366
 30
0.0
 10
172.4285484474576
 20
249.3958601090808
 30
0.0
 10
172.4321734475
 20
249.4623380207
 30
0.0
 11
171.4321734475
 21
248.4269719287
 31
0.0
 11
171.6301981366298
 21
248.4476376181343
 31
0.0
 11
171.8207410116436
 21
248.5082461732978
 31
0.0
 11
171.9946896407451
 21
248.6061831926549
 31
0.0
 11
172.1455881585929
 21
248.7365717276551
 31
0.0
 11
172.2681316579887
 21
248.8938931135481
 31
0.0
 11
172.358462028841
 21
249.0719121392148
 31
0.0
 11
172.413594799054
 21
249.2640370010034
 31
0.0
 11
172.4321734475
 21
249.4623380207
 31
0.0
  0
DIMENSION
  5
C8
330
1F
100
AcDbEntity
  8
1
100
AcDbDimension
  2
*D2
 10
214.10210011268
 20
283.139288778
 30
0.0
 11
210.35210011268
 21
279.174689677486
 31
0.0
 70
    32
  1
<>
 71
     5
 42
-1.0
 53
90.0
  3
ME10_DIM_10
100
AcDbAlignedDimension
 13
203.3321734475
 23
275.139288778
 33
0.0
 14
203.3321734475
 24
283.139288778
 34
0.0
 50
90.0
100
AcDbRotatedDimension
  0
DIMENSION
  5
D3
330
1F
100
AcDbEntity
  8
1
100
AcDbDimension
  2
*D3
 10
224.62780138104
 20
293.139288778
 30
0.0
 11
220.87780138104
 21
279.232523200939
 31
0.0
 70
    32
  1
<>
 71
     5
 42
-1.0
 53
90.0
  3
ME10_DIM_11
100
AcDbAlignedDimension
 13
192.0642242551
 23
265.139288778
 33
0.0
 14
192.0642242551
 24
293.139288778
 34
0.0
 50
90.0
100
AcDbRotatedDimension
  0
DIMENSION
  5
DE
330
1F
100
AcDbEntity
  8
1
100
AcDbDimension
  2
*D4
 10
203.3321734475
 20
313.82396326005
 30
0.0
 11
186.7175998495037
 21
317.57396326005
 31
0.0
 70
    32
  1
<>
 71
     5
 42
-1.0
 53
0.00013888888889
  3
ME10_DIM_12
100
AcDbAlignedDimension
 13
172.4321734475
 23
308.8162395352
 33
0.0
 14
203.3321734475
 24
286.2110855477
 34
0.0
100
AcDbRotatedDimension
  0
DIMENSION
  5
E9
330
1F
100
AcDbEntity
  8
1
100
AcDbDimension
  2
*D5
 10
203.3321734475
 20
321.121680801299
 30
0.0
 11
177.271568367152
 21
324.871680801299
 31
0.0
 70
    32
  1
<>
 71
     5
 42
-1.0
 53
0.00013888888889
  3
ME10_DIM_13
100
AcDbAlignedDimension
 13
153.3321734475
 23
313.901788778
 33
0.0
 14
203.3321734475
 24
286.2110855477
 34
0.0
100
AcDbRotatedDimension
  0
DIMENSION
  5
F4
330
1F
100
AcDbEntity
  8
1
100
AcDbDimension
  2
*D6
 10
84.93217344749999
 20
328.679348173657
 30
0.0
 11
149.616918063401
 21
332.429348173657
 31
0.0
 70
    32
  1
<>
 71
     5
 42
-1.0
 53
0.00013888888889
  3
ME10_DIM_14
100
AcDbAlignedDimension
 13
203.3321734475
 23
286.2110855477
 33
0.0
 14
84.93217344749999
 24
290.5888369788
 34
0.0
100
AcDbRotatedDimension
  0
INSERT
  5
FB
330
1F
100
AcDbEntity
  8
1
100
AcDbBlockReference
  2
*D7
 10
0.0
 20
0.0
 30
0.0
  0
ENDSEC
  0
SECTION
  2
OBJECTS
  0
DICTIONARY
  5
C
330
0
100
AcDbDictionary
281
     1
  3
ACAD_GROUP
350
D
  3
ACAD_LAYOUT
350
1A
  3
ACAD_MLEADERSTYLE
350
FE
  3
ACAD_MLINESTYLE
350
17
  3
ACAD_PLOTSETTINGS
350
19
  3
ACAD_PLOTSTYLENAME
350
E
  3
ACAD_SCALELIST
350
4A
  3
ACAD_VISUALSTYLE
350
2A
  3
AcDbVariableDictionary
350
FC
  0
DICTIONARY
  5
D
102
{ACAD_REACTORS
330
C
102
}
330
C
100
AcDbDictionary
281
     1
  0
DICTIONARY
  5
1A
102
{ACAD_REACTORS
330
C
102
}
330
C
100
AcDbDictionary
281
     1
  3
Layout1
350
1E
  3
Layout2
350
26
  3
Model
350
22
  0
DICTIONARY
  5
FE
102
{ACAD_REACTORS
330
C
102
}
330
C
100
AcDbDictionary
281
     1
  0
DICTIONARY
  5
17
102
{ACAD_REACTORS
330
C
102
}
330
C
100
AcDbDictionary
281
     1
  3
Standard
350
18
  0
DICTIONARY
  5
19
102
{ACAD_REACTORS
330
C
102
}
330
C
100
AcDbDictionary
281
     1
  0
ACDBDICTIONARYWDFLT
  5
E
102
{ACAD_REACTORS
330
C
102
}
330
C
100
AcDbDictionary
281
     1
  3
Normal
350
F
100
AcDbDictionaryWithDefault
340
F
  0
DICTIONARY
  5
4A
102
{ACAD_REACTORS
330
C
102
}
330
C
100
AcDbDictionary
281
     1
  3
A0
350
4B
  3
A1
350
4C
  3
A2
350
4D
  3
A3
350
4E
  3
A4
350
4F
  3
A5
350
50
  3
A6
350
51
  3
A7
350
52
  3
A8
350
53
  3
A9
350
54
  3
B0
350
55
  3
B1
350
56
  3
B2
350
57
  3
B3
350
58
  3
B4
350
59
  3
B5
350
5A
  3
B6
350
5B
  3
B7
350
5C
  3
B8
350
5D
  3
B9
350
5E
  3
C0
350
5F
  3
C1
350
60
  3
C2
350
61
  3
C3
350
62
  3
C4
350
63
  3
C5
350
64
  3
C6
350
65
  3
C7
350
66
  3
C8
350
67
  3
C9
350
68
  3
D0
350
69
  3
D1
350
6A
  3
D2
350
6B
  0
DICTIONARY
  5
2A
102
{ACAD_REACTORS
330
C
102
}
330
C
100
AcDbDictionary
281
     1
  3
2dWireframe
350
2F
  3
3D Hidden
350
31
  3
3dWireframe
350
30
  3
Basic
350
32
  3
Brighten
350
36
  3
ColorChange
350
3A
  3
Conceptual
350
34
  3
Dim
350
35
  3
Facepattern
350
39
  3
Flat
350
2B
  3
FlatWithEdges
350
2C
  3
Gouraud
350
2D
  3
GouraudWithEdges
350
2E
  3
Linepattern
350
38
  3
Realistic
350
33
  3
Thicken
350
37
  0
DICTIONARY
  5
FC
102
{ACAD_REACTORS
330
C
102
}
330
C
100
AcDbDictionary
281
     1
  3
CANNOSCALE
350
FF
  0
LAYOUT
  5
1E
102
{ACAD_REACTORS
330
1A
102
}
330
1A
100
AcDbPlotSettings
  1

  2
none_device
  4

  6

 40
0.0
 41
0.0
 42
0.0
 43
0.0
 44
0.0
 45
0.0
 46
0.0
 47
0.0
 48
0.0
 49
0.0
140
0.0
141
0.0
142
1.0
143
1.0
 70
   688
 72
     0
 73
     0
 74
     5
  7

 75
    16
147
1.0
148
0.0
149
0.0
100
AcDbLayout
  1
Layout1
 70
     1
 71
     1
 10
0.0
 20
0.0
 11
12.0
 21
9.0
 12
0.0
 22
0.0
 32
0.0
 14
1.00000000000000E+20
 24
1.00000000000000E+20
 34
1.00000000000000E+20
 15
-1.00000000000000E+20
 25
-1.00000000000000E+20
 35
-1.00000000000000E+20
146
0.0
 13
0.0
 23
0.0
 33
0.0
 16
1.0
 26
0.0
 36
0.0
 17
0.0
 27
1.0
 37
0.0
 76
     0
330
1B
  0
LAYOUT
  5
26
102
{ACAD_REACTORS
330
1A
102
}
330
1A
100
AcDbPlotSettings
  1

  2
none_device
  4

  6

 40
0.0
 41
0.0
 42
0.0
 43
0.0
 44
0.0
 45
0.0
 46
0.0
 47
0.0
 48
0.0
 49
0.0
140
0.0
141
0.0
142
1.0
143
1.0
 70
   688
 72
     0
 73
     0
 74
     5
  7

 75
    16
147
1.0
148
0.0
149
0.0
100
AcDbLayout
  1
Layout2
 70
     1
 71
     2
 10
0.0
 20
0.0
 11
0.0
 21
0.0
 12
0.0
 22
0.0
 32
0.0
 14
0.0
 24
0.0
 34
0.0
 15
0.0
 25
0.0
 35
0.0
146
0.0
 13
0.0
 23
0.0
 33
0.0
 16
1.0
 26
0.0
 36
0.0
 17
0.0
 27
1.0
 37
0.0
 76
     0
330
23
  0
LAYOUT
  5
22
102
{ACAD_REACTORS
330
1A
102
}
330
1A
100
AcDbPlotSettings
  1

  2
none_device
  4

  6

 40
0.0
 41
0.0
 42
0.0
 43
0.0
 44
0.0
 45
0.0
 46
0.0
 47
0.0
 48
0.0
 49
0.0
140
0.0
141
0.0
142
1.0
143
1.0
 70
  1712
 72
     0
 73
     0
 74
     0
  7

 75
     0
147
1.0
148
0.0
149
0.0
100
AcDbLayout
  1
Model
 70
     1
 71
     0
 10
0.0
 20
0.0
 11
12.0
 21
9.0
 12
0.0
 22
0.0
 32
0.0
 14
81.80717344749999
 24
226.6721259655797
 34
0.0
 15
226.62780138104
 25
334.179348173657
 35
0.0
146
0.0
 13
0.0
 23
0.0
 33
0.0
 16
1.0
 26
0.0
 36
0.0
 17
0.0
 27
1.0
 37
0.0
 76
     0
330
1F
331
29
  0
MLINESTYLE
  5
18
102
{ACAD_REACTORS
330
17
102
}
330
17
100
AcDbMlineStyle
  2
Standard
 70
     0
  3

 62
   256
 51
90.0
 52
90.0
 71
     2
 49
0.5
 62
   256
  6
BYLAYER
 49
-0.5
 62
   256
  6
BYLAYER
  0
ACDBPLACEHOLDER
  5
F
102
{ACAD_REACTORS
330
E
102
}
330
E
  0
SCALE
  5
4B
102
{ACAD_REACTORS
330
4A
102
}
330
4A
100
AcDbScale
 70
     0
300
1:1
140
1.0
141
1.0
290
     1
  0
SCALE
  5
4C
102
{ACAD_REACTORS
330
4A
102
}
330
4A
100
AcDbScale
 70
     0
300
1:2
140
1.0
141
2.0
290
     0
  0
SCALE
  5
4D
102
{ACAD_REACTORS
330
4A
102
}
330
4A
100
AcDbScale
 70
     0
300
1:4
140
1.0
141
4.0
290
     0
  0
SCALE
  5
4E
102
{ACAD_REACTORS
330
4A
102
}
330
4A
100
AcDbScale
 70
     0
300
1:5
140
1.0
141
5.0
290
     0
  0
SCALE
  5
4F
102
{ACAD_REACTORS
330
4A
102
}
330
4A
100
AcDbScale
 70
     0
300
1:8
140
1.0
141
8.0
290
     0
  0
SCALE
  5
50
102
{ACAD_REACTORS
330
4A
102
}
330
4A
100
AcDbScale
 70
     0
300
1:10
140
1.0
141
10.0
290
     0
  0
SCALE
  5
51
102
{ACAD_REACTORS
330
4A
102
}
330
4A
100
AcDbScale
 70
     0
300
1:16
140
1.0
141
16.0
290
     0
  0
SCALE
  5
52
102
{ACAD_REACTORS
330
4A
102
}
330
4A
100
AcDbScale
 70
     0
300
1:20
140
1.0
141
20.0
290
     0
  0
SCALE
  5
53
102
{ACAD_REACTORS
330
4A
102
}
330
4A
100
AcDbScale
 70
     0
300
1:30
140
1.0
141
30.0
290
     0
  0
SCALE
  5
54
102
{ACAD_REACTORS
330
4A
102
}
330
4A
100
AcDbScale
 70
     0
300
1:40
140
1.0
141
40.0
290
     0
  0
SCALE
  5
55
102
{ACAD_REACTORS
330
4A
102
}
330
4A
100
AcDbScale
 70
     0
300
1:50
140
1.0
141
50.0
290
     0
  0
SCALE
  5
56
102
{ACAD_REACTORS
330
4A
102
}
330
4A
100
AcDbScale
 70
     0
300
1:100
140
1.0
141
100.0
290
     0
  0
SCALE
  5
57
102
{ACAD_REACTORS
330
4A
102
}
330
4A
100
AcDbScale
 70
     0
300
2:1
140
2.0
141
1.0
290
     0
  0
SCALE
  5
58
102
{ACAD_REACTORS
330
4A
102
}
330
4A
100
AcDbScale
 70
     0
300
4:1
140
4.0
141
1.0
290
     0
  0
SCALE
  5
59
102
{ACAD_REACTORS
330
4A
102
}
330
4A
100
AcDbScale
 70
     0
300
8:1
140
8.0
141
1.0
290
     0
  0
SCALE
  5
5A
102
{ACAD_REACTORS
330
4A
102
}
330
4A
100
AcDbScale
 70
     0
300
10:1
140
10.0
141
1.0
290
     0
  0
SCALE
  5
5B
102
{ACAD_REACTORS
330
4A
102
}
330
4A
100
AcDbScale
 70
     0
300
100:1
140
100.0
141
1.0
290
     0
  0
SCALE
  5
5C
102
{ACAD_REACTORS
330
4A
102
}
330
4A
100
AcDbScale
 70
     0
300
1/128" = 1'-0"
140
0.0078125
141
12.0
290
     0
  0
SCALE
  5
5D
102
{ACAD_REACTORS
330
4A
102
}
330
4A
100
AcDbScale
 70
     0
300
1/64" = 1'-0"
140
0.015625
141
12.0
290
     0
  0
SCALE
  5
5E
102
{ACAD_REACTORS
330
4A
102
}
330
4A
100
AcDbScale
 70
     0
300
1/32" = 1'-0"
140
0.03125
141
12.0
290
     0
  0
SCALE
  5
5F
102
{ACAD_REACTORS
330
4A
102
}
330
4A
100
AcDbScale
 70
     0
300
1/16" = 1'-0"
140
0.0625
141
12.0
290
     0
  0
SCALE
  5
60
102
{ACAD_REACTORS
330
4A
102
}
330
4A
100
AcDbScale
 70
     0
300
3/32" = 1'-0"
140
0.09375
141
12.0
290
     0
  0
SCALE
  5
61
102
{ACAD_REACTORS
330
4A
102
}
330
4A
100
AcDbScale
 70
     0
300
1/8" = 1'-0"
140
0.125
141
12.0
290
     0
  0
SCALE
  5
62
102
{ACAD_REACTORS
330
4A
102
}
330
4A
100
AcDbScale
 70
     0
300
3/16" = 1'-0"
140
0.1875
141
12.0
290
     0
  0
SCALE
  5
63
102
{ACAD_REACTORS
330
4A
102
}
330
4A
100
AcDbScale
 70
     0
300
1/4" = 1'-0"
140
0.25
141
12.0
290
     0
  0
SCALE
  5
64
102
{ACAD_REACTORS
330
4A
102
}
330
4A
100
AcDbScale
 70
     0
300
3/8" = 1'-0"
140
0.375
141
12.0
290
     0
  0
SCALE
  5
65
102
{ACAD_REACTORS
330
4A
102
}
330
4A
100
AcDbScale
 70
     0
300
1/2" = 1'-0"
140
0.5
141
12.0
290
     0
  0
SCALE
  5
66
102
{ACAD_REACTORS
330
4A
102
}
330
4A
100
AcDbScale
 70
     0
300
3/4" = 1'-0"
140
0.75
141
12.0
290
     0
  0
SCALE
  5
67
102
{ACAD_REACTORS
330
4A
102
}
330
4A
100
AcDbScale
 70
     0
300
1" = 1'-0"
140
1.0
141
12.0
290
     0
  0
SCALE
  5
68
102
{ACAD_REACTORS
330
4A
102
}
330
4A
100
AcDbScale
 70
     0
300
1-1/2" = 1'-0"
140
1.5
141
12.0
290
     0
  0
SCALE
  5
69
102
{ACAD_REACTORS
330
4A
102
}
330
4A
100
AcDbScale
 70
     0
300
3" = 1'-0"
140
3.0
141
12.0
290
     0
  0
SCALE
  5
6A
102
{ACAD_REACTORS
330
4A
102
}
330
4A
100
AcDbScale
 70
     0
300
6" = 1'-0"
140
6.0
141
12.0
290
     0
  0
SCALE
  5
6B
102
{ACAD_REACTORS
330
4A
102
}
330
4A
100
AcDbScale
 70
     0
300
1'-0" = 1'-0"
140
12.0
141
12.0
290
     0
  0
VISUALSTYLE
  5
2F
102
{ACAD_REACTORS
330
2A
102
}
330
2A
100
AcDbVisualStyle
  2
2dWireframe
 70
     4
 71
     0
 72
     2
 73
     0
 90
        0
 40
-0.6
 41
-30.0
 62
     5
 63
     7
 74
     1
 91
        4
 64
     7
 65
   257
 75
     1
175
     1
 42
1.0
 92
        0
 66
   257
 43
1.0
 76
     1
 77
     6
 78
     2
 67
     7
 79
     5
170
     0
171
     0
290
     0
174
     0
 93
        1
 44
0.0
173
     0
291
     0
 45
0.0
1001
ACAD
1000
AcDbSavedByObjectVersion
1070
     0
  0
VISUALSTYLE
  5
31
102
{ACAD_REACTORS
330
2A
102
}
330
2A
100
AcDbVisualStyle
  2
3D Hidden
 70
     6
 71
     1
 72
     2
 73
     2
 90
        0
 40
-0.6
 41
-30.0
 62
     5
 63
     7
 74
     2
 91
        2
 64
     7
 65
   257
 75
     2
175
     1
 42
40.0
 92
        0
 66
   257
 43
1.0
 76
     1
 77
     6
 78
     2
 67
     7
 79
     3
170
     0
171
     0
290
     0
174
     0
 93
        1
 44
0.0
173
     0
291
     0
 45
0.0
1001
ACAD
1000
AcDbSavedByObjectVersion
1070
     0
  0
VISUALSTYLE
  5
30
102
{ACAD_REACTORS
330
2A
102
}
330
2A
100
AcDbVisualStyle
  2
3dWireframe
 70
     5
 71
     0
 72
     2
 73
     0
 90
        0
 40
-0.6
 41
-30.0
 62
     5
 63
     7
 74
     1
 91
        4
 64
     7
 65
   257
 75
     1
175
     1
 42
1.0
 92
        0
 66
   257
 43
1.0
 76
     1
 77
     6
 78
     2
 67
     7
 79
     5
170
     0
171
     0
290
     0
174
     0
 93
        1
 44
0.0
173
     0
291
     0
 45
0.0
1001
ACAD
1000
AcDbSavedByObjectVersion
1070
     0
  0
VISUALSTYLE
  5
32
102
{ACAD_REACTORS
330
2A
102
}
330
2A
100
AcDbVisualStyle
  2
Basic
 70
     7
 71
     1
 72
     0
 73
     1
 90
        0
 40
-0.6
 41
-30.0
 62
     5
 63
     7
 74
     0
 91
        4
 64
     7
 65
   257
 75
     1
175
     1
 42
1.0
 92
        8
 66
     7
 43
1.0
 76
     1
 77
     6
 78
     2
 67
     7
 79
     5
170
     0
171
     0
290
     0
174
     0
 93
        1
 44
0.0
173
     0
291
     1
 45
0.0
1001
ACAD
1000
AcDbSavedByObjectVersion
1070
     0
  0
VISUALSTYLE
  5
36
102
{ACAD_REACTORS
330
2A
102
}
330
2A
100
AcDbVisualStyle
  2
Brighten
 70
    12
 71
     2
 72
     2
 73
     0
 90
        0
 40
-0.6
 41
-30.0
 62
     5
 63
     7
 74
     1
 91
        4
 64
     7
 65
   257
 75
     1
175
     1
 42
1.0
 92
        8
 66
     7
 43
1.0
 76
     1
 77
     6
 78
     2
 67
     7
 79
     5
170
     0
171
     0
290
     0
174
     0
 93
        1
 44
50.0
173
     0
291
     1
 45
0.0
1001
ACAD
1000
AcDbSavedByObjectVersion
1070
     0
  0
VISUALSTYLE
  5
3A
102
{ACAD_REACTORS
330
2A
102
}
330
2A
100
AcDbVisualStyle
  2
ColorChange
 70
    16
 71
     2
 72
     2
 73
     3
 90
        0
 40
-0.6
 41
-30.0
 62
     5
 63
     8
 74
     1
 91
        4
 64
     7
 65
   257
 75
     1
175
     1
 42
1.0
 92
        8
 66
     8
 43
1.0
 76
     1
 77
     6
 78
     2
 67
     7
 79
     5
170
     0
171
     0
290
     0
174
     0
 93
        1
 44
0.0
173
     0
291
     1
 45
0.0
1001
ACAD
1000
AcDbSavedByObjectVersion
1070
     0
  0
VISUALSTYLE
  5
34
102
{ACAD_REACTORS
330
2A
102
}
330
2A
100
AcDbVisualStyle
  2
Conceptual
 70
     9
 71
     3
 72
     2
 73
     0
 90
        0
 40
-0.6
 41
-30.0
 62
     5
 63
     7
 74
     2
 91
        2
 64
     7
 65
   257
 75
     1
175
     1
 42
40.0
 92
        8
 66
     7
 43
1.0
 76
     1
 77
     6
 78
     2
 67
     7
 79
     3
170
     0
171
     0
290
     0
174
     0
 93
        1
 44
0.0
173
     0
291
     0
 45
0.0
1001
ACAD
1000
AcDbSavedByObjectVersion
1070
     0
  0
VISUALSTYLE
  5
35
102
{ACAD_REACTORS
330
2A
102
}
330
2A
100
AcDbVisualStyle
  2
Dim
 70
    11
 71
     2
 72
     2
 73
     0
 90
        0
 40
-0.6
 41
-30.0
 62
     5
 63
     7
 74
     1
 91
        4
 64
     7
 65
   257
 75
     1
175
     1
 42
1.0
 92
        8
 66
     7
 43
1.0
 76
     1
 77
     6
 78
     2
 67
     7
 79
     5
170
     0
171
     0
290
     0
174
     0
 93
        1
 44
-50.0
173
     0
291
     1
 45
0.0
1001
ACAD
1000
AcDbSavedByObjectVersion
1070
     0
  0
VISUALSTYLE
  5
39
102
{ACAD_REACTORS
330
2A
102
}
330
2A
100
AcDbVisualStyle
  2
Facepattern
 70
    15
 71
     2
 72
     2
 73
     0
 90
        0
 40
-0.6
 41
-30.0
 62
     5
 63
     7
 74
     1
 91
        4
 64
     7
 65
   257
 75
     1
175
     1
 42
1.0
 92
        8
 66
     7
 43
1.0
 76
     1
 77
     6
 78
     2
 67
     7
 79
     5
170
     0
171
     0
290
     0
174
     0
 93
        1
 44
0.0
173
     0
291
     1
 45
0.0
1001
ACAD
1000
AcDbSavedByObjectVersion
1070
     0
  0
VISUALSTYLE
  5
2B
102
{ACAD_REACTORS
330
2A
102
}
330
2A
100
AcDbVisualStyle
  2
Flat
 70
     0
 71
     2
 72
     1
 73
     1
 90
        2
 40
-0.6
 41
30.0
 62
     5
 63
     7
 74
     0
 91
        4
 64
     7
 65
   257
 75
     1
175
     1
 42
1.0
 92
        8
 66
     7
 43
1.0
 76
     1
 77
     6
 78
     2
 67
     7
 79
     5
170
     0
171
     0
290
     0
174
     0
 93
       13
 44
0.0
173
     0
291
     1
 45
0.0
1001
ACAD
1000
AcDbSavedByObjectVersion
1070
     0
  0
VISUALSTYLE
  5
2C
102
{ACAD_REACTORS
330
2A
102
}
330
2A
100
AcDbVisualStyle
  2
FlatWithEdges
 70
     1
 71
     2
 72
     1
 73
     1
 90
        2
 40
-0.6
 41
30.0
 62
     5
 63
     7
 74
     1
 91
        4
 64
     7
 65
   257
 75
     1
175
     1
 42
1.0
 92
        0
 66
   257
 43
1.0
 76
     1
 77
     6
 78
     2
 67
     7
 79
     5
170
     0
171
     0
290
     0
174
     0
 93
       13
 44
0.0
173
     0
291
     1
 45
0.0
1001
ACAD
1000
AcDbSavedByObjectVersion
1070
     0
  0
VISUALSTYLE
  5
2D
102
{ACAD_REACTORS
330
2A
102
}
330
2A
100
AcDbVisualStyle
  2
Gouraud
 70
     2
 71
     2
 72
     2
 73
     1
 90
        2
 40
-0.6
 41
30.0
 62
     5
 63
     7
 74
     0
 91
        4
 64
     7
 65
   257
 75
     1
175
     1
 42
1.0
 92
        0
 66
     7
 43
1.0
 76
     1
 77
     6
 78
     2
 67
     7
 79
     5
170
     0
171
     0
290
     0
174
     0
 93
       13
 44
0.0
173
     0
291
     1
 45
0.0
1001
ACAD
1000
AcDbSavedByObjectVersion
1070
     0
  0
VISUALSTYLE
  5
2E
102
{ACAD_REACTORS
330
2A
102
}
330
2A
100
AcDbVisualStyle
  2
GouraudWithEdges
 70
     3
 71
     2
 72
     2
 73
     1
 90
        2
 40
-0.6
 41
30.0
 62
     5
 63
     7
 74
     1
 91
        4
 64
     7
 65
   257
 75
     1
175
     1
 42
1.0
 92
        0
 66
   257
 43
1.0
 76
     1
 77
     6
 78
     2
 67
     7
 79
     5
170
     0
171
     0
290
     0
174
     0
 93
       13
 44
0.0
173
     0
291
     1
 45
0.0
1001
ACAD
1000
AcDbSavedByObjectVersion
1070
     0
  0
VISUALSTYLE
  5
38
102
{ACAD_REACTORS
330
2A
102
}
330
2A
100
AcDbVisualStyle
  2
Linepattern
 70
    14
 71
     2
 72
     2
 73
     0
 90
        0
 40
-0.6
 41
-30.0
 62
     5
 63
     7
 74
     1
 91
        4
 64
     7
 65
   257
 75
     7
175
     7
 42
1.0
 92
        8
 66
     7
 43
1.0
 76
     1
 77
     6
 78
     2
 67
     7
 79
     5
170
     0
171
     0
290
     0
174
     0
 93
        1
 44
0.0
173
     0
291
     1
 45
0.0
1001
ACAD
1000
AcDbSavedByObjectVersion
1070
     0
  0
VISUALSTYLE
  5
33
102
{ACAD_REACTORS
330
2A
102
}
330
2A
100
AcDbVisualStyle
  2
Realistic
 70
     8
 71
     2
 72
     2
 73
     0
 90
        0
 40
-0.6
 41
-30.0
 62
     5
 63
     7
 74
     1
 91
        0
 64
     7
 65
   257
 75
     1
175
     1
 42
1.0
 92
        8
 66
     8
 43
1.0
 76
     1
 77
     6
 78
     2
 67
     7
 79
     5
170
     0
171
     0
290
     0
174
     0
 93
       13
 44
0.0
173
     0
291
     0
 45
0.0
1001
ACAD
1000
AcDbSavedByObjectVersion
1070
     0
  0
VISUALSTYLE
  5
37
102
{ACAD_REACTORS
330
2A
102
}
330
2A
100
AcDbVisualStyle
  2
Thicken
 70
    13
 71
     2
 72
     2
 73
     0
 90
        0
 40
-0.6
 41
-30.0
 62
     5
 63
     7
 74
     1
 91
        4
 64
     7
 65
   257
 75
     1
175
     1
 42
1.0
 92
       12
 66
     7
 43
1.0
 76
     1
 77
     6
 78
     2
 67
     7
 79
     5
170
     0
171
     0
290
     0
174
     0
 93
        1
 44
0.0
173
     0
291
     1
 45
0.0
1001
ACAD
1000
AcDbSavedByObjectVersion
1070
     0
  0
DICTIONARYVAR
  5
FF
102
{ACAD_REACTORS
330
FC
102
}
330
FC
100
DictionaryVariables
280
     0
  1
1:1
  0
ENDSEC
  0
EOF
