  0
SECTION
  2
HEADER
  9
$ACADVER
  1
AC1015
  9
$DWGCODEPAGE
  3
ansi_1252
  9
$HANDSEED
  5
106AB90
  9
$INSUNITS
  70
4
  0
ENDSEC
  0
SECTION
  2
TABLES
  0
TABLE
  2
VPORT
  5
2
  330
0
  100
AcDbSymbolTable
  70
    0
  0
ENDTAB
  0
TABLE
  2
LTYPE
  5
3
  330
0
  100
AcDbSymbolTable
  70
    4
  0
LTYPE
  5
4
  330
3
  100
AcDbSymbolTableRecord
  100
AcDbLinetypeTableRecord
  2
ByBlock
  70
    0
  3

  72
65
  73
    0
  40
0
  0
LTYPE
  5
5
  330
3
  100
AcDbSymbolTableRecord
  100
AcDbLinetypeTableRecord
  2
ByLayer
  70
    0
  3

  72
65
  73
    0
  40
0
  0
LTYPE
  5
6
  330
3
  100
AcDbSymbolTableRecord
  100
AcDbLinetypeTableRecord
  2
CONTINUOUS
  70
    0
  3
Solid Line
  72
65
  73
    0
  40
0
  0
LTYPE
  5
7
  330
3
  100
AcDbSymbolTableRecord
  100
AcDbLinetypeTableRecord
  2
DASH
  70
    0
  3
Hidden
  72
65
  73
2
  40
2.5
  49
1.5
  74
0
  49
-1
  74
0
  0
LTYPE
  5
8
  330
3
  100
AcDbSymbolTableRecord
  100
AcDbLinetypeTableRecord
  2
LONGDASHDASH
  70
    0
  3
__ . __
  72
65
  73
    4
  40
7
  49
4
  74
    0
  49
-1
  74
    0
  49
1
  74
    0
  49
-1
  74
    0
  0
ENDTAB
  0
TABLE
  2
LAYER
  5
9
  330
0
  100
AcDbSymbolTable
  70
    40
  0
LAYER
  5
a
  330
9
  100
AcDbSymbolTableRecord
  100
AcDbLayerTableRecord
  2
0
  70
    0
  62
    0
  6
CONTINUOUS
  390
0
  0
LAYER
  5
b
  330
9
  100
AcDbSymbolTableRecord
  100
AcDbLayerTableRecord
  2
DEFPOINT
  70
    0
  62
    0
  6
CONTINUOUS
  390
0
  0
LAYER
  5
c
  330
9
  100
AcDbSymbolTableRecord
  100
AcDbLayerTableRecord
  2
1
  70
    0
  62
    4
  6
CONTINUOUS
  370
50
  390
0
  0
LAYER
  5
d
  330
9
  100
AcDbSymbolTableRecord
  100
AcDbLayerTableRecord
  2
2
  70
    0
  62
    7
  6
CONTINUOUS
  370
25
  390
0
  0
LAYER
  5
e
  330
9
  100
AcDbSymbolTableRecord
  100
AcDbLayerTableRecord
  2
3
  70
    0
  62
    1
  6
DASH
  370
35
  390
0
  0
LAYER
  5
f
  330
9
  100
AcDbSymbolTableRecord
  100
AcDbLayerTableRecord
  2
4
  70
    0
  62
    2
  6
LONGDASHDASH
  370
25
  390
0
  0
LAYER
  5
10
  330
9
  100
AcDbSymbolTableRecord
  100
AcDbLayerTableRecord
  2
6
  70
    0
  62
    5
  6
CONTINUOUS
  390
0
  0
LAYER
  5
11
  330
9
  100
AcDbSymbolTableRecord
  100
AcDbLayerTableRecord
  2
7
  70
    0
  62
    5
  6
CONTINUOUS
  370
25
  390
0
  0
LAYER
  5
12
  330
9
  100
AcDbSymbolTableRecord
  100
AcDbLayerTableRecord
  2
11
  70
    0
  62
    4
  6
CONTINUOUS
  370
25
  390
0
  0
LAYER
  5
13
  330
9
  100
AcDbSymbolTableRecord
  100
AcDbLayerTableRecord
  2
SK1
  70
    0
  62
    4
  6
CONTINUOUS
  370
50
  390
0
  0
LAYER
  5
14
  330
9
  100
AcDbSymbolTableRecord
  100
AcDbLayerTableRecord
  2
SK2
  70
    0
  62
    7
  6
CONTINUOUS
  370
25
  390
0
  0
LAYER
  5
15
  330
9
  100
AcDbSymbolTableRecord
  100
AcDbLayerTableRecord
  2
SK3
  70
    0
  62
    1
  6
DASH
  370
35
  390
0
  0
LAYER
  5
16
  330
9
  100
AcDbSymbolTableRecord
  100
AcDbLayerTableRecord
  2
SK4
  70
    0
  62
    2
  6
LONGDASHDASH
  370
25
  390
0
  0
LAYER
  5
17
  330
9
  100
AcDbSymbolTableRecord
  100
AcDbLayerTableRecord
  2
SK6
  70
    0
  62
    5
  6
CONTINUOUS
  390
0
  0
LAYER
  5
18
  330
9
  100
AcDbSymbolTableRecord
  100
AcDbLayerTableRecord
  2
SK7
  70
    0
  62
    5
  6
CONTINUOUS
  370
25
  390
0
  0
LAYER
  5
19
  330
9
  100
AcDbSymbolTableRecord
  100
AcDbLayerTableRecord
  2
SK11
  70
    0
  62
    4
  6
CONTINUOUS
  370
25
  390
0
  0
LAYER
  5
1a
  330
9
  100
AcDbSymbolTableRecord
  100
AcDbLayerTableRecord
  2
SKVIEW1
  70
    0
  62
    4
  6
CONTINUOUS
  370
50
  390
0
  0
LAYER
  5
1b
  330
9
  100
AcDbSymbolTableRecord
  100
AcDbLayerTableRecord
  2
SKVIEW2
  70
    0
  62
    7
  6
CONTINUOUS
  370
25
  390
0
  0
LAYER
  5
1c
  330
9
  100
AcDbSymbolTableRecord
  100
AcDbLayerTableRecord
  2
SKVIEW3
  70
    0
  62
    1
  6
DASH
  370
35
  390
0
  0
LAYER
  5
1d
  330
9
  100
AcDbSymbolTableRecord
  100
AcDbLayerTableRecord
  2
SKVIEW4
  70
    0
  62
    2
  6
LONGDASHDASH
  370
25
  390
0
  0
LAYER
  5
1e
  330
9
  100
AcDbSymbolTableRecord
  100
AcDbLayerTableRecord
  2
SKVIEW6
  70
    0
  62
    5
  6
CONTINUOUS
  390
0
  0
LAYER
  5
1f
  330
9
  100
AcDbSymbolTableRecord
  100
AcDbLayerTableRecord
  2
SKVIEW7
  70
    0
  62
    5
  6
CONTINUOUS
  370
25
  390
0
  0
LAYER
  5
20
  330
9
  100
AcDbSymbolTableRecord
  100
AcDbLayerTableRecord
  2
SKVIEW11
  70
    0
  62
    4
  6
CONTINUOUS
  370
25
  390
0
  0
LAYER
  5
21
  330
9
  100
AcDbSymbolTableRecord
  100
AcDbLayerTableRecord
  2
NOCUT
  70
    0
  62
    7
  6
CONTINUOUS
  370
25
  390
0
  0
LAYER
  5
22
  330
9
  100
AcDbSymbolTableRecord
  100
AcDbLayerTableRecord
  2
CUT
  70
    0
  62
    1
  6
CONTINUOUS
  370
25
  390
0
  0
LAYER
  5
23
  330
9
  100
AcDbSymbolTableRecord
  100
AcDbLayerTableRecord
  2
FRAME50
  70
    0
  62
    7
  6
CONTINUOUS
  390
0
  0
LAYER
  5
24
  330
9
  100
AcDbSymbolTableRecord
  100
AcDbLayerTableRecord
  2
53
  70
    0
  62
    5
  6
CONTINUOUS
  390
0
  0
LAYER
  5
25
  330
9
  100
AcDbSymbolTableRecord
  100
AcDbLayerTableRecord
  2
INFTEXT
  70
    0
  62
    5
  6
CONTINUOUS
  390
0
  0
LAYER
  5
26
  330
9
  100
AcDbSymbolTableRecord
  100
AcDbLayerTableRecord
  2
INFTOTAL
  70
    0
  62
    9
  6
CONTINUOUS
  370
18
  390
0
  0
ENDTAB
  0
TABLE
  2
STYLE
  5
27
  330
0
  100
AcDbSymbolTable
  70
    1
  0
STYLE
  5
28
  330
27
  100
AcDbSymbolTableRecord
  100
AcDbTextStyleTableRecord
  2
Monospac821 BT
  70
    0
  40
    3.5
  41
1
  50
0
  71
0
  42
3
  3

  4

  1001
ACAD
  1000
Monospac821 BT
  1071
256
  0
ENDTAB
  0
TABLE
  2
VIEW
  5
29
  330
0
  100
AcDbSymbolTable
  70
    0
  0
ENDTAB
  0
TABLE
  2
UCS
  5
2a
  330
0
  100
AcDbSymbolTable
  70
    0
  0
ENDTAB
  0
TABLE
  2
APPID
  5
2b
  330
0
  100
AcDbSymbolTable
  70
    1
  0
APPID
  5
2c
  330
2b
  100
AcDbSymbolTableRecord
  100
AcDbRegAppTableRecord
  2
ACAD
  70
    0
  0
ENDTAB
  0
TABLE
  2
DIMSTYLE
  5
2d
  330
0
  100
AcDbSymbolTable
  70
    1
  100
AcDbDimStyleTable
  0
DIMSTYLE
  105
2e
  330
2d
  100
AcDbSymbolTableRecord
  100
AcDbDimStyleTableRecord
  2
STANDARD
  70
    0
  41
    3
  42
0.5
  44
1
  73
0
  77
1
  78
1
  140
3.5
  141
2.5
  143
0.03937
  147
0.8
  172
1
  174
1
  178
0
  179
1
  271
2
  279
1
  284
1
  340
28
  0
ENDTAB
  0
TABLE
  2
BLOCK_RECORD
  5
2f
  330
0
  100
AcDbSymbolTable
  70
    2
  0
BLOCK_RECORD
  5
30
  330
2f
  100
AcDbSymbolTableRecord
  100
AcDbBlockTableRecord
  2
*Model_Space
  0
BLOCK_RECORD
  5
31
  330
2f
  100
AcDbSymbolTableRecord
  100
AcDbBlockTableRecord
  2
*Paper_Space
  0
BLOCK_RECORD
  5
532
  330
2f
  100
AcDbSymbolTableRecord
  100
AcDbBlockTableRecord
  2
*D531
  340
0
  0
BLOCK_RECORD
  5
540
  330
2f
  100
AcDbSymbolTableRecord
  100
AcDbBlockTableRecord
  2
*D53f
  340
0
  0
BLOCK_RECORD
  5
54e
  330
2f
  100
AcDbSymbolTableRecord
  100
AcDbBlockTableRecord
  2
*D54d
  340
0
  0
BLOCK_RECORD
  5
55c
  330
2f
  100
AcDbSymbolTableRecord
  100
AcDbBlockTableRecord
  2
*D55b
  340
0
  0
BLOCK_RECORD
  5
56c
  330
2f
  100
AcDbSymbolTableRecord
  100
AcDbBlockTableRecord
  2
*D56b
  340
0
  0
ENDTAB
  0
ENDSEC
  0
SECTION
  2
BLOCKS
  0
BLOCK
  5
32
  330
30
  100
AcDbEntity
  8
0
  100
AcDbBlockBegin
  2
*Model_Space
  70
    0
  10
0
  20
0
  30
0
  3
*Model_Space
  1

  0
ENDBLK
  5
33
  330
30
  100
AcDbEntity
  8
0
  100
AcDbBlockEnd
  0
BLOCK
  5
34
  330
31
  100
AcDbEntity
  8
0
  100
AcDbBlockBegin
  2
*Paper_Space
  70
    0
  10
0
  20
0
  30
0
  3
*Paper_Space
  1

  0
ENDBLK
  5
35
  330
31
  100
AcDbEntity
  8
0
  100
AcDbBlockEnd
  0
BLOCK
  5
530
  330
532
  100
AcDbEntity
  8
SK2
  100
AcDbBlockBegin
  2
*D531
  70
1
  10
0
  20
0
  30
0
  3
*D531
  1

  0
LINE
  5
533
  330
532
  100
AcDbEntity
  8
SK2
  100
AcDbLine
  10
-50
  20
9
  30
0
  11
-50
  21
44.5
  31
0
  0
LINE
  5
534
  330
532
  100
AcDbEntity
  8
SK2
  100
AcDbLine
  10
54
  20
0
  30
0
  11
54
  21
44.5
  31
0
  0
LINE
  5
535
  330
532
  100
AcDbEntity
  8
SK2
  100
AcDbLine
  10
-50
  20
42.5
  30
0
  11
54
  21
42.5
  31
0
  0
SOLID
  5
536
  330
532
  100
AcDbEntity
  8
SK2
  100
AcDbTrace
  10
-50
  20
42.5
  30
0
  11
-47.521388
  21
42.826315
  31
0
  12
-47.521388
  22
42.173685
  32
0
  13
-47.521388
  23
42.173685
  33
0
  0
SOLID
  5
537
  330
532
  100
AcDbEntity
  8
SK2
  100
AcDbTrace
  10
54
  20
42.5
  30
0
  11
51.521388
  21
42.173685
  31
0
  12
51.521388
  22
42.826315
  32
0
  13
51.521388
  23
42.826315
  33
0
  0
MTEXT
  5
538
  330
532
  100
AcDbEntity
  8
SK2
  100
AcDbMText
  10
2
  20
42.5
  30
0
  11
1
  21
0
  31
0
  40
2
  41
0
  71
8
  72
1
  1
104+2
  0
POINT
  5
539
  330
532
  100
AcDbEntity
  8
SK2
  62
0
  100
AcDbPoint
  10
-50
  20
9
  30
0
  0
POINT
  5
53a
  330
532
  100
AcDbEntity
  8
SK2
  62
0
  100
AcDbPoint
  10
54
  20
0
  30
0
  0
POINT
  5
53b
  330
532
  100
AcDbEntity
  8
SK2
  62
0
  100
AcDbPoint
  10
54
  20
42.5
  30
0
  0
ENDBLK
  5
53c
  330
532
  100
AcDbEntity
  8
SK2
  100
AcDbBlockEnd
  0
BLOCK
  5
53e
  330
540
  100
AcDbEntity
  8
SK2
  100
AcDbBlockBegin
  2
*D53f
  70
1
  10
0
  20
0
  30
0
  3
*D53f
  1

  0
LINE
  5
541
  330
540
  100
AcDbEntity
  8
SK2
  100
AcDbLine
  10
-49
  20
-10
  30
0
  11
-62
  21
-10
  31
0
  0
LINE
  5
542
  330
540
  100
AcDbEntity
  8
SK2
  100
AcDbLine
  10
-49
  20
10
  30
0
  11
-62
  21
10
  31
0
  0
LINE
  5
543
  330
540
  100
AcDbEntity
  8
SK2
  100
AcDbLine
  10
-60
  20
-10
  30
0
  11
-60
  21
10
  31
0
  0
SOLID
  5
544
  330
540
  100
AcDbEntity
  8
SK2
  100
AcDbTrace
  10
-60
  20
-10
  30
0
  11
-60.326315
  21
-7.521388
  31
0
  12
-59.673685
  22
-7.521388
  32
0
  13
-59.673685
  23
-7.521388
  33
0
  0
SOLID
  5
545
  330
540
  100
AcDbEntity
  8
SK2
  100
AcDbTrace
  10
-60
  20
10
  30
0
  11
-59.673685
  21
7.521388
  31
0
  12
-60.326315
  22
7.521388
  32
0
  13
-60.326315
  23
7.521388
  33
0
  0
MTEXT
  5
546
  330
540
  100
AcDbEntity
  8
SK2
  100
AcDbMText
  10
-60
  20
0
  30
0
  11
0
  21
1
  31
0
  40
2
  41
0
  71
8
  72
1
  1
%%c20h6
  0
POINT
  5
547
  330
540
  100
AcDbEntity
  8
SK2
  62
0
  100
AcDbPoint
  10
-49
  20
-10
  30
0
  0
POINT
  5
548
  330
540
  100
AcDbEntity
  8
SK2
  62
0
  100
AcDbPoint
  10
-49
  20
10
  30
0
  0
POINT
  5
549
  330
540
  100
AcDbEntity
  8
SK2
  62
0
  100
AcDbPoint
  10
-60
  20
10
  30
0
  0
ENDBLK
  5
54a
  330
540
  100
AcDbEntity
  8
SK2
  100
AcDbBlockEnd
  0
BLOCK
  5
54c
  330
54e
  100
AcDbEntity
  8
2
  100
AcDbBlockBegin
  2
*D54d
  70
1
  10
0
  20
0
  30
0
  3
*D54d
  1

  0
LINE
  5
54f
  330
54e
  100
AcDbEntity
  8
2
  100
AcDbLine
  10
54
  20
0
  30
0
  11
54
  21
22
  31
0
  0
LINE
  5
550
  330
54e
  100
AcDbEntity
  8
2
  100
AcDbLine
  10
48.226497
  20
10
  30
0
  11
48.226497
  21
22
  31
0
  0
LINE
  5
551
  330
54e
  100
AcDbEntity
  8
2
  100
AcDbLine
  10
54
  20
20
  30
0
  11
42.531646
  21
20
  31
0
  0
SOLID
  5
552
  330
54e
  100
AcDbEntity
  8
2
  100
AcDbTrace
  10
54
  20
20
  30
0
  11
56.478612
  21
20.326315
  31
0
  12
56.478612
  22
19.673685
  32
0
  13
56.478612
  23
19.673685
  33
0
  0
SOLID
  5
553
  330
54e
  100
AcDbEntity
  8
2
  100
AcDbTrace
  10
48.226497
  20
20
  30
0
  11
45.747885
  21
19.673685
  31
0
  12
45.747885
  22
20.326315
  32
0
  13
45.747885
  23
20.326315
  33
0
  0
MTEXT
  5
554
  330
54e
  100
AcDbEntity
  8
2
  100
AcDbMText
  10
51.113249
  20
20
  30
0
  11
1
  21
-0
  31
0
  40
2
  41
0
  71
9
  72
1
  1
5.774
  0
POINT
  5
555
  330
54e
  100
AcDbEntity
  8
2
  62
0
  100
AcDbPoint
  10
54
  20
0
  30
0
  0
POINT
  5
556
  330
54e
  100
AcDbEntity
  8
2
  62
0
  100
AcDbPoint
  10
48.226497
  20
10
  30
0
  0
POINT
  5
557
  330
54e
  100
AcDbEntity
  8
2
  62
0
  100
AcDbPoint
  10
42.531646
  20
20
  30
0
  0
ENDBLK
  5
558
  330
54e
  100
AcDbEntity
  8
2
  100
AcDbBlockEnd
  0
BLOCK
  5
55a
  330
55c
  100
AcDbEntity
  8
2
  100
AcDbBlockBegin
  2
*D55b
  70
1
  10
0
  20
0
  30
0
  3
*D55b
  1

  0
LINE
  5
55d
  330
55c
  100
AcDbEntity
  8
2
  100
AcDbLine
  10
55.019402
  20
-1.765656
  30
0
  11
64.194021
  21
-17.656563
  31
0
  0
LINE
  5
55e
  330
55c
  100
AcDbEntity
  8
2
  100
AcDbLine
  10
55.019402
  20
1.765656
  30
0
  11
64.194021
  21
17.656563
  31
0
  0
ARC
  5
55f
  330
55c
  100
AcDbEntity
  8
2
  100
AcDbCircle
  10
54
  20
0
  30
0
  40
18.388043
  100
AcDbArc
  50
300
  51
60
  0
SOLID
  5
560
  330
55c
  100
AcDbEntity
  8
2
  100
AcDbTrace
  10
63.194021
  20
-15.924512
  30
0
  11
65.069446
  21
-14.271399
  31
0
  12
65.4334
  22
-14.813123
  32
0
  13
65.4334
  23
-14.813123
  33
0
  0
SOLID
  5
561
  330
55c
  100
AcDbEntity
  8
2
  100
AcDbTrace
  10
63.194021
  20
15.924512
  30
0
  11
65.4334
  21
14.813123
  31
0
  12
65.069446
  22
14.271399
  32
0
  13
65.069446
  23
14.271399
  33
0
  0
MTEXT
  5
562
  330
55c
  100
AcDbEntity
  8
2
  100
AcDbMText
  10
72.388043
  20
0
  30
0
  11
0
  21
-1
  31
0
  40
2
  41
0
  71
8
  72
1
  1
120%%d
  0
POINT
  5
563
  330
55c
  100
AcDbEntity
  8
2
  62
0
  100
AcDbPoint
  10
70.798313
  20
-7.479091
  30
0
  0
POINT
  5
564
  330
55c
  100
AcDbEntity
  8
2
  62
0
  100
AcDbPoint
  10
54
  20
0
  30
0
  0
POINT
  5
565
  330
55c
  100
AcDbEntity
  8
2
  62
0
  100
AcDbPoint
  10
55.019402
  20
-1.765656
  30
0
  0
POINT
  5
566
  330
55c
  100
AcDbEntity
  8
2
  62
0
  100
AcDbPoint
  10
54
  20
0
  30
0
  0
POINT
  5
567
  330
55c
  100
AcDbEntity
  8
2
  62
0
  100
AcDbPoint
  10
55.019402
  20
1.765656
  30
0
  0
ENDBLK
  5
568
  330
55c
  100
AcDbEntity
  8
2
  100
AcDbBlockEnd
  0
BLOCK
  5
56a
  330
56c
  100
AcDbEntity
  8
2
  100
AcDbBlockBegin
  2
*D56b
  70
1
  10
0
  20
0
  30
0
  3
*D56b
  1

  0
LINE
  5
56d
  330
56c
  100
AcDbEntity
  8
2
  100
AcDbLine
  10
48.226497
  20
-10
  30
0
  11
91
  21
-10
  31
0
  0
LINE
  5
56e
  330
56c
  100
AcDbEntity
  8
2
  100
AcDbLine
  10
48.226497
  20
10
  30
0
  11
91
  21
10
  31
0
  0
LINE
  5
56f
  330
56c
  100
AcDbEntity
  8
2
  100
AcDbLine
  10
89
  20
-10
  30
0
  11
89
  21
10
  31
0
  0
SOLID
  5
570
  330
56c
  100
AcDbEntity
  8
2
  100
AcDbTrace
  10
89
  20
-10
  30
0
  11
88.673685
  21
-7.521388
  31
0
  12
89.326315
  22
-7.521388
  32
0
  13
89.326315
  23
-7.521388
  33
0
  0
SOLID
  5
571
  330
56c
  100
AcDbEntity
  8
2
  100
AcDbTrace
  10
89
  20
10
  30
0
  11
89.326315
  21
7.521388
  31
0
  12
88.673685
  22
7.521388
  32
0
  13
88.673685
  23
7.521388
  33
0
  0
MTEXT
  5
572
  330
56c
  100
AcDbEntity
  8
2
  100
AcDbMText
  10
89
  20
0
  30
0
  11
0
  21
1
  31
0
  40
2
  41
0
  71
8
  72
1
  1
%%c20h10
  0
POINT
  5
573
  330
56c
  100
AcDbEntity
  8
2
  62
0
  100
AcDbPoint
  10
48.226497
  20
-10
  30
0
  0
POINT
  5
574
  330
56c
  100
AcDbEntity
  8
2
  62
0
  100
AcDbPoint
  10
48.226497
  20
10
  30
0
  0
POINT
  5
575
  330
56c
  100
AcDbEntity
  8
2
  62
0
  100
AcDbPoint
  10
89
  20
10
  30
0
  0
ENDBLK
  5
576
  330
56c
  100
AcDbEntity
  8
2
  100
AcDbBlockEnd
  0
ENDSEC
  0
SECTION
  2
ENTITIES
  0
DIMENSION
  5
53d
  100
AcDbEntity
  8
SK2
  100
AcDbDimension
  2
*D531
  10
54
  20
42.5
  30
0
  11
2
  21
42.5
  31
0
  70
160
  1
<>+2
  71
5
  3
STANDARD
  42
104
  100
AcDbAlignedDimension
  13
-50
  23
9
  33
0
  14
54
  24
0
  34
0
  50
0
  100
AcDbRotatedDimension
  0
DIMENSION
  5
54b
  100
AcDbEntity
  8
SK2
  100
AcDbDimension
  2
*D53f
  10
-60
  20
10
  30
0
  11
-60
  21
0
  31
0
  70
160
  1
%%c<>h6
  71
5
  3
STANDARD
  42
20
  100
AcDbAlignedDimension
  13
-49
  23
-10
  33
0
  14
-49
  24
10
  34
0
  50
-90
  100
AcDbRotatedDimension
  0
DIMENSION
  5
559
  100
AcDbEntity
  8
2
  100
AcDbDimension
  2
*D54d
  10
42.531646
  20
20
  30
0
  11
51.113249
  21
20
  31
0
  70
160
  1
<>
  71
5
  3
STANDARD
  42
5.773503
  100
AcDbAlignedDimension
  13
54
  23
0
  33
0
  14
48.226497
  24
10
  34
0
  50
0
  100
AcDbRotatedDimension
  0
DIMENSION
  5
569
  100
AcDbEntity
  8
2
  100
AcDbDimension
  2
*D55b
  10
55.019402
  20
1.765656
  30
0
  11
72.388043
  21
0
  31
0
  70
162
  1
<>
  71
5
  53
-90
  3
STANDARD
  100
AcDb2LineAngularDimension
  13
55.019402
  23
-1.765656
  33
0
  14
54
  24
0
  34
0
  15
54
  25
0
  35
0
  16
70.798313
  26
-7.479091
  36
0
  0
DIMENSION
  5
577
  100
AcDbEntity
  8
2
  100
AcDbDimension
  2
*D56b
  10
89
  20
10
  30
0
  11
89
  21
0
  31
0
  70
160
  1
%%c<>h10
  71
5
  3
STANDARD
  42
20
  100
AcDbAlignedDimension
  13
48.226497
  23
-10
  33
0
  14
48.226497
  24
10
  34
0
  50
-90
  100
AcDbRotatedDimension
  0
LINE
  5
36
  100
AcDbEntity
  8
1
  100
AcDbLine
  10
54
  20
0
  30
0
  11
48.226497
  21
10
  31
0
  0
LINE
  5
37
  100
AcDbEntity
  8
1
  100
AcDbLine
  10
48.226497
  20
10
  30
0
  11
0
  21
10
  31
0
  0
LINE
  5
38
  100
AcDbEntity
  8
1
  100
AcDbLine
  10
0
  20
10
  30
0
  11
0
  21
-10
  31
0
  0
LINE
  5
39
  100
AcDbEntity
  8
1
  100
AcDbLine
  10
0
  20
-10
  30
0
  11
48.226497
  21
-10
  31
0
  0
LINE
  5
3a
  100
AcDbEntity
  8
1
  100
AcDbLine
  10
48.226497
  20
-10
  30
0
  11
54
  21
0
  31
0
  0
LINE
  5
3b
  100
AcDbEntity
  8
1
  100
AcDbLine
  10
0
  20
-10
  30
0
  11
0
  21
10
  31
0
  0
LINE
  5
3c
  100
AcDbEntity
  8
1
  100
AcDbLine
  10
0
  20
10
  30
0
  11
0
  21
-10
  31
0
  0
LINE
  5
3d
  100
AcDbEntity
  8
1
  100
AcDbLine
  10
48.2481
  20
0.989975
  30
0
  11
48.2712
  21
0.995499
  31
0
  0
LINE
  5
3e
  100
AcDbEntity
  8
1
  100
AcDbLine
  10
48.2712
  20
0.995499
  30
0
  11
48.2943
  21
1.001023
  31
0
  0
LINE
  5
3f
  100
AcDbEntity
  8
1
  100
AcDbLine
  10
48.2943
  20
1.001023
  30
0
  11
48.3174
  21
1.006546
  31
0
  0
LINE
  5
40
  100
AcDbEntity
  8
1
  100
AcDbLine
  10
48.3174
  20
1.006546
  30
0
  11
48.3405
  21
1.012069
  31
0
  0
LINE
  5
41
  100
AcDbEntity
  8
1
  100
AcDbLine
  10
48.3405
  20
1.012069
  30
0
  11
48.3636
  21
1.01759
  31
0
  0
LINE
  5
42
  100
AcDbEntity
  8
1
  100
AcDbLine
  10
48.3636
  20
1.01759
  30
0
  11
48.3867
  21
1.023111
  31
0
  0
LINE
  5
43
  100
AcDbEntity
  8
1
  100
AcDbLine
  10
48.3867
  20
1.023111
  30
0
  11
48.4098
  21
1.028632
  31
0
  0
LINE
  5
44
  100
AcDbEntity
  8
1
  100
AcDbLine
  10
48.4098
  20
1.028632
  30
0
  11
48.4329
  21
1.034151
  31
0
  0
LINE
  5
45
  100
AcDbEntity
  8
1
  100
AcDbLine
  10
48.4329
  20
1.034151
  30
0
  11
48.456
  21
1.03967
  31
0
  0
LINE
  5
46
  100
AcDbEntity
  8
1
  100
AcDbLine
  10
48.456
  20
1.03967
  30
0
  11
48.4791
  21
1.045188
  31
0
  0
LINE
  5
47
  100
AcDbEntity
  8
1
  100
AcDbLine
  10
48.4791
  20
1.045188
  30
0
  11
48.5022
  21
1.050705
  31
0
  0
LINE
  5
48
  100
AcDbEntity
  8
1
  100
AcDbLine
  10
48.5022
  20
1.050705
  30
0
  11
48.5253
  21
1.056221
  31
0
  0
LINE
  5
49
  100
AcDbEntity
  8
1
  100
AcDbLine
  10
48.5253
  20
1.056221
  30
0
  11
48.5484
  21
1.061736
  31
0
  0
LINE
  5
4a
  100
AcDbEntity
  8
1
  100
AcDbLine
  10
48.5484
  20
1.061736
  30
0
  11
48.5715
  21
1.067251
  31
0
  0
LINE
  5
4b
  100
AcDbEntity
  8
1
  100
AcDbLine
  10
48.5715
  20
1.067251
  30
0
  11
48.5946
  21
1.072765
  31
0
  0
LINE
  5
4c
  100
AcDbEntity
  8
1
  100
AcDbLine
  10
48.5946
  20
1.072765
  30
0
  11
48.6177
  21
1.078278
  31
0
  0
LINE
  5
4d
  100
AcDbEntity
  8
1
  100
AcDbLine
  10
48.6177
  20
1.078278
  30
0
  11
48.6408
  21
1.08379
  31
0
  0
LINE
  5
4e
  100
AcDbEntity
  8
1
  100
AcDbLine
  10
48.6408
  20
1.08379
  30
0
  11
48.6639
  21
1.089301
  31
0
  0
LINE
  5
4f
  100
AcDbEntity
  8
1
  100
AcDbLine
  10
48.6639
  20
1.089301
  30
0
  11
48.687
  21
1.094811
  31
0
  0
LINE
  5
50
  100
AcDbEntity
  8
1
  100
AcDbLine
  10
48.687
  20
1.094811
  30
0
  11
48.7101
  21
1.10032
  31
0
  0
LINE
  5
51
  100
AcDbEntity
  8
1
  100
AcDbLine
  10
48.7101
  20
1.10032
  30
0
  11
48.7332
  21
1.105828
  31
0
  0
LINE
  5
52
  100
AcDbEntity
  8
1
  100
AcDbLine
  10
48.7332
  20
1.105828
  30
0
  11
48.7563
  21
1.111336
  31
0
  0
LINE
  5
53
  100
AcDbEntity
  8
1
  100
AcDbLine
  10
48.7563
  20
1.111336
  30
0
  11
48.7794
  21
1.116842
  31
0
  0
LINE
  5
54
  100
AcDbEntity
  8
1
  100
AcDbLine
  10
48.7794
  20
1.116842
  30
0
  11
48.8025
  21
1.122347
  31
0
  0
LINE
  5
55
  100
AcDbEntity
  8
1
  100
AcDbLine
  10
48.8025
  20
1.122347
  30
0
  11
48.8256
  21
1.127851
  31
0
  0
LINE
  5
56
  100
AcDbEntity
  8
1
  100
AcDbLine
  10
48.8256
  20
1.127851
  30
0
  11
48.8487
  21
1.133354
  31
0
  0
LINE
  5
57
  100
AcDbEntity
  8
1
  100
AcDbLine
  10
48.8487
  20
1.133354
  30
0
  11
48.8718
  21
1.138856
  31
0
  0
LINE
  5
58
  100
AcDbEntity
  8
1
  100
AcDbLine
  10
48.8718
  20
1.138856
  30
0
  11
48.8949
  21
1.144357
  31
0
  0
LINE
  5
59
  100
AcDbEntity
  8
1
  100
AcDbLine
  10
48.8949
  20
1.144357
  30
0
  11
48.918
  21
1.149857
  31
0
  0
LINE
  5
5a
  100
AcDbEntity
  8
1
  100
AcDbLine
  10
48.918
  20
1.149857
  30
0
  11
48.9411
  21
1.155356
  31
0
  0
LINE
  5
5b
  100
AcDbEntity
  8
1
  100
AcDbLine
  10
48.9411
  20
1.155356
  30
0
  11
48.9642
  21
1.160853
  31
0
  0
LINE
  5
5c
  100
AcDbEntity
  8
1
  100
AcDbLine
  10
48.9642
  20
1.160853
  30
0
  11
48.9873
  21
1.166349
  31
0
  0
LINE
  5
5d
  100
AcDbEntity
  8
1
  100
AcDbLine
  10
48.9873
  20
1.166349
  30
0
  11
49.0104
  21
1.171844
  31
0
  0
LINE
  5
5e
  100
AcDbEntity
  8
1
  100
AcDbLine
  10
49.0104
  20
1.171844
  30
0
  11
49.0335
  21
1.177338
  31
0
  0
LINE
  5
5f
  100
AcDbEntity
  8
1
  100
AcDbLine
  10
49.0335
  20
1.177338
  30
0
  11
49.0566
  21
1.182831
  31
0
  0
LINE
  5
60
  100
AcDbEntity
  8
1
  100
AcDbLine
  10
49.0566
  20
1.182831
  30
0
  11
49.0797
  21
1.188322
  31
0
  0
LINE
  5
61
  100
AcDbEntity
  8
1
  100
AcDbLine
  10
49.0797
  20
1.188322
  30
0
  11
49.1028
  21
1.193812
  31
0
  0
LINE
  5
62
  100
AcDbEntity
  8
1
  100
AcDbLine
  10
49.1028
  20
1.193812
  30
0
  11
49.1259
  21
1.1993
  31
0
  0
LINE
  5
63
  100
AcDbEntity
  8
1
  100
AcDbLine
  10
49.1259
  20
1.1993
  30
0
  11
49.149
  21
1.204787
  31
0
  0
LINE
  5
64
  100
AcDbEntity
  8
1
  100
AcDbLine
  10
49.149
  20
1.204787
  30
0
  11
49.1721
  21
1.210273
  31
0
  0
LINE
  5
65
  100
AcDbEntity
  8
1
  100
AcDbLine
  10
49.1721
  20
1.210273
  30
0
  11
49.1952
  21
1.215758
  31
0
  0
LINE
  5
66
  100
AcDbEntity
  8
1
  100
AcDbLine
  10
49.1952
  20
1.215758
  30
0
  11
49.2183
  21
1.22124
  31
0
  0
LINE
  5
67
  100
AcDbEntity
  8
1
  100
AcDbLine
  10
49.2183
  20
1.22124
  30
0
  11
49.2414
  21
1.226722
  31
0
  0
LINE
  5
68
  100
AcDbEntity
  8
1
  100
AcDbLine
  10
49.2414
  20
1.226722
  30
0
  11
49.2645
  21
1.232201
  31
0
  0
LINE
  5
69
  100
AcDbEntity
  8
1
  100
AcDbLine
  10
49.2645
  20
1.232201
  30
0
  11
49.2876
  21
1.23768
  31
0
  0
LINE
  5
6a
  100
AcDbEntity
  8
1
  100
AcDbLine
  10
49.2876
  20
1.23768
  30
0
  11
49.3107
  21
1.243156
  31
0
  0
LINE
  5
6b
  100
AcDbEntity
  8
1
  100
AcDbLine
  10
49.3107
  20
1.243156
  30
0
  11
49.3338
  21
1.248631
  31
0
  0
LINE
  5
6c
  100
AcDbEntity
  8
1
  100
AcDbLine
  10
49.3338
  20
1.248631
  30
0
  11
49.3569
  21
1.254104
  31
0
  0
LINE
  5
6d
  100
AcDbEntity
  8
1
  100
AcDbLine
  10
49.3569
  20
1.254104
  30
0
  11
49.38
  21
1.259576
  31
0
  0
LINE
  5
6e
  100
AcDbEntity
  8
1
  100
AcDbLine
  10
49.38
  20
1.259576
  30
0
  11
49.4031
  21
1.265046
  31
0
  0
LINE
  5
6f
  100
AcDbEntity
  8
1
  100
AcDbLine
  10
49.4031
  20
1.265046
  30
0
  11
49.4262
  21
1.270514
  31
0
  0
LINE
  5
70
  100
AcDbEntity
  8
1
  100
AcDbLine
  10
49.4262
  20
1.270514
  30
0
  11
49.4493
  21
1.27598
  31
0
  0
LINE
  5
71
  100
AcDbEntity
  8
1
  100
AcDbLine
  10
49.4493
  20
1.27598
  30
0
  11
49.4724
  21
1.281444
  31
0
  0
LINE
  5
72
  100
AcDbEntity
  8
1
  100
AcDbLine
  10
49.4724
  20
1.281444
  30
0
  11
49.4955
  21
1.286907
  31
0
  0
LINE
  5
73
  100
AcDbEntity
  8
1
  100
AcDbLine
  10
49.4955
  20
1.286907
  30
0
  11
49.5186
  21
1.292367
  31
0
  0
LINE
  5
74
  100
AcDbEntity
  8
1
  100
AcDbLine
  10
49.5186
  20
1.292367
  30
0
  11
49.5417
  21
1.297826
  31
0
  0
LINE
  5
75
  100
AcDbEntity
  8
1
  100
AcDbLine
  10
49.5417
  20
1.297826
  30
0
  11
49.5648
  21
1.303282
  31
0
  0
LINE
  5
76
  100
AcDbEntity
  8
1
  100
AcDbLine
  10
49.5648
  20
1.303282
  30
0
  11
49.5879
  21
1.308737
  31
0
  0
LINE
  5
77
  100
AcDbEntity
  8
1
  100
AcDbLine
  10
49.5879
  20
1.308737
  30
0
  11
49.611
  21
1.314189
  31
0
  0
LINE
  5
78
  100
AcDbEntity
  8
1
  100
AcDbLine
  10
49.611
  20
1.314189
  30
0
  11
49.6341
  21
1.319639
  31
0
  0
LINE
  5
79
  100
AcDbEntity
  8
1
  100
AcDbLine
  10
49.6341
  20
1.319639
  30
0
  11
49.6572
  21
1.325087
  31
0
  0
LINE
  5
7a
  100
AcDbEntity
  8
1
  100
AcDbLine
  10
49.6572
  20
1.325087
  30
0
  11
49.6803
  21
1.330532
  31
0
  0
LINE
  5
7b
  100
AcDbEntity
  8
1
  100
AcDbLine
  10
49.6803
  20
1.330532
  30
0
  11
49.7034
  21
1.335975
  31
0
  0
LINE
  5
7c
  100
AcDbEntity
  8
1
  100
AcDbLine
  10
49.7034
  20
1.335975
  30
0
  11
49.7265
  21
1.341416
  31
0
  0
LINE
  5
7d
  100
AcDbEntity
  8
1
  100
AcDbLine
  10
49.7265
  20
1.341416
  30
0
  11
49.7496
  21
1.346855
  31
0
  0
LINE
  5
7e
  100
AcDbEntity
  8
1
  100
AcDbLine
  10
49.7496
  20
1.346855
  30
0
  11
49.7727
  21
1.35229
  31
0
  0
LINE
  5
7f
  100
AcDbEntity
  8
1
  100
AcDbLine
  10
49.7727
  20
1.35229
  30
0
  11
49.7958
  21
1.357724
  31
0
  0
LINE
  5
80
  100
AcDbEntity
  8
1
  100
AcDbLine
  10
49.7958
  20
1.357724
  30
0
  11
49.8189
  21
1.363154
  31
0
  0
LINE
  5
81
  100
AcDbEntity
  8
1
  100
AcDbLine
  10
49.8189
  20
1.363154
  30
0
  11
49.842
  21
1.368582
  31
0
  0
LINE
  5
82
  100
AcDbEntity
  8
1
  100
AcDbLine
  10
49.842
  20
1.368582
  30
0
  11
49.8651
  21
1.374007
  31
0
  0
LINE
  5
83
  100
AcDbEntity
  8
1
  100
AcDbLine
  10
49.8651
  20
1.374007
  30
0
  11
49.8882
  21
1.37943
  31
0
  0
LINE
  5
84
  100
AcDbEntity
  8
1
  100
AcDbLine
  10
49.8882
  20
1.37943
  30
0
  11
49.9113
  21
1.384849
  31
0
  0
LINE
  5
85
  100
AcDbEntity
  8
1
  100
AcDbLine
  10
49.9113
  20
1.384849
  30
0
  11
49.9344
  21
1.390266
  31
0
  0
LINE
  5
86
  100
AcDbEntity
  8
1
  100
AcDbLine
  10
49.9344
  20
1.390266
  30
0
  11
49.9575
  21
1.395679
  31
0
  0
LINE
  5
87
  100
AcDbEntity
  8
1
  100
AcDbLine
  10
49.9575
  20
1.395679
  30
0
  11
49.9806
  21
1.401089
  31
0
  0
LINE
  5
88
  100
AcDbEntity
  8
1
  100
AcDbLine
  10
49.9806
  20
1.401089
  30
0
  11
50.0037
  21
1.406496
  31
0
  0
LINE
  5
89
  100
AcDbEntity
  8
1
  100
AcDbLine
  10
50.0037
  20
1.406496
  30
0
  11
50.0268
  21
1.4119
  31
0
  0
LINE
  5
8a
  100
AcDbEntity
  8
1
  100
AcDbLine
  10
50.0268
  20
1.4119
  30
0
  11
50.0499
  21
1.417301
  31
0
  0
LINE
  5
8b
  100
AcDbEntity
  8
1
  100
AcDbLine
  10
50.0499
  20
1.417301
  30
0
  11
50.073
  21
1.422698
  31
0
  0
LINE
  5
8c
  100
AcDbEntity
  8
1
  100
AcDbLine
  10
50.073
  20
1.422698
  30
0
  11
50.0961
  21
1.428091
  31
0
  0
LINE
  5
8d
  100
AcDbEntity
  8
1
  100
AcDbLine
  10
50.0961
  20
1.428091
  30
0
  11
50.1192
  21
1.433481
  31
0
  0
LINE
  5
8e
  100
AcDbEntity
  8
1
  100
AcDbLine
  10
50.1192
  20
1.433481
  30
0
  11
50.1423
  21
1.438867
  31
0
  0
LINE
  5
8f
  100
AcDbEntity
  8
1
  100
AcDbLine
  10
50.1423
  20
1.438867
  30
0
  11
50.1654
  21
1.44425
  31
0
  0
LINE
  5
90
  100
AcDbEntity
  8
1
  100
AcDbLine
  10
50.1654
  20
1.44425
  30
0
  11
50.1885
  21
1.449628
  31
0
  0
LINE
  5
91
  100
AcDbEntity
  8
1
  100
AcDbLine
  10
50.1885
  20
1.449628
  30
0
  11
50.2116
  21
1.455002
  31
0
  0
LINE
  5
92
  100
AcDbEntity
  8
1
  100
AcDbLine
  10
50.2116
  20
1.455002
  30
0
  11
50.2347
  21
1.460373
  31
0
  0
LINE
  5
93
  100
AcDbEntity
  8
1
  100
AcDbLine
  10
50.2347
  20
1.460373
  30
0
  11
50.2578
  21
1.465739
  31
0
  0
LINE
  5
94
  100
AcDbEntity
  8
1
  100
AcDbLine
  10
50.2578
  20
1.465739
  30
0
  11
50.2809
  21
1.4711
  31
0
  0
LINE
  5
95
  100
AcDbEntity
  8
1
  100
AcDbLine
  10
50.2809
  20
1.4711
  30
0
  11
50.304
  21
1.476458
  31
0
  0
LINE
  5
96
  100
AcDbEntity
  8
1
  100
AcDbLine
  10
50.304
  20
1.476458
  30
0
  11
50.3271
  21
1.48181
  31
0
  0
LINE
  5
97
  100
AcDbEntity
  8
1
  100
AcDbLine
  10
50.3271
  20
1.48181
  30
0
  11
50.3502
  21
1.487158
  31
0
  0
LINE
  5
98
  100
AcDbEntity
  8
1
  100
AcDbLine
  10
50.3502
  20
1.487158
  30
0
  11
50.3733
  21
1.492501
  31
0
  0
LINE
  5
99
  100
AcDbEntity
  8
1
  100
AcDbLine
  10
50.3733
  20
1.492501
  30
0
  11
50.3964
  21
1.497839
  31
0
  0
LINE
  5
9a
  100
AcDbEntity
  8
1
  100
AcDbLine
  10
50.3964
  20
1.497839
  30
0
  11
50.4195
  21
1.503172
  31
0
  0
LINE
  5
9b
  100
AcDbEntity
  8
1
  100
AcDbLine
  10
50.4195
  20
1.503172
  30
0
  11
50.4426
  21
1.5085
  31
0
  0
LINE
  5
9c
  100
AcDbEntity
  8
1
  100
AcDbLine
  10
50.4426
  20
1.5085
  30
0
  11
50.4657
  21
1.513822
  31
0
  0
LINE
  5
9d
  100
AcDbEntity
  8
1
  100
AcDbLine
  10
50.4657
  20
1.513822
  30
0
  11
50.4888
  21
1.519139
  31
0
  0
LINE
  5
9e
  100
AcDbEntity
  8
1
  100
AcDbLine
  10
50.4888
  20
1.519139
  30
0
  11
50.5119
  21
1.52445
  31
0
  0
LINE
  5
9f
  100
AcDbEntity
  8
1
  100
AcDbLine
  10
50.5119
  20
1.52445
  30
0
  11
50.535
  21
1.529755
  31
0
  0
LINE
  5
a0
  100
AcDbEntity
  8
1
  100
AcDbLine
  10
50.535
  20
1.529755
  30
0
  11
50.5581
  21
1.535054
  31
0
  0
LINE
  5
a1
  100
AcDbEntity
  8
1
  100
AcDbLine
  10
50.5581
  20
1.535054
  30
0
  11
50.5812
  21
1.540347
  31
0
  0
LINE
  5
a2
  100
AcDbEntity
  8
1
  100
AcDbLine
  10
50.5812
  20
1.540347
  30
0
  11
50.6043
  21
1.545634
  31
0
  0
LINE
  5
a3
  100
AcDbEntity
  8
1
  100
AcDbLine
  10
50.6043
  20
1.545634
  30
0
  11
50.6274
  21
1.550913
  31
0
  0
LINE
  5
a4
  100
AcDbEntity
  8
1
  100
AcDbLine
  10
50.6274
  20
1.550913
  30
0
  11
50.6505
  21
1.556186
  31
0
  0
LINE
  5
a5
  100
AcDbEntity
  8
1
  100
AcDbLine
  10
50.6505
  20
1.556186
  30
0
  11
50.6736
  21
1.561452
  31
0
  0
LINE
  5
a6
  100
AcDbEntity
  8
1
  100
AcDbLine
  10
50.6736
  20
1.561452
  30
0
  11
50.6967
  21
1.566711
  31
0
  0
LINE
  5
a7
  100
AcDbEntity
  8
1
  100
AcDbLine
  10
50.6967
  20
1.566711
  30
0
  11
50.7198
  21
1.571963
  31
0
  0
LINE
  5
a8
  100
AcDbEntity
  8
1
  100
AcDbLine
  10
50.7198
  20
1.571963
  30
0
  11
50.7429
  21
1.577206
  31
0
  0
LINE
  5
a9
  100
AcDbEntity
  8
1
  100
AcDbLine
  10
50.7429
  20
1.577206
  30
0
  11
50.766
  21
1.582442
  31
0
  0
LINE
  5
aa
  100
AcDbEntity
  8
1
  100
AcDbLine
  10
50.766
  20
1.582442
  30
0
  11
50.7891
  21
1.58767
  31
0
  0
LINE
  5
ab
  100
AcDbEntity
  8
1
  100
AcDbLine
  10
50.7891
  20
1.58767
  30
0
  11
50.8122
  21
1.592889
  31
0
  0
LINE
  5
ac
  100
AcDbEntity
  8
1
  100
AcDbLine
  10
50.8122
  20
1.592889
  30
0
  11
50.8353
  21
1.598099
  31
0
  0
LINE
  5
ad
  100
AcDbEntity
  8
1
  100
AcDbLine
  10
50.8353
  20
1.598099
  30
0
  11
50.8584
  21
1.603301
  31
0
  0
LINE
  5
ae
  100
AcDbEntity
  8
1
  100
AcDbLine
  10
50.8584
  20
1.603301
  30
0
  11
50.8815
  21
1.608494
  31
0
  0
LINE
  5
af
  100
AcDbEntity
  8
1
  100
AcDbLine
  10
50.8815
  20
1.608494
  30
0
  11
50.9046
  21
1.613676
  31
0
  0
LINE
  5
b0
  100
AcDbEntity
  8
1
  100
AcDbLine
  10
50.9046
  20
1.613676
  30
0
  11
50.9277
  21
1.618849
  31
0
  0
LINE
  5
b1
  100
AcDbEntity
  8
1
  100
AcDbLine
  10
50.9277
  20
1.618849
  30
0
  11
50.9508
  21
1.624012
  31
0
  0
LINE
  5
b2
  100
AcDbEntity
  8
1
  100
AcDbLine
  10
50.9508
  20
1.624012
  30
0
  11
50.9739
  21
1.629165
  31
0
  0
LINE
  5
b3
  100
AcDbEntity
  8
1
  100
AcDbLine
  10
50.9739
  20
1.629165
  30
0
  11
50.997
  21
1.634306
  31
0
  0
LINE
  5
b4
  100
AcDbEntity
  8
1
  100
AcDbLine
  10
50.997
  20
1.634306
  30
0
  11
51.0201
  21
1.639437
  31
0
  0
LINE
  5
b5
  100
AcDbEntity
  8
1
  100
AcDbLine
  10
51.0201
  20
1.639437
  30
0
  11
51.0432
  21
1.644036
  31
0
  0
LINE
  5
b6
  100
AcDbEntity
  8
1
  100
AcDbLine
  10
51.0432
  20
1.644036
  30
0
  11
51.0663
  21
1.648135
  31
0
  0
LINE
  5
b7
  100
AcDbEntity
  8
1
  100
AcDbLine
  10
51.0663
  20
1.648135
  30
0
  11
51.0894
  21
1.651355
  31
0
  0
LINE
  5
b8
  100
AcDbEntity
  8
1
  100
AcDbLine
  10
51.0894
  20
1.651355
  30
0
  11
51.1125
  21
1.653619
  31
0
  0
LINE
  5
b9
  100
AcDbEntity
  8
1
  100
AcDbLine
  10
51.1125
  20
1.653619
  30
0
  11
51.1356
  21
1.655315
  31
0
  0
LINE
  5
ba
  100
AcDbEntity
  8
1
  100
AcDbLine
  10
51.1356
  20
1.655315
  30
0
  11
51.1587
  21
1.656067
  31
0
  0
LINE
  5
bb
  100
AcDbEntity
  8
1
  100
AcDbLine
  10
51.1587
  20
1.656067
  30
0
  11
51.1818
  21
1.656001
  31
0
  0
LINE
  5
bc
  100
AcDbEntity
  8
1
  100
AcDbLine
  10
51.1818
  20
1.656001
  30
0
  11
51.2049
  21
1.6554
  31
0
  0
LINE
  5
bd
  100
AcDbEntity
  8
1
  100
AcDbLine
  10
51.2049
  20
1.6554
  30
0
  11
51.228
  21
1.653749
  31
0
  0
LINE
  5
be
  100
AcDbEntity
  8
1
  100
AcDbLine
  10
51.228
  20
1.653749
  30
0
  11
51.2511
  21
1.651441
  31
0
  0
LINE
  5
bf
  100
AcDbEntity
  8
1
  100
AcDbLine
  10
51.2511
  20
1.651441
  30
0
  11
51.2742
  21
1.648604
  31
0
  0
LINE
  5
c0
  100
AcDbEntity
  8
1
  100
AcDbLine
  10
51.2742
  20
1.648604
  30
0
  11
51.2973
  21
1.644615
  31
0
  0
LINE
  5
c1
  100
AcDbEntity
  8
1
  100
AcDbLine
  10
51.2973
  20
1.644615
  30
0
  11
51.3204
  21
1.640126
  31
0
  0
LINE
  5
c2
  100
AcDbEntity
  8
1
  100
AcDbLine
  10
51.3204
  20
1.640126
  30
0
  11
51.3435
  21
1.634954
  31
0
  0
LINE
  5
c3
  100
AcDbEntity
  8
1
  100
AcDbLine
  10
51.3435
  20
1.634954
  30
0
  11
51.3666
  21
1.628808
  31
0
  0
LINE
  5
c4
  100
AcDbEntity
  8
1
  100
AcDbLine
  10
51.3666
  20
1.628808
  30
0
  11
51.3897
  21
1.62217
  31
0
  0
LINE
  5
c5
  100
AcDbEntity
  8
1
  100
AcDbLine
  10
51.3897
  20
1.62217
  30
0
  11
51.4128
  21
1.614683
  31
0
  0
LINE
  5
c6
  100
AcDbEntity
  8
1
  100
AcDbLine
  10
51.4128
  20
1.614683
  30
0
  11
51.4359
  21
1.606394
  31
0
  0
LINE
  5
c7
  100
AcDbEntity
  8
1
  100
AcDbLine
  10
51.4359
  20
1.606394
  30
0
  11
51.459
  21
1.597609
  31
0
  0
LINE
  5
c8
  100
AcDbEntity
  8
1
  100
AcDbLine
  10
51.459
  20
1.597609
  30
0
  11
51.4821
  21
1.587804
  31
0
  0
LINE
  5
c9
  100
AcDbEntity
  8
1
  100
AcDbLine
  10
51.4821
  20
1.587804
  30
0
  11
51.5052
  21
1.57735
  31
0
  0
LINE
  5
ca
  100
AcDbEntity
  8
1
  100
AcDbLine
  10
51.5052
  20
1.57735
  30
0
  11
51.5283
  21
1.566379
  31
0
  0
LINE
  5
cb
  100
AcDbEntity
  8
1
  100
AcDbLine
  10
51.5283
  20
1.566379
  30
0
  11
51.5514
  21
1.554232
  31
0
  0
LINE
  5
cc
  100
AcDbEntity
  8
1
  100
AcDbLine
  10
51.5514
  20
1.554232
  30
0
  11
51.5745
  21
1.541551
  31
0
  0
LINE
  5
cd
  100
AcDbEntity
  8
1
  100
AcDbLine
  10
51.5745
  20
1.541551
  30
0
  11
51.5976
  21
1.528209
  31
0
  0
LINE
  5
ce
  100
AcDbEntity
  8
1
  100
AcDbLine
  10
51.5976
  20
1.528209
  30
0
  11
51.6207
  21
1.513767
  31
0
  0
LINE
  5
cf
  100
AcDbEntity
  8
1
  100
AcDbLine
  10
51.6207
  20
1.513767
  30
0
  11
51.6438
  21
1.498743
  31
0
  0
LINE
  5
d0
  100
AcDbEntity
  8
1
  100
AcDbLine
  10
51.6438
  20
1.498743
  30
0
  11
51.6669
  21
1.482948
  31
0
  0
LINE
  5
d1
  100
AcDbEntity
  8
1
  100
AcDbLine
  10
51.6669
  20
1.482948
  30
0
  11
51.69
  21
1.466055
  31
0
  0
LINE
  5
d2
  100
AcDbEntity
  8
1
  100
AcDbLine
  10
51.69
  20
1.466055
  30
0
  11
51.7131
  21
1.448505
  31
0
  0
LINE
  5
d3
  100
AcDbEntity
  8
1
  100
AcDbLine
  10
51.7131
  20
1.448505
  30
0
  11
51.7362
  21
1.430123
  31
0
  0
LINE
  5
d4
  100
AcDbEntity
  8
1
  100
AcDbLine
  10
51.7362
  20
1.430123
  30
0
  11
51.7593
  21
1.410537
  31
0
  0
LINE
  5
d5
  100
AcDbEntity
  8
1
  100
AcDbLine
  10
51.7593
  20
1.410537
  30
0
  11
51.7824
  21
1.390181
  31
0
  0
LINE
  5
d6
  100
AcDbEntity
  8
1
  100
AcDbLine
  10
51.7824
  20
1.390181
  30
0
  11
51.8055
  21
1.369009
  31
0
  0
LINE
  5
d7
  100
AcDbEntity
  8
1
  100
AcDbLine
  10
51.8055
  20
1.369009
  30
0
  11
51.8286
  21
1.346364
  31
0
  0
LINE
  5
d8
  100
AcDbEntity
  8
1
  100
AcDbLine
  10
51.8286
  20
1.346364
  30
0
  11
51.8517
  21
1.322779
  31
0
  0
LINE
  5
d9
  100
AcDbEntity
  8
1
  100
AcDbLine
  10
51.8517
  20
1.322779
  30
0
  11
51.8748
  21
1.298177
  31
0
  0
LINE
  5
da
  100
AcDbEntity
  8
1
  100
AcDbLine
  10
51.8748
  20
1.298177
  30
0
  11
51.8979
  21
1.272253
  31
0
  0
LINE
  5
db
  100
AcDbEntity
  8
1
  100
AcDbLine
  10
51.8979
  20
1.272253
  30
0
  11
51.921
  21
1.244789
  31
0
  0
LINE
  5
dc
  100
AcDbEntity
  8
1
  100
AcDbLine
  10
51.921
  20
1.244789
  30
0
  11
51.9441
  21
1.215992
  31
0
  0
LINE
  5
dd
  100
AcDbEntity
  8
1
  100
AcDbLine
  10
51.9441
  20
1.215992
  30
0
  11
51.9672
  21
1.185715
  31
0
  0
LINE
  5
de
  100
AcDbEntity
  8
1
  100
AcDbLine
  10
51.9672
  20
1.185715
  30
0
  11
51.9903
  21
1.153779
  31
0
  0
LINE
  5
df
  100
AcDbEntity
  8
1
  100
AcDbLine
  10
51.9903
  20
1.153779
  30
0
  11
52.0134
  21
1.119646
  31
0
  0
LINE
  5
e0
  100
AcDbEntity
  8
1
  100
AcDbLine
  10
52.0134
  20
1.119646
  30
0
  11
52.0365
  21
1.083309
  31
0
  0
LINE
  5
e1
  100
AcDbEntity
  8
1
  100
AcDbLine
  10
52.0365
  20
1.083309
  30
0
  11
52.0596
  21
1.044522
  31
0
  0
LINE
  5
e2
  100
AcDbEntity
  8
1
  100
AcDbLine
  10
52.0596
  20
1.044522
  30
0
  11
52.0827
  21
1.002861
  31
0
  0
LINE
  5
e3
  100
AcDbEntity
  8
1
  100
AcDbLine
  10
52.0827
  20
1.002861
  30
0
  11
52.1058
  21
0.957772
  31
0
  0
LINE
  5
e4
  100
AcDbEntity
  8
1
  100
AcDbLine
  10
52.1058
  20
0.957772
  30
0
  11
52.1289
  21
0.908509
  31
0
  0
LINE
  5
e5
  100
AcDbEntity
  8
1
  100
AcDbLine
  10
52.1289
  20
0.908509
  30
0
  11
52.152
  21
0.854041
  31
0
  0
LINE
  5
e6
  100
AcDbEntity
  8
1
  100
AcDbLine
  10
52.152
  20
0.854041
  30
0
  11
52.1751
  21
0.792878
  31
0
  0
LINE
  5
e7
  100
AcDbEntity
  8
1
  100
AcDbLine
  10
52.1751
  20
0.792878
  30
0
  11
52.1982
  21
0.721286
  31
0
  0
LINE
  5
e8
  100
AcDbEntity
  8
1
  100
AcDbLine
  10
52.1982
  20
0.721286
  30
0
  11
52.2213
  21
0.635341
  31
0
  0
LINE
  5
e9
  100
AcDbEntity
  8
1
  100
AcDbLine
  10
52.2213
  20
0.635341
  30
0
  11
52.2444
  21
0.519951
  31
0
  0
LINE
  5
ea
  100
AcDbEntity
  8
1
  100
AcDbLine
  10
52.2444
  20
0.519951
  30
0
  11
52.2675
  21
0.255811
  31
0
  0
LINE
  5
eb
  100
AcDbEntity
  8
1
  100
AcDbLine
  10
52.2675
  20
0.255811
  30
0
  11
52.2675
  21
0.183092
  31
0
  0
LINE
  5
ec
  100
AcDbEntity
  8
1
  100
AcDbLine
  10
52.2675
  20
-0.74137
  30
0
  11
52.2675
  21
-0.811966
  31
0
  0
LINE
  5
ed
  100
AcDbEntity
  8
1
  100
AcDbLine
  10
52.2675
  20
-0.811966
  30
0
  11
52.2675
  21
-0.74137
  31
0
  0
LINE
  5
ee
  100
AcDbEntity
  8
1
  100
AcDbLine
  10
52.2675
  20
-0.74137
  30
0
  11
52.2444
  21
-0.479921
  31
0
  0
LINE
  5
ef
  100
AcDbEntity
  8
1
  100
AcDbLine
  10
52.2444
  20
-0.479921
  30
0
  11
52.2213
  21
-0.363068
  31
0
  0
LINE
  5
f0
  100
AcDbEntity
  8
1
  100
AcDbLine
  10
52.2213
  20
-0.363068
  30
0
  11
52.1982
  21
-0.274993
  31
0
  0
LINE
  5
f1
  100
AcDbEntity
  8
1
  100
AcDbLine
  10
52.1982
  20
-0.274993
  30
0
  11
52.1751
  21
-0.200978
  31
0
  0
LINE
  5
f2
  100
AcDbEntity
  8
1
  100
AcDbLine
  10
52.1751
  20
-0.200978
  30
0
  11
52.152
  21
-0.137309
  31
0
  0
LINE
  5
f3
  100
AcDbEntity
  8
1
  100
AcDbLine
  10
52.152
  20
-0.137309
  30
0
  11
52.1289
  21
-0.080299
  31
0
  0
LINE
  5
f4
  100
AcDbEntity
  8
1
  100
AcDbLine
  10
52.1289
  20
-0.080299
  30
0
  11
52.1058
  21
-0.028507
  31
0
  0
LINE
  5
f5
  100
AcDbEntity
  8
1
  100
AcDbLine
  10
52.1058
  20
-0.028507
  30
0
  11
52.0827
  21
0.019067
  31
0
  0
LINE
  5
f6
  100
AcDbEntity
  8
1
  100
AcDbLine
  10
52.0827
  20
0.019067
  30
0
  11
52.0596
  21
0.063151
  31
0
  0
LINE
  5
f7
  100
AcDbEntity
  8
1
  100
AcDbLine
  10
52.0596
  20
0.063151
  30
0
  11
52.0365
  21
0.104289
  31
0
  0
LINE
  5
f8
  100
AcDbEntity
  8
1
  100
AcDbLine
  10
52.0365
  20
0.104289
  30
0
  11
52.0134
  21
0.1429
  31
0
  0
LINE
  5
f9
  100
AcDbEntity
  8
1
  100
AcDbLine
  10
52.0134
  20
0.1429
  30
0
  11
51.9903
  21
0.179217
  31
0
  0
LINE
  5
fa
  100
AcDbEntity
  8
1
  100
AcDbLine
  10
51.9903
  20
0.179217
  30
0
  11
51.9672
  21
0.213231
  31
0
  0
LINE
  5
fb
  100
AcDbEntity
  8
1
  100
AcDbLine
  10
51.9672
  20
0.213231
  30
0
  11
51.9441
  21
0.245499
  31
0
  0
LINE
  5
fc
  100
AcDbEntity
  8
1
  100
AcDbLine
  10
51.9441
  20
0.245499
  30
0
  11
51.921
  21
0.276201
  31
0
  0
LINE
  5
fd
  100
AcDbEntity
  8
1
  100
AcDbLine
  10
51.921
  20
0.276201
  30
0
  11
51.8979
  21
0.305488
  31
0
  0
LINE
  5
fe
  100
AcDbEntity
  8
1
  100
AcDbLine
  10
51.8979
  20
0.305488
  30
0
  11
51.8748
  21
0.333125
  31
0
  0
LINE
  5
ff
  100
AcDbEntity
  8
1
  100
AcDbLine
  10
51.8748
  20
0.333125
  30
0
  11
51.8517
  21
0.359344
  31
0
  0
LINE
  5
100
  100
AcDbEntity
  8
1
  100
AcDbLine
  10
51.8517
  20
0.359344
  30
0
  11
51.8286
  21
0.384467
  31
0
  0
LINE
  5
101
  100
AcDbEntity
  8
1
  100
AcDbLine
  10
51.8286
  20
0.384467
  30
0
  11
51.8055
  21
0.408572
  31
0
  0
LINE
  5
102
  100
AcDbEntity
  8
1
  100
AcDbLine
  10
51.8055
  20
0.408572
  30
0
  11
51.7824
  21
0.431085
  31
0
  0
LINE
  5
103
  100
AcDbEntity
  8
1
  100
AcDbLine
  10
51.7824
  20
0.431085
  30
0
  11
51.7593
  21
0.452707
  31
0
  0
LINE
  5
104
  100
AcDbEntity
  8
1
  100
AcDbLine
  10
51.7593
  20
0.452707
  30
0
  11
51.7362
  21
0.473491
  31
0
  0
LINE
  5
105
  100
AcDbEntity
  8
1
  100
AcDbLine
  10
51.7362
  20
0.473491
  30
0
  11
51.7131
  21
0.492965
  31
0
  0
LINE
  5
106
  100
AcDbEntity
  8
1
  100
AcDbLine
  10
51.7131
  20
0.492965
  30
0
  11
51.69
  21
0.511529
  31
0
  0
LINE
  5
107
  100
AcDbEntity
  8
1
  100
AcDbLine
  10
51.69
  20
0.511529
  30
0
  11
51.6669
  21
0.529374
  31
0
  0
LINE
  5
108
  100
AcDbEntity
  8
1
  100
AcDbLine
  10
51.6669
  20
0.529374
  30
0
  11
51.6438
  21
0.546023
  31
0
  0
LINE
  5
109
  100
AcDbEntity
  8
1
  100
AcDbLine
  10
51.6438
  20
0.546023
  30
0
  11
51.6207
  21
0.561828
  31
0
  0
LINE
  5
10a
  100
AcDbEntity
  8
1
  100
AcDbLine
  10
51.6207
  20
0.561828
  30
0
  11
51.5976
  21
0.576994
  31
0
  0
LINE
  5
10b
  100
AcDbEntity
  8
1
  100
AcDbLine
  10
51.5976
  20
0.576994
  30
0
  11
51.5745
  21
0.590962
  31
0
  0
LINE
  5
10c
  100
AcDbEntity
  8
1
  100
AcDbLine
  10
51.5745
  20
0.590962
  30
0
  11
51.5514
  21
0.604209
  31
0
  0
LINE
  5
10d
  100
AcDbEntity
  8
1
  100
AcDbLine
  10
51.5514
  20
0.604209
  30
0
  11
51.5283
  21
0.61687
  31
0
  0
LINE
  5
10e
  100
AcDbEntity
  8
1
  100
AcDbLine
  10
51.5283
  20
0.61687
  30
0
  11
51.5052
  21
0.628253
  31
0
  0
LINE
  5
10f
  100
AcDbEntity
  8
1
  100
AcDbLine
  10
51.5052
  20
0.628253
  30
0
  11
51.4821
  21
0.639073
  31
0
  0
LINE
  5
110
  100
AcDbEntity
  8
1
  100
AcDbLine
  10
51.4821
  20
0.639073
  30
0
  11
51.459
  21
0.649187
  31
0
  0
LINE
  5
111
  100
AcDbEntity
  8
1
  100
AcDbLine
  10
51.459
  20
0.649187
  30
0
  11
51.4359
  21
0.658197
  31
0
  0
LINE
  5
112
  100
AcDbEntity
  8
1
  100
AcDbLine
  10
51.4359
  20
0.658197
  30
0
  11
51.4128
  21
0.666668
  31
0
  0
LINE
  5
113
  100
AcDbEntity
  8
1
  100
AcDbLine
  10
51.4128
  20
0.666668
  30
0
  11
51.3897
  21
0.674274
  31
0
  0
LINE
  5
114
  100
AcDbEntity
  8
1
  100
AcDbLine
  10
51.3897
  20
0.674274
  30
0
  11
51.3666
  21
0.680962
  31
0
  0
LINE
  5
115
  100
AcDbEntity
  8
1
  100
AcDbLine
  10
51.3666
  20
0.680962
  30
0
  11
51.3435
  21
0.687121
  31
0
  0
LINE
  5
116
  100
AcDbEntity
  8
1
  100
AcDbLine
  10
51.3435
  20
0.687121
  30
0
  11
51.3204
  21
0.692233
  31
0
  0
LINE
  5
117
  100
AcDbEntity
  8
1
  100
AcDbLine
  10
51.3204
  20
0.692233
  30
0
  11
51.2973
  21
0.696613
  31
0
  0
LINE
  5
118
  100
AcDbEntity
  8
1
  100
AcDbLine
  10
51.2973
  20
0.696613
  30
0
  11
51.2742
  21
0.700459
  31
0
  0
LINE
  5
119
  100
AcDbEntity
  8
1
  100
AcDbLine
  10
51.2742
  20
0.700459
  30
0
  11
51.2511
  21
0.703071
  31
0
  0
LINE
  5
11a
  100
AcDbEntity
  8
1
  100
AcDbLine
  10
51.2511
  20
0.703071
  30
0
  11
51.228
  21
0.705122
  31
0
  0
LINE
  5
11b
  100
AcDbEntity
  8
1
  100
AcDbLine
  10
51.228
  20
0.705122
  30
0
  11
51.2049
  21
0.706474
  31
0
  0
LINE
  5
11c
  100
AcDbEntity
  8
1
  100
AcDbLine
  10
51.2049
  20
0.706474
  30
0
  11
51.1818
  21
0.70671
  31
0
  0
LINE
  5
11d
  100
AcDbEntity
  8
1
  100
AcDbLine
  10
51.1818
  20
0.70671
  30
0
  11
51.1587
  21
0.706382
  31
0
  0
LINE
  5
11e
  100
AcDbEntity
  8
1
  100
AcDbLine
  10
51.1587
  20
0.706382
  30
0
  11
51.1356
  21
0.705188
  31
0
  0
LINE
  5
11f
  100
AcDbEntity
  8
1
  100
AcDbLine
  10
51.1356
  20
0.705188
  30
0
  11
51.1125
  21
0.702997
  31
0
  0
LINE
  5
120
  100
AcDbEntity
  8
1
  100
AcDbLine
  10
51.1125
  20
0.702997
  30
0
  11
51.0894
  21
0.700212
  31
0
  0
LINE
  5
121
  100
AcDbEntity
  8
1
  100
AcDbLine
  10
51.0894
  20
0.700212
  30
0
  11
51.0663
  21
0.69642
  31
0
  0
LINE
  5
122
  100
AcDbEntity
  8
1
  100
AcDbLine
  10
51.0663
  20
0.69642
  30
0
  11
51.0432
  21
0.691705
  31
0
  0
LINE
  5
123
  100
AcDbEntity
  8
1
  100
AcDbLine
  10
51.0432
  20
0.691705
  30
0
  11
51.0201
  21
0.686474
  31
0
  0
LINE
  5
124
  100
AcDbEntity
  8
1
  100
AcDbLine
  10
51.0201
  20
0.686474
  30
0
  11
50.997
  21
0.680693
  31
0
  0
LINE
  5
125
  100
AcDbEntity
  8
1
  100
AcDbLine
  10
50.997
  20
0.680693
  30
0
  11
50.9739
  21
0.674916
  31
0
  0
LINE
  5
126
  100
AcDbEntity
  8
1
  100
AcDbLine
  10
50.9739
  20
0.674916
  30
0
  11
50.9508
  21
0.669142
  31
0
  0
LINE
  5
127
  100
AcDbEntity
  8
1
  100
AcDbLine
  10
50.9508
  20
0.669142
  30
0
  11
50.9277
  21
0.663371
  31
0
  0
LINE
  5
128
  100
AcDbEntity
  8
1
  100
AcDbLine
  10
50.9277
  20
0.663371
  30
0
  11
50.9046
  21
0.657604
  31
0
  0
LINE
  5
129
  100
AcDbEntity
  8
1
  100
AcDbLine
  10
50.9046
  20
0.657604
  30
0
  11
50.8815
  21
0.651839
  31
0
  0
LINE
  5
12a
  100
AcDbEntity
  8
1
  100
AcDbLine
  10
50.8815
  20
0.651839
  30
0
  11
50.8584
  21
0.646078
  31
0
  0
LINE
  5
12b
  100
AcDbEntity
  8
1
  100
AcDbLine
  10
50.8584
  20
0.646078
  30
0
  11
50.8353
  21
0.640319
  31
0
  0
LINE
  5
12c
  100
AcDbEntity
  8
1
  100
AcDbLine
  10
50.8353
  20
0.640319
  30
0
  11
50.8122
  21
0.634564
  31
0
  0
LINE
  5
12d
  100
AcDbEntity
  8
1
  100
AcDbLine
  10
50.8122
  20
0.634564
  30
0
  11
50.7891
  21
0.628811
  31
0
  0
LINE
  5
12e
  100
AcDbEntity
  8
1
  100
AcDbLine
  10
50.7891
  20
0.628811
  30
0
  11
50.766
  21
0.623061
  31
0
  0
LINE
  5
12f
  100
AcDbEntity
  8
1
  100
AcDbLine
  10
50.766
  20
0.623061
  30
0
  11
50.7429
  21
0.617313
  31
0
  0
LINE
  5
130
  100
AcDbEntity
  8
1
  100
AcDbLine
  10
50.7429
  20
0.617313
  30
0
  11
50.7198
  21
0.611569
  31
0
  0
LINE
  5
131
  100
AcDbEntity
  8
1
  100
AcDbLine
  10
50.7198
  20
0.611569
  30
0
  11
50.6967
  21
0.605827
  31
0
  0
LINE
  5
132
  100
AcDbEntity
  8
1
  100
AcDbLine
  10
50.6967
  20
0.605827
  30
0
  11
50.6736
  21
0.600087
  31
0
  0
LINE
  5
133
  100
AcDbEntity
  8
1
  100
AcDbLine
  10
50.6736
  20
0.600087
  30
0
  11
50.6505
  21
0.59435
  31
0
  0
LINE
  5
134
  100
AcDbEntity
  8
1
  100
AcDbLine
  10
50.6505
  20
0.59435
  30
0
  11
50.6274
  21
0.588615
  31
0
  0
LINE
  5
135
  100
AcDbEntity
  8
1
  100
AcDbLine
  10
50.6274
  20
0.588615
  30
0
  11
50.6043
  21
0.582883
  31
0
  0
LINE
  5
136
  100
AcDbEntity
  8
1
  100
AcDbLine
  10
50.6043
  20
0.582883
  30
0
  11
50.5812
  21
0.577153
  31
0
  0
LINE
  5
137
  100
AcDbEntity
  8
1
  100
AcDbLine
  10
50.5812
  20
0.577153
  30
0
  11
50.5581
  21
0.571425
  31
0
  0
LINE
  5
138
  100
AcDbEntity
  8
1
  100
AcDbLine
  10
50.5581
  20
0.571425
  30
0
  11
50.535
  21
0.5657
  31
0
  0
LINE
  5
139
  100
AcDbEntity
  8
1
  100
AcDbLine
  10
50.535
  20
0.5657
  30
0
  11
50.5119
  21
0.559977
  31
0
  0
LINE
  5
13a
  100
AcDbEntity
  8
1
  100
AcDbLine
  10
50.5119
  20
0.559977
  30
0
  11
50.4888
  21
0.554255
  31
0
  0
LINE
  5
13b
  100
AcDbEntity
  8
1
  100
AcDbLine
  10
50.4888
  20
0.554255
  30
0
  11
50.4657
  21
0.548536
  31
0
  0
LINE
  5
13c
  100
AcDbEntity
  8
1
  100
AcDbLine
  10
50.4657
  20
0.548536
  30
0
  11
50.4426
  21
0.542819
  31
0
  0
LINE
  5
13d
  100
AcDbEntity
  8
1
  100
AcDbLine
  10
50.4426
  20
0.542819
  30
0
  11
50.4195
  21
0.537104
  31
0
  0
LINE
  5
13e
  100
AcDbEntity
  8
1
  100
AcDbLine
  10
50.4195
  20
0.537104
  30
0
  11
50.3964
  21
0.531391
  31
0
  0
LINE
  5
13f
  100
AcDbEntity
  8
1
  100
AcDbLine
  10
50.3964
  20
0.531391
  30
0
  11
50.3733
  21
0.52568
  31
0
  0
LINE
  5
140
  100
AcDbEntity
  8
1
  100
AcDbLine
  10
50.3733
  20
0.52568
  30
0
  11
50.3502
  21
0.51997
  31
0
  0
LINE
  5
141
  100
AcDbEntity
  8
1
  100
AcDbLine
  10
50.3502
  20
0.51997
  30
0
  11
50.3271
  21
0.514263
  31
0
  0
LINE
  5
142
  100
AcDbEntity
  8
1
  100
AcDbLine
  10
50.3271
  20
0.514263
  30
0
  11
50.304
  21
0.508557
  31
0
  0
LINE
  5
143
  100
AcDbEntity
  8
1
  100
AcDbLine
  10
50.304
  20
0.508557
  30
0
  11
50.2809
  21
0.502853
  31
0
  0
LINE
  5
144
  100
AcDbEntity
  8
1
  100
AcDbLine
  10
50.2809
  20
0.502853
  30
0
  11
50.2578
  21
0.497151
  31
0
  0
LINE
  5
145
  100
AcDbEntity
  8
1
  100
AcDbLine
  10
50.2578
  20
0.497151
  30
0
  11
50.2347
  21
0.491451
  31
0
  0
LINE
  5
146
  100
AcDbEntity
  8
1
  100
AcDbLine
  10
50.2347
  20
0.491451
  30
0
  11
50.2116
  21
0.485752
  31
0
  0
LINE
  5
147
  100
AcDbEntity
  8
1
  100
AcDbLine
  10
50.2116
  20
0.485752
  30
0
  11
50.1885
  21
0.480055
  31
0
  0
LINE
  5
148
  100
AcDbEntity
  8
1
  100
AcDbLine
  10
50.1885
  20
0.480055
  30
0
  11
50.1654
  21
0.474359
  31
0
  0
LINE
  5
149
  100
AcDbEntity
  8
1
  100
AcDbLine
  10
50.1654
  20
0.474359
  30
0
  11
50.1423
  21
0.468665
  31
0
  0
LINE
  5
14a
  100
AcDbEntity
  8
1
  100
AcDbLine
  10
50.1423
  20
0.468665
  30
0
  11
50.1192
  21
0.462972
  31
0
  0
LINE
  5
14b
  100
AcDbEntity
  8
1
  100
AcDbLine
  10
50.1192
  20
0.462972
  30
0
  11
50.0961
  21
0.457282
  31
0
  0
LINE
  5
14c
  100
AcDbEntity
  8
1
  100
AcDbLine
  10
50.0961
  20
0.457282
  30
0
  11
50.073
  21
0.451592
  31
0
  0
LINE
  5
14d
  100
AcDbEntity
  8
1
  100
AcDbLine
  10
50.073
  20
0.451592
  30
0
  11
50.0499
  21
0.445904
  31
0
  0
LINE
  5
14e
  100
AcDbEntity
  8
1
  100
AcDbLine
  10
50.0499
  20
0.445904
  30
0
  11
50.0268
  21
0.440217
  31
0
  0
LINE
  5
14f
  100
AcDbEntity
  8
1
  100
AcDbLine
  10
50.0268
  20
0.440217
  30
0
  11
50.0037
  21
0.434532
  31
0
  0
LINE
  5
150
  100
AcDbEntity
  8
1
  100
AcDbLine
  10
50.0037
  20
0.434532
  30
0
  11
49.9806
  21
0.428849
  31
0
  0
LINE
  5
151
  100
AcDbEntity
  8
1
  100
AcDbLine
  10
49.9806
  20
0.428849
  30
0
  11
49.9575
  21
0.423166
  31
0
  0
LINE
  5
152
  100
AcDbEntity
  8
1
  100
AcDbLine
  10
49.9575
  20
0.423166
  30
0
  11
49.9344
  21
0.417485
  31
0
  0
LINE
  5
153
  100
AcDbEntity
  8
1
  100
AcDbLine
  10
49.9344
  20
0.417485
  30
0
  11
49.9113
  21
0.411805
  31
0
  0
LINE
  5
154
  100
AcDbEntity
  8
1
  100
AcDbLine
  10
49.9113
  20
0.411805
  30
0
  11
49.8882
  21
0.406127
  31
0
  0
LINE
  5
155
  100
AcDbEntity
  8
1
  100
AcDbLine
  10
49.8882
  20
0.406127
  30
0
  11
49.8651
  21
0.40045
  31
0
  0
LINE
  5
156
  100
AcDbEntity
  8
1
  100
AcDbLine
  10
49.8651
  20
0.40045
  30
0
  11
49.842
  21
0.394774
  31
0
  0
LINE
  5
157
  100
AcDbEntity
  8
1
  100
AcDbLine
  10
49.842
  20
0.394774
  30
0
  11
49.8189
  21
0.389099
  31
0
  0
LINE
  5
158
  100
AcDbEntity
  8
1
  100
AcDbLine
  10
49.8189
  20
0.389099
  30
0
  11
49.7958
  21
0.383425
  31
0
  0
LINE
  5
159
  100
AcDbEntity
  8
1
  100
AcDbLine
  10
49.7958
  20
0.383425
  30
0
  11
49.7727
  21
0.377753
  31
0
  0
LINE
  5
15a
  100
AcDbEntity
  8
1
  100
AcDbLine
  10
49.7727
  20
0.377753
  30
0
  11
49.7496
  21
0.372082
  31
0
  0
LINE
  5
15b
  100
AcDbEntity
  8
1
  100
AcDbLine
  10
49.7496
  20
0.372082
  30
0
  11
49.7265
  21
0.366412
  31
0
  0
LINE
  5
15c
  100
AcDbEntity
  8
1
  100
AcDbLine
  10
49.7265
  20
0.366412
  30
0
  11
49.7034
  21
0.360743
  31
0
  0
LINE
  5
15d
  100
AcDbEntity
  8
1
  100
AcDbLine
  10
49.7034
  20
0.360743
  30
0
  11
49.6803
  21
0.355075
  31
0
  0
LINE
  5
15e
  100
AcDbEntity
  8
1
  100
AcDbLine
  10
49.6803
  20
0.355075
  30
0
  11
49.6572
  21
0.349408
  31
0
  0
LINE
  5
15f
  100
AcDbEntity
  8
1
  100
AcDbLine
  10
49.6572
  20
0.349408
  30
0
  11
49.6341
  21
0.343743
  31
0
  0
LINE
  5
160
  100
AcDbEntity
  8
1
  100
AcDbLine
  10
49.6341
  20
0.343743
  30
0
  11
49.611
  21
0.338078
  31
0
  0
LINE
  5
161
  100
AcDbEntity
  8
1
  100
AcDbLine
  10
49.611
  20
0.338078
  30
0
  11
49.5879
  21
0.332414
  31
0
  0
LINE
  5
162
  100
AcDbEntity
  8
1
  100
AcDbLine
  10
49.5879
  20
0.332414
  30
0
  11
49.5648
  21
0.326752
  31
0
  0
LINE
  5
163
  100
AcDbEntity
  8
1
  100
AcDbLine
  10
49.5648
  20
0.326752
  30
0
  11
49.5417
  21
0.32109
  31
0
  0
LINE
  5
164
  100
AcDbEntity
  8
1
  100
AcDbLine
  10
49.5417
  20
0.32109
  30
0
  11
49.5186
  21
0.31543
  31
0
  0
LINE
  5
165
  100
AcDbEntity
  8
1
  100
AcDbLine
  10
49.5186
  20
0.31543
  30
0
  11
49.4955
  21
0.30977
  31
0
  0
LINE
  5
166
  100
AcDbEntity
  8
1
  100
AcDbLine
  10
49.4955
  20
0.30977
  30
0
  11
49.4724
  21
0.304111
  31
0
  0
LINE
  5
167
  100
AcDbEntity
  8
1
  100
AcDbLine
  10
49.4724
  20
0.304111
  30
0
  11
49.4493
  21
0.298454
  31
0
  0
LINE
  5
168
  100
AcDbEntity
  8
1
  100
AcDbLine
  10
49.4493
  20
0.298454
  30
0
  11
49.4262
  21
0.292797
  31
0
  0
LINE
  5
169
  100
AcDbEntity
  8
1
  100
AcDbLine
  10
49.4262
  20
0.292797
  30
0
  11
49.4031
  21
0.287141
  31
0
  0
LINE
  5
16a
  100
AcDbEntity
  8
1
  100
AcDbLine
  10
49.4031
  20
0.287141
  30
0
  11
49.38
  21
0.281486
  31
0
  0
LINE
  5
16b
  100
AcDbEntity
  8
1
  100
AcDbLine
  10
49.38
  20
0.281486
  30
0
  11
49.3569
  21
0.275832
  31
0
  0
LINE
  5
16c
  100
AcDbEntity
  8
1
  100
AcDbLine
  10
49.3569
  20
0.275832
  30
0
  11
49.3338
  21
0.270179
  31
0
  0
LINE
  5
16d
  100
AcDbEntity
  8
1
  100
AcDbLine
  10
49.3338
  20
0.270179
  30
0
  11
49.3107
  21
0.264526
  31
0
  0
LINE
  5
16e
  100
AcDbEntity
  8
1
  100
AcDbLine
  10
49.3107
  20
0.264526
  30
0
  11
49.2876
  21
0.258875
  31
0
  0
LINE
  5
16f
  100
AcDbEntity
  8
1
  100
AcDbLine
  10
49.2876
  20
0.258875
  30
0
  11
49.2645
  21
0.253224
  31
0
  0
LINE
  5
170
  100
AcDbEntity
  8
1
  100
AcDbLine
  10
49.2645
  20
0.253224
  30
0
  11
49.2414
  21
0.247574
  31
0
  0
LINE
  5
171
  100
AcDbEntity
  8
1
  100
AcDbLine
  10
49.2414
  20
0.247574
  30
0
  11
49.2183
  21
0.241925
  31
0
  0
LINE
  5
172
  100
AcDbEntity
  8
1
  100
AcDbLine
  10
49.2183
  20
0.241925
  30
0
  11
49.1952
  21
0.236277
  31
0
  0
LINE
  5
173
  100
AcDbEntity
  8
1
  100
AcDbLine
  10
49.1952
  20
0.236277
  30
0
  11
49.1721
  21
0.230629
  31
0
  0
LINE
  5
174
  100
AcDbEntity
  8
1
  100
AcDbLine
  10
49.1721
  20
0.230629
  30
0
  11
49.149
  21
0.224983
  31
0
  0
LINE
  5
175
  100
AcDbEntity
  8
1
  100
AcDbLine
  10
49.149
  20
0.224983
  30
0
  11
49.1259
  21
0.219337
  31
0
  0
LINE
  5
176
  100
AcDbEntity
  8
1
  100
AcDbLine
  10
49.1259
  20
0.219337
  30
0
  11
49.1028
  21
0.213691
  31
0
  0
LINE
  5
177
  100
AcDbEntity
  8
1
  100
AcDbLine
  10
49.1028
  20
0.213691
  30
0
  11
49.0797
  21
0.208047
  31
0
  0
LINE
  5
178
  100
AcDbEntity
  8
1
  100
AcDbLine
  10
49.0797
  20
0.208047
  30
0
  11
49.0566
  21
0.202403
  31
0
  0
LINE
  5
179
  100
AcDbEntity
  8
1
  100
AcDbLine
  10
49.0566
  20
0.202403
  30
0
  11
49.0335
  21
0.19676
  31
0
  0
LINE
  5
17a
  100
AcDbEntity
  8
1
  100
AcDbLine
  10
49.0335
  20
0.19676
  30
0
  11
49.0104
  21
0.191118
  31
0
  0
LINE
  5
17b
  100
AcDbEntity
  8
1
  100
AcDbLine
  10
49.0104
  20
0.191118
  30
0
  11
48.9873
  21
0.185476
  31
0
  0
LINE
  5
17c
  100
AcDbEntity
  8
1
  100
AcDbLine
  10
48.9873
  20
0.185476
  30
0
  11
48.9642
  21
0.179835
  31
0
  0
LINE
  5
17d
  100
AcDbEntity
  8
1
  100
AcDbLine
  10
48.9642
  20
0.179835
  30
0
  11
48.9411
  21
0.174195
  31
0
  0
LINE
  5
17e
  100
AcDbEntity
  8
1
  100
AcDbLine
  10
48.9411
  20
0.174195
  30
0
  11
48.918
  21
0.168555
  31
0
  0
LINE
  5
17f
  100
AcDbEntity
  8
1
  100
AcDbLine
  10
48.918
  20
0.168555
  30
0
  11
48.8949
  21
0.162916
  31
0
  0
LINE
  5
180
  100
AcDbEntity
  8
1
  100
AcDbLine
  10
48.8949
  20
0.162916
  30
0
  11
48.8718
  21
0.157278
  31
0
  0
LINE
  5
181
  100
AcDbEntity
  8
1
  100
AcDbLine
  10
48.8718
  20
0.157278
  30
0
  11
48.8487
  21
0.15164
  31
0
  0
LINE
  5
182
  100
AcDbEntity
  8
1
  100
AcDbLine
  10
48.8487
  20
0.15164
  30
0
  11
48.8256
  21
0.146003
  31
0
  0
LINE
  5
183
  100
AcDbEntity
  8
1
  100
AcDbLine
  10
48.8256
  20
0.146003
  30
0
  11
48.8025
  21
0.140367
  31
0
  0
LINE
  5
184
  100
AcDbEntity
  8
1
  100
AcDbLine
  10
48.8025
  20
0.140367
  30
0
  11
48.7794
  21
0.134731
  31
0
  0
LINE
  5
185
  100
AcDbEntity
  8
1
  100
AcDbLine
  10
48.7794
  20
0.134731
  30
0
  11
48.7563
  21
0.129096
  31
0
  0
LINE
  5
186
  100
AcDbEntity
  8
1
  100
AcDbLine
  10
48.7563
  20
0.129096
  30
0
  11
48.7332
  21
0.123461
  31
0
  0
LINE
  5
187
  100
AcDbEntity
  8
1
  100
AcDbLine
  10
48.7332
  20
0.123461
  30
0
  11
48.7101
  21
0.117827
  31
0
  0
LINE
  5
188
  100
AcDbEntity
  8
1
  100
AcDbLine
  10
48.7101
  20
0.117827
  30
0
  11
48.687
  21
0.112193
  31
0
  0
LINE
  5
189
  100
AcDbEntity
  8
1
  100
AcDbLine
  10
48.687
  20
0.112193
  30
0
  11
48.6639
  21
0.106561
  31
0
  0
LINE
  5
18a
  100
AcDbEntity
  8
1
  100
AcDbLine
  10
48.6639
  20
0.106561
  30
0
  11
48.6408
  21
0.100928
  31
0
  0
LINE
  5
18b
  100
AcDbEntity
  8
1
  100
AcDbLine
  10
48.6408
  20
0.100928
  30
0
  11
48.6177
  21
0.095297
  31
0
  0
LINE
  5
18c
  100
AcDbEntity
  8
1
  100
AcDbLine
  10
48.6177
  20
0.095297
  30
0
  11
48.5946
  21
0.089665
  31
0
  0
LINE
  5
18d
  100
AcDbEntity
  8
1
  100
AcDbLine
  10
48.5946
  20
0.089665
  30
0
  11
48.5715
  21
0.084035
  31
0
  0
LINE
  5
18e
  100
AcDbEntity
  8
1
  100
AcDbLine
  10
48.5715
  20
0.084035
  30
0
  11
48.5484
  21
0.078405
  31
0
  0
LINE
  5
18f
  100
AcDbEntity
  8
1
  100
AcDbLine
  10
48.5484
  20
0.078405
  30
0
  11
48.5253
  21
0.072775
  31
0
  0
LINE
  5
190
  100
AcDbEntity
  8
1
  100
AcDbLine
  10
48.5253
  20
0.072775
  30
0
  11
48.5022
  21
0.067146
  31
0
  0
LINE
  5
191
  100
AcDbEntity
  8
1
  100
AcDbLine
  10
48.5022
  20
0.067146
  30
0
  11
48.4791
  21
0.061517
  31
0
  0
LINE
  5
192
  100
AcDbEntity
  8
1
  100
AcDbLine
  10
48.4791
  20
0.061517
  30
0
  11
48.456
  21
0.055889
  31
0
  0
LINE
  5
193
  100
AcDbEntity
  8
1
  100
AcDbLine
  10
48.456
  20
0.055889
  30
0
  11
48.4329
  21
0.050262
  31
0
  0
LINE
  5
194
  100
AcDbEntity
  8
1
  100
AcDbLine
  10
48.4329
  20
0.050262
  30
0
  11
48.4098
  21
0.044635
  31
0
  0
LINE
  5
195
  100
AcDbEntity
  8
1
  100
AcDbLine
  10
48.4098
  20
0.044635
  30
0
  11
48.3867
  21
0.039008
  31
0
  0
LINE
  5
196
  100
AcDbEntity
  8
1
  100
AcDbLine
  10
48.3867
  20
0.039008
  30
0
  11
48.3636
  21
0.033382
  31
0
  0
LINE
  5
197
  100
AcDbEntity
  8
1
  100
AcDbLine
  10
48.3636
  20
0.033382
  30
0
  11
48.3405
  21
0.027756
  31
0
  0
LINE
  5
198
  100
AcDbEntity
  8
1
  100
AcDbLine
  10
48.3405
  20
0.027756
  30
0
  11
48.3174
  21
0.022131
  31
0
  0
LINE
  5
199
  100
AcDbEntity
  8
1
  100
AcDbLine
  10
48.3174
  20
0.022131
  30
0
  11
48.2943
  21
0.016507
  31
0
  0
LINE
  5
19a
  100
AcDbEntity
  8
1
  100
AcDbLine
  10
48.2943
  20
0.016507
  30
0
  11
48.2712
  21
0.010883
  31
0
  0
LINE
  5
19b
  100
AcDbEntity
  8
1
  100
AcDbLine
  10
48.2712
  20
0.010883
  30
0
  11
48.2481
  21
0.005259
  31
0
  0
LINE
  5
19c
  100
AcDbEntity
  8
1
  100
AcDbLine
  10
48.2481
  20
0.005259
  30
0
  11
48.2019
  21
-0.002417
  31
0
  0
LINE
  5
19d
  100
AcDbEntity
  8
1
  100
AcDbLine
  10
48.2019
  20
-0.002417
  30
0
  11
48.1788
  21
-0.009666
  31
0
  0
LINE
  5
19e
  100
AcDbEntity
  8
1
  100
AcDbLine
  10
48.1788
  20
-0.009666
  30
0
  11
48.1557
  21
-0.021741
  31
0
  0
LINE
  5
19f
  100
AcDbEntity
  8
1
  100
AcDbLine
  10
48.1557
  20
-0.021741
  30
0
  11
48.1326
  21
-0.038628
  31
0
  0
LINE
  5
1a0
  100
AcDbEntity
  8
1
  100
AcDbLine
  10
48.1326
  20
-0.038628
  30
0
  11
48.1095
  21
-0.060311
  31
0
  0
LINE
  5
1a1
  100
AcDbEntity
  8
1
  100
AcDbLine
  10
48.1095
  20
-0.060311
  30
0
  11
48.0864
  21
-0.086768
  31
0
  0
LINE
  5
1a2
  100
AcDbEntity
  8
1
  100
AcDbLine
  10
48.0864
  20
-0.086768
  30
0
  11
48.0633
  21
-0.117974
  31
0
  0
LINE
  5
1a3
  100
AcDbEntity
  8
1
  100
AcDbLine
  10
48.0633
  20
-0.117974
  30
0
  11
48.0402
  21
-0.153895
  31
0
  0
LINE
  5
1a4
  100
AcDbEntity
  8
1
  100
AcDbLine
  10
48.0402
  20
-0.153895
  30
0
  11
48.0171
  21
-0.194497
  31
0
  0
LINE
  5
1a5
  100
AcDbEntity
  8
1
  100
AcDbLine
  10
48.0171
  20
-0.194497
  30
0
  11
47.994
  21
-0.239736
  31
0
  0
LINE
  5
1a6
  100
AcDbEntity
  8
1
  100
AcDbLine
  10
47.994
  20
-0.239736
  30
0
  11
47.9709
  21
-0.289566
  31
0
  0
LINE
  5
1a7
  100
AcDbEntity
  8
1
  100
AcDbLine
  10
47.9709
  20
-0.289566
  30
0
  11
47.9478
  21
-0.343936
  31
0
  0
LINE
  5
1a8
  100
AcDbEntity
  8
1
  100
AcDbLine
  10
47.9478
  20
-0.343936
  30
0
  11
47.9247
  21
-0.402786
  31
0
  0
LINE
  5
1a9
  100
AcDbEntity
  8
1
  100
AcDbLine
  10
47.9247
  20
-0.402786
  30
0
  11
47.9016
  21
-0.466054
  31
0
  0
LINE
  5
1aa
  100
AcDbEntity
  8
1
  100
AcDbLine
  10
47.9016
  20
-0.466054
  30
0
  11
47.8785
  21
-0.533672
  31
0
  0
LINE
  5
1ab
  100
AcDbEntity
  8
1
  100
AcDbLine
  10
47.8785
  20
-0.533672
  30
0
  11
47.8554
  21
-0.605565
  31
0
  0
LINE
  5
1ac
  100
AcDbEntity
  8
1
  100
AcDbLine
  10
47.8554
  20
-0.605565
  30
0
  11
47.8323
  21
-0.681653
  31
0
  0
LINE
  5
1ad
  100
AcDbEntity
  8
1
  100
AcDbLine
  10
47.8323
  20
-0.681653
  30
0
  11
47.8092
  21
-0.761851
  31
0
  0
LINE
  5
1ae
  100
AcDbEntity
  8
1
  100
AcDbLine
  10
47.8092
  20
-0.761851
  30
0
  11
47.7861
  21
-0.846066
  31
0
  0
LINE
  5
1af
  100
AcDbEntity
  8
1
  100
AcDbLine
  10
47.7861
  20
-0.846066
  30
0
  11
47.763
  21
-0.934203
  31
0
  0
LINE
  5
1b0
  100
AcDbEntity
  8
1
  100
AcDbLine
  10
47.763
  20
-0.934203
  30
0
  11
47.7399
  21
-1.026157
  31
0
  0
LINE
  5
1b1
  100
AcDbEntity
  8
1
  100
AcDbLine
  10
47.7399
  20
-1.026157
  30
0
  11
47.7168
  21
-1.121819
  31
0
  0
LINE
  5
1b2
  100
AcDbEntity
  8
1
  100
AcDbLine
  10
47.7168
  20
-1.121819
  30
0
  11
47.6937
  21
-1.221074
  31
0
  0
LINE
  5
1b3
  100
AcDbEntity
  8
1
  100
AcDbLine
  10
47.6937
  20
-1.221074
  30
0
  11
47.6706
  21
-1.323802
  31
0
  0
LINE
  5
1b4
  100
AcDbEntity
  8
1
  100
AcDbLine
  10
47.6706
  20
-1.323802
  30
0
  11
47.6475
  21
-1.429876
  31
0
  0
LINE
  5
1b5
  100
AcDbEntity
  8
1
  100
AcDbLine
  10
47.6475
  20
-1.429876
  30
0
  11
47.6244
  21
-1.539164
  31
0
  0
LINE
  5
1b6
  100
AcDbEntity
  8
1
  100
AcDbLine
  10
47.6244
  20
-1.539164
  30
0
  11
47.6013
  21
-1.651528
  31
0
  0
LINE
  5
1b7
  100
AcDbEntity
  8
1
  100
AcDbLine
  10
47.6013
  20
-1.651528
  30
0
  11
47.5782
  21
-1.766825
  31
0
  0
LINE
  5
1b8
  100
AcDbEntity
  8
1
  100
AcDbLine
  10
47.5782
  20
-1.766825
  30
0
  11
47.5551
  21
-1.884906
  31
0
  0
LINE
  5
1b9
  100
AcDbEntity
  8
1
  100
AcDbLine
  10
47.5551
  20
-1.884906
  30
0
  11
47.532
  21
-2.005618
  31
0
  0
LINE
  5
1ba
  100
AcDbEntity
  8
1
  100
AcDbLine
  10
47.532
  20
-2.005618
  30
0
  11
47.5089
  21
-2.128803
  31
0
  0
LINE
  5
1bb
  100
AcDbEntity
  8
1
  100
AcDbLine
  10
47.5089
  20
-2.128803
  30
0
  11
47.4858
  21
-2.254298
  31
0
  0
LINE
  5
1bc
  100
AcDbEntity
  8
1
  100
AcDbLine
  10
47.4858
  20
-2.254298
  30
0
  11
47.4627
  21
-2.381936
  31
0
  0
LINE
  5
1bd
  100
AcDbEntity
  8
1
  100
AcDbLine
  10
47.4627
  20
-2.381936
  30
0
  11
47.4396
  21
-2.511547
  31
0
  0
LINE
  5
1be
  100
AcDbEntity
  8
1
  100
AcDbLine
  10
47.4396
  20
-2.511547
  30
0
  11
47.4165
  21
-2.642954
  31
0
  0
LINE
  5
1bf
  100
AcDbEntity
  8
1
  100
AcDbLine
  10
47.4165
  20
-2.642954
  30
0
  11
47.3934
  21
-2.775981
  31
0
  0
LINE
  5
1c0
  100
AcDbEntity
  8
1
  100
AcDbLine
  10
47.3934
  20
-2.775981
  30
0
  11
47.3703
  21
-2.910448
  31
0
  0
LINE
  5
1c1
  100
AcDbEntity
  8
1
  100
AcDbLine
  10
47.3703
  20
-2.910448
  30
0
  11
47.3472
  21
-3.046171
  31
0
  0
LINE
  5
1c2
  100
AcDbEntity
  8
1
  100
AcDbLine
  10
47.3472
  20
-3.046171
  30
0
  11
47.3241
  21
-3.182965
  31
0
  0
LINE
  5
1c3
  100
AcDbEntity
  8
1
  100
AcDbLine
  10
47.3241
  20
-3.182965
  30
0
  11
47.301
  21
-3.320644
  31
0
  0
LINE
  5
1c4
  100
AcDbEntity
  8
1
  100
AcDbLine
  10
47.301
  20
-3.320644
  30
0
  11
47.2779
  21
-3.459021
  31
0
  0
LINE
  5
1c5
  100
AcDbEntity
  8
1
  100
AcDbLine
  10
47.2779
  20
-3.459021
  30
0
  11
47.2548
  21
-3.597909
  31
0
  0
LINE
  5
1c6
  100
AcDbEntity
  8
1
  100
AcDbLine
  10
47.2548
  20
-3.597909
  30
0
  11
47.2317
  21
-3.737119
  31
0
  0
LINE
  5
1c7
  100
AcDbEntity
  8
1
  100
AcDbLine
  10
47.2317
  20
-3.737119
  30
0
  11
47.2086
  21
-3.876464
  31
0
  0
LINE
  5
1c8
  100
AcDbEntity
  8
1
  100
AcDbLine
  10
47.2086
  20
-3.876464
  30
0
  11
47.1855
  21
-4.015758
  31
0
  0
LINE
  5
1c9
  100
AcDbEntity
  8
1
  100
AcDbLine
  10
47.1855
  20
-4.015758
  30
0
  11
47.1624
  21
-4.154818
  31
0
  0
LINE
  5
1ca
  100
AcDbEntity
  8
1
  100
AcDbLine
  10
47.1624
  20
-4.154818
  30
0
  11
47.1393
  21
-4.29346
  31
0
  0
LINE
  5
1cb
  100
AcDbEntity
  8
1
  100
AcDbLine
  10
47.1393
  20
-4.29346
  30
0
  11
47.1162
  21
-4.431506
  31
0
  0
LINE
  5
1cc
  100
AcDbEntity
  8
1
  100
AcDbLine
  10
47.1162
  20
-4.431506
  30
0
  11
47.0931
  21
-4.568778
  31
0
  0
LINE
  5
1cd
  100
AcDbEntity
  8
1
  100
AcDbLine
  10
47.0931
  20
-4.568778
  30
0
  11
47.07
  21
-4.705106
  31
0
  0
LINE
  5
1ce
  100
AcDbEntity
  8
1
  100
AcDbLine
  10
47.07
  20
-4.705106
  30
0
  11
47.07
  21
-4.930158
  31
0
  0
LINE
  5
1cf
  100
AcDbEntity
  8
1
  100
AcDbLine
  10
47.07
  20
-4.930158
  30
0
  11
47.0931
  21
-5.131328
  31
0
  0
LINE
  5
1d0
  100
AcDbEntity
  8
1
  100
AcDbLine
  10
47.0931
  20
-5.131328
  30
0
  11
47.1162
  21
-5.329523
  31
0
  0
LINE
  5
1d1
  100
AcDbEntity
  8
1
  100
AcDbLine
  10
47.1162
  20
-5.329523
  30
0
  11
47.1393
  21
-5.524453
  31
0
  0
LINE
  5
1d2
  100
AcDbEntity
  8
1
  100
AcDbLine
  10
47.1393
  20
-5.524453
  30
0
  11
47.1624
  21
-5.715842
  31
0
  0
LINE
  5
1d3
  100
AcDbEntity
  8
1
  100
AcDbLine
  10
47.1624
  20
-5.715842
  30
0
  11
47.1855
  21
-5.903431
  31
0
  0
LINE
  5
1d4
  100
AcDbEntity
  8
1
  100
AcDbLine
  10
47.1855
  20
-5.903431
  30
0
  11
47.2086
  21
-6.086977
  31
0
  0
LINE
  5
1d5
  100
AcDbEntity
  8
1
  100
AcDbLine
  10
47.2086
  20
-6.086977
  30
0
  11
47.2317
  21
-6.266253
  31
0
  0
LINE
  5
1d6
  100
AcDbEntity
  8
1
  100
AcDbLine
  10
47.2317
  20
-6.266253
  30
0
  11
47.2548
  21
-6.441052
  31
0
  0
LINE
  5
1d7
  100
AcDbEntity
  8
1
  100
AcDbLine
  10
47.2548
  20
-6.441052
  30
0
  11
47.2779
  21
-6.611186
  31
0
  0
LINE
  5
1d8
  100
AcDbEntity
  8
1
  100
AcDbLine
  10
47.2779
  20
-6.611186
  30
0
  11
47.301
  21
-6.776486
  31
0
  0
LINE
  5
1d9
  100
AcDbEntity
  8
1
  100
AcDbLine
  10
47.301
  20
-6.776486
  30
0
  11
47.3241
  21
-6.936803
  31
0
  0
LINE
  5
1da
  100
AcDbEntity
  8
1
  100
AcDbLine
  10
47.3241
  20
-6.936803
  30
0
  11
47.3472
  21
-7.092009
  31
0
  0
LINE
  5
1db
  100
AcDbEntity
  8
1
  100
AcDbLine
  10
47.3472
  20
-7.092009
  30
0
  11
47.3703
  21
-7.241995
  31
0
  0
LINE
  5
1dc
  100
AcDbEntity
  8
1
  100
AcDbLine
  10
47.3703
  20
-7.241995
  30
0
  11
47.3934
  21
-7.386673
  31
0
  0
LINE
  5
1dd
  100
AcDbEntity
  8
1
  100
AcDbLine
  10
47.3934
  20
-7.386673
  30
0
  11
47.4165
  21
-7.525975
  31
0
  0
LINE
  5
1de
  100
AcDbEntity
  8
1
  100
AcDbLine
  10
47.4165
  20
-7.525975
  30
0
  11
47.4396
  21
-7.659854
  31
0
  0
LINE
  5
1df
  100
AcDbEntity
  8
1
  100
AcDbLine
  10
47.4396
  20
-7.659854
  30
0
  11
47.4627
  21
-7.788281
  31
0
  0
LINE
  5
1e0
  100
AcDbEntity
  8
1
  100
AcDbLine
  10
47.4627
  20
-7.788281
  30
0
  11
47.4858
  21
-7.911247
  31
0
  0
LINE
  5
1e1
  100
AcDbEntity
  8
1
  100
AcDbLine
  10
47.4858
  20
-7.911247
  30
0
  11
47.5089
  21
-8.02876
  31
0
  0
LINE
  5
1e2
  100
AcDbEntity
  8
1
  100
AcDbLine
  10
47.5089
  20
-8.02876
  30
0
  11
47.532
  21
-8.140846
  31
0
  0
LINE
  5
1e3
  100
AcDbEntity
  8
1
  100
AcDbLine
  10
47.532
  20
-8.140846
  30
0
  11
47.5551
  21
-8.247549
  31
0
  0
LINE
  5
1e4
  100
AcDbEntity
  8
1
  100
AcDbLine
  10
47.5551
  20
-8.247549
  30
0
  11
47.5782
  21
-8.348926
  31
0
  0
LINE
  5
1e5
  100
AcDbEntity
  8
1
  100
AcDbLine
  10
47.5782
  20
-8.348926
  30
0
  11
47.6013
  21
-8.445052
  31
0
  0
LINE
  5
1e6
  100
AcDbEntity
  8
1
  100
AcDbLine
  10
47.6013
  20
-8.445052
  30
0
  11
47.6244
  21
-8.536013
  31
0
  0
LINE
  5
1e7
  100
AcDbEntity
  8
1
  100
AcDbLine
  10
47.6244
  20
-8.536013
  30
0
  11
47.6475
  21
-8.621908
  31
0
  0
LINE
  5
1e8
  100
AcDbEntity
  8
1
  100
AcDbLine
  10
47.6475
  20
-8.621908
  30
0
  11
47.6706
  21
-8.702847
  31
0
  0
LINE
  5
1e9
  100
AcDbEntity
  8
1
  100
AcDbLine
  10
47.6706
  20
-8.702847
  30
0
  11
47.6937
  21
-8.778949
  31
0
  0
LINE
  5
1ea
  100
AcDbEntity
  8
1
  100
AcDbLine
  10
47.6937
  20
-8.778949
  30
0
  11
47.7168
  21
-8.850345
  31
0
  0
LINE
  5
1eb
  100
AcDbEntity
  8
1
  100
AcDbLine
  10
47.7168
  20
-8.850345
  30
0
  11
47.7399
  21
-8.917167
  31
0
  0
LINE
  5
1ec
  100
AcDbEntity
  8
1
  100
AcDbLine
  10
47.7399
  20
-8.917167
  30
0
  11
47.763
  21
-8.979559
  31
0
  0
LINE
  5
1ed
  100
AcDbEntity
  8
1
  100
AcDbLine
  10
47.763
  20
-8.979559
  30
0
  11
47.7861
  21
-9.037666
  31
0
  0
LINE
  5
1ee
  100
AcDbEntity
  8
1
  100
AcDbLine
  10
47.7861
  20
-9.037666
  30
0
  11
47.8092
  21
-9.091635
  31
0
  0
LINE
  5
1ef
  100
AcDbEntity
  8
1
  100
AcDbLine
  10
47.8092
  20
-9.091635
  30
0
  11
47.8323
  21
-9.141618
  31
0
  0
LINE
  5
1f0
  100
AcDbEntity
  8
1
  100
AcDbLine
  10
47.8323
  20
-9.141618
  30
0
  11
47.8554
  21
-9.187764
  31
0
  0
LINE
  5
1f1
  100
AcDbEntity
  8
1
  100
AcDbLine
  10
47.8554
  20
-9.187764
  30
0
  11
47.8785
  21
-9.230225
  31
0
  0
LINE
  5
1f2
  100
AcDbEntity
  8
1
  100
AcDbLine
  10
47.8785
  20
-9.230225
  30
0
  11
47.9016
  21
-9.269146
  31
0
  0
LINE
  5
1f3
  100
AcDbEntity
  8
1
  100
AcDbLine
  10
47.9016
  20
-9.269146
  30
0
  11
47.9247
  21
-9.304673
  31
0
  0
LINE
  5
1f4
  100
AcDbEntity
  8
1
  100
AcDbLine
  10
47.9247
  20
-9.304673
  30
0
  11
47.9478
  21
-9.336945
  31
0
  0
LINE
  5
1f5
  100
AcDbEntity
  8
1
  100
AcDbLine
  10
47.9478
  20
-9.336945
  30
0
  11
47.9709
  21
-9.366095
  31
0
  0
LINE
  5
1f6
  100
AcDbEntity
  8
1
  100
AcDbLine
  10
47.9709
  20
-9.366095
  30
0
  11
47.994
  21
-9.39225
  31
0
  0
LINE
  5
1f7
  100
AcDbEntity
  8
1
  100
AcDbLine
  10
47.994
  20
-9.39225
  30
0
  11
48.0171
  21
-9.415531
  31
0
  0
LINE
  5
1f8
  100
AcDbEntity
  8
1
  100
AcDbLine
  10
48.0171
  20
-9.415531
  30
0
  11
48.0402
  21
-9.436047
  31
0
  0
LINE
  5
1f9
  100
AcDbEntity
  8
1
  100
AcDbLine
  10
48.0402
  20
-9.436047
  30
0
  11
48.0633
  21
-9.453901
  31
0
  0
LINE
  5
1fa
  100
AcDbEntity
  8
1
  100
AcDbLine
  10
48.0633
  20
-9.453901
  30
0
  11
48.0864
  21
-9.469183
  31
0
  0
LINE
  5
1fb
  100
AcDbEntity
  8
1
  100
AcDbLine
  10
48.0864
  20
-9.469183
  30
0
  11
48.1095
  21
-9.481975
  31
0
  0
LINE
  5
1fc
  100
AcDbEntity
  8
1
  100
AcDbLine
  10
48.1095
  20
-9.481975
  30
0
  11
48.1326
  21
-9.492345
  31
0
  0
LINE
  5
1fd
  100
AcDbEntity
  8
1
  100
AcDbLine
  10
48.1326
  20
-9.492345
  30
0
  11
48.1557
  21
-9.50035
  31
0
  0
LINE
  5
1fe
  100
AcDbEntity
  8
1
  100
AcDbLine
  10
48.1557
  20
-9.50035
  30
0
  11
48.1788
  21
-9.506036
  31
0
  0
LINE
  5
1ff
  100
AcDbEntity
  8
1
  100
AcDbLine
  10
48.1788
  20
-9.506036
  30
0
  11
48.2019
  21
-9.509435
  31
0
  0
LINE
  5
200
  100
AcDbEntity
  8
1
  100
AcDbLine
  10
48.2019
  20
-9.509435
  30
0
  11
48.2481
  21
-9.471619
  31
0
  0
LINE
  5
201
  100
AcDbEntity
  8
1
  100
AcDbLine
  10
48.2481
  20
-9.471619
  30
0
  11
48.2712
  21
-9.429959
  31
0
  0
LINE
  5
202
  100
AcDbEntity
  8
1
  100
AcDbLine
  10
48.2712
  20
-9.429959
  30
0
  11
48.2943
  21
-9.388285
  31
0
  0
LINE
  5
203
  100
AcDbEntity
  8
1
  100
AcDbLine
  10
48.2943
  20
-9.388285
  30
0
  11
48.3174
  21
-9.346597
  31
0
  0
LINE
  5
204
  100
AcDbEntity
  8
1
  100
AcDbLine
  10
48.3174
  20
-9.346597
  30
0
  11
48.3405
  21
-9.304893
  31
0
  0
LINE
  5
205
  100
AcDbEntity
  8
1
  100
AcDbLine
  10
48.3405
  20
-9.304893
  30
0
  11
48.3636
  21
-9.263175
  31
0
  0
LINE
  5
206
  100
AcDbEntity
  8
1
  100
AcDbLine
  10
48.3636
  20
-9.263175
  30
0
  11
48.3867
  21
-9.221442
  31
0
  0
LINE
  5
207
  100
AcDbEntity
  8
1
  100
AcDbLine
  10
48.3867
  20
-9.221442
  30
0
  11
48.4098
  21
-9.179693
  31
0
  0
LINE
  5
208
  100
AcDbEntity
  8
1
  100
AcDbLine
  10
48.4098
  20
-9.179693
  30
0
  11
48.4329
  21
-9.137929
  31
0
  0
LINE
  5
209
  100
AcDbEntity
  8
1
  100
AcDbLine
  10
48.4329
  20
-9.137929
  30
0
  11
48.456
  21
-9.096148
  31
0
  0
LINE
  5
20a
  100
AcDbEntity
  8
1
  100
AcDbLine
  10
48.456
  20
-9.096148
  30
0
  11
48.4791
  21
-9.054352
  31
0
  0
LINE
  5
20b
  100
AcDbEntity
  8
1
  100
AcDbLine
  10
48.4791
  20
-9.054352
  30
0
  11
48.5022
  21
-9.01254
  31
0
  0
LINE
  5
20c
  100
AcDbEntity
  8
1
  100
AcDbLine
  10
48.5022
  20
-9.01254
  30
0
  11
48.5253
  21
-8.970711
  31
0
  0
LINE
  5
20d
  100
AcDbEntity
  8
1
  100
AcDbLine
  10
48.5253
  20
-8.970711
  30
0
  11
48.5484
  21
-8.928866
  31
0
  0
LINE
  5
20e
  100
AcDbEntity
  8
1
  100
AcDbLine
  10
48.5484
  20
-8.928866
  30
0
  11
48.5715
  21
-8.887003
  31
0
  0
LINE
  5
20f
  100
AcDbEntity
  8
1
  100
AcDbLine
  10
48.5715
  20
-8.887003
  30
0
  11
48.5946
  21
-8.845123
  31
0
  0
LINE
  5
210
  100
AcDbEntity
  8
1
  100
AcDbLine
  10
48.5946
  20
-8.845123
  30
0
  11
48.6177
  21
-8.803226
  31
0
  0
LINE
  5
211
  100
AcDbEntity
  8
1
  100
AcDbLine
  10
48.6177
  20
-8.803226
  30
0
  11
48.6408
  21
-8.761312
  31
0
  0
LINE
  5
212
  100
AcDbEntity
  8
1
  100
AcDbLine
  10
48.6408
  20
-8.761312
  30
0
  11
48.6639
  21
-8.719379
  31
0
  0
LINE
  5
213
  100
AcDbEntity
  8
1
  100
AcDbLine
  10
48.6639
  20
-8.719379
  30
0
  11
48.687
  21
-8.677429
  31
0
  0
LINE
  5
214
  100
AcDbEntity
  8
1
  100
AcDbLine
  10
48.687
  20
-8.677429
  30
0
  11
48.7101
  21
-8.635459
  31
0
  0
LINE
  5
215
  100
AcDbEntity
  8
1
  100
AcDbLine
  10
48.7101
  20
-8.635459
  30
0
  11
48.7332
  21
-8.593472
  31
0
  0
LINE
  5
216
  100
AcDbEntity
  8
1
  100
AcDbLine
  10
48.7332
  20
-8.593472
  30
0
  11
48.7563
  21
-8.551465
  31
0
  0
LINE
  5
217
  100
AcDbEntity
  8
1
  100
AcDbLine
  10
48.7563
  20
-8.551465
  30
0
  11
48.7794
  21
-8.509439
  31
0
  0
LINE
  5
218
  100
AcDbEntity
  8
1
  100
AcDbLine
  10
48.7794
  20
-8.509439
  30
0
  11
48.8025
  21
-8.467393
  31
0
  0
LINE
  5
219
  100
AcDbEntity
  8
1
  100
AcDbLine
  10
48.8025
  20
-8.467393
  30
0
  11
48.8256
  21
-8.425328
  31
0
  0
LINE
  5
21a
  100
AcDbEntity
  8
1
  100
AcDbLine
  10
48.8256
  20
-8.425328
  30
0
  11
48.8487
  21
-8.383243
  31
0
  0
LINE
  5
21b
  100
AcDbEntity
  8
1
  100
AcDbLine
  10
48.8487
  20
-8.383243
  30
0
  11
48.8718
  21
-8.341137
  31
0
  0
LINE
  5
21c
  100
AcDbEntity
  8
1
  100
AcDbLine
  10
48.8718
  20
-8.341137
  30
0
  11
48.8949
  21
-8.29901
  31
0
  0
LINE
  5
21d
  100
AcDbEntity
  8
1
  100
AcDbLine
  10
48.8949
  20
-8.29901
  30
0
  11
48.918
  21
-8.256863
  31
0
  0
LINE
  5
21e
  100
AcDbEntity
  8
1
  100
AcDbLine
  10
48.918
  20
-8.256863
  30
0
  11
48.9411
  21
-8.214694
  31
0
  0
LINE
  5
21f
  100
AcDbEntity
  8
1
  100
AcDbLine
  10
48.9411
  20
-8.214694
  30
0
  11
48.9642
  21
-8.172504
  31
0
  0
LINE
  5
220
  100
AcDbEntity
  8
1
  100
AcDbLine
  10
48.9642
  20
-8.172504
  30
0
  11
48.9873
  21
-8.130291
  31
0
  0
LINE
  5
221
  100
AcDbEntity
  8
1
  100
AcDbLine
  10
48.9873
  20
-8.130291
  30
0
  11
49.0104
  21
-8.088056
  31
0
  0
LINE
  5
222
  100
AcDbEntity
  8
1
  100
AcDbLine
  10
49.0104
  20
-8.088056
  30
0
  11
49.0335
  21
-8.045799
  31
0
  0
LINE
  5
223
  100
AcDbEntity
  8
1
  100
AcDbLine
  10
49.0335
  20
-8.045799
  30
0
  11
49.0566
  21
-8.003518
  31
0
  0
LINE
  5
224
  100
AcDbEntity
  8
1
  100
AcDbLine
  10
49.0566
  20
-8.003518
  30
0
  11
49.0797
  21
-7.961214
  31
0
  0
LINE
  5
225
  100
AcDbEntity
  8
1
  100
AcDbLine
  10
49.0797
  20
-7.961214
  30
0
  11
49.1028
  21
-7.918886
  31
0
  0
LINE
  5
226
  100
AcDbEntity
  8
1
  100
AcDbLine
  10
49.1028
  20
-7.918886
  30
0
  11
49.1259
  21
-7.876534
  31
0
  0
LINE
  5
227
  100
AcDbEntity
  8
1
  100
AcDbLine
  10
49.1259
  20
-7.876534
  30
0
  11
49.149
  21
-7.834158
  31
0
  0
LINE
  5
228
  100
AcDbEntity
  8
1
  100
AcDbLine
  10
49.149
  20
-7.834158
  30
0
  11
49.1721
  21
-7.791756
  31
0
  0
LINE
  5
229
  100
AcDbEntity
  8
1
  100
AcDbLine
  10
49.1721
  20
-7.791756
  30
0
  11
49.1952
  21
-7.749329
  31
0
  0
LINE
  5
22a
  100
AcDbEntity
  8
1
  100
AcDbLine
  10
49.1952
  20
-7.749329
  30
0
  11
49.2183
  21
-7.706877
  31
0
  0
LINE
  5
22b
  100
AcDbEntity
  8
1
  100
AcDbLine
  10
49.2183
  20
-7.706877
  30
0
  11
49.2414
  21
-7.664398
  31
0
  0
LINE
  5
22c
  100
AcDbEntity
  8
1
  100
AcDbLine
  10
49.2414
  20
-7.664398
  30
0
  11
49.2645
  21
-7.621893
  31
0
  0
LINE
  5
22d
  100
AcDbEntity
  8
1
  100
AcDbLine
  10
49.2645
  20
-7.621893
  30
0
  11
49.2876
  21
-7.57936
  31
0
  0
LINE
  5
22e
  100
AcDbEntity
  8
1
  100
AcDbLine
  10
49.2876
  20
-7.57936
  30
0
  11
49.3107
  21
-7.5368
  31
0
  0
LINE
  5
22f
  100
AcDbEntity
  8
1
  100
AcDbLine
  10
49.3107
  20
-7.5368
  30
0
  11
49.3338
  21
-7.494212
  31
0
  0
LINE
  5
230
  100
AcDbEntity
  8
1
  100
AcDbLine
  10
49.3338
  20
-7.494212
  30
0
  11
49.3569
  21
-7.451596
  31
0
  0
LINE
  5
231
  100
AcDbEntity
  8
1
  100
AcDbLine
  10
49.3569
  20
-7.451596
  30
0
  11
49.38
  21
-7.408951
  31
0
  0
LINE
  5
232
  100
AcDbEntity
  8
1
  100
AcDbLine
  10
49.38
  20
-7.408951
  30
0
  11
49.4031
  21
-7.366276
  31
0
  0
LINE
  5
233
  100
AcDbEntity
  8
1
  100
AcDbLine
  10
49.4031
  20
-7.366276
  30
0
  11
49.4262
  21
-7.323571
  31
0
  0
LINE
  5
234
  100
AcDbEntity
  8
1
  100
AcDbLine
  10
49.4262
  20
-7.323571
  30
0
  11
49.4493
  21
-7.280836
  31
0
  0
LINE
  5
235
  100
AcDbEntity
  8
1
  100
AcDbLine
  10
49.4493
  20
-7.280836
  30
0
  11
49.4724
  21
-7.23807
  31
0
  0
LINE
  5
236
  100
AcDbEntity
  8
1
  100
AcDbLine
  10
49.4724
  20
-7.23807
  30
0
  11
49.4955
  21
-7.195272
  31
0
  0
LINE
  5
237
  100
AcDbEntity
  8
1
  100
AcDbLine
  10
49.4955
  20
-7.195272
  30
0
  11
49.5186
  21
-7.152443
  31
0
  0
LINE
  5
238
  100
AcDbEntity
  8
1
  100
AcDbLine
  10
49.5186
  20
-7.152443
  30
0
  11
49.5417
  21
-7.10958
  31
0
  0
LINE
  5
239
  100
AcDbEntity
  8
1
  100
AcDbLine
  10
49.5417
  20
-7.10958
  30
0
  11
49.5648
  21
-7.066685
  31
0
  0
LINE
  5
23a
  100
AcDbEntity
  8
1
  100
AcDbLine
  10
49.5648
  20
-7.066685
  30
0
  11
49.5879
  21
-7.023755
  31
0
  0
LINE
  5
23b
  100
AcDbEntity
  8
1
  100
AcDbLine
  10
49.5879
  20
-7.023755
  30
0
  11
49.611
  21
-6.980791
  31
0
  0
LINE
  5
23c
  100
AcDbEntity
  8
1
  100
AcDbLine
  10
49.611
  20
-6.980791
  30
0
  11
49.6341
  21
-6.937792
  31
0
  0
LINE
  5
23d
  100
AcDbEntity
  8
1
  100
AcDbLine
  10
49.6341
  20
-6.937792
  30
0
  11
49.6572
  21
-6.894757
  31
0
  0
LINE
  5
23e
  100
AcDbEntity
  8
1
  100
AcDbLine
  10
49.6572
  20
-6.894757
  30
0
  11
49.6803
  21
-6.851686
  31
0
  0
LINE
  5
23f
  100
AcDbEntity
  8
1
  100
AcDbLine
  10
49.6803
  20
-6.851686
  30
0
  11
49.7034
  21
-6.808577
  31
0
  0
LINE
  5
240
  100
AcDbEntity
  8
1
  100
AcDbLine
  10
49.7034
  20
-6.808577
  30
0
  11
49.7265
  21
-6.765431
  31
0
  0
LINE
  5
241
  100
AcDbEntity
  8
1
  100
AcDbLine
  10
49.7265
  20
-6.765431
  30
0
  11
49.7496
  21
-6.722246
  31
0
  0
LINE
  5
242
  100
AcDbEntity
  8
1
  100
AcDbLine
  10
49.7496
  20
-6.722246
  30
0
  11
49.7727
  21
-6.679022
  31
0
  0
LINE
  5
243
  100
AcDbEntity
  8
1
  100
AcDbLine
  10
49.7727
  20
-6.679022
  30
0
  11
49.7958
  21
-6.635758
  31
0
  0
LINE
  5
244
  100
AcDbEntity
  8
1
  100
AcDbLine
  10
49.7958
  20
-6.635758
  30
0
  11
49.8189
  21
-6.592453
  31
0
  0
LINE
  5
245
  100
AcDbEntity
  8
1
  100
AcDbLine
  10
49.8189
  20
-6.592453
  30
0
  11
49.842
  21
-6.549107
  31
0
  0
LINE
  5
246
  100
AcDbEntity
  8
1
  100
AcDbLine
  10
49.842
  20
-6.549107
  30
0
  11
49.8651
  21
-6.505718
  31
0
  0
LINE
  5
247
  100
AcDbEntity
  8
1
  100
AcDbLine
  10
49.8651
  20
-6.505718
  30
0
  11
49.8882
  21
-6.462286
  31
0
  0
LINE
  5
248
  100
AcDbEntity
  8
1
  100
AcDbLine
  10
49.8882
  20
-6.462286
  30
0
  11
49.9113
  21
-6.41881
  31
0
  0
LINE
  5
249
  100
AcDbEntity
  8
1
  100
AcDbLine
  10
49.9113
  20
-6.41881
  30
0
  11
49.9344
  21
-6.375289
  31
0
  0
LINE
  5
24a
  100
AcDbEntity
  8
1
  100
AcDbLine
  10
49.9344
  20
-6.375289
  30
0
  11
49.9575
  21
-6.331721
  31
0
  0
LINE
  5
24b
  100
AcDbEntity
  8
1
  100
AcDbLine
  10
49.9575
  20
-6.331721
  30
0
  11
49.9806
  21
-6.288107
  31
0
  0
LINE
  5
24c
  100
AcDbEntity
  8
1
  100
AcDbLine
  10
49.9806
  20
-6.288107
  30
0
  11
50.0037
  21
-6.244445
  31
0
  0
LINE
  5
24d
  100
AcDbEntity
  8
1
  100
AcDbLine
  10
50.0037
  20
-6.244445
  30
0
  11
50.0268
  21
-6.200735
  31
0
  0
LINE
  5
24e
  100
AcDbEntity
  8
1
  100
AcDbLine
  10
50.0268
  20
-6.200735
  30
0
  11
50.0499
  21
-6.156974
  31
0
  0
LINE
  5
24f
  100
AcDbEntity
  8
1
  100
AcDbLine
  10
50.0499
  20
-6.156974
  30
0
  11
50.073
  21
-6.113163
  31
0
  0
LINE
  5
250
  100
AcDbEntity
  8
1
  100
AcDbLine
  10
50.073
  20
-6.113163
  30
0
  11
50.0961
  21
-6.069299
  31
0
  0
LINE
  5
251
  100
AcDbEntity
  8
1
  100
AcDbLine
  10
50.0961
  20
-6.069299
  30
0
  11
50.1192
  21
-6.025383
  31
0
  0
LINE
  5
252
  100
AcDbEntity
  8
1
  100
AcDbLine
  10
50.1192
  20
-6.025383
  30
0
  11
50.1423
  21
-5.981412
  31
0
  0
LINE
  5
253
  100
AcDbEntity
  8
1
  100
AcDbLine
  10
50.1423
  20
-5.981412
  30
0
  11
50.1654
  21
-5.937385
  31
0
  0
LINE
  5
254
  100
AcDbEntity
  8
1
  100
AcDbLine
  10
50.1654
  20
-5.937385
  30
0
  11
50.1885
  21
-5.893302
  31
0
  0
LINE
  5
255
  100
AcDbEntity
  8
1
  100
AcDbLine
  10
50.1885
  20
-5.893302
  30
0
  11
50.2116
  21
-5.849161
  31
0
  0
LINE
  5
256
  100
AcDbEntity
  8
1
  100
AcDbLine
  10
50.2116
  20
-5.849161
  30
0
  11
50.2347
  21
-5.804961
  31
0
  0
LINE
  5
257
  100
AcDbEntity
  8
1
  100
AcDbLine
  10
50.2347
  20
-5.804961
  30
0
  11
50.2578
  21
-5.7607
  31
0
  0
LINE
  5
258
  100
AcDbEntity
  8
1
  100
AcDbLine
  10
50.2578
  20
-5.7607
  30
0
  11
50.2809
  21
-5.716377
  31
0
  0
LINE
  5
259
  100
AcDbEntity
  8
1
  100
AcDbLine
  10
50.2809
  20
-5.716377
  30
0
  11
50.304
  21
-5.671991
  31
0
  0
LINE
  5
25a
  100
AcDbEntity
  8
1
  100
AcDbLine
  10
50.304
  20
-5.671991
  30
0
  11
50.3271
  21
-5.62754
  31
0
  0
LINE
  5
25b
  100
AcDbEntity
  8
1
  100
AcDbLine
  10
50.3271
  20
-5.62754
  30
0
  11
50.3502
  21
-5.583022
  31
0
  0
LINE
  5
25c
  100
AcDbEntity
  8
1
  100
AcDbLine
  10
50.3502
  20
-5.583022
  30
0
  11
50.3733
  21
-5.538437
  31
0
  0
LINE
  5
25d
  100
AcDbEntity
  8
1
  100
AcDbLine
  10
50.3733
  20
-5.538437
  30
0
  11
50.3964
  21
-5.493782
  31
0
  0
LINE
  5
25e
  100
AcDbEntity
  8
1
  100
AcDbLine
  10
50.3964
  20
-5.493782
  30
0
  11
50.4195
  21
-5.449055
  31
0
  0
LINE
  5
25f
  100
AcDbEntity
  8
1
  100
AcDbLine
  10
50.4195
  20
-5.449055
  30
0
  11
50.4426
  21
-5.404256
  31
0
  0
LINE
  5
260
  100
AcDbEntity
  8
1
  100
AcDbLine
  10
50.4426
  20
-5.404256
  30
0
  11
50.4657
  21
-5.359381
  31
0
  0
LINE
  5
261
  100
AcDbEntity
  8
1
  100
AcDbLine
  10
50.4657
  20
-5.359381
  30
0
  11
50.4888
  21
-5.31443
  31
0
  0
LINE
  5
262
  100
AcDbEntity
  8
1
  100
AcDbLine
  10
50.4888
  20
-5.31443
  30
0
  11
50.5119
  21
-5.2694
  31
0
  0
LINE
  5
263
  100
AcDbEntity
  8
1
  100
AcDbLine
  10
50.5119
  20
-5.2694
  30
0
  11
50.535
  21
-5.22429
  31
0
  0
LINE
  5
264
  100
AcDbEntity
  8
1
  100
AcDbLine
  10
50.535
  20
-5.22429
  30
0
  11
50.5581
  21
-5.179097
  31
0
  0
LINE
  5
265
  100
AcDbEntity
  8
1
  100
AcDbLine
  10
50.5581
  20
-5.179097
  30
0
  11
50.5812
  21
-5.133819
  31
0
  0
LINE
  5
266
  100
AcDbEntity
  8
1
  100
AcDbLine
  10
50.5812
  20
-5.133819
  30
0
  11
50.6043
  21
-5.088454
  31
0
  0
LINE
  5
267
  100
AcDbEntity
  8
1
  100
AcDbLine
  10
50.6043
  20
-5.088454
  30
0
  11
50.6274
  21
-5.042999
  31
0
  0
LINE
  5
268
  100
AcDbEntity
  8
1
  100
AcDbLine
  10
50.6274
  20
-5.042999
  30
0
  11
50.6505
  21
-4.997453
  31
0
  0
LINE
  5
269
  100
AcDbEntity
  8
1
  100
AcDbLine
  10
50.6505
  20
-4.997453
  30
0
  11
50.6736
  21
-4.951812
  31
0
  0
LINE
  5
26a
  100
AcDbEntity
  8
1
  100
AcDbLine
  10
50.6736
  20
-4.951812
  30
0
  11
50.6967
  21
-4.906075
  31
0
  0
LINE
  5
26b
  100
AcDbEntity
  8
1
  100
AcDbLine
  10
50.6967
  20
-4.906075
  30
0
  11
50.7198
  21
-4.860238
  31
0
  0
LINE
  5
26c
  100
AcDbEntity
  8
1
  100
AcDbLine
  10
50.7198
  20
-4.860238
  30
0
  11
50.7429
  21
-4.814299
  31
0
  0
LINE
  5
26d
  100
AcDbEntity
  8
1
  100
AcDbLine
  10
50.7429
  20
-4.814299
  30
0
  11
50.766
  21
-4.768254
  31
0
  0
LINE
  5
26e
  100
AcDbEntity
  8
1
  100
AcDbLine
  10
50.766
  20
-4.768254
  30
0
  11
50.7891
  21
-4.722101
  31
0
  0
LINE
  5
26f
  100
AcDbEntity
  8
1
  100
AcDbLine
  10
50.7891
  20
-4.722101
  30
0
  11
50.8122
  21
-4.675837
  31
0
  0
LINE
  5
270
  100
AcDbEntity
  8
1
  100
AcDbLine
  10
50.8122
  20
-4.675837
  30
0
  11
50.8353
  21
-4.629458
  31
0
  0
LINE
  5
271
  100
AcDbEntity
  8
1
  100
AcDbLine
  10
50.8353
  20
-4.629458
  30
0
  11
50.8584
  21
-4.582961
  31
0
  0
LINE
  5
272
  100
AcDbEntity
  8
1
  100
AcDbLine
  10
50.8584
  20
-4.582961
  30
0
  11
50.8815
  21
-4.536342
  31
0
  0
LINE
  5
273
  100
AcDbEntity
  8
1
  100
AcDbLine
  10
50.8815
  20
-4.536342
  30
0
  11
50.9046
  21
-4.489598
  31
0
  0
LINE
  5
274
  100
AcDbEntity
  8
1
  100
AcDbLine
  10
50.9046
  20
-4.489598
  30
0
  11
50.9277
  21
-4.442724
  31
0
  0
LINE
  5
275
  100
AcDbEntity
  8
1
  100
AcDbLine
  10
50.9277
  20
-4.442724
  30
0
  11
50.9508
  21
-4.395717
  31
0
  0
LINE
  5
276
  100
AcDbEntity
  8
1
  100
AcDbLine
  10
50.9508
  20
-4.395717
  30
0
  11
50.9739
  21
-4.348573
  31
0
  0
LINE
  5
277
  100
AcDbEntity
  8
1
  100
AcDbLine
  10
50.9739
  20
-4.348573
  30
0
  11
50.997
  21
-4.301287
  31
0
  0
LINE
  5
278
  100
AcDbEntity
  8
1
  100
AcDbLine
  10
50.997
  20
-4.301287
  30
0
  11
51.0201
  21
-4.253854
  31
0
  0
LINE
  5
279
  100
AcDbEntity
  8
1
  100
AcDbLine
  10
51.0201
  20
-4.253854
  30
0
  11
51.0432
  21
-4.206269
  31
0
  0
LINE
  5
27a
  100
AcDbEntity
  8
1
  100
AcDbLine
  10
51.0432
  20
-4.206269
  30
0
  11
51.0663
  21
-4.158528
  31
0
  0
LINE
  5
27b
  100
AcDbEntity
  8
1
  100
AcDbLine
  10
51.0663
  20
-4.158528
  30
0
  11
51.0894
  21
-4.110625
  31
0
  0
LINE
  5
27c
  100
AcDbEntity
  8
1
  100
AcDbLine
  10
51.0894
  20
-4.110625
  30
0
  11
51.1125
  21
-4.062554
  31
0
  0
LINE
  5
27d
  100
AcDbEntity
  8
1
  100
AcDbLine
  10
51.1125
  20
-4.062554
  30
0
  11
51.1356
  21
-4.01431
  31
0
  0
LINE
  5
27e
  100
AcDbEntity
  8
1
  100
AcDbLine
  10
51.1356
  20
-4.01431
  30
0
  11
51.1587
  21
-3.965887
  31
0
  0
LINE
  5
27f
  100
AcDbEntity
  8
1
  100
AcDbLine
  10
51.1587
  20
-3.965887
  30
0
  11
51.1818
  21
-3.917277
  31
0
  0
LINE
  5
280
  100
AcDbEntity
  8
1
  100
AcDbLine
  10
51.1818
  20
-3.917277
  30
0
  11
51.2049
  21
-3.868474
  31
0
  0
LINE
  5
281
  100
AcDbEntity
  8
1
  100
AcDbLine
  10
51.2049
  20
-3.868474
  30
0
  11
51.228
  21
-3.819471
  31
0
  0
LINE
  5
282
  100
AcDbEntity
  8
1
  100
AcDbLine
  10
51.228
  20
-3.819471
  30
0
  11
51.2511
  21
-3.77026
  31
0
  0
LINE
  5
283
  100
AcDbEntity
  8
1
  100
AcDbLine
  10
51.2511
  20
-3.77026
  30
0
  11
51.2742
  21
-3.720834
  31
0
  0
LINE
  5
284
  100
AcDbEntity
  8
1
  100
AcDbLine
  10
51.2742
  20
-3.720834
  30
0
  11
51.2973
  21
-3.671182
  31
0
  0
LINE
  5
285
  100
AcDbEntity
  8
1
  100
AcDbLine
  10
51.2973
  20
-3.671182
  30
0
  11
51.3204
  21
-3.621298
  31
0
  0
LINE
  5
286
  100
AcDbEntity
  8
1
  100
AcDbLine
  10
51.3204
  20
-3.621298
  30
0
  11
51.3435
  21
-3.57117
  31
0
  0
LINE
  5
287
  100
AcDbEntity
  8
1
  100
AcDbLine
  10
51.3435
  20
-3.57117
  30
0
  11
51.3666
  21
-3.520789
  31
0
  0
LINE
  5
288
  100
AcDbEntity
  8
1
  100
AcDbLine
  10
51.3666
  20
-3.520789
  30
0
  11
51.3897
  21
-3.470145
  31
0
  0
LINE
  5
289
  100
AcDbEntity
  8
1
  100
AcDbLine
  10
51.3897
  20
-3.470145
  30
0
  11
51.4128
  21
-3.419225
  31
0
  0
LINE
  5
28a
  100
AcDbEntity
  8
1
  100
AcDbLine
  10
51.4128
  20
-3.419225
  30
0
  11
51.4359
  21
-3.368018
  31
0
  0
LINE
  5
28b
  100
AcDbEntity
  8
1
  100
AcDbLine
  10
51.4359
  20
-3.368018
  30
0
  11
51.459
  21
-3.31651
  31
0
  0
LINE
  5
28c
  100
AcDbEntity
  8
1
  100
AcDbLine
  10
51.459
  20
-3.31651
  30
0
  11
51.4821
  21
-3.264688
  31
0
  0
LINE
  5
28d
  100
AcDbEntity
  8
1
  100
AcDbLine
  10
51.4821
  20
-3.264688
  30
0
  11
51.5052
  21
-3.212537
  31
0
  0
LINE
  5
28e
  100
AcDbEntity
  8
1
  100
AcDbLine
  10
51.5052
  20
-3.212537
  30
0
  11
51.5283
  21
-3.160041
  31
0
  0
LINE
  5
28f
  100
AcDbEntity
  8
1
  100
AcDbLine
  10
51.5283
  20
-3.160041
  30
0
  11
51.5514
  21
-3.107183
  31
0
  0
LINE
  5
290
  100
AcDbEntity
  8
1
  100
AcDbLine
  10
51.5514
  20
-3.107183
  30
0
  11
51.5745
  21
-3.053946
  31
0
  0
LINE
  5
291
  100
AcDbEntity
  8
1
  100
AcDbLine
  10
51.5745
  20
-3.053946
  30
0
  11
51.5976
  21
-3.000308
  31
0
  0
LINE
  5
292
  100
AcDbEntity
  8
1
  100
AcDbLine
  10
51.5976
  20
-3.000308
  30
0
  11
51.6207
  21
-2.946249
  31
0
  0
LINE
  5
293
  100
AcDbEntity
  8
1
  100
AcDbLine
  10
51.6207
  20
-2.946249
  30
0
  11
51.6438
  21
-2.891746
  31
0
  0
LINE
  5
294
  100
AcDbEntity
  8
1
  100
AcDbLine
  10
51.6438
  20
-2.891746
  30
0
  11
51.6669
  21
-2.836775
  31
0
  0
LINE
  5
295
  100
AcDbEntity
  8
1
  100
AcDbLine
  10
51.6669
  20
-2.836775
  30
0
  11
51.69
  21
-2.781308
  31
0
  0
LINE
  5
296
  100
AcDbEntity
  8
1
  100
AcDbLine
  10
51.69
  20
-2.781308
  30
0
  11
51.7131
  21
-2.725315
  31
0
  0
LINE
  5
297
  100
AcDbEntity
  8
1
  100
AcDbLine
  10
51.7131
  20
-2.725315
  30
0
  11
51.7362
  21
-2.668766
  31
0
  0
LINE
  5
298
  100
AcDbEntity
  8
1
  100
AcDbLine
  10
51.7362
  20
-2.668766
  30
0
  11
51.7593
  21
-2.611625
  31
0
  0
LINE
  5
299
  100
AcDbEntity
  8
1
  100
AcDbLine
  10
51.7593
  20
-2.611625
  30
0
  11
51.7824
  21
-2.553854
  31
0
  0
LINE
  5
29a
  100
AcDbEntity
  8
1
  100
AcDbLine
  10
51.7824
  20
-2.553854
  30
0
  11
51.8055
  21
-2.49541
  31
0
  0
LINE
  5
29b
  100
AcDbEntity
  8
1
  100
AcDbLine
  10
51.8055
  20
-2.49541
  30
0
  11
51.8286
  21
-2.436246
  31
0
  0
LINE
  5
29c
  100
AcDbEntity
  8
1
  100
AcDbLine
  10
51.8286
  20
-2.436246
  30
0
  11
51.8517
  21
-2.376312
  31
0
  0
LINE
  5
29d
  100
AcDbEntity
  8
1
  100
AcDbLine
  10
51.8517
  20
-2.376312
  30
0
  11
51.8748
  21
-2.315548
  31
0
  0
LINE
  5
29e
  100
AcDbEntity
  8
1
  100
AcDbLine
  10
51.8748
  20
-2.315548
  30
0
  11
51.8979
  21
-2.253891
  31
0
  0
LINE
  5
29f
  100
AcDbEntity
  8
1
  100
AcDbLine
  10
51.8979
  20
-2.253891
  30
0
  11
51.921
  21
-2.191269
  31
0
  0
LINE
  5
2a0
  100
AcDbEntity
  8
1
  100
AcDbLine
  10
51.921
  20
-2.191269
  30
0
  11
51.9441
  21
-2.127598
  31
0
  0
LINE
  5
2a1
  100
AcDbEntity
  8
1
  100
AcDbLine
  10
51.9441
  20
-2.127598
  30
0
  11
51.9672
  21
-2.062787
  31
0
  0
LINE
  5
2a2
  100
AcDbEntity
  8
1
  100
AcDbLine
  10
51.9672
  20
-2.062787
  30
0
  11
51.9903
  21
-1.996729
  31
0
  0
LINE
  5
2a3
  100
AcDbEntity
  8
1
  100
AcDbLine
  10
51.9903
  20
-1.996729
  30
0
  11
52.0134
  21
-1.929301
  31
0
  0
LINE
  5
2a4
  100
AcDbEntity
  8
1
  100
AcDbLine
  10
52.0134
  20
-1.929301
  30
0
  11
52.0365
  21
-1.860362
  31
0
  0
LINE
  5
2a5
  100
AcDbEntity
  8
1
  100
AcDbLine
  10
52.0365
  20
-1.860362
  30
0
  11
52.0596
  21
-1.789745
  31
0
  0
LINE
  5
2a6
  100
AcDbEntity
  8
1
  100
AcDbLine
  10
52.0596
  20
-1.789745
  30
0
  11
52.0827
  21
-1.717252
  31
0
  0
LINE
  5
2a7
  100
AcDbEntity
  8
1
  100
AcDbLine
  10
52.0827
  20
-1.717252
  30
0
  11
52.1058
  21
-1.642649
  31
0
  0
LINE
  5
2a8
  100
AcDbEntity
  8
1
  100
AcDbLine
  10
52.1058
  20
-1.642649
  30
0
  11
52.1289
  21
-1.56565
  31
0
  0
LINE
  5
2a9
  100
AcDbEntity
  8
1
  100
AcDbLine
  10
52.1289
  20
-1.56565
  30
0
  11
52.152
  21
-1.485904
  31
0
  0
LINE
  5
2aa
  100
AcDbEntity
  8
1
  100
AcDbLine
  10
52.152
  20
-1.485904
  30
0
  11
52.1751
  21
-1.402969
  31
0
  0
LINE
  5
2ab
  100
AcDbEntity
  8
1
  100
AcDbLine
  10
52.1751
  20
-1.402969
  30
0
  11
52.1982
  21
-1.315054
  31
0
  0
LINE
  5
2ac
  100
AcDbEntity
  8
1
  100
AcDbLine
  10
52.1982
  20
-1.315054
  30
0
  11
52.2213
  21
-1.213585
  31
0
  0
LINE
  5
2ad
  100
AcDbEntity
  8
1
  100
AcDbLine
  10
52.2213
  20
-1.213585
  30
0
  11
52.2444
  21
-1.083818
  31
0
  0
LINE
  5
2ae
  100
AcDbEntity
  8
1
  100
AcDbLine
  10
52.2444
  20
-1.083818
  30
0
  11
52.2675
  21
-0.811966
  31
0
  0
LINE
  5
2af
  100
AcDbEntity
  8
1
  100
AcDbLine
  10
48.2481
  20
-9.788414
  30
0
  11
48.2712
  21
-9.747839
  31
0
  0
LINE
  5
2b0
  100
AcDbEntity
  8
1
  100
AcDbLine
  10
48.2712
  20
-9.747839
  30
0
  11
48.2943
  21
-9.707256
  31
0
  0
LINE
  5
2b1
  100
AcDbEntity
  8
1
  100
AcDbLine
  10
48.2943
  20
-9.707256
  30
0
  11
48.3174
  21
-9.666665
  31
0
  0
LINE
  5
2b2
  100
AcDbEntity
  8
1
  100
AcDbLine
  10
48.3174
  20
-9.666665
  30
0
  11
48.3405
  21
-9.626066
  31
0
  0
LINE
  5
2b3
  100
AcDbEntity
  8
1
  100
AcDbLine
  10
48.3405
  20
-9.626066
  30
0
  11
48.3636
  21
-9.585459
  31
0
  0
LINE
  5
2b4
  100
AcDbEntity
  8
1
  100
AcDbLine
  10
48.3636
  20
-9.585459
  30
0
  11
48.3867
  21
-9.544845
  31
0
  0
LINE
  5
2b5
  100
AcDbEntity
  8
1
  100
AcDbLine
  10
48.3867
  20
-9.544845
  30
0
  11
48.4098
  21
-9.504221
  31
0
  0
LINE
  5
2b6
  100
AcDbEntity
  8
1
  100
AcDbLine
  10
48.4098
  20
-9.504221
  30
0
  11
48.4329
  21
-9.46359
  31
0
  0
LINE
  5
2b7
  100
AcDbEntity
  8
1
  100
AcDbLine
  10
48.4329
  20
-9.46359
  30
0
  11
48.456
  21
-9.42295
  31
0
  0
LINE
  5
2b8
  100
AcDbEntity
  8
1
  100
AcDbLine
  10
48.456
  20
-9.42295
  30
0
  11
48.4791
  21
-9.382301
  31
0
  0
LINE
  5
2b9
  100
AcDbEntity
  8
1
  100
AcDbLine
  10
48.4791
  20
-9.382301
  30
0
  11
48.5022
  21
-9.341644
  31
0
  0
LINE
  5
2ba
  100
AcDbEntity
  8
1
  100
AcDbLine
  10
48.5022
  20
-9.341644
  30
0
  11
48.5253
  21
-9.300978
  31
0
  0
LINE
  5
2bb
  100
AcDbEntity
  8
1
  100
AcDbLine
  10
48.5253
  20
-9.300978
  30
0
  11
48.5484
  21
-9.260303
  31
0
  0
LINE
  5
2bc
  100
AcDbEntity
  8
1
  100
AcDbLine
  10
48.5484
  20
-9.260303
  30
0
  11
48.5715
  21
-9.219619
  31
0
  0
LINE
  5
2bd
  100
AcDbEntity
  8
1
  100
AcDbLine
  10
48.5715
  20
-9.219619
  30
0
  11
48.5946
  21
-9.178926
  31
0
  0
LINE
  5
2be
  100
AcDbEntity
  8
1
  100
AcDbLine
  10
48.5946
  20
-9.178926
  30
0
  11
48.6177
  21
-9.138224
  31
0
  0
LINE
  5
2bf
  100
AcDbEntity
  8
1
  100
AcDbLine
  10
48.6177
  20
-9.138224
  30
0
  11
48.6408
  21
-9.097512
  31
0
  0
LINE
  5
2c0
  100
AcDbEntity
  8
1
  100
AcDbLine
  10
48.6408
  20
-9.097512
  30
0
  11
48.6639
  21
-9.056791
  31
0
  0
LINE
  5
2c1
  100
AcDbEntity
  8
1
  100
AcDbLine
  10
48.6639
  20
-9.056791
  30
0
  11
48.687
  21
-9.01606
  31
0
  0
LINE
  5
2c2
  100
AcDbEntity
  8
1
  100
AcDbLine
  10
48.687
  20
-9.01606
  30
0
  11
48.7101
  21
-8.97532
  31
0
  0
LINE
  5
2c3
  100
AcDbEntity
  8
1
  100
AcDbLine
  10
48.7101
  20
-8.97532
  30
0
  11
48.7332
  21
-8.934569
  31
0
  0
LINE
  5
2c4
  100
AcDbEntity
  8
1
  100
AcDbLine
  10
48.7332
  20
-8.934569
  30
0
  11
48.7563
  21
-8.893809
  31
0
  0
LINE
  5
2c5
  100
AcDbEntity
  8
1
  100
AcDbLine
  10
48.7563
  20
-8.893809
  30
0
  11
48.7794
  21
-8.853038
  31
0
  0
LINE
  5
2c6
  100
AcDbEntity
  8
1
  100
AcDbLine
  10
48.7794
  20
-8.853038
  30
0
  11
48.8025
  21
-8.812257
  31
0
  0
LINE
  5
2c7
  100
AcDbEntity
  8
1
  100
AcDbLine
  10
48.8025
  20
-8.812257
  30
0
  11
48.8256
  21
-8.771466
  31
0
  0
LINE
  5
2c8
  100
AcDbEntity
  8
1
  100
AcDbLine
  10
48.8256
  20
-8.771466
  30
0
  11
48.8487
  21
-8.730664
  31
0
  0
LINE
  5
2c9
  100
AcDbEntity
  8
1
  100
AcDbLine
  10
48.8487
  20
-8.730664
  30
0
  11
48.8718
  21
-8.689852
  31
0
  0
LINE
  5
2ca
  100
AcDbEntity
  8
1
  100
AcDbLine
  10
48.8718
  20
-8.689852
  30
0
  11
48.8949
  21
-8.649028
  31
0
  0
LINE
  5
2cb
  100
AcDbEntity
  8
1
  100
AcDbLine
  10
48.8949
  20
-8.649028
  30
0
  11
48.918
  21
-8.608194
  31
0
  0
LINE
  5
2cc
  100
AcDbEntity
  8
1
  100
AcDbLine
  10
48.918
  20
-8.608194
  30
0
  11
48.9411
  21
-8.567348
  31
0
  0
LINE
  5
2cd
  100
AcDbEntity
  8
1
  100
AcDbLine
  10
48.9411
  20
-8.567348
  30
0
  11
48.9642
  21
-8.526491
  31
0
  0
LINE
  5
2ce
  100
AcDbEntity
  8
1
  100
AcDbLine
  10
48.9642
  20
-8.526491
  30
0
  11
48.9873
  21
-8.485623
  31
0
  0
LINE
  5
2cf
  100
AcDbEntity
  8
1
  100
AcDbLine
  10
48.9873
  20
-8.485623
  30
0
  11
49.0104
  21
-8.444743
  31
0
  0
LINE
  5
2d0
  100
AcDbEntity
  8
1
  100
AcDbLine
  10
49.0104
  20
-8.444743
  30
0
  11
49.0335
  21
-8.403851
  31
0
  0
LINE
  5
2d1
  100
AcDbEntity
  8
1
  100
AcDbLine
  10
49.0335
  20
-8.403851
  30
0
  11
49.0566
  21
-8.362948
  31
0
  0
LINE
  5
2d2
  100
AcDbEntity
  8
1
  100
AcDbLine
  10
49.0566
  20
-8.362948
  30
0
  11
49.0797
  21
-8.322032
  31
0
  0
LINE
  5
2d3
  100
AcDbEntity
  8
1
  100
AcDbLine
  10
49.0797
  20
-8.322032
  30
0
  11
49.1028
  21
-8.281104
  31
0
  0
LINE
  5
2d4
  100
AcDbEntity
  8
1
  100
AcDbLine
  10
49.1028
  20
-8.281104
  30
0
  11
49.1259
  21
-8.240163
  31
0
  0
LINE
  5
2d5
  100
AcDbEntity
  8
1
  100
AcDbLine
  10
49.1259
  20
-8.240163
  30
0
  11
49.149
  21
-8.19921
  31
0
  0
LINE
  5
2d6
  100
AcDbEntity
  8
1
  100
AcDbLine
  10
49.149
  20
-8.19921
  30
0
  11
49.1721
  21
-8.158244
  31
0
  0
LINE
  5
2d7
  100
AcDbEntity
  8
1
  100
AcDbLine
  10
49.1721
  20
-8.158244
  30
0
  11
49.1952
  21
-8.117265
  31
0
  0
LINE
  5
2d8
  100
AcDbEntity
  8
1
  100
AcDbLine
  10
49.1952
  20
-8.117265
  30
0
  11
49.2183
  21
-8.076272
  31
0
  0
LINE
  5
2d9
  100
AcDbEntity
  8
1
  100
AcDbLine
  10
49.2183
  20
-8.076272
  30
0
  11
49.2414
  21
-8.035267
  31
0
  0
LINE
  5
2da
  100
AcDbEntity
  8
1
  100
AcDbLine
  10
49.2414
  20
-8.035267
  30
0
  11
49.2645
  21
-7.994247
  31
0
  0
LINE
  5
2db
  100
AcDbEntity
  8
1
  100
AcDbLine
  10
49.2645
  20
-7.994247
  30
0
  11
49.2876
  21
-7.953214
  31
0
  0
LINE
  5
2dc
  100
AcDbEntity
  8
1
  100
AcDbLine
  10
49.2876
  20
-7.953214
  30
0
  11
49.3107
  21
-7.912167
  31
0
  0
LINE
  5
2dd
  100
AcDbEntity
  8
1
  100
AcDbLine
  10
49.3107
  20
-7.912167
  30
0
  11
49.3338
  21
-7.871106
  31
0
  0
LINE
  5
2de
  100
AcDbEntity
  8
1
  100
AcDbLine
  10
49.3338
  20
-7.871106
  30
0
  11
49.3569
  21
-7.83003
  31
0
  0
LINE
  5
2df
  100
AcDbEntity
  8
1
  100
AcDbLine
  10
49.3569
  20
-7.83003
  30
0
  11
49.38
  21
-7.788939
  31
0
  0
LINE
  5
2e0
  100
AcDbEntity
  8
1
  100
AcDbLine
  10
49.38
  20
-7.788939
  30
0
  11
49.4031
  21
-7.747834
  31
0
  0
LINE
  5
2e1
  100
AcDbEntity
  8
1
  100
AcDbLine
  10
49.4031
  20
-7.747834
  30
0
  11
49.4262
  21
-7.706714
  31
0
  0
LINE
  5
2e2
  100
AcDbEntity
  8
1
  100
AcDbLine
  10
49.4262
  20
-7.706714
  30
0
  11
49.4493
  21
-7.665578
  31
0
  0
LINE
  5
2e3
  100
AcDbEntity
  8
1
  100
AcDbLine
  10
49.4493
  20
-7.665578
  30
0
  11
49.4724
  21
-7.624426
  31
0
  0
LINE
  5
2e4
  100
AcDbEntity
  8
1
  100
AcDbLine
  10
49.4724
  20
-7.624426
  30
0
  11
49.4955
  21
-7.583259
  31
0
  0
LINE
  5
2e5
  100
AcDbEntity
  8
1
  100
AcDbLine
  10
49.4955
  20
-7.583259
  30
0
  11
49.5186
  21
-7.542076
  31
0
  0
LINE
  5
2e6
  100
AcDbEntity
  8
1
  100
AcDbLine
  10
49.5186
  20
-7.542076
  30
0
  11
49.5417
  21
-7.500876
  31
0
  0
LINE
  5
2e7
  100
AcDbEntity
  8
1
  100
AcDbLine
  10
49.5417
  20
-7.500876
  30
0
  11
49.5648
  21
-7.45966
  31
0
  0
LINE
  5
2e8
  100
AcDbEntity
  8
1
  100
AcDbLine
  10
49.5648
  20
-7.45966
  30
0
  11
49.5879
  21
-7.418427
  31
0
  0
LINE
  5
2e9
  100
AcDbEntity
  8
1
  100
AcDbLine
  10
49.5879
  20
-7.418427
  30
0
  11
49.611
  21
-7.377177
  31
0
  0
LINE
  5
2ea
  100
AcDbEntity
  8
1
  100
AcDbLine
  10
49.611
  20
-7.377177
  30
0
  11
49.6341
  21
-7.335909
  31
0
  0
LINE
  5
2eb
  100
AcDbEntity
  8
1
  100
AcDbLine
  10
49.6341
  20
-7.335909
  30
0
  11
49.6572
  21
-7.294624
  31
0
  0
LINE
  5
2ec
  100
AcDbEntity
  8
1
  100
AcDbLine
  10
49.6572
  20
-7.294624
  30
0
  11
49.6803
  21
-7.25332
  31
0
  0
LINE
  5
2ed
  100
AcDbEntity
  8
1
  100
AcDbLine
  10
49.6803
  20
-7.25332
  30
0
  11
49.7034
  21
-7.211999
  31
0
  0
LINE
  5
2ee
  100
AcDbEntity
  8
1
  100
AcDbLine
  10
49.7034
  20
-7.211999
  30
0
  11
49.7265
  21
-7.170659
  31
0
  0
LINE
  5
2ef
  100
AcDbEntity
  8
1
  100
AcDbLine
  10
49.7265
  20
-7.170659
  30
0
  11
49.7496
  21
-7.1293
  31
0
  0
LINE
  5
2f0
  100
AcDbEntity
  8
1
  100
AcDbLine
  10
49.7496
  20
-7.1293
  30
0
  11
49.7727
  21
-7.087922
  31
0
  0
LINE
  5
2f1
  100
AcDbEntity
  8
1
  100
AcDbLine
  10
49.7727
  20
-7.087922
  30
0
  11
49.7958
  21
-7.046524
  31
0
  0
LINE
  5
2f2
  100
AcDbEntity
  8
1
  100
AcDbLine
  10
49.7958
  20
-7.046524
  30
0
  11
49.8189
  21
-7.005107
  31
0
  0
LINE
  5
2f3
  100
AcDbEntity
  8
1
  100
AcDbLine
  10
49.8189
  20
-7.005107
  30
0
  11
49.842
  21
-6.963669
  31
0
  0
LINE
  5
2f4
  100
AcDbEntity
  8
1
  100
AcDbLine
  10
49.842
  20
-6.963669
  30
0
  11
49.8651
  21
-6.922211
  31
0
  0
LINE
  5
2f5
  100
AcDbEntity
  8
1
  100
AcDbLine
  10
49.8651
  20
-6.922211
  30
0
  11
49.8882
  21
-6.880733
  31
0
  0
LINE
  5
2f6
  100
AcDbEntity
  8
1
  100
AcDbLine
  10
49.8882
  20
-6.880733
  30
0
  11
49.9113
  21
-6.839232
  31
0
  0
LINE
  5
2f7
  100
AcDbEntity
  8
1
  100
AcDbLine
  10
49.9113
  20
-6.839232
  30
0
  11
49.9344
  21
-6.797711
  31
0
  0
LINE
  5
2f8
  100
AcDbEntity
  8
1
  100
AcDbLine
  10
49.9344
  20
-6.797711
  30
0
  11
49.9575
  21
-6.756167
  31
0
  0
LINE
  5
2f9
  100
AcDbEntity
  8
1
  100
AcDbLine
  10
49.9575
  20
-6.756167
  30
0
  11
49.9806
  21
-6.714601
  31
0
  0
LINE
  5
2fa
  100
AcDbEntity
  8
1
  100
AcDbLine
  10
49.9806
  20
-6.714601
  30
0
  11
50.0037
  21
-6.673012
  31
0
  0
LINE
  5
2fb
  100
AcDbEntity
  8
1
  100
AcDbLine
  10
50.0037
  20
-6.673012
  30
0
  11
50.0268
  21
-6.631401
  31
0
  0
LINE
  5
2fc
  100
AcDbEntity
  8
1
  100
AcDbLine
  10
50.0268
  20
-6.631401
  30
0
  11
50.0499
  21
-6.589765
  31
0
  0
LINE
  5
2fd
  100
AcDbEntity
  8
1
  100
AcDbLine
  10
50.0499
  20
-6.589765
  30
0
  11
50.073
  21
-6.548106
  31
0
  0
LINE
  5
2fe
  100
AcDbEntity
  8
1
  100
AcDbLine
  10
50.073
  20
-6.548106
  30
0
  11
50.0961
  21
-6.506422
  31
0
  0
LINE
  5
2ff
  100
AcDbEntity
  8
1
  100
AcDbLine
  10
50.0961
  20
-6.506422
  30
0
  11
50.1192
  21
-6.464714
  31
0
  0
LINE
  5
300
  100
AcDbEntity
  8
1
  100
AcDbLine
  10
50.1192
  20
-6.464714
  30
0
  11
50.1423
  21
-6.42298
  31
0
  0
LINE
  5
301
  100
AcDbEntity
  8
1
  100
AcDbLine
  10
50.1423
  20
-6.42298
  30
0
  11
50.1654
  21
-6.38122
  31
0
  0
LINE
  5
302
  100
AcDbEntity
  8
1
  100
AcDbLine
  10
50.1654
  20
-6.38122
  30
0
  11
50.1885
  21
-6.339434
  31
0
  0
LINE
  5
303
  100
AcDbEntity
  8
1
  100
AcDbLine
  10
50.1885
  20
-6.339434
  30
0
  11
50.2116
  21
-6.297622
  31
0
  0
LINE
  5
304
  100
AcDbEntity
  8
1
  100
AcDbLine
  10
50.2116
  20
-6.297622
  30
0
  11
50.2347
  21
-6.255782
  31
0
  0
LINE
  5
305
  100
AcDbEntity
  8
1
  100
AcDbLine
  10
50.2347
  20
-6.255782
  30
0
  11
50.2578
  21
-6.213914
  31
0
  0
LINE
  5
306
  100
AcDbEntity
  8
1
  100
AcDbLine
  10
50.2578
  20
-6.213914
  30
0
  11
50.2809
  21
-6.172018
  31
0
  0
LINE
  5
307
  100
AcDbEntity
  8
1
  100
AcDbLine
  10
50.2809
  20
-6.172018
  30
0
  11
50.304
  21
-6.130094
  31
0
  0
LINE
  5
308
  100
AcDbEntity
  8
1
  100
AcDbLine
  10
50.304
  20
-6.130094
  30
0
  11
50.3271
  21
-6.08814
  31
0
  0
LINE
  5
309
  100
AcDbEntity
  8
1
  100
AcDbLine
  10
50.3271
  20
-6.08814
  30
0
  11
50.3502
  21
-6.046156
  31
0
  0
LINE
  5
30a
  100
AcDbEntity
  8
1
  100
AcDbLine
  10
50.3502
  20
-6.046156
  30
0
  11
50.3733
  21
-6.004141
  31
0
  0
LINE
  5
30b
  100
AcDbEntity
  8
1
  100
AcDbLine
  10
50.3733
  20
-6.004141
  30
0
  11
50.3964
  21
-5.962096
  31
0
  0
LINE
  5
30c
  100
AcDbEntity
  8
1
  100
AcDbLine
  10
50.3964
  20
-5.962096
  30
0
  11
50.4195
  21
-5.920018
  31
0
  0
LINE
  5
30d
  100
AcDbEntity
  8
1
  100
AcDbLine
  10
50.4195
  20
-5.920018
  30
0
  11
50.4426
  21
-5.877909
  31
0
  0
LINE
  5
30e
  100
AcDbEntity
  8
1
  100
AcDbLine
  10
50.4426
  20
-5.877909
  30
0
  11
50.4657
  21
-5.835766
  31
0
  0
LINE
  5
30f
  100
AcDbEntity
  8
1
  100
AcDbLine
  10
50.4657
  20
-5.835766
  30
0
  11
50.4888
  21
-5.79359
  31
0
  0
LINE
  5
310
  100
AcDbEntity
  8
1
  100
AcDbLine
  10
50.4888
  20
-5.79359
  30
0
  11
50.5119
  21
-5.751379
  31
0
  0
LINE
  5
311
  100
AcDbEntity
  8
1
  100
AcDbLine
  10
50.5119
  20
-5.751379
  30
0
  11
50.535
  21
-5.709134
  31
0
  0
LINE
  5
312
  100
AcDbEntity
  8
1
  100
AcDbLine
  10
50.535
  20
-5.709134
  30
0
  11
50.5581
  21
-5.666852
  31
0
  0
LINE
  5
313
  100
AcDbEntity
  8
1
  100
AcDbLine
  10
50.5581
  20
-5.666852
  30
0
  11
50.5812
  21
-5.624534
  31
0
  0
LINE
  5
314
  100
AcDbEntity
  8
1
  100
AcDbLine
  10
50.5812
  20
-5.624534
  30
0
  11
50.6043
  21
-5.582179
  31
0
  0
LINE
  5
315
  100
AcDbEntity
  8
1
  100
AcDbLine
  10
50.6043
  20
-5.582179
  30
0
  11
50.6274
  21
-5.539785
  31
0
  0
LINE
  5
316
  100
AcDbEntity
  8
1
  100
AcDbLine
  10
50.6274
  20
-5.539785
  30
0
  11
50.6505
  21
-5.497353
  31
0
  0
LINE
  5
317
  100
AcDbEntity
  8
1
  100
AcDbLine
  10
50.6505
  20
-5.497353
  30
0
  11
50.6736
  21
-5.454881
  31
0
  0
LINE
  5
318
  100
AcDbEntity
  8
1
  100
AcDbLine
  10
50.6736
  20
-5.454881
  30
0
  11
50.6967
  21
-5.412369
  31
0
  0
LINE
  5
319
  100
AcDbEntity
  8
1
  100
AcDbLine
  10
50.6967
  20
-5.412369
  30
0
  11
50.7198
  21
-5.369815
  31
0
  0
LINE
  5
31a
  100
AcDbEntity
  8
1
  100
AcDbLine
  10
50.7198
  20
-5.369815
  30
0
  11
50.7429
  21
-5.327219
  31
0
  0
LINE
  5
31b
  100
AcDbEntity
  8
1
  100
AcDbLine
  10
50.7429
  20
-5.327219
  30
0
  11
50.766
  21
-5.28458
  31
0
  0
LINE
  5
31c
  100
AcDbEntity
  8
1
  100
AcDbLine
  10
50.766
  20
-5.28458
  30
0
  11
50.7891
  21
-5.241896
  31
0
  0
LINE
  5
31d
  100
AcDbEntity
  8
1
  100
AcDbLine
  10
50.7891
  20
-5.241896
  30
0
  11
50.8122
  21
-5.199167
  31
0
  0
LINE
  5
31e
  100
AcDbEntity
  8
1
  100
AcDbLine
  10
50.8122
  20
-5.199167
  30
0
  11
50.8353
  21
-5.156392
  31
0
  0
LINE
  5
31f
  100
AcDbEntity
  8
1
  100
AcDbLine
  10
50.8353
  20
-5.156392
  30
0
  11
50.8584
  21
-5.11357
  31
0
  0
LINE
  5
320
  100
AcDbEntity
  8
1
  100
AcDbLine
  10
50.8584
  20
-5.11357
  30
0
  11
50.8815
  21
-5.070699
  31
0
  0
LINE
  5
321
  100
AcDbEntity
  8
1
  100
AcDbLine
  10
50.8815
  20
-5.070699
  30
0
  11
50.9046
  21
-5.027779
  31
0
  0
LINE
  5
322
  100
AcDbEntity
  8
1
  100
AcDbLine
  10
50.9046
  20
-5.027779
  30
0
  11
50.9277
  21
-4.984808
  31
0
  0
LINE
  5
323
  100
AcDbEntity
  8
1
  100
AcDbLine
  10
50.9277
  20
-4.984808
  30
0
  11
50.9508
  21
-4.941786
  31
0
  0
LINE
  5
324
  100
AcDbEntity
  8
1
  100
AcDbLine
  10
50.9508
  20
-4.941786
  30
0
  11
50.9739
  21
-4.89871
  31
0
  0
LINE
  5
325
  100
AcDbEntity
  8
1
  100
AcDbLine
  10
50.9739
  20
-4.89871
  30
0
  11
50.997
  21
-4.85558
  31
0
  0
LINE
  5
326
  100
AcDbEntity
  8
1
  100
AcDbLine
  10
50.997
  20
-4.85558
  30
0
  11
51.0201
  21
-4.812395
  31
0
  0
LINE
  5
327
  100
AcDbEntity
  8
1
  100
AcDbLine
  10
51.0201
  20
-4.812395
  30
0
  11
51.0432
  21
-4.769332
  31
0
  0
LINE
  5
328
  100
AcDbEntity
  8
1
  100
AcDbLine
  10
51.0432
  20
-4.769332
  30
0
  11
51.0663
  21
-4.726385
  31
0
  0
LINE
  5
329
  100
AcDbEntity
  8
1
  100
AcDbLine
  10
51.0663
  20
-4.726385
  30
0
  11
51.0894
  21
-4.683693
  31
0
  0
LINE
  5
32a
  100
AcDbEntity
  8
1
  100
AcDbLine
  10
51.0894
  20
-4.683693
  30
0
  11
51.1125
  21
-4.641291
  31
0
  0
LINE
  5
32b
  100
AcDbEntity
  8
1
  100
AcDbLine
  10
51.1125
  20
-4.641291
  30
0
  11
51.1356
  21
-4.59905
  31
0
  0
LINE
  5
32c
  100
AcDbEntity
  8
1
  100
AcDbLine
  10
51.1356
  20
-4.59905
  30
0
  11
51.1587
  21
-4.557111
  31
0
  0
LINE
  5
32d
  100
AcDbEntity
  8
1
  100
AcDbLine
  10
51.1587
  20
-4.557111
  30
0
  11
51.1818
  21
-4.515437
  31
0
  0
LINE
  5
32e
  100
AcDbEntity
  8
1
  100
AcDbLine
  10
51.1818
  20
-4.515437
  30
0
  11
51.2049
  21
-4.47393
  31
0
  0
LINE
  5
32f
  100
AcDbEntity
  8
1
  100
AcDbLine
  10
51.2049
  20
-4.47393
  30
0
  11
51.228
  21
-4.432788
  31
0
  0
LINE
  5
330
  100
AcDbEntity
  8
1
  100
AcDbLine
  10
51.228
  20
-4.432788
  30
0
  11
51.2511
  21
-4.391872
  31
0
  0
LINE
  5
331
  100
AcDbEntity
  8
1
  100
AcDbLine
  10
51.2511
  20
-4.391872
  30
0
  11
51.2742
  21
-4.351137
  31
0
  0
LINE
  5
332
  100
AcDbEntity
  8
1
  100
AcDbLine
  10
51.2742
  20
-4.351137
  30
0
  11
51.2973
  21
-4.310828
  31
0
  0
LINE
  5
333
  100
AcDbEntity
  8
1
  100
AcDbLine
  10
51.2973
  20
-4.310828
  30
0
  11
51.3204
  21
-4.270701
  31
0
  0
LINE
  5
334
  100
AcDbEntity
  8
1
  100
AcDbLine
  10
51.3204
  20
-4.270701
  30
0
  11
51.3435
  21
-4.23083
  31
0
  0
LINE
  5
335
  100
AcDbEntity
  8
1
  100
AcDbLine
  10
51.3435
  20
-4.23083
  30
0
  11
51.3666
  21
-4.191335
  31
0
  0
LINE
  5
336
  100
AcDbEntity
  8
1
  100
AcDbLine
  10
51.3666
  20
-4.191335
  30
0
  11
51.3897
  21
-4.152033
  31
0
  0
LINE
  5
337
  100
AcDbEntity
  8
1
  100
AcDbLine
  10
51.3897
  20
-4.152033
  30
0
  11
51.4128
  21
-4.113067
  31
0
  0
LINE
  5
338
  100
AcDbEntity
  8
1
  100
AcDbLine
  10
51.4128
  20
-4.113067
  30
0
  11
51.4359
  21
-4.074424
  31
0
  0
LINE
  5
339
  100
AcDbEntity
  8
1
  100
AcDbLine
  10
51.4359
  20
-4.074424
  30
0
  11
51.459
  21
-4.035987
  31
0
  0
LINE
  5
33a
  100
AcDbEntity
  8
1
  100
AcDbLine
  10
51.459
  20
-4.035987
  30
0
  11
51.4821
  21
-3.997967
  31
0
  0
LINE
  5
33b
  100
AcDbEntity
  8
1
  100
AcDbLine
  10
51.4821
  20
-3.997967
  30
0
  11
51.5052
  21
-3.96022
  31
0
  0
LINE
  5
33c
  100
AcDbEntity
  8
1
  100
AcDbLine
  10
51.5052
  20
-3.96022
  30
0
  11
51.5283
  21
-3.922696
  31
0
  0
LINE
  5
33d
  100
AcDbEntity
  8
1
  100
AcDbLine
  10
51.5283
  20
-3.922696
  30
0
  11
51.5514
  21
-3.885662
  31
0
  0
LINE
  5
33e
  100
AcDbEntity
  8
1
  100
AcDbLine
  10
51.5514
  20
-3.885662
  30
0
  11
51.5745
  21
-3.848863
  31
0
  0
LINE
  5
33f
  100
AcDbEntity
  8
1
  100
AcDbLine
  10
51.5745
  20
-3.848863
  30
0
  11
51.5976
  21
-3.812352
  31
0
  0
LINE
  5
340
  100
AcDbEntity
  8
1
  100
AcDbLine
  10
51.5976
  20
-3.812352
  30
0
  11
51.6207
  21
-3.776305
  31
0
  0
LINE
  5
341
  100
AcDbEntity
  8
1
  100
AcDbLine
  10
51.6207
  20
-3.776305
  30
0
  11
51.6438
  21
-3.740517
  31
0
  0
LINE
  5
342
  100
AcDbEntity
  8
1
  100
AcDbLine
  10
51.6438
  20
-3.740517
  30
0
  11
51.6669
  21
-3.705063
  31
0
  0
LINE
  5
343
  100
AcDbEntity
  8
1
  100
AcDbLine
  10
51.6669
  20
-3.705063
  30
0
  11
51.69
  21
-3.670073
  31
0
  0
LINE
  5
344
  100
AcDbEntity
  8
1
  100
AcDbLine
  10
51.69
  20
-3.670073
  30
0
  11
51.7131
  21
-3.63537
  31
0
  0
LINE
  5
345
  100
AcDbEntity
  8
1
  100
AcDbLine
  10
51.7131
  20
-3.63537
  30
0
  11
51.7362
  21
-3.601023
  31
0
  0
LINE
  5
346
  100
AcDbEntity
  8
1
  100
AcDbLine
  10
51.7362
  20
-3.601023
  30
0
  11
51.7593
  21
-3.567175
  31
0
  0
LINE
  5
347
  100
AcDbEntity
  8
1
  100
AcDbLine
  10
51.7593
  20
-3.567175
  30
0
  11
51.7824
  21
-3.53365
  31
0
  0
LINE
  5
348
  100
AcDbEntity
  8
1
  100
AcDbLine
  10
51.7824
  20
-3.53365
  30
0
  11
51.8055
  21
-3.500463
  31
0
  0
LINE
  5
349
  100
AcDbEntity
  8
1
  100
AcDbLine
  10
51.8055
  20
-3.500463
  30
0
  11
51.8286
  21
-3.467862
  31
0
  0
LINE
  5
34a
  100
AcDbEntity
  8
1
  100
AcDbLine
  10
51.8286
  20
-3.467862
  30
0
  11
51.8517
  21
-3.435631
  31
0
  0
LINE
  5
34b
  100
AcDbEntity
  8
1
  100
AcDbLine
  10
51.8517
  20
-3.435631
  30
0
  11
51.8748
  21
-3.403789
  31
0
  0
LINE
  5
34c
  100
AcDbEntity
  8
1
  100
AcDbLine
  10
51.8748
  20
-3.403789
  30
0
  11
51.8979
  21
-3.372441
  31
0
  0
LINE
  5
34d
  100
AcDbEntity
  8
1
  100
AcDbLine
  10
51.8979
  20
-3.372441
  30
0
  11
51.921
  21
-3.341651
  31
0
  0
LINE
  5
34e
  100
AcDbEntity
  8
1
  100
AcDbLine
  10
51.921
  20
-3.341651
  30
0
  11
51.9441
  21
-3.31132
  31
0
  0
LINE
  5
34f
  100
AcDbEntity
  8
1
  100
AcDbLine
  10
51.9441
  20
-3.31132
  30
0
  11
51.9672
  21
-3.281479
  31
0
  0
LINE
  5
350
  100
AcDbEntity
  8
1
  100
AcDbLine
  10
51.9672
  20
-3.281479
  30
0
  11
51.9903
  21
-3.252164
  31
0
  0
LINE
  5
351
  100
AcDbEntity
  8
1
  100
AcDbLine
  10
51.9903
  20
-3.252164
  30
0
  11
52.0134
  21
-3.223526
  31
0
  0
LINE
  5
352
  100
AcDbEntity
  8
1
  100
AcDbLine
  10
52.0134
  20
-3.223526
  30
0
  11
52.0365
  21
-3.195516
  31
0
  0
LINE
  5
353
  100
AcDbEntity
  8
1
  100
AcDbLine
  10
52.0365
  20
-3.195516
  30
0
  11
52.0596
  21
-3.168156
  31
0
  0
LINE
  5
354
  100
AcDbEntity
  8
1
  100
AcDbLine
  10
52.0596
  20
-3.168156
  30
0
  11
52.0827
  21
-3.141507
  31
0
  0
LINE
  5
355
  100
AcDbEntity
  8
1
  100
AcDbLine
  10
52.0827
  20
-3.141507
  30
0
  11
52.1058
  21
-3.115642
  31
0
  0
LINE
  5
356
  100
AcDbEntity
  8
1
  100
AcDbLine
  10
52.1058
  20
-3.115642
  30
0
  11
52.1289
  21
-3.090651
  31
0
  0
LINE
  5
357
  100
AcDbEntity
  8
1
  100
AcDbLine
  10
52.1289
  20
-3.090651
  30
0
  11
52.152
  21
-3.066641
  31
0
  0
LINE
  5
358
  100
AcDbEntity
  8
1
  100
AcDbLine
  10
52.152
  20
-3.066641
  30
0
  11
52.1751
  21
-3.043745
  31
0
  0
LINE
  5
359
  100
AcDbEntity
  8
1
  100
AcDbLine
  10
52.1751
  20
-3.043745
  30
0
  11
52.1982
  21
-3.022474
  31
0
  0
LINE
  5
35a
  100
AcDbEntity
  8
1
  100
AcDbLine
  10
52.1982
  20
-3.022474
  30
0
  11
52.2213
  21
-3.002951
  31
0
  0
LINE
  5
35b
  100
AcDbEntity
  8
1
  100
AcDbLine
  10
52.2213
  20
-3.002951
  30
0
  11
52.2444
  21
-2.986635
  31
0
  0
LINE
  5
35c
  100
AcDbEntity
  8
1
  100
AcDbLine
  10
52.2444
  20
-2.986635
  30
0
  11
52.2675
  21
-2.982796
  31
0
  0
LINE
  5
35d
  100
AcDbEntity
  8
1
  100
AcDbLine
  10
52.2675
  20
-2.982796
  30
0
  11
52.2675
  21
-2.988141
  31
0
  0
LINE
  5
35e
  100
AcDbEntity
  8
1
  100
AcDbLine
  10
52.091958
  20
-3.304826
  30
0
  11
52.0827
  21
-3.320806
  31
0
  0
LINE
  5
35f
  100
AcDbEntity
  8
1
  100
AcDbLine
  10
52.0827
  20
-3.320806
  30
0
  11
52.0596
  21
-3.360278
  31
0
  0
LINE
  5
360
  100
AcDbEntity
  8
1
  100
AcDbLine
  10
52.0596
  20
-3.360278
  30
0
  11
52.0365
  21
-3.399282
  31
0
  0
LINE
  5
361
  100
AcDbEntity
  8
1
  100
AcDbLine
  10
52.0365
  20
-3.399282
  30
0
  11
52.0134
  21
-3.437924
  31
0
  0
LINE
  5
362
  100
AcDbEntity
  8
1
  100
AcDbLine
  10
52.0134
  20
-3.437924
  30
0
  11
51.9903
  21
-3.476286
  31
0
  0
LINE
  5
363
  100
AcDbEntity
  8
1
  100
AcDbLine
  10
51.9903
  20
-3.476286
  30
0
  11
51.9672
  21
-3.51445
  31
0
  0
LINE
  5
364
  100
AcDbEntity
  8
1
  100
AcDbLine
  10
51.9672
  20
-3.51445
  30
0
  11
51.9441
  21
-3.552451
  31
0
  0
LINE
  5
365
  100
AcDbEntity
  8
1
  100
AcDbLine
  10
51.9441
  20
-3.552451
  30
0
  11
51.921
  21
-3.590325
  31
0
  0
LINE
  5
366
  100
AcDbEntity
  8
1
  100
AcDbLine
  10
51.921
  20
-3.590325
  30
0
  11
51.8979
  21
-3.628106
  31
0
  0
LINE
  5
367
  100
AcDbEntity
  8
1
  100
AcDbLine
  10
51.8979
  20
-3.628106
  30
0
  11
51.8748
  21
-3.665849
  31
0
  0
LINE
  5
368
  100
AcDbEntity
  8
1
  100
AcDbLine
  10
51.8748
  20
-3.665849
  30
0
  11
51.8517
  21
-3.703573
  31
0
  0
LINE
  5
369
  100
AcDbEntity
  8
1
  100
AcDbLine
  10
51.8517
  20
-3.703573
  30
0
  11
51.8286
  21
-3.741272
  31
0
  0
LINE
  5
36a
  100
AcDbEntity
  8
1
  100
AcDbLine
  10
51.8286
  20
-3.741272
  30
0
  11
51.8055
  21
-3.778963
  31
0
  0
LINE
  5
36b
  100
AcDbEntity
  8
1
  100
AcDbLine
  10
51.8055
  20
-3.778963
  30
0
  11
51.7824
  21
-3.816728
  31
0
  0
LINE
  5
36c
  100
AcDbEntity
  8
1
  100
AcDbLine
  10
51.7824
  20
-3.816728
  30
0
  11
51.7593
  21
-3.854512
  31
0
  0
LINE
  5
36d
  100
AcDbEntity
  8
1
  100
AcDbLine
  10
51.7593
  20
-3.854512
  30
0
  11
51.7362
  21
-3.892323
  31
0
  0
LINE
  5
36e
  100
AcDbEntity
  8
1
  100
AcDbLine
  10
51.7362
  20
-3.892323
  30
0
  11
51.7131
  21
-3.930232
  31
0
  0
LINE
  5
36f
  100
AcDbEntity
  8
1
  100
AcDbLine
  10
51.7131
  20
-3.930232
  30
0
  11
51.69
  21
-3.968203
  31
0
  0
LINE
  5
370
  100
AcDbEntity
  8
1
  100
AcDbLine
  10
51.69
  20
-3.968203
  30
0
  11
51.6669
  21
-4.006224
  31
0
  0
LINE
  5
371
  100
AcDbEntity
  8
1
  100
AcDbLine
  10
51.6669
  20
-4.006224
  30
0
  11
51.6438
  21
-4.044366
  31
0
  0
LINE
  5
372
  100
AcDbEntity
  8
1
  100
AcDbLine
  10
51.6438
  20
-4.044366
  30
0
  11
51.6207
  21
-4.082592
  31
0
  0
LINE
  5
373
  100
AcDbEntity
  8
1
  100
AcDbLine
  10
51.6207
  20
-4.082592
  30
0
  11
51.5976
  21
-4.12088
  31
0
  0
LINE
  5
374
  100
AcDbEntity
  8
1
  100
AcDbLine
  10
51.5976
  20
-4.12088
  30
0
  11
51.5745
  21
-4.159317
  31
0
  0
LINE
  5
375
  100
AcDbEntity
  8
1
  100
AcDbLine
  10
51.5745
  20
-4.159317
  30
0
  11
51.5514
  21
-4.19784
  31
0
  0
LINE
  5
376
  100
AcDbEntity
  8
1
  100
AcDbLine
  10
51.5514
  20
-4.19784
  30
0
  11
51.5283
  21
-4.236434
  31
0
  0
LINE
  5
377
  100
AcDbEntity
  8
1
  100
AcDbLine
  10
51.5283
  20
-4.236434
  30
0
  11
51.5052
  21
-4.275205
  31
0
  0
LINE
  5
378
  100
AcDbEntity
  8
1
  100
AcDbLine
  10
51.5052
  20
-4.275205
  30
0
  11
51.4821
  21
-4.314052
  31
0
  0
LINE
  5
379
  100
AcDbEntity
  8
1
  100
AcDbLine
  10
51.4821
  20
-4.314052
  30
0
  11
51.459
  21
-4.352999
  31
0
  0
LINE
  5
37a
  100
AcDbEntity
  8
1
  100
AcDbLine
  10
51.459
  20
-4.352999
  30
0
  11
51.4359
  21
-4.392107
  31
0
  0
LINE
  5
37b
  100
AcDbEntity
  8
1
  100
AcDbLine
  10
51.4359
  20
-4.392107
  30
0
  11
51.4128
  21
-4.431294
  31
0
  0
LINE
  5
37c
  100
AcDbEntity
  8
1
  100
AcDbLine
  10
51.4128
  20
-4.431294
  30
0
  11
51.3897
  21
-4.47061
  31
0
  0
LINE
  5
37d
  100
AcDbEntity
  8
1
  100
AcDbLine
  10
51.3897
  20
-4.47061
  30
0
  11
51.3666
  21
-4.510064
  31
0
  0
LINE
  5
37e
  100
AcDbEntity
  8
1
  100
AcDbLine
  10
51.3666
  20
-4.510064
  30
0
  11
51.3435
  21
-4.549598
  31
0
  0
LINE
  5
37f
  100
AcDbEntity
  8
1
  100
AcDbLine
  10
51.3435
  20
-4.549598
  30
0
  11
51.3204
  21
-4.58929
  31
0
  0
LINE
  5
380
  100
AcDbEntity
  8
1
  100
AcDbLine
  10
51.3204
  20
-4.58929
  30
0
  11
51.2973
  21
-4.629092
  31
0
  0
LINE
  5
381
  100
AcDbEntity
  8
1
  100
AcDbLine
  10
51.2973
  20
-4.629092
  30
0
  11
51.2742
  21
-4.668974
  31
0
  0
LINE
  5
382
  100
AcDbEntity
  8
1
  100
AcDbLine
  10
51.2742
  20
-4.668974
  30
0
  11
51.2511
  21
-4.709039
  31
0
  0
LINE
  5
383
  100
AcDbEntity
  8
1
  100
AcDbLine
  10
51.2511
  20
-4.709039
  30
0
  11
51.228
  21
-4.749185
  31
0
  0
LINE
  5
384
  100
AcDbEntity
  8
1
  100
AcDbLine
  10
51.228
  20
-4.749185
  30
0
  11
51.2049
  21
-4.789431
  31
0
  0
LINE
  5
385
  100
AcDbEntity
  8
1
  100
AcDbLine
  10
51.2049
  20
-4.789431
  30
0
  11
51.1818
  21
-4.829836
  31
0
  0
LINE
  5
386
  100
AcDbEntity
  8
1
  100
AcDbLine
  10
51.1818
  20
-4.829836
  30
0
  11
51.1587
  21
-4.870316
  31
0
  0
LINE
  5
387
  100
AcDbEntity
  8
1
  100
AcDbLine
  10
51.1587
  20
-4.870316
  30
0
  11
51.1356
  21
-4.910914
  31
0
  0
LINE
  5
388
  100
AcDbEntity
  8
1
  100
AcDbLine
  10
51.1356
  20
-4.910914
  30
0
  11
51.1125
  21
-4.951643
  31
0
  0
LINE
  5
389
  100
AcDbEntity
  8
1
  100
AcDbLine
  10
51.1125
  20
-4.951643
  30
0
  11
51.0894
  21
-4.992442
  31
0
  0
LINE
  5
38a
  100
AcDbEntity
  8
1
  100
AcDbLine
  10
51.0894
  20
-4.992442
  30
0
  11
51.0663
  21
-5.033367
  31
0
  0
LINE
  5
38b
  100
AcDbEntity
  8
1
  100
AcDbLine
  10
51.0663
  20
-5.033367
  30
0
  11
51.0432
  21
-5.074401
  31
0
  0
LINE
  5
38c
  100
AcDbEntity
  8
1
  100
AcDbLine
  10
51.0432
  20
-5.074401
  30
0
  11
51.0201
  21
-5.115483
  31
0
  0
LINE
  5
38d
  100
AcDbEntity
  8
1
  100
AcDbLine
  10
51.0201
  20
-5.115483
  30
0
  11
50.997
  21
-5.156616
  31
0
  0
LINE
  5
38e
  100
AcDbEntity
  8
1
  100
AcDbLine
  10
50.997
  20
-5.156616
  30
0
  11
50.9739
  21
-5.197724
  31
0
  0
LINE
  5
38f
  100
AcDbEntity
  8
1
  100
AcDbLine
  10
50.9739
  20
-5.197724
  30
0
  11
50.9508
  21
-5.238808
  31
0
  0
LINE
  5
390
  100
AcDbEntity
  8
1
  100
AcDbLine
  10
50.9508
  20
-5.238808
  30
0
  11
50.9277
  21
-5.279869
  31
0
  0
LINE
  5
391
  100
AcDbEntity
  8
1
  100
AcDbLine
  10
50.9277
  20
-5.279869
  30
0
  11
50.9046
  21
-5.320908
  31
0
  0
LINE
  5
392
  100
AcDbEntity
  8
1
  100
AcDbLine
  10
50.9046
  20
-5.320908
  30
0
  11
50.8815
  21
-5.361924
  31
0
  0
LINE
  5
393
  100
AcDbEntity
  8
1
  100
AcDbLine
  10
50.8815
  20
-5.361924
  30
0
  11
50.8584
  21
-5.402919
  31
0
  0
LINE
  5
394
  100
AcDbEntity
  8
1
  100
AcDbLine
  10
50.8584
  20
-5.402919
  30
0
  11
50.8353
  21
-5.443893
  31
0
  0
LINE
  5
395
  100
AcDbEntity
  8
1
  100
AcDbLine
  10
50.8353
  20
-5.443893
  30
0
  11
50.8122
  21
-5.484846
  31
0
  0
LINE
  5
396
  100
AcDbEntity
  8
1
  100
AcDbLine
  10
50.8122
  20
-5.484846
  30
0
  11
50.7891
  21
-5.525779
  31
0
  0
LINE
  5
397
  100
AcDbEntity
  8
1
  100
AcDbLine
  10
50.7891
  20
-5.525779
  30
0
  11
50.766
  21
-5.566692
  31
0
  0
LINE
  5
398
  100
AcDbEntity
  8
1
  100
AcDbLine
  10
50.766
  20
-5.566692
  30
0
  11
50.7429
  21
-5.607586
  31
0
  0
LINE
  5
399
  100
AcDbEntity
  8
1
  100
AcDbLine
  10
50.7429
  20
-5.607586
  30
0
  11
50.7198
  21
-5.648462
  31
0
  0
LINE
  5
39a
  100
AcDbEntity
  8
1
  100
AcDbLine
  10
50.7198
  20
-5.648462
  30
0
  11
50.6967
  21
-5.689319
  31
0
  0
LINE
  5
39b
  100
AcDbEntity
  8
1
  100
AcDbLine
  10
50.6967
  20
-5.689319
  30
0
  11
50.6736
  21
-5.730158
  31
0
  0
LINE
  5
39c
  100
AcDbEntity
  8
1
  100
AcDbLine
  10
50.6736
  20
-5.730158
  30
0
  11
50.6505
  21
-5.770979
  31
0
  0
LINE
  5
39d
  100
AcDbEntity
  8
1
  100
AcDbLine
  10
50.6505
  20
-5.770979
  30
0
  11
50.6274
  21
-5.811783
  31
0
  0
LINE
  5
39e
  100
AcDbEntity
  8
1
  100
AcDbLine
  10
50.6274
  20
-5.811783
  30
0
  11
50.6043
  21
-5.852571
  31
0
  0
LINE
  5
39f
  100
AcDbEntity
  8
1
  100
AcDbLine
  10
50.6043
  20
-5.852571
  30
0
  11
50.5812
  21
-5.893342
  31
0
  0
LINE
  5
3a0
  100
AcDbEntity
  8
1
  100
AcDbLine
  10
50.5812
  20
-5.893342
  30
0
  11
50.5581
  21
-5.934096
  31
0
  0
LINE
  5
3a1
  100
AcDbEntity
  8
1
  100
AcDbLine
  10
50.5581
  20
-5.934096
  30
0
  11
50.535
  21
-5.974835
  31
0
  0
LINE
  5
3a2
  100
AcDbEntity
  8
1
  100
AcDbLine
  10
50.535
  20
-5.974835
  30
0
  11
50.5119
  21
-6.015559
  31
0
  0
LINE
  5
3a3
  100
AcDbEntity
  8
1
  100
AcDbLine
  10
50.5119
  20
-6.015559
  30
0
  11
50.4888
  21
-6.056268
  31
0
  0
LINE
  5
3a4
  100
AcDbEntity
  8
1
  100
AcDbLine
  10
50.4888
  20
-6.056268
  30
0
  11
50.4657
  21
-6.096961
  31
0
  0
LINE
  5
3a5
  100
AcDbEntity
  8
1
  100
AcDbLine
  10
50.4657
  20
-6.096961
  30
0
  11
50.4426
  21
-6.137641
  31
0
  0
LINE
  5
3a6
  100
AcDbEntity
  8
1
  100
AcDbLine
  10
50.4426
  20
-6.137641
  30
0
  11
50.4195
  21
-6.178306
  31
0
  0
LINE
  5
3a7
  100
AcDbEntity
  8
1
  100
AcDbLine
  10
50.4195
  20
-6.178306
  30
0
  11
50.3964
  21
-6.218957
  31
0
  0
LINE
  5
3a8
  100
AcDbEntity
  8
1
  100
AcDbLine
  10
50.3964
  20
-6.218957
  30
0
  11
50.3733
  21
-6.259594
  31
0
  0
LINE
  5
3a9
  100
AcDbEntity
  8
1
  100
AcDbLine
  10
50.3733
  20
-6.259594
  30
0
  11
50.3502
  21
-6.300218
  31
0
  0
LINE
  5
3aa
  100
AcDbEntity
  8
1
  100
AcDbLine
  10
50.3502
  20
-6.300218
  30
0
  11
50.3271
  21
-6.340829
  31
0
  0
LINE
  5
3ab
  100
AcDbEntity
  8
1
  100
AcDbLine
  10
50.3271
  20
-6.340829
  30
0
  11
50.304
  21
-6.381428
  31
0
  0
LINE
  5
3ac
  100
AcDbEntity
  8
1
  100
AcDbLine
  10
50.304
  20
-6.381428
  30
0
  11
50.2809
  21
-6.422013
  31
0
  0
LINE
  5
3ad
  100
AcDbEntity
  8
1
  100
AcDbLine
  10
50.2809
  20
-6.422013
  30
0
  11
50.2578
  21
-6.462586
  31
0
  0
LINE
  5
3ae
  100
AcDbEntity
  8
1
  100
AcDbLine
  10
50.2578
  20
-6.462586
  30
0
  11
50.2347
  21
-6.503148
  31
0
  0
LINE
  5
3af
  100
AcDbEntity
  8
1
  100
AcDbLine
  10
50.2347
  20
-6.503148
  30
0
  11
50.2116
  21
-6.543697
  31
0
  0
LINE
  5
3b0
  100
AcDbEntity
  8
1
  100
AcDbLine
  10
50.2116
  20
-6.543697
  30
0
  11
50.1885
  21
-6.584235
  31
0
  0
LINE
  5
3b1
  100
AcDbEntity
  8
1
  100
AcDbLine
  10
50.1885
  20
-6.584235
  30
0
  11
50.1654
  21
-6.624761
  31
0
  0
LINE
  5
3b2
  100
AcDbEntity
  8
1
  100
AcDbLine
  10
50.1654
  20
-6.624761
  30
0
  11
50.1423
  21
-6.665276
  31
0
  0
LINE
  5
3b3
  100
AcDbEntity
  8
1
  100
AcDbLine
  10
50.1423
  20
-6.665276
  30
0
  11
50.1192
  21
-6.70578
  31
0
  0
LINE
  5
3b4
  100
AcDbEntity
  8
1
  100
AcDbLine
  10
50.1192
  20
-6.70578
  30
0
  11
50.0961
  21
-6.746273
  31
0
  0
LINE
  5
3b5
  100
AcDbEntity
  8
1
  100
AcDbLine
  10
50.0961
  20
-6.746273
  30
0
  11
50.073
  21
-6.786756
  31
0
  0
LINE
  5
3b6
  100
AcDbEntity
  8
1
  100
AcDbLine
  10
50.073
  20
-6.786756
  30
0
  11
50.0499
  21
-6.827228
  31
0
  0
LINE
  5
3b7
  100
AcDbEntity
  8
1
  100
AcDbLine
  10
50.0499
  20
-6.827228
  30
0
  11
50.0268
  21
-6.86769
  31
0
  0
LINE
  5
3b8
  100
AcDbEntity
  8
1
  100
AcDbLine
  10
50.0268
  20
-6.86769
  30
0
  11
50.0037
  21
-6.908142
  31
0
  0
LINE
  5
3b9
  100
AcDbEntity
  8
1
  100
AcDbLine
  10
50.0037
  20
-6.908142
  30
0
  11
49.9806
  21
-6.948584
  31
0
  0
LINE
  5
3ba
  100
AcDbEntity
  8
1
  100
AcDbLine
  10
49.9806
  20
-6.948584
  30
0
  11
49.9575
  21
-6.989016
  31
0
  0
LINE
  5
3bb
  100
AcDbEntity
  8
1
  100
AcDbLine
  10
49.9575
  20
-6.989016
  30
0
  11
49.9344
  21
-7.029439
  31
0
  0
LINE
  5
3bc
  100
AcDbEntity
  8
1
  100
AcDbLine
  10
49.9344
  20
-7.029439
  30
0
  11
49.9113
  21
-7.069853
  31
0
  0
LINE
  5
3bd
  100
AcDbEntity
  8
1
  100
AcDbLine
  10
49.9113
  20
-7.069853
  30
0
  11
49.8882
  21
-7.110257
  31
0
  0
LINE
  5
3be
  100
AcDbEntity
  8
1
  100
AcDbLine
  10
49.8882
  20
-7.110257
  30
0
  11
49.8651
  21
-7.150653
  31
0
  0
LINE
  5
3bf
  100
AcDbEntity
  8
1
  100
AcDbLine
  10
49.8651
  20
-7.150653
  30
0
  11
49.842
  21
-7.191039
  31
0
  0
LINE
  5
3c0
  100
AcDbEntity
  8
1
  100
AcDbLine
  10
49.842
  20
-7.191039
  30
0
  11
49.8189
  21
-7.231417
  31
0
  0
LINE
  5
3c1
  100
AcDbEntity
  8
1
  100
AcDbLine
  10
49.8189
  20
-7.231417
  30
0
  11
49.7958
  21
-7.271786
  31
0
  0
LINE
  5
3c2
  100
AcDbEntity
  8
1
  100
AcDbLine
  10
49.7958
  20
-7.271786
  30
0
  11
49.7727
  21
-7.312147
  31
0
  0
LINE
  5
3c3
  100
AcDbEntity
  8
1
  100
AcDbLine
  10
49.7727
  20
-7.312147
  30
0
  11
49.7496
  21
-7.3525
  31
0
  0
LINE
  5
3c4
  100
AcDbEntity
  8
1
  100
AcDbLine
  10
49.7496
  20
-7.3525
  30
0
  11
49.7265
  21
-7.392844
  31
0
  0
LINE
  5
3c5
  100
AcDbEntity
  8
1
  100
AcDbLine
  10
49.7265
  20
-7.392844
  30
0
  11
49.7034
  21
-7.433181
  31
0
  0
LINE
  5
3c6
  100
AcDbEntity
  8
1
  100
AcDbLine
  10
49.7034
  20
-7.433181
  30
0
  11
49.6803
  21
-7.47351
  31
0
  0
LINE
  5
3c7
  100
AcDbEntity
  8
1
  100
AcDbLine
  10
49.6803
  20
-7.47351
  30
0
  11
49.6572
  21
-7.513831
  31
0
  0
LINE
  5
3c8
  100
AcDbEntity
  8
1
  100
AcDbLine
  10
49.6572
  20
-7.513831
  30
0
  11
49.6341
  21
-7.554144
  31
0
  0
LINE
  5
3c9
  100
AcDbEntity
  8
1
  100
AcDbLine
  10
49.6341
  20
-7.554144
  30
0
  11
49.611
  21
-7.59445
  31
0
  0
LINE
  5
3ca
  100
AcDbEntity
  8
1
  100
AcDbLine
  10
49.611
  20
-7.59445
  30
0
  11
49.5879
  21
-7.634748
  31
0
  0
LINE
  5
3cb
  100
AcDbEntity
  8
1
  100
AcDbLine
  10
49.5879
  20
-7.634748
  30
0
  11
49.5648
  21
-7.675039
  31
0
  0
LINE
  5
3cc
  100
AcDbEntity
  8
1
  100
AcDbLine
  10
49.5648
  20
-7.675039
  30
0
  11
49.5417
  21
-7.715324
  31
0
  0
LINE
  5
3cd
  100
AcDbEntity
  8
1
  100
AcDbLine
  10
49.5417
  20
-7.715324
  30
0
  11
49.5186
  21
-7.755601
  31
0
  0
LINE
  5
3ce
  100
AcDbEntity
  8
1
  100
AcDbLine
  10
49.5186
  20
-7.755601
  30
0
  11
49.4955
  21
-7.795871
  31
0
  0
LINE
  5
3cf
  100
AcDbEntity
  8
1
  100
AcDbLine
  10
49.4955
  20
-7.795871
  30
0
  11
49.4724
  21
-7.836134
  31
0
  0
LINE
  5
3d0
  100
AcDbEntity
  8
1
  100
AcDbLine
  10
49.4724
  20
-7.836134
  30
0
  11
49.4493
  21
-7.876391
  31
0
  0
LINE
  5
3d1
  100
AcDbEntity
  8
1
  100
AcDbLine
  10
49.4493
  20
-7.876391
  30
0
  11
49.4262
  21
-7.916641
  31
0
  0
LINE
  5
3d2
  100
AcDbEntity
  8
1
  100
AcDbLine
  10
49.4262
  20
-7.916641
  30
0
  11
49.4031
  21
-7.956885
  31
0
  0
LINE
  5
3d3
  100
AcDbEntity
  8
1
  100
AcDbLine
  10
49.4031
  20
-7.956885
  30
0
  11
49.38
  21
-7.997122
  31
0
  0
LINE
  5
3d4
  100
AcDbEntity
  8
1
  100
AcDbLine
  10
49.38
  20
-7.997122
  30
0
  11
49.3569
  21
-8.037353
  31
0
  0
LINE
  5
3d5
  100
AcDbEntity
  8
1
  100
AcDbLine
  10
49.3569
  20
-8.037353
  30
0
  11
49.3338
  21
-8.077578
  31
0
  0
LINE
  5
3d6
  100
AcDbEntity
  8
1
  100
AcDbLine
  10
49.3338
  20
-8.077578
  30
0
  11
49.3107
  21
-8.117797
  31
0
  0
LINE
  5
3d7
  100
AcDbEntity
  8
1
  100
AcDbLine
  10
49.3107
  20
-8.117797
  30
0
  11
49.2876
  21
-8.15801
  31
0
  0
LINE
  5
3d8
  100
AcDbEntity
  8
1
  100
AcDbLine
  10
49.2876
  20
-8.15801
  30
0
  11
49.2645
  21
-8.198217
  31
0
  0
LINE
  5
3d9
  100
AcDbEntity
  8
1
  100
AcDbLine
  10
49.2645
  20
-8.198217
  30
0
  11
49.2414
  21
-8.238418
  31
0
  0
LINE
  5
3da
  100
AcDbEntity
  8
1
  100
AcDbLine
  10
49.2414
  20
-8.238418
  30
0
  11
49.2183
  21
-8.278613
  31
0
  0
LINE
  5
3db
  100
AcDbEntity
  8
1
  100
AcDbLine
  10
49.2183
  20
-8.278613
  30
0
  11
49.1952
  21
-8.318803
  31
0
  0
LINE
  5
3dc
  100
AcDbEntity
  8
1
  100
AcDbLine
  10
49.1952
  20
-8.318803
  30
0
  11
49.1721
  21
-8.358987
  31
0
  0
LINE
  5
3dd
  100
AcDbEntity
  8
1
  100
AcDbLine
  10
49.1721
  20
-8.358987
  30
0
  11
49.149
  21
-8.399166
  31
0
  0
LINE
  5
3de
  100
AcDbEntity
  8
1
  100
AcDbLine
  10
49.149
  20
-8.399166
  30
0
  11
49.1259
  21
-8.439339
  31
0
  0
LINE
  5
3df
  100
AcDbEntity
  8
1
  100
AcDbLine
  10
49.1259
  20
-8.439339
  30
0
  11
49.1028
  21
-8.479507
  31
0
  0
LINE
  5
3e0
  100
AcDbEntity
  8
1
  100
AcDbLine
  10
49.1028
  20
-8.479507
  30
0
  11
49.0797
  21
-8.51967
  31
0
  0
LINE
  5
3e1
  100
AcDbEntity
  8
1
  100
AcDbLine
  10
49.0797
  20
-8.51967
  30
0
  11
49.0566
  21
-8.559827
  31
0
  0
LINE
  5
3e2
  100
AcDbEntity
  8
1
  100
AcDbLine
  10
49.0566
  20
-8.559827
  30
0
  11
49.0335
  21
-8.59998
  31
0
  0
LINE
  5
3e3
  100
AcDbEntity
  8
1
  100
AcDbLine
  10
49.0335
  20
-8.59998
  30
0
  11
49.0104
  21
-8.640127
  31
0
  0
LINE
  5
3e4
  100
AcDbEntity
  8
1
  100
AcDbLine
  10
49.0104
  20
-8.640127
  30
0
  11
48.9873
  21
-8.68027
  31
0
  0
LINE
  5
3e5
  100
AcDbEntity
  8
1
  100
AcDbLine
  10
48.9873
  20
-8.68027
  30
0
  11
48.9642
  21
-8.720407
  31
0
  0
LINE
  5
3e6
  100
AcDbEntity
  8
1
  100
AcDbLine
  10
48.9642
  20
-8.720407
  30
0
  11
48.9411
  21
-8.76054
  31
0
  0
LINE
  5
3e7
  100
AcDbEntity
  8
1
  100
AcDbLine
  10
48.9411
  20
-8.76054
  30
0
  11
48.918
  21
-8.800668
  31
0
  0
LINE
  5
3e8
  100
AcDbEntity
  8
1
  100
AcDbLine
  10
48.918
  20
-8.800668
  30
0
  11
48.8949
  21
-8.840792
  31
0
  0
LINE
  5
3e9
  100
AcDbEntity
  8
1
  100
AcDbLine
  10
48.8949
  20
-8.840792
  30
0
  11
48.8718
  21
-8.88091
  31
0
  0
LINE
  5
3ea
  100
AcDbEntity
  8
1
  100
AcDbLine
  10
48.8718
  20
-8.88091
  30
0
  11
48.8487
  21
-8.921025
  31
0
  0
LINE
  5
3eb
  100
AcDbEntity
  8
1
  100
AcDbLine
  10
48.8487
  20
-8.921025
  30
0
  11
48.8256
  21
-8.961134
  31
0
  0
LINE
  5
3ec
  100
AcDbEntity
  8
1
  100
AcDbLine
  10
48.8256
  20
-8.961134
  30
0
  11
48.8025
  21
-9.00124
  31
0
  0
LINE
  5
3ed
  100
AcDbEntity
  8
1
  100
AcDbLine
  10
48.8025
  20
-9.00124
  30
0
  11
48.7794
  21
-9.041341
  31
0
  0
LINE
  5
3ee
  100
AcDbEntity
  8
1
  100
AcDbLine
  10
48.7794
  20
-9.041341
  30
0
  11
48.7563
  21
-9.081437
  31
0
  0
LINE
  5
3ef
  100
AcDbEntity
  8
1
  100
AcDbLine
  10
48.7563
  20
-9.081437
  30
0
  11
48.7332
  21
-9.12153
  31
0
  0
LINE
  5
3f0
  100
AcDbEntity
  8
1
  100
AcDbLine
  10
48.7332
  20
-9.12153
  30
0
  11
48.7101
  21
-9.161618
  31
0
  0
LINE
  5
3f1
  100
AcDbEntity
  8
1
  100
AcDbLine
  10
48.7101
  20
-9.161618
  30
0
  11
48.687
  21
-9.201702
  31
0
  0
LINE
  5
3f2
  100
AcDbEntity
  8
1
  100
AcDbLine
  10
48.687
  20
-9.201702
  30
0
  11
48.6639
  21
-9.241782
  31
0
  0
LINE
  5
3f3
  100
AcDbEntity
  8
1
  100
AcDbLine
  10
48.6639
  20
-9.241782
  30
0
  11
48.6408
  21
-9.281858
  31
0
  0
LINE
  5
3f4
  100
AcDbEntity
  8
1
  100
AcDbLine
  10
48.6408
  20
-9.281858
  30
0
  11
48.6177
  21
-9.32193
  31
0
  0
LINE
  5
3f5
  100
AcDbEntity
  8
1
  100
AcDbLine
  10
48.6177
  20
-9.32193
  30
0
  11
48.5946
  21
-9.361998
  31
0
  0
LINE
  5
3f6
  100
AcDbEntity
  8
1
  100
AcDbLine
  10
48.5946
  20
-9.361998
  30
0
  11
48.5715
  21
-9.402062
  31
0
  0
LINE
  5
3f7
  100
AcDbEntity
  8
1
  100
AcDbLine
  10
48.5715
  20
-9.402062
  30
0
  11
48.5484
  21
-9.442123
  31
0
  0
LINE
  5
3f8
  100
AcDbEntity
  8
1
  100
AcDbLine
  10
48.5484
  20
-9.442123
  30
0
  11
48.5253
  21
-9.482179
  31
0
  0
LINE
  5
3f9
  100
AcDbEntity
  8
1
  100
AcDbLine
  10
48.5253
  20
-9.482179
  30
0
  11
48.5022
  21
-9.522232
  31
0
  0
LINE
  5
3fa
  100
AcDbEntity
  8
1
  100
AcDbLine
  10
48.5022
  20
-9.522232
  30
0
  11
48.4791
  21
-9.562281
  31
0
  0
LINE
  5
3fb
  100
AcDbEntity
  8
1
  100
AcDbLine
  10
48.4791
  20
-9.562281
  30
0
  11
48.456
  21
-9.602327
  31
0
  0
LINE
  5
3fc
  100
AcDbEntity
  8
1
  100
AcDbLine
  10
48.456
  20
-9.602327
  30
0
  11
48.4329
  21
-9.642369
  31
0
  0
LINE
  5
3fd
  100
AcDbEntity
  8
1
  100
AcDbLine
  10
48.4329
  20
-9.642369
  30
0
  11
48.4098
  21
-9.682408
  31
0
  0
LINE
  5
3fe
  100
AcDbEntity
  8
1
  100
AcDbLine
  10
48.4098
  20
-9.682408
  30
0
  11
48.3867
  21
-9.722443
  31
0
  0
LINE
  5
3ff
  100
AcDbEntity
  8
1
  100
AcDbLine
  10
48.3867
  20
-9.722443
  30
0
  11
48.3636
  21
-9.762474
  31
0
  0
LINE
  5
400
  100
AcDbEntity
  8
1
  100
AcDbLine
  10
48.3636
  20
-9.762474
  30
0
  11
48.3405
  21
-9.802502
  31
0
  0
LINE
  5
401
  100
AcDbEntity
  8
1
  100
AcDbLine
  10
48.3405
  20
-9.802502
  30
0
  11
48.3174
  21
-9.842527
  31
0
  0
LINE
  5
402
  100
AcDbEntity
  8
1
  100
AcDbLine
  10
48.3174
  20
-9.842527
  30
0
  11
48.2943
  21
-9.882549
  31
0
  0
LINE
  5
403
  100
AcDbEntity
  8
1
  100
AcDbLine
  10
48.2943
  20
-9.882549
  30
0
  11
48.2712
  21
-9.922567
  31
0
  0
LINE
  5
404
  100
AcDbEntity
  8
1
  100
AcDbLine
  10
48.2712
  20
-9.922567
  30
0
  11
48.2481
  21
-9.962582
  31
0
  0
LINE
  5
405
  100
AcDbEntity
  8
1
  100
AcDbLine
  10
48.2481
  20
-9.962582
  30
0
  11
48.216449
  21
-10
  31
0
  0
LINE
  5
406
  100
AcDbEntity
  8
1
  100
AcDbLine
  10
48.226497
  20
-10
  30
0
  11
48.226497
  21
10
  31
0
  0
LINE
  5
407
  100
AcDbEntity
  8
1
  100
AcDbLine
  10
48.216449
  20
10
  30
0
  11
48.2019
  21
10
  31
0
  0
LINE
  5
408
  100
AcDbEntity
  8
1
  100
AcDbLine
  10
48.2019
  20
10
  30
0
  11
48.1788
  21
9.999995
  31
0
  0
LINE
  5
409
  100
AcDbEntity
  8
1
  100
AcDbLine
  10
48.1788
  20
9.999995
  30
0
  11
48.1557
  21
9.999976
  31
0
  0
LINE
  5
40a
  100
AcDbEntity
  8
1
  100
AcDbLine
  10
48.1557
  20
9.999976
  30
0
  11
48.1326
  21
9.999925
  31
0
  0
LINE
  5
40b
  100
AcDbEntity
  8
1
  100
AcDbLine
  10
48.1326
  20
9.999925
  30
0
  11
48.1095
  21
9.999818
  31
0
  0
LINE
  5
40c
  100
AcDbEntity
  8
1
  100
AcDbLine
  10
48.1095
  20
9.999818
  30
0
  11
48.0864
  21
9.999624
  31
0
  0
LINE
  5
40d
  100
AcDbEntity
  8
1
  100
AcDbLine
  10
48.0864
  20
9.999624
  30
0
  11
48.0633
  21
9.999304
  31
0
  0
LINE
  5
40e
  100
AcDbEntity
  8
1
  100
AcDbLine
  10
48.0633
  20
9.999304
  30
0
  11
48.0402
  21
9.998816
  31
0
  0
LINE
  5
40f
  100
AcDbEntity
  8
1
  100
AcDbLine
  10
48.0402
  20
9.998816
  30
0
  11
48.0171
  21
9.998108
  31
0
  0
LINE
  5
410
  100
AcDbEntity
  8
1
  100
AcDbLine
  10
48.0171
  20
9.998108
  30
0
  11
47.994
  21
9.997126
  31
0
  0
LINE
  5
411
  100
AcDbEntity
  8
1
  100
AcDbLine
  10
47.994
  20
9.997126
  30
0
  11
47.9709
  21
9.995807
  31
0
  0
LINE
  5
412
  100
AcDbEntity
  8
1
  100
AcDbLine
  10
47.9709
  20
9.995807
  30
0
  11
47.9478
  21
9.994084
  31
0
  0
LINE
  5
413
  100
AcDbEntity
  8
1
  100
AcDbLine
  10
47.9478
  20
9.994084
  30
0
  11
47.9247
  21
9.991885
  31
0
  0
LINE
  5
414
  100
AcDbEntity
  8
1
  100
AcDbLine
  10
47.9247
  20
9.991885
  30
0
  11
47.9016
  21
9.989134
  31
0
  0
LINE
  5
415
  100
AcDbEntity
  8
1
  100
AcDbLine
  10
47.9016
  20
9.989134
  30
0
  11
47.8785
  21
9.98575
  31
0
  0
LINE
  5
416
  100
AcDbEntity
  8
1
  100
AcDbLine
  10
47.8785
  20
9.98575
  30
0
  11
47.8554
  21
9.981648
  31
0
  0
LINE
  5
417
  100
AcDbEntity
  8
1
  100
AcDbLine
  10
47.8554
  20
9.981648
  30
0
  11
47.8323
  21
9.97674
  31
0
  0
LINE
  5
418
  100
AcDbEntity
  8
1
  100
AcDbLine
  10
47.8323
  20
9.97674
  30
0
  11
47.8092
  21
9.970937
  31
0
  0
LINE
  5
419
  100
AcDbEntity
  8
1
  100
AcDbLine
  10
47.8092
  20
9.970937
  30
0
  11
47.7861
  21
9.964144
  31
0
  0
LINE
  5
41a
  100
AcDbEntity
  8
1
  100
AcDbLine
  10
47.7861
  20
9.964144
  30
0
  11
47.763
  21
9.956268
  31
0
  0
LINE
  5
41b
  100
AcDbEntity
  8
1
  100
AcDbLine
  10
47.763
  20
9.956268
  30
0
  11
47.7399
  21
9.947211
  31
0
  0
LINE
  5
41c
  100
AcDbEntity
  8
1
  100
AcDbLine
  10
47.7399
  20
9.947211
  30
0
  11
47.7168
  21
9.936877
  31
0
  0
LINE
  5
41d
  100
AcDbEntity
  8
1
  100
AcDbLine
  10
47.7168
  20
9.936877
  30
0
  11
47.6937
  21
9.925169
  31
0
  0
LINE
  5
41e
  100
AcDbEntity
  8
1
  100
AcDbLine
  10
47.6937
  20
9.925169
  30
0
  11
47.6706
  21
9.91199
  31
0
  0
LINE
  5
41f
  100
AcDbEntity
  8
1
  100
AcDbLine
  10
47.6706
  20
9.91199
  30
0
  11
47.6475
  21
9.897245
  31
0
  0
LINE
  5
420
  100
AcDbEntity
  8
1
  100
AcDbLine
  10
47.6475
  20
9.897245
  30
0
  11
47.6244
  21
9.880839
  31
0
  0
LINE
  5
421
  100
AcDbEntity
  8
1
  100
AcDbLine
  10
47.6244
  20
9.880839
  30
0
  11
47.6013
  21
9.86268
  31
0
  0
LINE
  5
422
  100
AcDbEntity
  8
1
  100
AcDbLine
  10
47.6013
  20
9.86268
  30
0
  11
47.5782
  21
9.842679
  31
0
  0
LINE
  5
423
  100
AcDbEntity
  8
1
  100
AcDbLine
  10
47.5782
  20
9.842679
  30
0
  11
47.5551
  21
9.82075
  31
0
  0
LINE
  5
424
  100
AcDbEntity
  8
1
  100
AcDbLine
  10
47.5551
  20
9.82075
  30
0
  11
47.532
  21
9.796811
  31
0
  0
LINE
  5
425
  100
AcDbEntity
  8
1
  100
AcDbLine
  10
47.532
  20
9.796811
  30
0
  11
47.5089
  21
9.770783
  31
0
  0
LINE
  5
426
  100
AcDbEntity
  8
1
  100
AcDbLine
  10
47.5089
  20
9.770783
  30
0
  11
47.4858
  21
9.742594
  31
0
  0
LINE
  5
427
  100
AcDbEntity
  8
1
  100
AcDbLine
  10
47.4858
  20
9.742594
  30
0
  11
47.4627
  21
9.712177
  31
0
  0
LINE
  5
428
  100
AcDbEntity
  8
1
  100
AcDbLine
  10
47.4627
  20
9.712177
  30
0
  11
47.4396
  21
9.67947
  31
0
  0
LINE
  5
429
  100
AcDbEntity
  8
1
  100
AcDbLine
  10
47.4396
  20
9.67947
  30
0
  11
47.4165
  21
9.644418
  31
0
  0
LINE
  5
42a
  100
AcDbEntity
  8
1
  100
AcDbLine
  10
47.4165
  20
9.644418
  30
0
  11
47.3934
  21
9.606973
  31
0
  0
LINE
  5
42b
  100
AcDbEntity
  8
1
  100
AcDbLine
  10
47.3934
  20
9.606973
  30
0
  11
47.3703
  21
9.567094
  31
0
  0
LINE
  5
42c
  100
AcDbEntity
  8
1
  100
AcDbLine
  10
47.3703
  20
9.567094
  30
0
  11
47.3472
  21
9.524749
  31
0
  0
LINE
  5
42d
  100
AcDbEntity
  8
1
  100
AcDbLine
  10
47.3472
  20
9.524749
  30
0
  11
47.3241
  21
9.479912
  31
0
  0
LINE
  5
42e
  100
AcDbEntity
  8
1
  100
AcDbLine
  10
47.3241
  20
9.479912
  30
0
  11
47.301
  21
9.432567
  31
0
  0
LINE
  5
42f
  100
AcDbEntity
  8
1
  100
AcDbLine
  10
47.301
  20
9.432567
  30
0
  11
47.2779
  21
9.382706
  31
0
  0
LINE
  5
430
  100
AcDbEntity
  8
1
  100
AcDbLine
  10
47.2779
  20
9.382706
  30
0
  11
47.2548
  21
9.33033
  31
0
  0
LINE
  5
431
  100
AcDbEntity
  8
1
  100
AcDbLine
  10
47.2548
  20
9.33033
  30
0
  11
47.2317
  21
9.275449
  31
0
  0
LINE
  5
432
  100
AcDbEntity
  8
1
  100
AcDbLine
  10
47.2317
  20
9.275449
  30
0
  11
47.2086
  21
9.218082
  31
0
  0
LINE
  5
433
  100
AcDbEntity
  8
1
  100
AcDbLine
  10
47.2086
  20
9.218082
  30
0
  11
47.1855
  21
9.158258
  31
0
  0
LINE
  5
434
  100
AcDbEntity
  8
1
  100
AcDbLine
  10
47.1855
  20
9.158258
  30
0
  11
47.1624
  21
9.096015
  31
0
  0
LINE
  5
435
  100
AcDbEntity
  8
1
  100
AcDbLine
  10
47.1624
  20
9.096015
  30
0
  11
47.1393
  21
9.031401
  31
0
  0
LINE
  5
436
  100
AcDbEntity
  8
1
  100
AcDbLine
  10
47.1393
  20
9.031401
  30
0
  11
47.1162
  21
8.964472
  31
0
  0
LINE
  5
437
  100
AcDbEntity
  8
1
  100
AcDbLine
  10
47.1162
  20
8.964472
  30
0
  11
47.0931
  21
8.895294
  31
0
  0
LINE
  5
438
  100
AcDbEntity
  8
1
  100
AcDbLine
  10
47.0931
  20
8.895294
  30
0
  11
47.07
  21
8.823944
  31
0
  0
LINE
  5
439
  100
AcDbEntity
  8
1
  100
AcDbLine
  10
47.07
  20
8.823944
  30
0
  11
47.07
  21
8.700203
  31
0
  0
LINE
  5
43a
  100
AcDbEntity
  8
1
  100
AcDbLine
  10
47.07
  20
8.700203
  30
0
  11
47.0931
  21
8.583092
  31
0
  0
LINE
  5
43b
  100
AcDbEntity
  8
1
  100
AcDbLine
  10
47.0931
  20
8.583092
  30
0
  11
47.1162
  21
8.461453
  31
0
  0
LINE
  5
43c
  100
AcDbEntity
  8
1
  100
AcDbLine
  10
47.1162
  20
8.461453
  30
0
  11
47.1393
  21
8.335492
  31
0
  0
LINE
  5
43d
  100
AcDbEntity
  8
1
  100
AcDbLine
  10
47.1393
  20
8.335492
  30
0
  11
47.1624
  21
8.205434
  31
0
  0
LINE
  5
43e
  100
AcDbEntity
  8
1
  100
AcDbLine
  10
47.1624
  20
8.205434
  30
0
  11
47.1855
  21
8.071524
  31
0
  0
LINE
  5
43f
  100
AcDbEntity
  8
1
  100
AcDbLine
  10
47.1855
  20
8.071524
  30
0
  11
47.2086
  21
7.934023
  31
0
  0
LINE
  5
440
  100
AcDbEntity
  8
1
  100
AcDbLine
  10
47.2086
  20
7.934023
  30
0
  11
47.2317
  21
7.793207
  31
0
  0
LINE
  5
441
  100
AcDbEntity
  8
1
  100
AcDbLine
  10
47.2317
  20
7.793207
  30
0
  11
47.2548
  21
7.649369
  31
0
  0
LINE
  5
442
  100
AcDbEntity
  8
1
  100
AcDbLine
  10
47.2548
  20
7.649369
  30
0
  11
47.2779
  21
7.502814
  31
0
  0
LINE
  5
443
  100
AcDbEntity
  8
1
  100
AcDbLine
  10
47.2779
  20
7.502814
  30
0
  11
47.301
  21
7.353859
  31
0
  0
LINE
  5
444
  100
AcDbEntity
  8
1
  100
AcDbLine
  10
47.301
  20
7.353859
  30
0
  11
47.3241
  21
7.20283
  31
0
  0
LINE
  5
445
  100
AcDbEntity
  8
1
  100
AcDbLine
  10
47.3241
  20
7.20283
  30
0
  11
47.3472
  21
7.050065
  31
0
  0
LINE
  5
446
  100
AcDbEntity
  8
1
  100
AcDbLine
  10
47.3472
  20
7.050065
  30
0
  11
47.3703
  21
6.895905
  31
0
  0
LINE
  5
447
  100
AcDbEntity
  8
1
  100
AcDbLine
  10
47.3703
  20
6.895905
  30
0
  11
47.3934
  21
6.740702
  31
0
  0
LINE
  5
448
  100
AcDbEntity
  8
1
  100
AcDbLine
  10
47.3934
  20
6.740702
  30
0
  11
47.4165
  21
6.584808
  31
0
  0
LINE
  5
449
  100
AcDbEntity
  8
1
  100
AcDbLine
  10
47.4165
  20
6.584808
  30
0
  11
47.4396
  21
6.428579
  31
0
  0
LINE
  5
44a
  100
AcDbEntity
  8
1
  100
AcDbLine
  10
47.4396
  20
6.428579
  30
0
  11
47.4627
  21
6.272374
  31
0
  0
LINE
  5
44b
  100
AcDbEntity
  8
1
  100
AcDbLine
  10
47.4627
  20
6.272374
  30
0
  11
47.4858
  21
6.116549
  31
0
  0
LINE
  5
44c
  100
AcDbEntity
  8
1
  100
AcDbLine
  10
47.4858
  20
6.116549
  30
0
  11
47.5089
  21
5.961461
  31
0
  0
LINE
  5
44d
  100
AcDbEntity
  8
1
  100
AcDbLine
  10
47.5089
  20
5.961461
  30
0
  11
47.532
  21
5.807463
  31
0
  0
LINE
  5
44e
  100
AcDbEntity
  8
1
  100
AcDbLine
  10
47.532
  20
5.807463
  30
0
  11
47.5551
  21
5.654904
  31
0
  0
LINE
  5
44f
  100
AcDbEntity
  8
1
  100
AcDbLine
  10
47.5551
  20
5.654904
  30
0
  11
47.5782
  21
5.504129
  31
0
  0
LINE
  5
450
  100
AcDbEntity
  8
1
  100
AcDbLine
  10
47.5782
  20
5.504129
  30
0
  11
47.6013
  21
5.355473
  31
0
  0
LINE
  5
451
  100
AcDbEntity
  8
1
  100
AcDbLine
  10
47.6013
  20
5.355473
  30
0
  11
47.6244
  21
5.209269
  31
0
  0
LINE
  5
452
  100
AcDbEntity
  8
1
  100
AcDbLine
  10
47.6244
  20
5.209269
  30
0
  11
47.6475
  21
5.065837
  31
0
  0
LINE
  5
453
  100
AcDbEntity
  8
1
  100
AcDbLine
  10
47.6475
  20
5.065837
  30
0
  11
47.6706
  21
4.925491
  31
0
  0
LINE
  5
454
  100
AcDbEntity
  8
1
  100
AcDbLine
  10
47.6706
  20
4.925491
  30
0
  11
47.6937
  21
4.788533
  31
0
  0
LINE
  5
455
  100
AcDbEntity
  8
1
  100
AcDbLine
  10
47.6937
  20
4.788533
  30
0
  11
47.7168
  21
4.655255
  31
0
  0
LINE
  5
456
  100
AcDbEntity
  8
1
  100
AcDbLine
  10
47.7168
  20
4.655255
  30
0
  11
47.7399
  21
4.525939
  31
0
  0
LINE
  5
457
  100
AcDbEntity
  8
1
  100
AcDbLine
  10
47.7399
  20
4.525939
  30
0
  11
47.763
  21
4.400854
  31
0
  0
LINE
  5
458
  100
AcDbEntity
  8
1
  100
AcDbLine
  10
47.763
  20
4.400854
  30
0
  11
47.7861
  21
4.280257
  31
0
  0
LINE
  5
459
  100
AcDbEntity
  8
1
  100
AcDbLine
  10
47.7861
  20
4.280257
  30
0
  11
47.8092
  21
4.164394
  31
0
  0
LINE
  5
45a
  100
AcDbEntity
  8
1
  100
AcDbLine
  10
47.8092
  20
4.164394
  30
0
  11
47.8323
  21
4.053495
  31
0
  0
LINE
  5
45b
  100
AcDbEntity
  8
1
  100
AcDbLine
  10
47.8323
  20
4.053495
  30
0
  11
47.8554
  21
3.947782
  31
0
  0
LINE
  5
45c
  100
AcDbEntity
  8
1
  100
AcDbLine
  10
47.8554
  20
3.947782
  30
0
  11
47.8785
  21
3.84746
  31
0
  0
LINE
  5
45d
  100
AcDbEntity
  8
1
  100
AcDbLine
  10
47.8785
  20
3.84746
  30
0
  11
47.9016
  21
3.752722
  31
0
  0
LINE
  5
45e
  100
AcDbEntity
  8
1
  100
AcDbLine
  10
47.9016
  20
3.752722
  30
0
  11
47.9247
  21
3.663749
  31
0
  0
LINE
  5
45f
  100
AcDbEntity
  8
1
  100
AcDbLine
  10
47.9247
  20
3.663749
  30
0
  11
47.9478
  21
3.580707
  31
0
  0
LINE
  5
460
  100
AcDbEntity
  8
1
  100
AcDbLine
  10
47.9478
  20
3.580707
  30
0
  11
47.9709
  21
3.503751
  31
0
  0
LINE
  5
461
  100
AcDbEntity
  8
1
  100
AcDbLine
  10
47.9709
  20
3.503751
  30
0
  11
47.994
  21
3.433022
  31
0
  0
LINE
  5
462
  100
AcDbEntity
  8
1
  100
AcDbLine
  10
47.994
  20
3.433022
  30
0
  11
48.0171
  21
3.368647
  31
0
  0
LINE
  5
463
  100
AcDbEntity
  8
1
  100
AcDbLine
  10
48.0171
  20
3.368647
  30
0
  11
48.0402
  21
3.310742
  31
0
  0
LINE
  5
464
  100
AcDbEntity
  8
1
  100
AcDbLine
  10
48.0402
  20
3.310742
  30
0
  11
48.0633
  21
3.259411
  31
0
  0
LINE
  5
465
  100
AcDbEntity
  8
1
  100
AcDbLine
  10
48.0633
  20
3.259411
  30
0
  11
48.0864
  21
3.214742
  31
0
  0
LINE
  5
466
  100
AcDbEntity
  8
1
  100
AcDbLine
  10
48.0864
  20
3.214742
  30
0
  11
48.1095
  21
3.176814
  31
0
  0
LINE
  5
467
  100
AcDbEntity
  8
1
  100
AcDbLine
  10
48.1095
  20
3.176814
  30
0
  11
48.1326
  21
3.145693
  31
0
  0
LINE
  5
468
  100
AcDbEntity
  8
1
  100
AcDbLine
  10
48.1326
  20
3.145693
  30
0
  11
48.1557
  21
3.121433
  31
0
  0
LINE
  5
469
  100
AcDbEntity
  8
1
  100
AcDbLine
  10
48.1557
  20
3.121433
  30
0
  11
48.1788
  21
3.104075
  31
0
  0
LINE
  5
46a
  100
AcDbEntity
  8
1
  100
AcDbLine
  10
48.1788
  20
3.104075
  30
0
  11
48.2019
  21
3.093648
  31
0
  0
LINE
  5
46b
  100
AcDbEntity
  8
1
  100
AcDbLine
  10
48.2019
  20
3.093648
  30
0
  11
48.2481
  21
3.088932
  31
0
  0
LINE
  5
46c
  100
AcDbEntity
  8
1
  100
AcDbLine
  10
48.2481
  20
3.088932
  30
0
  11
48.2712
  21
3.087607
  31
0
  0
LINE
  5
46d
  100
AcDbEntity
  8
1
  100
AcDbLine
  10
48.2712
  20
3.087607
  30
0
  11
48.2943
  21
3.086282
  31
0
  0
LINE
  5
46e
  100
AcDbEntity
  8
1
  100
AcDbLine
  10
48.2943
  20
3.086282
  30
0
  11
48.3174
  21
3.084957
  31
0
  0
LINE
  5
46f
  100
AcDbEntity
  8
1
  100
AcDbLine
  10
48.3174
  20
3.084957
  30
0
  11
48.3405
  21
3.083631
  31
0
  0
LINE
  5
470
  100
AcDbEntity
  8
1
  100
AcDbLine
  10
48.3405
  20
3.083631
  30
0
  11
48.3636
  21
3.082304
  31
0
  0
LINE
  5
471
  100
AcDbEntity
  8
1
  100
AcDbLine
  10
48.3636
  20
3.082304
  30
0
  11
48.3867
  21
3.080977
  31
0
  0
LINE
  5
472
  100
AcDbEntity
  8
1
  100
AcDbLine
  10
48.3867
  20
3.080977
  30
0
  11
48.4098
  21
3.07965
  31
0
  0
LINE
  5
473
  100
AcDbEntity
  8
1
  100
AcDbLine
  10
48.4098
  20
3.07965
  30
0
  11
48.4329
  21
3.078322
  31
0
  0
LINE
  5
474
  100
AcDbEntity
  8
1
  100
AcDbLine
  10
48.4329
  20
3.078322
  30
0
  11
48.456
  21
3.076994
  31
0
  0
LINE
  5
475
  100
AcDbEntity
  8
1
  100
AcDbLine
  10
48.456
  20
3.076994
  30
0
  11
48.4791
  21
3.075665
  31
0
  0
LINE
  5
476
  100
AcDbEntity
  8
1
  100
AcDbLine
  10
48.4791
  20
3.075665
  30
0
  11
48.5022
  21
3.074336
  31
0
  0
LINE
  5
477
  100
AcDbEntity
  8
1
  100
AcDbLine
  10
48.5022
  20
3.074336
  30
0
  11
48.5253
  21
3.073006
  31
0
  0
LINE
  5
478
  100
AcDbEntity
  8
1
  100
AcDbLine
  10
48.5253
  20
3.073006
  30
0
  11
48.5484
  21
3.071675
  31
0
  0
LINE
  5
479
  100
AcDbEntity
  8
1
  100
AcDbLine
  10
48.5484
  20
3.071675
  30
0
  11
48.5715
  21
3.070344
  31
0
  0
LINE
  5
47a
  100
AcDbEntity
  8
1
  100
AcDbLine
  10
48.5715
  20
3.070344
  30
0
  11
48.5946
  21
3.069013
  31
0
  0
LINE
  5
47b
  100
AcDbEntity
  8
1
  100
AcDbLine
  10
48.5946
  20
3.069013
  30
0
  11
48.6177
  21
3.067681
  31
0
  0
LINE
  5
47c
  100
AcDbEntity
  8
1
  100
AcDbLine
  10
48.6177
  20
3.067681
  30
0
  11
48.6408
  21
3.066348
  31
0
  0
LINE
  5
47d
  100
AcDbEntity
  8
1
  100
AcDbLine
  10
48.6408
  20
3.066348
  30
0
  11
48.6639
  21
3.065015
  31
0
  0
LINE
  5
47e
  100
AcDbEntity
  8
1
  100
AcDbLine
  10
48.6639
  20
3.065015
  30
0
  11
48.687
  21
3.063681
  31
0
  0
LINE
  5
47f
  100
AcDbEntity
  8
1
  100
AcDbLine
  10
48.687
  20
3.063681
  30
0
  11
48.7101
  21
3.062347
  31
0
  0
LINE
  5
480
  100
AcDbEntity
  8
1
  100
AcDbLine
  10
48.7101
  20
3.062347
  30
0
  11
48.7332
  21
3.061012
  31
0
  0
LINE
  5
481
  100
AcDbEntity
  8
1
  100
AcDbLine
  10
48.7332
  20
3.061012
  30
0
  11
48.7563
  21
3.059676
  31
0
  0
LINE
  5
482
  100
AcDbEntity
  8
1
  100
AcDbLine
  10
48.7563
  20
3.059676
  30
0
  11
48.7794
  21
3.05834
  31
0
  0
LINE
  5
483
  100
AcDbEntity
  8
1
  100
AcDbLine
  10
48.7794
  20
3.05834
  30
0
  11
48.8025
  21
3.057003
  31
0
  0
LINE
  5
484
  100
AcDbEntity
  8
1
  100
AcDbLine
  10
48.8025
  20
3.057003
  30
0
  11
48.8256
  21
3.055666
  31
0
  0
LINE
  5
485
  100
AcDbEntity
  8
1
  100
AcDbLine
  10
48.8256
  20
3.055666
  30
0
  11
48.8487
  21
3.054327
  31
0
  0
LINE
  5
486
  100
AcDbEntity
  8
1
  100
AcDbLine
  10
48.8487
  20
3.054327
  30
0
  11
48.8718
  21
3.052989
  31
0
  0
LINE
  5
487
  100
AcDbEntity
  8
1
  100
AcDbLine
  10
48.8718
  20
3.052989
  30
0
  11
48.8949
  21
3.051649
  31
0
  0
LINE
  5
488
  100
AcDbEntity
  8
1
  100
AcDbLine
  10
48.8949
  20
3.051649
  30
0
  11
48.918
  21
3.050309
  31
0
  0
LINE
  5
489
  100
AcDbEntity
  8
1
  100
AcDbLine
  10
48.918
  20
3.050309
  30
0
  11
48.9411
  21
3.048969
  31
0
  0
LINE
  5
48a
  100
AcDbEntity
  8
1
  100
AcDbLine
  10
48.9411
  20
3.048969
  30
0
  11
48.9642
  21
3.047627
  31
0
  0
LINE
  5
48b
  100
AcDbEntity
  8
1
  100
AcDbLine
  10
48.9642
  20
3.047627
  30
0
  11
48.9873
  21
3.046285
  31
0
  0
LINE
  5
48c
  100
AcDbEntity
  8
1
  100
AcDbLine
  10
48.9873
  20
3.046285
  30
0
  11
49.0104
  21
3.044942
  31
0
  0
LINE
  5
48d
  100
AcDbEntity
  8
1
  100
AcDbLine
  10
49.0104
  20
3.044942
  30
0
  11
49.0335
  21
3.043599
  31
0
  0
LINE
  5
48e
  100
AcDbEntity
  8
1
  100
AcDbLine
  10
49.0335
  20
3.043599
  30
0
  11
49.0566
  21
3.042254
  31
0
  0
LINE
  5
48f
  100
AcDbEntity
  8
1
  100
AcDbLine
  10
49.0566
  20
3.042254
  30
0
  11
49.0797
  21
3.040909
  31
0
  0
LINE
  5
490
  100
AcDbEntity
  8
1
  100
AcDbLine
  10
49.0797
  20
3.040909
  30
0
  11
49.1028
  21
3.039564
  31
0
  0
LINE
  5
491
  100
AcDbEntity
  8
1
  100
AcDbLine
  10
49.1028
  20
3.039564
  30
0
  11
49.1259
  21
3.038217
  31
0
  0
LINE
  5
492
  100
AcDbEntity
  8
1
  100
AcDbLine
  10
49.1259
  20
3.038217
  30
0
  11
49.149
  21
3.03687
  31
0
  0
LINE
  5
493
  100
AcDbEntity
  8
1
  100
AcDbLine
  10
49.149
  20
3.03687
  30
0
  11
49.1721
  21
3.035522
  31
0
  0
LINE
  5
494
  100
AcDbEntity
  8
1
  100
AcDbLine
  10
49.1721
  20
3.035522
  30
0
  11
49.1952
  21
3.034173
  31
0
  0
LINE
  5
495
  100
AcDbEntity
  8
1
  100
AcDbLine
  10
49.1952
  20
3.034173
  30
0
  11
49.2183
  21
3.032823
  31
0
  0
LINE
  5
496
  100
AcDbEntity
  8
1
  100
AcDbLine
  10
49.2183
  20
3.032823
  30
0
  11
49.2414
  21
3.031472
  31
0
  0
LINE
  5
497
  100
AcDbEntity
  8
1
  100
AcDbLine
  10
49.2414
  20
3.031472
  30
0
  11
49.2645
  21
3.030121
  31
0
  0
LINE
  5
498
  100
AcDbEntity
  8
1
  100
AcDbLine
  10
49.2645
  20
3.030121
  30
0
  11
49.2876
  21
3.028769
  31
0
  0
LINE
  5
499
  100
AcDbEntity
  8
1
  100
AcDbLine
  10
49.2876
  20
3.028769
  30
0
  11
49.3107
  21
3.027415
  31
0
  0
LINE
  5
49a
  100
AcDbEntity
  8
1
  100
AcDbLine
  10
49.3107
  20
3.027415
  30
0
  11
49.3338
  21
3.026061
  31
0
  0
LINE
  5
49b
  100
AcDbEntity
  8
1
  100
AcDbLine
  10
49.3338
  20
3.026061
  30
0
  11
49.3569
  21
3.024706
  31
0
  0
LINE
  5
49c
  100
AcDbEntity
  8
1
  100
AcDbLine
  10
49.3569
  20
3.024706
  30
0
  11
49.38
  21
3.023351
  31
0
  0
LINE
  5
49d
  100
AcDbEntity
  8
1
  100
AcDbLine
  10
49.38
  20
3.023351
  30
0
  11
49.4031
  21
3.021994
  31
0
  0
LINE
  5
49e
  100
AcDbEntity
  8
1
  100
AcDbLine
  10
49.4031
  20
3.021994
  30
0
  11
49.4262
  21
3.020636
  31
0
  0
LINE
  5
49f
  100
AcDbEntity
  8
1
  100
AcDbLine
  10
49.4262
  20
3.020636
  30
0
  11
49.4493
  21
3.019277
  31
0
  0
LINE
  5
4a0
  100
AcDbEntity
  8
1
  100
AcDbLine
  10
49.4493
  20
3.019277
  30
0
  11
49.4724
  21
3.017917
  31
0
  0
LINE
  5
4a1
  100
AcDbEntity
  8
1
  100
AcDbLine
  10
49.4724
  20
3.017917
  30
0
  11
49.4955
  21
3.016557
  31
0
  0
LINE
  5
4a2
  100
AcDbEntity
  8
1
  100
AcDbLine
  10
49.4955
  20
3.016557
  30
0
  11
49.5186
  21
3.015195
  31
0
  0
LINE
  5
4a3
  100
AcDbEntity
  8
1
  100
AcDbLine
  10
49.5186
  20
3.015195
  30
0
  11
49.5417
  21
3.013832
  31
0
  0
LINE
  5
4a4
  100
AcDbEntity
  8
1
  100
AcDbLine
  10
49.5417
  20
3.013832
  30
0
  11
49.5648
  21
3.012468
  31
0
  0
LINE
  5
4a5
  100
AcDbEntity
  8
1
  100
AcDbLine
  10
49.5648
  20
3.012468
  30
0
  11
49.5879
  21
3.011103
  31
0
  0
LINE
  5
4a6
  100
AcDbEntity
  8
1
  100
AcDbLine
  10
49.5879
  20
3.011103
  30
0
  11
49.611
  21
3.009737
  31
0
  0
LINE
  5
4a7
  100
AcDbEntity
  8
1
  100
AcDbLine
  10
49.611
  20
3.009737
  30
0
  11
49.6341
  21
3.00837
  31
0
  0
LINE
  5
4a8
  100
AcDbEntity
  8
1
  100
AcDbLine
  10
49.6341
  20
3.00837
  30
0
  11
49.6572
  21
3.007002
  31
0
  0
LINE
  5
4a9
  100
AcDbEntity
  8
1
  100
AcDbLine
  10
49.6572
  20
3.007002
  30
0
  11
49.6803
  21
3.005633
  31
0
  0
LINE
  5
4aa
  100
AcDbEntity
  8
1
  100
AcDbLine
  10
49.6803
  20
3.005633
  30
0
  11
49.7034
  21
3.004262
  31
0
  0
LINE
  5
4ab
  100
AcDbEntity
  8
1
  100
AcDbLine
  10
49.7034
  20
3.004262
  30
0
  11
49.7265
  21
3.00289
  31
0
  0
LINE
  5
4ac
  100
AcDbEntity
  8
1
  100
AcDbLine
  10
49.7265
  20
3.00289
  30
0
  11
49.7496
  21
3.001517
  31
0
  0
LINE
  5
4ad
  100
AcDbEntity
  8
1
  100
AcDbLine
  10
49.7496
  20
3.001517
  30
0
  11
49.7727
  21
3.000143
  31
0
  0
LINE
  5
4ae
  100
AcDbEntity
  8
1
  100
AcDbLine
  10
49.7727
  20
3.000143
  30
0
  11
49.7958
  21
2.998767
  31
0
  0
LINE
  5
4af
  100
AcDbEntity
  8
1
  100
AcDbLine
  10
49.7958
  20
2.998767
  30
0
  11
49.8189
  21
2.997391
  31
0
  0
LINE
  5
4b0
  100
AcDbEntity
  8
1
  100
AcDbLine
  10
49.8189
  20
2.997391
  30
0
  11
49.842
  21
2.996012
  31
0
  0
LINE
  5
4b1
  100
AcDbEntity
  8
1
  100
AcDbLine
  10
49.842
  20
2.996012
  30
0
  11
49.8651
  21
2.994633
  31
0
  0
LINE
  5
4b2
  100
AcDbEntity
  8
1
  100
AcDbLine
  10
49.8651
  20
2.994633
  30
0
  11
49.8882
  21
2.993252
  31
0
  0
LINE
  5
4b3
  100
AcDbEntity
  8
1
  100
AcDbLine
  10
49.8882
  20
2.993252
  30
0
  11
49.9113
  21
2.99187
  31
0
  0
LINE
  5
4b4
  100
AcDbEntity
  8
1
  100
AcDbLine
  10
49.9113
  20
2.99187
  30
0
  11
49.9344
  21
2.990486
  31
0
  0
LINE
  5
4b5
  100
AcDbEntity
  8
1
  100
AcDbLine
  10
49.9344
  20
2.990486
  30
0
  11
49.9575
  21
2.989101
  31
0
  0
LINE
  5
4b6
  100
AcDbEntity
  8
1
  100
AcDbLine
  10
49.9575
  20
2.989101
  30
0
  11
49.9806
  21
2.987714
  31
0
  0
LINE
  5
4b7
  100
AcDbEntity
  8
1
  100
AcDbLine
  10
49.9806
  20
2.987714
  30
0
  11
50.0037
  21
2.986326
  31
0
  0
LINE
  5
4b8
  100
AcDbEntity
  8
1
  100
AcDbLine
  10
50.0037
  20
2.986326
  30
0
  11
50.0268
  21
2.984936
  31
0
  0
LINE
  5
4b9
  100
AcDbEntity
  8
1
  100
AcDbLine
  10
50.0268
  20
2.984936
  30
0
  11
50.0499
  21
2.983545
  31
0
  0
LINE
  5
4ba
  100
AcDbEntity
  8
1
  100
AcDbLine
  10
50.0499
  20
2.983545
  30
0
  11
50.073
  21
2.982152
  31
0
  0
LINE
  5
4bb
  100
AcDbEntity
  8
1
  100
AcDbLine
  10
50.073
  20
2.982152
  30
0
  11
50.0961
  21
2.980757
  31
0
  0
LINE
  5
4bc
  100
AcDbEntity
  8
1
  100
AcDbLine
  10
50.0961
  20
2.980757
  30
0
  11
50.1192
  21
2.979361
  31
0
  0
LINE
  5
4bd
  100
AcDbEntity
  8
1
  100
AcDbLine
  10
50.1192
  20
2.979361
  30
0
  11
50.1423
  21
2.977963
  31
0
  0
LINE
  5
4be
  100
AcDbEntity
  8
1
  100
AcDbLine
  10
50.1423
  20
2.977963
  30
0
  11
50.1654
  21
2.976563
  31
0
  0
LINE
  5
4bf
  100
AcDbEntity
  8
1
  100
AcDbLine
  10
50.1654
  20
2.976563
  30
0
  11
50.1885
  21
2.975161
  31
0
  0
LINE
  5
4c0
  100
AcDbEntity
  8
1
  100
AcDbLine
  10
50.1885
  20
2.975161
  30
0
  11
50.2116
  21
2.973758
  31
0
  0
LINE
  5
4c1
  100
AcDbEntity
  8
1
  100
AcDbLine
  10
50.2116
  20
2.973758
  30
0
  11
50.2347
  21
2.972353
  31
0
  0
LINE
  5
4c2
  100
AcDbEntity
  8
1
  100
AcDbLine
  10
50.2347
  20
2.972353
  30
0
  11
50.2578
  21
2.970945
  31
0
  0
LINE
  5
4c3
  100
AcDbEntity
  8
1
  100
AcDbLine
  10
50.2578
  20
2.970945
  30
0
  11
50.2809
  21
2.969536
  31
0
  0
LINE
  5
4c4
  100
AcDbEntity
  8
1
  100
AcDbLine
  10
50.2809
  20
2.969536
  30
0
  11
50.304
  21
2.968125
  31
0
  0
LINE
  5
4c5
  100
AcDbEntity
  8
1
  100
AcDbLine
  10
50.304
  20
2.968125
  30
0
  11
50.3271
  21
2.966712
  31
0
  0
LINE
  5
4c6
  100
AcDbEntity
  8
1
  100
AcDbLine
  10
50.3271
  20
2.966712
  30
0
  11
50.3502
  21
2.965296
  31
0
  0
LINE
  5
4c7
  100
AcDbEntity
  8
1
  100
AcDbLine
  10
50.3502
  20
2.965296
  30
0
  11
50.3733
  21
2.963879
  31
0
  0
LINE
  5
4c8
  100
AcDbEntity
  8
1
  100
AcDbLine
  10
50.3733
  20
2.963879
  30
0
  11
50.3964
  21
2.962459
  31
0
  0
LINE
  5
4c9
  100
AcDbEntity
  8
1
  100
AcDbLine
  10
50.3964
  20
2.962459
  30
0
  11
50.4195
  21
2.961037
  31
0
  0
LINE
  5
4ca
  100
AcDbEntity
  8
1
  100
AcDbLine
  10
50.4195
  20
2.961037
  30
0
  11
50.4426
  21
2.959613
  31
0
  0
LINE
  5
4cb
  100
AcDbEntity
  8
1
  100
AcDbLine
  10
50.4426
  20
2.959613
  30
0
  11
50.4657
  21
2.958186
  31
0
  0
LINE
  5
4cc
  100
AcDbEntity
  8
1
  100
AcDbLine
  10
50.4657
  20
2.958186
  30
0
  11
50.4888
  21
2.956757
  31
0
  0
LINE
  5
4cd
  100
AcDbEntity
  8
1
  100
AcDbLine
  10
50.4888
  20
2.956757
  30
0
  11
50.5119
  21
2.955325
  31
0
  0
LINE
  5
4ce
  100
AcDbEntity
  8
1
  100
AcDbLine
  10
50.5119
  20
2.955325
  30
0
  11
50.535
  21
2.953891
  31
0
  0
LINE
  5
4cf
  100
AcDbEntity
  8
1
  100
AcDbLine
  10
50.535
  20
2.953891
  30
0
  11
50.5581
  21
2.952454
  31
0
  0
LINE
  5
4d0
  100
AcDbEntity
  8
1
  100
AcDbLine
  10
50.5581
  20
2.952454
  30
0
  11
50.5812
  21
2.951014
  31
0
  0
LINE
  5
4d1
  100
AcDbEntity
  8
1
  100
AcDbLine
  10
50.5812
  20
2.951014
  30
0
  11
50.6043
  21
2.949572
  31
0
  0
LINE
  5
4d2
  100
AcDbEntity
  8
1
  100
AcDbLine
  10
50.6043
  20
2.949572
  30
0
  11
50.6274
  21
2.948127
  31
0
  0
LINE
  5
4d3
  100
AcDbEntity
  8
1
  100
AcDbLine
  10
50.6274
  20
2.948127
  30
0
  11
50.6505
  21
2.946679
  31
0
  0
LINE
  5
4d4
  100
AcDbEntity
  8
1
  100
AcDbLine
  10
50.6505
  20
2.946679
  30
0
  11
50.6736
  21
2.945227
  31
0
  0
LINE
  5
4d5
  100
AcDbEntity
  8
1
  100
AcDbLine
  10
50.6736
  20
2.945227
  30
0
  11
50.6967
  21
2.943773
  31
0
  0
LINE
  5
4d6
  100
AcDbEntity
  8
1
  100
AcDbLine
  10
50.6967
  20
2.943773
  30
0
  11
50.7198
  21
2.942316
  31
0
  0
LINE
  5
4d7
  100
AcDbEntity
  8
1
  100
AcDbLine
  10
50.7198
  20
2.942316
  30
0
  11
50.7429
  21
2.940855
  31
0
  0
LINE
  5
4d8
  100
AcDbEntity
  8
1
  100
AcDbLine
  10
50.7429
  20
2.940855
  30
0
  11
50.766
  21
2.939391
  31
0
  0
LINE
  5
4d9
  100
AcDbEntity
  8
1
  100
AcDbLine
  10
50.766
  20
2.939391
  30
0
  11
50.7891
  21
2.937924
  31
0
  0
LINE
  5
4da
  100
AcDbEntity
  8
1
  100
AcDbLine
  10
50.7891
  20
2.937924
  30
0
  11
50.8122
  21
2.936453
  31
0
  0
LINE
  5
4db
  100
AcDbEntity
  8
1
  100
AcDbLine
  10
50.8122
  20
2.936453
  30
0
  11
50.8353
  21
2.934978
  31
0
  0
LINE
  5
4dc
  100
AcDbEntity
  8
1
  100
AcDbLine
  10
50.8353
  20
2.934978
  30
0
  11
50.8584
  21
2.9335
  31
0
  0
LINE
  5
4dd
  100
AcDbEntity
  8
1
  100
AcDbLine
  10
50.8584
  20
2.9335
  30
0
  11
50.8815
  21
2.932018
  31
0
  0
LINE
  5
4de
  100
AcDbEntity
  8
1
  100
AcDbLine
  10
50.8815
  20
2.932018
  30
0
  11
50.9046
  21
2.930532
  31
0
  0
LINE
  5
4df
  100
AcDbEntity
  8
1
  100
AcDbLine
  10
50.9046
  20
2.930532
  30
0
  11
50.9277
  21
2.929041
  31
0
  0
LINE
  5
4e0
  100
AcDbEntity
  8
1
  100
AcDbLine
  10
50.9277
  20
2.929041
  30
0
  11
50.9508
  21
2.927547
  31
0
  0
LINE
  5
4e1
  100
AcDbEntity
  8
1
  100
AcDbLine
  10
50.9508
  20
2.927547
  30
0
  11
50.9739
  21
2.926048
  31
0
  0
LINE
  5
4e2
  100
AcDbEntity
  8
1
  100
AcDbLine
  10
50.9739
  20
2.926048
  30
0
  11
50.997
  21
2.924544
  31
0
  0
LINE
  5
4e3
  100
AcDbEntity
  8
1
  100
AcDbLine
  10
50.997
  20
2.924544
  30
0
  11
51.0201
  21
2.923036
  31
0
  0
LINE
  5
4e4
  100
AcDbEntity
  8
1
  100
AcDbLine
  10
51.0201
  20
2.923036
  30
0
  11
51.0432
  21
2.921523
  31
0
  0
LINE
  5
4e5
  100
AcDbEntity
  8
1
  100
AcDbLine
  10
51.0432
  20
2.921523
  30
0
  11
51.0663
  21
2.920005
  31
0
  0
LINE
  5
4e6
  100
AcDbEntity
  8
1
  100
AcDbLine
  10
51.0663
  20
2.920005
  30
0
  11
51.0894
  21
2.918482
  31
0
  0
LINE
  5
4e7
  100
AcDbEntity
  8
1
  100
AcDbLine
  10
51.0894
  20
2.918482
  30
0
  11
51.1125
  21
2.916954
  31
0
  0
LINE
  5
4e8
  100
AcDbEntity
  8
1
  100
AcDbLine
  10
51.1125
  20
2.916954
  30
0
  11
51.1356
  21
2.91542
  31
0
  0
LINE
  5
4e9
  100
AcDbEntity
  8
1
  100
AcDbLine
  10
51.1356
  20
2.91542
  30
0
  11
51.1587
  21
2.913881
  31
0
  0
LINE
  5
4ea
  100
AcDbEntity
  8
1
  100
AcDbLine
  10
51.1587
  20
2.913881
  30
0
  11
51.1818
  21
2.912335
  31
0
  0
LINE
  5
4eb
  100
AcDbEntity
  8
1
  100
AcDbLine
  10
51.1818
  20
2.912335
  30
0
  11
51.2049
  21
2.910783
  31
0
  0
LINE
  5
4ec
  100
AcDbEntity
  8
1
  100
AcDbLine
  10
51.2049
  20
2.910783
  30
0
  11
51.228
  21
2.909225
  31
0
  0
LINE
  5
4ed
  100
AcDbEntity
  8
1
  100
AcDbLine
  10
51.228
  20
2.909225
  30
0
  11
51.2511
  21
2.907661
  31
0
  0
LINE
  5
4ee
  100
AcDbEntity
  8
1
  100
AcDbLine
  10
51.2511
  20
2.907661
  30
0
  11
51.2742
  21
2.906089
  31
0
  0
LINE
  5
4ef
  100
AcDbEntity
  8
1
  100
AcDbLine
  10
51.2742
  20
2.906089
  30
0
  11
51.2973
  21
2.904511
  31
0
  0
LINE
  5
4f0
  100
AcDbEntity
  8
1
  100
AcDbLine
  10
51.2973
  20
2.904511
  30
0
  11
51.3204
  21
2.902925
  31
0
  0
LINE
  5
4f1
  100
AcDbEntity
  8
1
  100
AcDbLine
  10
51.3204
  20
2.902925
  30
0
  11
51.3435
  21
2.901331
  31
0
  0
LINE
  5
4f2
  100
AcDbEntity
  8
1
  100
AcDbLine
  10
51.3435
  20
2.901331
  30
0
  11
51.3666
  21
2.899729
  31
0
  0
LINE
  5
4f3
  100
AcDbEntity
  8
1
  100
AcDbLine
  10
51.3666
  20
2.899729
  30
0
  11
51.3897
  21
2.898119
  31
0
  0
LINE
  5
4f4
  100
AcDbEntity
  8
1
  100
AcDbLine
  10
51.3897
  20
2.898119
  30
0
  11
51.4128
  21
2.8965
  31
0
  0
LINE
  5
4f5
  100
AcDbEntity
  8
1
  100
AcDbLine
  10
51.4128
  20
2.8965
  30
0
  11
51.4359
  21
2.894872
  31
0
  0
LINE
  5
4f6
  100
AcDbEntity
  8
1
  100
AcDbLine
  10
51.4359
  20
2.894872
  30
0
  11
51.459
  21
2.893234
  31
0
  0
LINE
  5
4f7
  100
AcDbEntity
  8
1
  100
AcDbLine
  10
51.459
  20
2.893234
  30
0
  11
51.4821
  21
2.891586
  31
0
  0
LINE
  5
4f8
  100
AcDbEntity
  8
1
  100
AcDbLine
  10
51.4821
  20
2.891586
  30
0
  11
51.5052
  21
2.889928
  31
0
  0
LINE
  5
4f9
  100
AcDbEntity
  8
1
  100
AcDbLine
  10
51.5052
  20
2.889928
  30
0
  11
51.5283
  21
2.888259
  31
0
  0
LINE
  5
4fa
  100
AcDbEntity
  8
1
  100
AcDbLine
  10
51.5283
  20
2.888259
  30
0
  11
51.5514
  21
2.886579
  31
0
  0
LINE
  5
4fb
  100
AcDbEntity
  8
1
  100
AcDbLine
  10
51.5514
  20
2.886579
  30
0
  11
51.5745
  21
2.884886
  31
0
  0
LINE
  5
4fc
  100
AcDbEntity
  8
1
  100
AcDbLine
  10
51.5745
  20
2.884886
  30
0
  11
51.5976
  21
2.883181
  31
0
  0
LINE
  5
4fd
  100
AcDbEntity
  8
1
  100
AcDbLine
  10
51.5976
  20
2.883181
  30
0
  11
51.6207
  21
2.881462
  31
0
  0
LINE
  5
4fe
  100
AcDbEntity
  8
1
  100
AcDbLine
  10
51.6207
  20
2.881462
  30
0
  11
51.6438
  21
2.879729
  31
0
  0
LINE
  5
4ff
  100
AcDbEntity
  8
1
  100
AcDbLine
  10
51.6438
  20
2.879729
  30
0
  11
51.6669
  21
2.877981
  31
0
  0
LINE
  5
500
  100
AcDbEntity
  8
1
  100
AcDbLine
  10
51.6669
  20
2.877981
  30
0
  11
51.69
  21
2.876218
  31
0
  0
LINE
  5
501
  100
AcDbEntity
  8
1
  100
AcDbLine
  10
51.69
  20
2.876218
  30
0
  11
51.7131
  21
2.874437
  31
0
  0
LINE
  5
502
  100
AcDbEntity
  8
1
  100
AcDbLine
  10
51.7131
  20
2.874437
  30
0
  11
51.7362
  21
2.87264
  31
0
  0
LINE
  5
503
  100
AcDbEntity
  8
1
  100
AcDbLine
  10
51.7362
  20
2.87264
  30
0
  11
51.7593
  21
2.870823
  31
0
  0
LINE
  5
504
  100
AcDbEntity
  8
1
  100
AcDbLine
  10
51.7593
  20
2.870823
  30
0
  11
51.7824
  21
2.868986
  31
0
  0
LINE
  5
505
  100
AcDbEntity
  8
1
  100
AcDbLine
  10
51.7824
  20
2.868986
  30
0
  11
51.8055
  21
2.867128
  31
0
  0
LINE
  5
506
  100
AcDbEntity
  8
1
  100
AcDbLine
  10
51.8055
  20
2.867128
  30
0
  11
51.8286
  21
2.865247
  31
0
  0
LINE
  5
507
  100
AcDbEntity
  8
1
  100
AcDbLine
  10
51.8286
  20
2.865247
  30
0
  11
51.8517
  21
2.863341
  31
0
  0
LINE
  5
508
  100
AcDbEntity
  8
1
  100
AcDbLine
  10
51.8517
  20
2.863341
  30
0
  11
51.8748
  21
2.861409
  31
0
  0
LINE
  5
509
  100
AcDbEntity
  8
1
  100
AcDbLine
  10
51.8748
  20
2.861409
  30
0
  11
51.8979
  21
2.859449
  31
0
  0
LINE
  5
50a
  100
AcDbEntity
  8
1
  100
AcDbLine
  10
51.8979
  20
2.859449
  30
0
  11
51.921
  21
2.857458
  31
0
  0
LINE
  5
50b
  100
AcDbEntity
  8
1
  100
AcDbLine
  10
51.921
  20
2.857458
  30
0
  11
51.9441
  21
2.855433
  31
0
  0
LINE
  5
50c
  100
AcDbEntity
  8
1
  100
AcDbLine
  10
51.9441
  20
2.855433
  30
0
  11
51.9672
  21
2.853373
  31
0
  0
LINE
  5
50d
  100
AcDbEntity
  8
1
  100
AcDbLine
  10
51.9672
  20
2.853373
  30
0
  11
51.9903
  21
2.851273
  31
0
  0
LINE
  5
50e
  100
AcDbEntity
  8
1
  100
AcDbLine
  10
51.9903
  20
2.851273
  30
0
  11
52.0134
  21
2.849129
  31
0
  0
LINE
  5
50f
  100
AcDbEntity
  8
1
  100
AcDbLine
  10
52.0134
  20
2.849129
  30
0
  11
52.0365
  21
2.846937
  31
0
  0
LINE
  5
510
  100
AcDbEntity
  8
1
  100
AcDbLine
  10
52.0365
  20
2.846937
  30
0
  11
52.0596
  21
2.844692
  31
0
  0
LINE
  5
511
  100
AcDbEntity
  8
1
  100
AcDbLine
  10
52.0596
  20
2.844692
  30
0
  11
52.0827
  21
2.842387
  31
0
  0
LINE
  5
512
  100
AcDbEntity
  8
1
  100
AcDbLine
  10
52.0827
  20
2.842387
  30
0
  11
52.1058
  21
2.840015
  31
0
  0
LINE
  5
513
  100
AcDbEntity
  8
1
  100
AcDbLine
  10
52.1058
  20
2.840015
  30
0
  11
52.1289
  21
2.837567
  31
0
  0
LINE
  5
514
  100
AcDbEntity
  8
1
  100
AcDbLine
  10
52.1289
  20
2.837567
  30
0
  11
52.152
  21
2.835031
  31
0
  0
LINE
  5
515
  100
AcDbEntity
  8
1
  100
AcDbLine
  10
52.152
  20
2.835031
  30
0
  11
52.1751
  21
2.832394
  31
0
  0
LINE
  5
516
  100
AcDbEntity
  8
1
  100
AcDbLine
  10
52.1751
  20
2.832394
  30
0
  11
52.1982
  21
2.830209
  31
0
  0
LINE
  5
517
  100
AcDbEntity
  8
1
  100
AcDbLine
  10
52.1982
  20
2.830209
  30
0
  11
52.2213
  21
2.831701
  31
0
  0
LINE
  5
518
  100
AcDbEntity
  8
1
  100
AcDbLine
  10
52.2213
  20
2.831701
  30
0
  11
52.2444
  21
2.841079
  31
0
  0
LINE
  5
519
  100
AcDbEntity
  8
1
  100
AcDbLine
  10
52.2444
  20
2.841079
  30
0
  11
52.2675
  21
2.888837
  31
0
  0
LINE
  5
51a
  100
AcDbEntity
  8
1
  100
AcDbLine
  10
52.2675
  20
2.888837
  30
0
  11
52.2675
  21
2.907755
  31
0
  0
LINE
  5
51b
  100
AcDbEntity
  8
1
  100
AcDbLine
  10
52.2675
  20
2.907755
  30
0
  11
52.2444
  21
3.002677
  31
0
  0
LINE
  5
51c
  100
AcDbEntity
  8
1
  100
AcDbLine
  10
52.2444
  20
3.002677
  30
0
  11
52.2213
  21
3.05933
  31
0
  0
LINE
  5
51d
  100
AcDbEntity
  8
1
  100
AcDbLine
  10
52.2213
  20
3.05933
  30
0
  11
52.1982
  21
3.10867
  31
0
  0
LINE
  5
51e
  100
AcDbEntity
  8
1
  100
AcDbLine
  10
52.1982
  20
3.10867
  30
0
  11
52.1751
  21
3.154424
  31
0
  0
LINE
  5
51f
  100
AcDbEntity
  8
1
  100
AcDbLine
  10
52.1751
  20
3.154424
  30
0
  11
52.152
  21
3.197883
  31
0
  0
LINE
  5
520
  100
AcDbEntity
  8
1
  100
AcDbLine
  10
52.152
  20
3.197883
  30
0
  11
52.1289
  21
3.239845
  31
0
  0
LINE
  5
521
  100
AcDbEntity
  8
1
  100
AcDbLine
  10
52.1289
  20
3.239845
  30
0
  11
52.1058
  21
3.280727
  31
0
  0
LINE
  5
522
  100
AcDbEntity
  8
1
  100
AcDbLine
  10
52.1058
  20
3.280727
  30
0
  11
52.091958
  21
3.304826
  31
0
  0
LINE
  5
523
  100
AcDbEntity
  8
1
  100
AcDbLine
  10
52.2675
  20
2.907755
  30
0
  11
52.2675
  21
2.888837
  31
0
  0
LINE
  5
524
  100
AcDbEntity
  8
SK1
  100
AcDbLine
  10
0
  20
10
  30
0
  11
-17.7
  21
10
  31
0
  0
LINE
  5
525
  100
AcDbEntity
  8
SK1
  100
AcDbLine
  10
-17.7
  20
10
  30
0
  11
-19.5
  21
8.2
  31
0
  0
LINE
  5
526
  100
AcDbEntity
  8
SK1
  100
AcDbLine
  10
-19.5
  20
8.2
  30
0
  11
-30.5
  21
8.2
  31
0
  0
LINE
  5
527
  100
AcDbEntity
  8
SK1
  100
AcDbLine
  10
-30.5
  20
8.2
  30
0
  11
-32.3
  21
10
  31
0
  0
LINE
  5
528
  100
AcDbEntity
  8
SK1
  100
AcDbLine
  10
-32.3
  20
10
  30
0
  11
-49
  21
10
  31
0
  0
LINE
  5
529
  100
AcDbEntity
  8
SK1
  100
AcDbLine
  10
-49
  20
10
  30
0
  11
-50
  21
9
  31
0
  0
LINE
  5
52a
  100
AcDbEntity
  8
SK1
  100
AcDbLine
  10
0
  20
-10
  30
0
  11
-49
  21
-10
  31
0
  0
LINE
  5
52b
  100
AcDbEntity
  8
SK1
  100
AcDbLine
  10
-49
  20
-10
  30
0
  11
-50
  21
-9
  31
0
  0
LINE
  5
52c
  100
AcDbEntity
  8
SK1
  100
AcDbLine
  10
0
  20
10
  30
0
  11
0
  21
-10
  31
0
  0
LINE
  5
52d
  100
AcDbEntity
  8
SK1
  100
AcDbLine
  10
0
  20
10
  30
0
  11
0
  21
-10
  31
0
  0
LINE
  5
52e
  100
AcDbEntity
  8
SK1
  100
AcDbLine
  10
-49
  20
10
  30
0
  11
-49
  21
-10
  31
0
  0
LINE
  5
52f
  100
AcDbEntity
  8
SK1
  100
AcDbLine
  10
-50
  20
9
  30
0
  11
-50
  21
-9
  31
0
  0
LINE
  5
578
  100
AcDbEntity
  8
NOCUT
  100
AcDbLine
  10
48.225
  20
0
  30
0
  11
48.225
  21
10
  31
0
  0
LINE
  5
579
  100
AcDbEntity
  8
NOCUT
  100
AcDbLine
  10
48.225
  20
10
  30
0
  11
0
  21
10
  31
0
  0
LINE
  5
57a
  100
AcDbEntity
  8
NOCUT
  100
AcDbLine
  10
0
  20
10
  30
0
  11
-17.7
  21
10
  31
0
  0
LINE
  5
57b
  100
AcDbEntity
  8
NOCUT
  100
AcDbLine
  10
-17.7
  20
10
  30
0
  11
-19.5
  21
8.2
  31
0
  0
LINE
  5
57c
  100
AcDbEntity
  8
NOCUT
  100
AcDbLine
  10
-19.5
  20
8.2
  30
0
  11
-30.5
  21
8.2
  31
0
  0
LINE
  5
57d
  100
AcDbEntity
  8
NOCUT
  100
AcDbLine
  10
-30.5
  20
8.2
  30
0
  11
-32.3
  21
10
  31
0
  0
LINE
  5
57e
  100
AcDbEntity
  8
NOCUT
  100
AcDbLine
  10
-32.3
  20
10
  30
0
  11
-49
  21
10
  31
0
  0
LINE
  5
57f
  100
AcDbEntity
  8
NOCUT
  100
AcDbLine
  10
-49
  20
10
  30
0
  11
-50
  21
9
  31
0
  0
LINE
  5
580
  100
AcDbEntity
  8
NOCUT
  100
AcDbLine
  10
-50
  20
9
  30
0
  11
-50
  21
0
  31
0
  0
LINE
  5
581
  100
AcDbEntity
  8
NOCUT
  100
AcDbLine
  10
-50
  20
0
  30
0
  11
48.225
  21
0
  31
0
  0
LINE
  5
582
  100
AcDbEntity
  8
CUT
  100
AcDbLine
  10
54
  20
0
  30
0
  11
48.226497
  21
10
  31
0
  0
LINE
  5
583
  100
AcDbEntity
  8
CUT
  100
AcDbLine
  10
48.226497
  20
10
  30
0
  11
48.225
  21
10
  31
0
  0
LINE
  5
584
  100
AcDbEntity
  8
CUT
  100
AcDbLine
  10
48.225
  20
10
  30
0
  11
48.225
  21
0
  31
0
  0
LINE
  5
585
  100
AcDbEntity
  8
CUT
  100
AcDbLine
  10
48.225
  20
0
  30
0
  11
54
  21
0
  31
0
  0
LINE
  5
586
  100
AcDbEntity
  8
4
  100
AcDbLine
  10
-50
  20
0
  30
0
  11
54
  21
0
  31
0
  0
LINE
  5
587
  100
AcDbEntity
  8
INFTOTAL
  100
AcDbLine
  10
-69.65
  20
52.15
  30
0
  11
98.65
  21
52.15
  31
0
  0
LINE
  5
588
  100
AcDbEntity
  8
INFTOTAL
  100
AcDbLine
  10
98.65
  20
52.15
  30
0
  11
98.65
  21
-25.306563
  31
0
  0
LINE
  5
589
  100
AcDbEntity
  8
INFTOTAL
  100
AcDbLine
  10
98.65
  20
-25.306563
  30
0
  11
-69.65
  21
-25.306563
  31
0
  0
LINE
  5
58a
  100
AcDbEntity
  8
INFTOTAL
  100
AcDbLine
  10
-69.65
  20
-25.306563
  30
0
  11
-69.65
  21
52.15
  31
0
  0
ENDSEC
  0
SECTION
  2
OBJECTS
  0
DICTIONARY
  5
58b
  330
0
100
AcDbDictionary
281
    1
  3
ACAD_GROUP
  350
58c
  0
DICTIONARY
  5
58c
102
{ACAD_REACTORS
  330
58b
102
}
  330
58b
100
AcDbDictionary
281
    1
  0
ENDSEC
  0
EOF
