  0
SECTION
  2
HEADER
  9
$ACADVER
  1
AC1015
  9
$DWGCODEPAGE
  3
ansi_1252
  9
$HANDSEED
  5
106AB90
  9
$INSUNITS
  70
4
  0
ENDSEC
  0
SECTION
  2
TABLES
  0
TABLE
  2
VPORT
  5
2
  330
0
  100
AcDbSymbolTable
  70
    0
  0
ENDTAB
  0
TABLE
  2
LTYPE
  5
3
  330
0
  100
AcDbSymbolTable
  70
    4
  0
LTYPE
  5
4
  330
3
  100
AcDbSymbolTableRecord
  100
AcDbLinetypeTableRecord
  2
ByBlock
  70
    0
  3

  72
65
  73
    0
  40
0
  0
LTYPE
  5
5
  330
3
  100
AcDbSymbolTableRecord
  100
AcDbLinetypeTableRecord
  2
ByLayer
  70
    0
  3

  72
65
  73
    0
  40
0
  0
LTYPE
  5
6
  330
3
  100
AcDbSymbolTableRecord
  100
AcDbLinetypeTableRecord
  2
CONTINUOUS
  70
    0
  3
Solid Line
  72
65
  73
    0
  40
0
  0
LTYPE
  5
7
  330
3
  100
AcDbSymbolTableRecord
  100
AcDbLinetypeTableRecord
  2
DASH
  70
    0
  3
Hidden
  72
65
  73
2
  40
2.5
  49
1.5
  74
0
  49
-1
  74
0
  0
LTYPE
  5
8
  330
3
  100
AcDbSymbolTableRecord
  100
AcDbLinetypeTableRecord
  2
LONGDASHDASH
  70
    0
  3
__ . __
  72
65
  73
    4
  40
7
  49
4
  74
    0
  49
-1
  74
    0
  49
1
  74
    0
  49
-1
  74
    0
  0
ENDTAB
  0
TABLE
  2
LAYER
  5
9
  330
0
  100
AcDbSymbolTable
  70
    40
  0
LAYER
  5
a
  330
9
  100
AcDbSymbolTableRecord
  100
AcDbLayerTableRecord
  2
0
  70
    0
  62
    0
  6
CONTINUOUS
  390
0
  0
LAYER
  5
b
  330
9
  100
AcDbSymbolTableRecord
  100
AcDbLayerTableRecord
  2
DEFPOINT
  70
    0
  62
    0
  6
CONTINUOUS
  390
0
  0
LAYER
  5
c
  330
9
  100
AcDbSymbolTableRecord
  100
AcDbLayerTableRecord
  2
1
  70
    0
  62
    4
  6
CONTINUOUS
  370
50
  390
0
  0
LAYER
  5
d
  330
9
  100
AcDbSymbolTableRecord
  100
AcDbLayerTableRecord
  2
2
  70
    0
  62
    7
  6
CONTINUOUS
  370
25
  390
0
  0
LAYER
  5
e
  330
9
  100
AcDbSymbolTableRecord
  100
AcDbLayerTableRecord
  2
3
  70
    0
  62
    1
  6
DASH
  370
35
  390
0
  0
LAYER
  5
f
  330
9
  100
AcDbSymbolTableRecord
  100
AcDbLayerTableRecord
  2
4
  70
    0
  62
    2
  6
LONGDASHDASH
  370
25
  390
0
  0
LAYER
  5
10
  330
9
  100
AcDbSymbolTableRecord
  100
AcDbLayerTableRecord
  2
6
  70
    0
  62
    5
  6
CONTINUOUS
  390
0
  0
LAYER
  5
11
  330
9
  100
AcDbSymbolTableRecord
  100
AcDbLayerTableRecord
  2
7
  70
    0
  62
    5
  6
CONTINUOUS
  370
25
  390
0
  0
LAYER
  5
12
  330
9
  100
AcDbSymbolTableRecord
  100
AcDbLayerTableRecord
  2
11
  70
    0
  62
    4
  6
CONTINUOUS
  370
25
  390
0
  0
LAYER
  5
13
  330
9
  100
AcDbSymbolTableRecord
  100
AcDbLayerTableRecord
  2
SK1
  70
    0
  62
    4
  6
CONTINUOUS
  370
50
  390
0
  0
LAYER
  5
14
  330
9
  100
AcDbSymbolTableRecord
  100
AcDbLayerTableRecord
  2
SK2
  70
    0
  62
    7
  6
CONTINUOUS
  370
25
  390
0
  0
LAYER
  5
15
  330
9
  100
AcDbSymbolTableRecord
  100
AcDbLayerTableRecord
  2
SK3
  70
    0
  62
    1
  6
DASH
  370
35
  390
0
  0
LAYER
  5
16
  330
9
  100
AcDbSymbolTableRecord
  100
AcDbLayerTableRecord
  2
SK4
  70
    0
  62
    2
  6
LONGDASHDASH
  370
25
  390
0
  0
LAYER
  5
17
  330
9
  100
AcDbSymbolTableRecord
  100
AcDbLayerTableRecord
  2
SK6
  70
    0
  62
    5
  6
CONTINUOUS
  390
0
  0
LAYER
  5
18
  330
9
  100
AcDbSymbolTableRecord
  100
AcDbLayerTableRecord
  2
SK7
  70
    0
  62
    5
  6
CONTINUOUS
  370
25
  390
0
  0
LAYER
  5
19
  330
9
  100
AcDbSymbolTableRecord
  100
AcDbLayerTableRecord
  2
SK11
  70
    0
  62
    4
  6
CONTINUOUS
  370
25
  390
0
  0
LAYER
  5
1a
  330
9
  100
AcDbSymbolTableRecord
  100
AcDbLayerTableRecord
  2
SKVIEW1
  70
    0
  62
    4
  6
CONTINUOUS
  370
50
  390
0
  0
LAYER
  5
1b
  330
9
  100
AcDbSymbolTableRecord
  100
AcDbLayerTableRecord
  2
SKVIEW2
  70
    0
  62
    7
  6
CONTINUOUS
  370
25
  390
0
  0
LAYER
  5
1c
  330
9
  100
AcDbSymbolTableRecord
  100
AcDbLayerTableRecord
  2
SKVIEW3
  70
    0
  62
    1
  6
DASH
  370
35
  390
0
  0
LAYER
  5
1d
  330
9
  100
AcDbSymbolTableRecord
  100
AcDbLayerTableRecord
  2
SKVIEW4
  70
    0
  62
    2
  6
LONGDASHDASH
  370
25
  390
0
  0
LAYER
  5
1e
  330
9
  100
AcDbSymbolTableRecord
  100
AcDbLayerTableRecord
  2
SKVIEW6
  70
    0
  62
    5
  6
CONTINUOUS
  390
0
  0
LAYER
  5
1f
  330
9
  100
AcDbSymbolTableRecord
  100
AcDbLayerTableRecord
  2
SKVIEW7
  70
    0
  62
    5
  6
CONTINUOUS
  370
25
  390
0
  0
LAYER
  5
20
  330
9
  100
AcDbSymbolTableRecord
  100
AcDbLayerTableRecord
  2
SKVIEW11
  70
    0
  62
    4
  6
CONTINUOUS
  370
25
  390
0
  0
LAYER
  5
21
  330
9
  100
AcDbSymbolTableRecord
  100
AcDbLayerTableRecord
  2
NOCUT
  70
    0
  62
    7
  6
CONTINUOUS
  370
25
  390
0
  0
LAYER
  5
22
  330
9
  100
AcDbSymbolTableRecord
  100
AcDbLayerTableRecord
  2
CUT
  70
    0
  62
    1
  6
CONTINUOUS
  370
25
  390
0
  0
LAYER
  5
23
  330
9
  100
AcDbSymbolTableRecord
  100
AcDbLayerTableRecord
  2
FRAME50
  70
    0
  62
    7
  6
CONTINUOUS
  390
0
  0
LAYER
  5
24
  330
9
  100
AcDbSymbolTableRecord
  100
AcDbLayerTableRecord
  2
53
  70
    0
  62
    5
  6
CONTINUOUS
  390
0
  0
LAYER
  5
25
  330
9
  100
AcDbSymbolTableRecord
  100
AcDbLayerTableRecord
  2
INFTEXT
  70
    0
  62
    5
  6
CONTINUOUS
  390
0
  0
LAYER
  5
26
  330
9
  100
AcDbSymbolTableRecord
  100
AcDbLayerTableRecord
  2
INFTOTAL
  70
    0
  62
    9
  6
CONTINUOUS
  370
18
  390
0
  0
ENDTAB
  0
TABLE
  2
STYLE
  5
27
  330
0
  100
AcDbSymbolTable
  70
    1
  0
STYLE
  5
28
  330
27
  100
AcDbSymbolTableRecord
  100
AcDbTextStyleTableRecord
  2
Monospac821 BT
  70
    0
  40
    3.5
  41
1
  50
0
  71
0
  42
3
  3

  4

  1001
ACAD
  1000
Monospac821 BT
  1071
256
  0
ENDTAB
  0
TABLE
  2
VIEW
  5
29
  330
0
  100
AcDbSymbolTable
  70
    0
  0
ENDTAB
  0
TABLE
  2
UCS
  5
2a
  330
0
  100
AcDbSymbolTable
  70
    0
  0
ENDTAB
  0
TABLE
  2
APPID
  5
2b
  330
0
  100
AcDbSymbolTable
  70
    1
  0
APPID
  5
2c
  330
2b
  100
AcDbSymbolTableRecord
  100
AcDbRegAppTableRecord
  2
ACAD
  70
    0
  0
ENDTAB
  0
TABLE
  2
DIMSTYLE
  5
2d
  330
0
  100
AcDbSymbolTable
  70
    1
  100
AcDbDimStyleTable
  0
DIMSTYLE
  105
2e
  330
2d
  100
AcDbSymbolTableRecord
  100
AcDbDimStyleTableRecord
  2
STANDARD
  70
    0
  41
    3
  42
0.5
  44
1
  73
0
  77
1
  78
1
  140
3.5
  141
2.5
  143
0.03937
  147
0.8
  172
1
  174
1
  178
0
  179
1
  271
2
  279
1
  284
1
  340
28
  0
ENDTAB
  0
TABLE
  2
BLOCK_RECORD
  5
2f
  330
0
  100
AcDbSymbolTable
  70
    2
  0
BLOCK_RECORD
  5
30
  330
2f
  100
AcDbSymbolTableRecord
  100
AcDbBlockTableRecord
  2
*Model_Space
  0
BLOCK_RECORD
  5
31
  330
2f
  100
AcDbSymbolTableRecord
  100
AcDbBlockTableRecord
  2
*Paper_Space
  0
BLOCK_RECORD
  5
52c
  330
2f
  100
AcDbSymbolTableRecord
  100
AcDbBlockTableRecord
  2
*D52b
  340
0
  0
BLOCK_RECORD
  5
53a
  330
2f
  100
AcDbSymbolTableRecord
  100
AcDbBlockTableRecord
  2
*D539
  340
0
  0
BLOCK_RECORD
  5
548
  330
2f
  100
AcDbSymbolTableRecord
  100
AcDbBlockTableRecord
  2
*D547
  340
0
  0
BLOCK_RECORD
  5
556
  330
2f
  100
AcDbSymbolTableRecord
  100
AcDbBlockTableRecord
  2
*D555
  340
0
  0
BLOCK_RECORD
  5
566
  330
2f
  100
AcDbSymbolTableRecord
  100
AcDbBlockTableRecord
  2
*D565
  340
0
  0
ENDTAB
  0
ENDSEC
  0
SECTION
  2
BLOCKS
  0
BLOCK
  5
32
  330
30
  100
AcDbEntity
  8
0
  100
AcDbBlockBegin
  2
*Model_Space
  70
    0
  10
0
  20
0
  30
0
  3
*Model_Space
  1

  0
ENDBLK
  5
33
  330
30
  100
AcDbEntity
  8
0
  100
AcDbBlockEnd
  0
BLOCK
  5
34
  330
31
  100
AcDbEntity
  8
0
  100
AcDbBlockBegin
  2
*Paper_Space
  70
    0
  10
0
  20
0
  30
0
  3
*Paper_Space
  1

  0
ENDBLK
  5
35
  330
31
  100
AcDbEntity
  8
0
  100
AcDbBlockEnd
  0
BLOCK
  5
52a
  330
52c
  100
AcDbEntity
  8
SK2
  100
AcDbBlockBegin
  2
*D52b
  70
1
  10
0
  20
0
  30
0
  3
*D52b
  1

  0
LINE
  5
52d
  330
52c
  100
AcDbEntity
  8
SK2
  100
AcDbLine
  10
-36
  20
2.5
  30
0
  11
-36
  21
44.5
  31
0
  0
LINE
  5
52e
  330
52c
  100
AcDbEntity
  8
SK2
  100
AcDbLine
  10
21
  20
0
  30
0
  11
21
  21
44.5
  31
0
  0
LINE
  5
52f
  330
52c
  100
AcDbEntity
  8
SK2
  100
AcDbLine
  10
-36
  20
42.5
  30
0
  11
21
  21
42.5
  31
0
  0
SOLID
  5
530
  330
52c
  100
AcDbEntity
  8
SK2
  100
AcDbTrace
  10
-36
  20
42.5
  30
0
  11
-33.521388
  21
42.826315
  31
0
  12
-33.521388
  22
42.173685
  32
0
  13
-33.521388
  23
42.173685
  33
0
  0
SOLID
  5
531
  330
52c
  100
AcDbEntity
  8
SK2
  100
AcDbTrace
  10
21
  20
42.5
  30
0
  11
18.521388
  21
42.173685
  31
0
  12
18.521388
  22
42.826315
  32
0
  13
18.521388
  23
42.826315
  33
0
  0
MTEXT
  5
532
  330
52c
  100
AcDbEntity
  8
SK2
  100
AcDbMText
  10
-7.5
  20
42.5
  30
0
  11
1
  21
0
  31
0
  40
2
  41
0
  71
8
  72
1
  1
57+2
  0
POINT
  5
533
  330
52c
  100
AcDbEntity
  8
SK2
  62
0
  100
AcDbPoint
  10
-36
  20
2.5
  30
0
  0
POINT
  5
534
  330
52c
  100
AcDbEntity
  8
SK2
  62
0
  100
AcDbPoint
  10
21
  20
0
  30
0
  0
POINT
  5
535
  330
52c
  100
AcDbEntity
  8
SK2
  62
0
  100
AcDbPoint
  10
21
  20
42.5
  30
0
  0
ENDBLK
  5
536
  330
52c
  100
AcDbEntity
  8
SK2
  100
AcDbBlockEnd
  0
BLOCK
  5
538
  330
53a
  100
AcDbEntity
  8
SK2
  100
AcDbBlockBegin
  2
*D539
  70
1
  10
0
  20
0
  30
0
  3
*D539
  1

  0
LINE
  5
53b
  330
53a
  100
AcDbEntity
  8
SK2
  100
AcDbLine
  10
-35.5
  20
-3
  30
0
  11
-48
  21
-3
  31
0
  0
LINE
  5
53c
  330
53a
  100
AcDbEntity
  8
SK2
  100
AcDbLine
  10
-35.5
  20
3
  30
0
  11
-48
  21
3
  31
0
  0
LINE
  5
53d
  330
53a
  100
AcDbEntity
  8
SK2
  100
AcDbLine
  10
-46
  20
-3.037975
  30
0
  11
-46
  21
3.417722
  31
0
  0
SOLID
  5
53e
  330
53a
  100
AcDbEntity
  8
SK2
  100
AcDbTrace
  10
-46
  20
-3
  30
0
  11
-46.326315
  21
-0.521388
  31
0
  12
-45.673685
  22
-0.521388
  32
0
  13
-45.673685
  23
-0.521388
  33
0
  0
SOLID
  5
53f
  330
53a
  100
AcDbEntity
  8
SK2
  100
AcDbTrace
  10
-46
  20
3
  30
0
  11
-45.673685
  21
0.521388
  31
0
  12
-46.326315
  22
0.521388
  32
0
  13
-46.326315
  23
0.521388
  33
0
  0
MTEXT
  5
540
  330
53a
  100
AcDbEntity
  8
SK2
  100
AcDbMText
  10
-46
  20
0
  30
0
  11
0
  21
1
  31
0
  40
2
  41
0
  71
8
  72
1
  1
%%c6h6
  0
POINT
  5
541
  330
53a
  100
AcDbEntity
  8
SK2
  62
0
  100
AcDbPoint
  10
-35.5
  20
-3
  30
0
  0
POINT
  5
542
  330
53a
  100
AcDbEntity
  8
SK2
  62
0
  100
AcDbPoint
  10
-35.5
  20
3
  30
0
  0
POINT
  5
543
  330
53a
  100
AcDbEntity
  8
SK2
  62
0
  100
AcDbPoint
  10
-46
  20
3.417722
  30
0
  0
ENDBLK
  5
544
  330
53a
  100
AcDbEntity
  8
SK2
  100
AcDbBlockEnd
  0
BLOCK
  5
546
  330
548
  100
AcDbEntity
  8
2
  100
AcDbBlockBegin
  2
*D547
  70
1
  10
0
  20
0
  30
0
  3
*D547
  1

  0
LINE
  5
549
  330
548
  100
AcDbEntity
  8
2
  100
AcDbLine
  10
21
  20
0
  30
0
  11
21
  21
17
  31
0
  0
LINE
  5
54a
  330
548
  100
AcDbEntity
  8
2
  100
AcDbLine
  10
18
  20
3
  30
0
  11
18
  21
17
  31
0
  0
LINE
  5
54b
  330
548
  100
AcDbEntity
  8
2
  100
AcDbLine
  10
21
  20
15
  30
0
  11
18
  21
15
  31
0
  0
SOLID
  5
54c
  330
548
  100
AcDbEntity
  8
2
  100
AcDbTrace
  10
21
  20
15
  30
0
  11
18.521388
  21
14.673685
  31
0
  12
18.521388
  22
15.326315
  32
0
  13
18.521388
  23
15.326315
  33
0
  0
SOLID
  5
54d
  330
548
  100
AcDbEntity
  8
2
  100
AcDbTrace
  10
18
  20
15
  30
0
  11
20.478612
  21
15.326315
  31
0
  12
20.478612
  22
14.673685
  32
0
  13
20.478612
  23
14.673685
  33
0
  0
MTEXT
  5
54e
  330
548
  100
AcDbEntity
  8
2
  100
AcDbMText
  10
19.5
  20
15
  30
0
  11
1
  21
-0
  31
0
  40
2
  41
0
  71
8
  72
1
  1
3
  0
POINT
  5
54f
  330
548
  100
AcDbEntity
  8
2
  62
0
  100
AcDbPoint
  10
21
  20
0
  30
0
  0
POINT
  5
550
  330
548
  100
AcDbEntity
  8
2
  62
0
  100
AcDbPoint
  10
18
  20
3
  30
0
  0
POINT
  5
551
  330
548
  100
AcDbEntity
  8
2
  62
0
  100
AcDbPoint
  10
18
  20
15
  30
0
  0
ENDBLK
  5
552
  330
548
  100
AcDbEntity
  8
2
  100
AcDbBlockEnd
  0
BLOCK
  5
554
  330
556
  100
AcDbEntity
  8
2
  100
AcDbBlockBegin
  2
*D555
  70
1
  10
0
  20
0
  30
0
  3
*D555
  1

  0
LINE
  5
557
  330
556
  100
AcDbEntity
  8
2
  100
AcDbLine
  10
22.242571
  20
-1.242571
  30
0
  11
33.425711
  21
-12.425711
  31
0
  0
LINE
  5
558
  330
556
  100
AcDbEntity
  8
2
  100
AcDbLine
  10
22.242571
  20
1.242571
  30
0
  11
33.425711
  21
12.425711
  31
0
  0
ARC
  5
559
  330
556
  100
AcDbEntity
  8
2
  100
AcDbCircle
  10
21
  20
0
  30
0
  40
15.572609
  100
AcDbArc
  50
315
  51
45
  0
SOLID
  5
55a
  330
556
  100
AcDbEntity
  8
2
  100
AcDbTrace
  10
32.011498
  20
-11.011498
  30
0
  11
33.369467
  21
-8.91247
  31
0
  12
33.866464
  22
-9.335461
  32
0
  13
33.866464
  23
-9.335461
  33
0
  0
SOLID
  5
55b
  330
556
  100
AcDbEntity
  8
2
  100
AcDbTrace
  10
32.011498
  20
11.011498
  30
0
  11
33.866464
  21
9.335461
  31
0
  12
33.369467
  22
8.91247
  32
0
  13
33.369467
  23
8.91247
  33
0
  0
MTEXT
  5
55c
  330
556
  100
AcDbEntity
  8
2
  100
AcDbMText
  10
36.572609
  20
0
  30
0
  11
0
  21
-1
  31
0
  40
2
  41
0
  71
8
  72
1
  1
90%%d
  0
POINT
  5
55d
  330
556
  100
AcDbEntity
  8
2
  62
0
  100
AcDbPoint
  10
35.810432
  20
-4.812201
  30
0
  0
POINT
  5
55e
  330
556
  100
AcDbEntity
  8
2
  62
0
  100
AcDbPoint
  10
21
  20
0
  30
0
  0
POINT
  5
55f
  330
556
  100
AcDbEntity
  8
2
  62
0
  100
AcDbPoint
  10
22.242571
  20
-1.242571
  30
0
  0
POINT
  5
560
  330
556
  100
AcDbEntity
  8
2
  62
0
  100
AcDbPoint
  10
21
  20
0
  30
0
  0
POINT
  5
561
  330
556
  100
AcDbEntity
  8
2
  62
0
  100
AcDbPoint
  10
22.242571
  20
1.242571
  30
0
  0
ENDBLK
  5
562
  330
556
  100
AcDbEntity
  8
2
  100
AcDbBlockEnd
  0
BLOCK
  5
564
  330
566
  100
AcDbEntity
  8
2
  100
AcDbBlockBegin
  2
*D565
  70
1
  10
0
  20
0
  30
0
  3
*D565
  1

  0
LINE
  5
567
  330
566
  100
AcDbEntity
  8
2
  100
AcDbLine
  10
18
  20
-3
  30
0
  11
58
  21
-3
  31
0
  0
LINE
  5
568
  330
566
  100
AcDbEntity
  8
2
  100
AcDbLine
  10
18
  20
3
  30
0
  11
58
  21
3
  31
0
  0
LINE
  5
569
  330
566
  100
AcDbEntity
  8
2
  100
AcDbLine
  10
56
  20
-3.417722
  30
0
  11
56
  21
3.797468
  31
0
  0
SOLID
  5
56a
  330
566
  100
AcDbEntity
  8
2
  100
AcDbTrace
  10
56
  20
-3
  30
0
  11
55.673685
  21
-0.521388
  31
0
  12
56.326315
  22
-0.521388
  32
0
  13
56.326315
  23
-0.521388
  33
0
  0
SOLID
  5
56b
  330
566
  100
AcDbEntity
  8
2
  100
AcDbTrace
  10
56
  20
3
  30
0
  11
56.326315
  21
0.521388
  31
0
  12
55.673685
  22
0.521388
  32
0
  13
55.673685
  23
0.521388
  33
0
  0
MTEXT
  5
56c
  330
566
  100
AcDbEntity
  8
2
  100
AcDbMText
  10
56
  20
0
  30
0
  11
0
  21
1
  31
0
  40
2
  41
0
  71
8
  72
1
  1
%%c6h10
  0
POINT
  5
56d
  330
566
  100
AcDbEntity
  8
2
  62
0
  100
AcDbPoint
  10
18
  20
-3
  30
0
  0
POINT
  5
56e
  330
566
  100
AcDbEntity
  8
2
  62
0
  100
AcDbPoint
  10
18
  20
3
  30
0
  0
POINT
  5
56f
  330
566
  100
AcDbEntity
  8
2
  62
0
  100
AcDbPoint
  10
56
  20
3.797468
  30
0
  0
ENDBLK
  5
570
  330
566
  100
AcDbEntity
  8
2
  100
AcDbBlockEnd
  0
ENDSEC
  0
SECTION
  2
ENTITIES
  0
DIMENSION
  5
537
  100
AcDbEntity
  8
SK2
  100
AcDbDimension
  2
*D52b
  10
21
  20
42.5
  30
0
  11
-7.5
  21
42.5
  31
0
  70
160
  1
<>+2
  71
5
  3
STANDARD
  42
57
  100
AcDbAlignedDimension
  13
-36
  23
2.5
  33
0
  14
21
  24
0
  34
0
  50
0
  100
AcDbRotatedDimension
  0
DIMENSION
  5
545
  100
AcDbEntity
  8
SK2
  100
AcDbDimension
  2
*D539
  10
-46
  20
3.417722
  30
0
  11
-46
  21
0
  31
0
  70
160
  1
%%c<>h6
  71
5
  3
STANDARD
  42
6
  100
AcDbAlignedDimension
  13
-35.5
  23
-3
  33
0
  14
-35.5
  24
3
  34
0
  50
-90
  100
AcDbRotatedDimension
  0
DIMENSION
  5
553
  100
AcDbEntity
  8
2
  100
AcDbDimension
  2
*D547
  10
18
  20
15
  30
0
  11
19.5
  21
15
  31
0
  70
160
  1
<>
  71
5
  3
STANDARD
  42
3
  100
AcDbAlignedDimension
  13
21
  23
0
  33
0
  14
18
  24
3
  34
0
  50
0
  100
AcDbRotatedDimension
  0
DIMENSION
  5
563
  100
AcDbEntity
  8
2
  100
AcDbDimension
  2
*D555
  10
22.242571
  20
1.242571
  30
0
  11
36.572609
  21
0
  31
0
  70
162
  1
<>
  71
5
  53
-90
  3
STANDARD
  100
AcDb2LineAngularDimension
  13
22.242571
  23
-1.242571
  33
0
  14
21
  24
0
  34
0
  15
21
  25
0
  35
0
  16
35.810432
  26
-4.812201
  36
0
  0
DIMENSION
  5
571
  100
AcDbEntity
  8
2
  100
AcDbDimension
  2
*D565
  10
56
  20
3.797468
  30
0
  11
56
  21
0
  31
0
  70
160
  1
%%c<>h10
  71
5
  3
STANDARD
  42
6
  100
AcDbAlignedDimension
  13
18
  23
-3
  33
0
  14
18
  24
3
  34
0
  50
-90
  100
AcDbRotatedDimension
  0
LINE
  5
36
  100
AcDbEntity
  8
1
  100
AcDbLine
  10
21
  20
0
  30
0
  11
18
  21
3
  31
0
  0
LINE
  5
37
  100
AcDbEntity
  8
1
  100
AcDbLine
  10
18
  20
3
  30
0
  11
0
  21
3
  31
0
  0
LINE
  5
38
  100
AcDbEntity
  8
1
  100
AcDbLine
  10
0
  20
3
  30
0
  11
0
  21
-3
  31
0
  0
LINE
  5
39
  100
AcDbEntity
  8
1
  100
AcDbLine
  10
0
  20
-3
  30
0
  11
18
  21
-3
  31
0
  0
LINE
  5
3a
  100
AcDbEntity
  8
1
  100
AcDbLine
  10
18
  20
-3
  30
0
  11
21
  21
0
  31
0
  0
LINE
  5
3b
  100
AcDbEntity
  8
1
  100
AcDbLine
  10
0
  20
-3
  30
0
  11
0
  21
3
  31
0
  0
LINE
  5
3c
  100
AcDbEntity
  8
1
  100
AcDbLine
  10
0
  20
3
  30
0
  11
0
  21
-3
  31
0
  0
LINE
  5
3d
  100
AcDbEntity
  8
1
  100
AcDbLine
  10
17.995216
  20
-3
  30
0
  11
18.012
  21
-2.988
  31
0
  0
LINE
  5
3e
  100
AcDbEntity
  8
1
  100
AcDbLine
  10
18.012
  20
-2.988
  30
0
  11
18.024
  21
-2.975998
  31
0
  0
LINE
  5
3f
  100
AcDbEntity
  8
1
  100
AcDbLine
  10
18.024
  20
-2.975998
  30
0
  11
18.036
  21
-2.963996
  31
0
  0
LINE
  5
40
  100
AcDbEntity
  8
1
  100
AcDbLine
  10
18.036
  20
-2.963996
  30
0
  11
18.048
  21
-2.951992
  31
0
  0
LINE
  5
41
  100
AcDbEntity
  8
1
  100
AcDbLine
  10
18.048
  20
-2.951992
  30
0
  11
18.06
  21
-2.939988
  31
0
  0
LINE
  5
42
  100
AcDbEntity
  8
1
  100
AcDbLine
  10
18.06
  20
-2.939988
  30
0
  11
18.072
  21
-2.927983
  31
0
  0
LINE
  5
43
  100
AcDbEntity
  8
1
  100
AcDbLine
  10
18.072
  20
-2.927983
  30
0
  11
18.084
  21
-2.915976
  31
0
  0
LINE
  5
44
  100
AcDbEntity
  8
1
  100
AcDbLine
  10
18.084
  20
-2.915976
  30
0
  11
18.096
  21
-2.903969
  31
0
  0
LINE
  5
45
  100
AcDbEntity
  8
1
  100
AcDbLine
  10
18.096
  20
-2.903969
  30
0
  11
18.108
  21
-2.89196
  31
0
  0
LINE
  5
46
  100
AcDbEntity
  8
1
  100
AcDbLine
  10
18.108
  20
-2.89196
  30
0
  11
18.12
  21
-2.879951
  31
0
  0
LINE
  5
47
  100
AcDbEntity
  8
1
  100
AcDbLine
  10
18.12
  20
-2.879951
  30
0
  11
18.132
  21
-2.86794
  31
0
  0
LINE
  5
48
  100
AcDbEntity
  8
1
  100
AcDbLine
  10
18.132
  20
-2.86794
  30
0
  11
18.144
  21
-2.855928
  31
0
  0
LINE
  5
49
  100
AcDbEntity
  8
1
  100
AcDbLine
  10
18.144
  20
-2.855928
  30
0
  11
18.156
  21
-2.843915
  31
0
  0
LINE
  5
4a
  100
AcDbEntity
  8
1
  100
AcDbLine
  10
18.156
  20
-2.843915
  30
0
  11
18.168
  21
-2.831901
  31
0
  0
LINE
  5
4b
  100
AcDbEntity
  8
1
  100
AcDbLine
  10
18.168
  20
-2.831901
  30
0
  11
18.18
  21
-2.819886
  31
0
  0
LINE
  5
4c
  100
AcDbEntity
  8
1
  100
AcDbLine
  10
18.18
  20
-2.819886
  30
0
  11
18.192
  21
-2.80787
  31
0
  0
LINE
  5
4d
  100
AcDbEntity
  8
1
  100
AcDbLine
  10
18.192
  20
-2.80787
  30
0
  11
18.204
  21
-2.795853
  31
0
  0
LINE
  5
4e
  100
AcDbEntity
  8
1
  100
AcDbLine
  10
18.204
  20
-2.795853
  30
0
  11
18.216
  21
-2.783834
  31
0
  0
LINE
  5
4f
  100
AcDbEntity
  8
1
  100
AcDbLine
  10
18.216
  20
-2.783834
  30
0
  11
18.228
  21
-2.771814
  31
0
  0
LINE
  5
50
  100
AcDbEntity
  8
1
  100
AcDbLine
  10
18.228
  20
-2.771814
  30
0
  11
18.24
  21
-2.759794
  31
0
  0
LINE
  5
51
  100
AcDbEntity
  8
1
  100
AcDbLine
  10
18.24
  20
-2.759794
  30
0
  11
18.252
  21
-2.747771
  31
0
  0
LINE
  5
52
  100
AcDbEntity
  8
1
  100
AcDbLine
  10
18.252
  20
-2.747771
  30
0
  11
18.264
  21
-2.735748
  31
0
  0
LINE
  5
53
  100
AcDbEntity
  8
1
  100
AcDbLine
  10
18.264
  20
-2.735748
  30
0
  11
18.276
  21
-2.723723
  31
0
  0
LINE
  5
54
  100
AcDbEntity
  8
1
  100
AcDbLine
  10
18.276
  20
-2.723723
  30
0
  11
18.288
  21
-2.711697
  31
0
  0
LINE
  5
55
  100
AcDbEntity
  8
1
  100
AcDbLine
  10
18.288
  20
-2.711697
  30
0
  11
18.3
  21
-2.69967
  31
0
  0
LINE
  5
56
  100
AcDbEntity
  8
1
  100
AcDbLine
  10
18.3
  20
-2.69967
  30
0
  11
18.312
  21
-2.687642
  31
0
  0
LINE
  5
57
  100
AcDbEntity
  8
1
  100
AcDbLine
  10
18.312
  20
-2.687642
  30
0
  11
18.324
  21
-2.675612
  31
0
  0
LINE
  5
58
  100
AcDbEntity
  8
1
  100
AcDbLine
  10
18.324
  20
-2.675612
  30
0
  11
18.336
  21
-2.66358
  31
0
  0
LINE
  5
59
  100
AcDbEntity
  8
1
  100
AcDbLine
  10
18.336
  20
-2.66358
  30
0
  11
18.348
  21
-2.651548
  31
0
  0
LINE
  5
5a
  100
AcDbEntity
  8
1
  100
AcDbLine
  10
18.348
  20
-2.651548
  30
0
  11
18.36
  21
-2.639514
  31
0
  0
LINE
  5
5b
  100
AcDbEntity
  8
1
  100
AcDbLine
  10
18.36
  20
-2.639514
  30
0
  11
18.372
  21
-2.627478
  31
0
  0
LINE
  5
5c
  100
AcDbEntity
  8
1
  100
AcDbLine
  10
18.372
  20
-2.627478
  30
0
  11
18.384
  21
-2.615442
  31
0
  0
LINE
  5
5d
  100
AcDbEntity
  8
1
  100
AcDbLine
  10
18.384
  20
-2.615442
  30
0
  11
18.396
  21
-2.603403
  31
0
  0
LINE
  5
5e
  100
AcDbEntity
  8
1
  100
AcDbLine
  10
18.396
  20
-2.603403
  30
0
  11
18.408
  21
-2.591364
  31
0
  0
LINE
  5
5f
  100
AcDbEntity
  8
1
  100
AcDbLine
  10
18.408
  20
-2.591364
  30
0
  11
18.42
  21
-2.579322
  31
0
  0
LINE
  5
60
  100
AcDbEntity
  8
1
  100
AcDbLine
  10
18.42
  20
-2.579322
  30
0
  11
18.432
  21
-2.56728
  31
0
  0
LINE
  5
61
  100
AcDbEntity
  8
1
  100
AcDbLine
  10
18.432
  20
-2.56728
  30
0
  11
18.444
  21
-2.555236
  31
0
  0
LINE
  5
62
  100
AcDbEntity
  8
1
  100
AcDbLine
  10
18.444
  20
-2.555236
  30
0
  11
18.456
  21
-2.54319
  31
0
  0
LINE
  5
63
  100
AcDbEntity
  8
1
  100
AcDbLine
  10
18.456
  20
-2.54319
  30
0
  11
18.468
  21
-2.531142
  31
0
  0
LINE
  5
64
  100
AcDbEntity
  8
1
  100
AcDbLine
  10
18.468
  20
-2.531142
  30
0
  11
18.48
  21
-2.519093
  31
0
  0
LINE
  5
65
  100
AcDbEntity
  8
1
  100
AcDbLine
  10
18.48
  20
-2.519093
  30
0
  11
18.492
  21
-2.507043
  31
0
  0
LINE
  5
66
  100
AcDbEntity
  8
1
  100
AcDbLine
  10
18.492
  20
-2.507043
  30
0
  11
18.504
  21
-2.494991
  31
0
  0
LINE
  5
67
  100
AcDbEntity
  8
1
  100
AcDbLine
  10
18.504
  20
-2.494991
  30
0
  11
18.516
  21
-2.482937
  31
0
  0
LINE
  5
68
  100
AcDbEntity
  8
1
  100
AcDbLine
  10
18.516
  20
-2.482937
  30
0
  11
18.528
  21
-2.470881
  31
0
  0
LINE
  5
69
  100
AcDbEntity
  8
1
  100
AcDbLine
  10
18.528
  20
-2.470881
  30
0
  11
18.54
  21
-2.458824
  31
0
  0
LINE
  5
6a
  100
AcDbEntity
  8
1
  100
AcDbLine
  10
18.54
  20
-2.458824
  30
0
  11
18.552
  21
-2.446765
  31
0
  0
LINE
  5
6b
  100
AcDbEntity
  8
1
  100
AcDbLine
  10
18.552
  20
-2.446765
  30
0
  11
18.564
  21
-2.434704
  31
0
  0
LINE
  5
6c
  100
AcDbEntity
  8
1
  100
AcDbLine
  10
18.564
  20
-2.434704
  30
0
  11
18.576
  21
-2.422642
  31
0
  0
LINE
  5
6d
  100
AcDbEntity
  8
1
  100
AcDbLine
  10
18.576
  20
-2.422642
  30
0
  11
18.588
  21
-2.410577
  31
0
  0
LINE
  5
6e
  100
AcDbEntity
  8
1
  100
AcDbLine
  10
18.588
  20
-2.410577
  30
0
  11
18.6
  21
-2.398511
  31
0
  0
LINE
  5
6f
  100
AcDbEntity
  8
1
  100
AcDbLine
  10
18.6
  20
-2.398511
  30
0
  11
18.612
  21
-2.386443
  31
0
  0
LINE
  5
70
  100
AcDbEntity
  8
1
  100
AcDbLine
  10
18.612
  20
-2.386443
  30
0
  11
18.624
  21
-2.374373
  31
0
  0
LINE
  5
71
  100
AcDbEntity
  8
1
  100
AcDbLine
  10
18.624
  20
-2.374373
  30
0
  11
18.636
  21
-2.362301
  31
0
  0
LINE
  5
72
  100
AcDbEntity
  8
1
  100
AcDbLine
  10
18.636
  20
-2.362301
  30
0
  11
18.648
  21
-2.350227
  31
0
  0
LINE
  5
73
  100
AcDbEntity
  8
1
  100
AcDbLine
  10
18.648
  20
-2.350227
  30
0
  11
18.66
  21
-2.338151
  31
0
  0
LINE
  5
74
  100
AcDbEntity
  8
1
  100
AcDbLine
  10
18.66
  20
-2.338151
  30
0
  11
18.672
  21
-2.326072
  31
0
  0
LINE
  5
75
  100
AcDbEntity
  8
1
  100
AcDbLine
  10
18.672
  20
-2.326072
  30
0
  11
18.684
  21
-2.313992
  31
0
  0
LINE
  5
76
  100
AcDbEntity
  8
1
  100
AcDbLine
  10
18.684
  20
-2.313992
  30
0
  11
18.696
  21
-2.30191
  31
0
  0
LINE
  5
77
  100
AcDbEntity
  8
1
  100
AcDbLine
  10
18.696
  20
-2.30191
  30
0
  11
18.708
  21
-2.289826
  31
0
  0
LINE
  5
78
  100
AcDbEntity
  8
1
  100
AcDbLine
  10
18.708
  20
-2.289826
  30
0
  11
18.72
  21
-2.277739
  31
0
  0
LINE
  5
79
  100
AcDbEntity
  8
1
  100
AcDbLine
  10
18.72
  20
-2.277739
  30
0
  11
18.732
  21
-2.265651
  31
0
  0
LINE
  5
7a
  100
AcDbEntity
  8
1
  100
AcDbLine
  10
18.732
  20
-2.265651
  30
0
  11
18.744
  21
-2.25356
  31
0
  0
LINE
  5
7b
  100
AcDbEntity
  8
1
  100
AcDbLine
  10
18.744
  20
-2.25356
  30
0
  11
18.756
  21
-2.241466
  31
0
  0
LINE
  5
7c
  100
AcDbEntity
  8
1
  100
AcDbLine
  10
18.756
  20
-2.241466
  30
0
  11
18.768
  21
-2.229371
  31
0
  0
LINE
  5
7d
  100
AcDbEntity
  8
1
  100
AcDbLine
  10
18.768
  20
-2.229371
  30
0
  11
18.78
  21
-2.217273
  31
0
  0
LINE
  5
7e
  100
AcDbEntity
  8
1
  100
AcDbLine
  10
18.78
  20
-2.217273
  30
0
  11
18.792
  21
-2.205173
  31
0
  0
LINE
  5
7f
  100
AcDbEntity
  8
1
  100
AcDbLine
  10
18.792
  20
-2.205173
  30
0
  11
18.804
  21
-2.19307
  31
0
  0
LINE
  5
80
  100
AcDbEntity
  8
1
  100
AcDbLine
  10
18.804
  20
-2.19307
  30
0
  11
18.816
  21
-2.180965
  31
0
  0
LINE
  5
81
  100
AcDbEntity
  8
1
  100
AcDbLine
  10
18.816
  20
-2.180965
  30
0
  11
18.828
  21
-2.168857
  31
0
  0
LINE
  5
82
  100
AcDbEntity
  8
1
  100
AcDbLine
  10
18.828
  20
-2.168857
  30
0
  11
18.84
  21
-2.156746
  31
0
  0
LINE
  5
83
  100
AcDbEntity
  8
1
  100
AcDbLine
  10
18.84
  20
-2.156746
  30
0
  11
18.852
  21
-2.144633
  31
0
  0
LINE
  5
84
  100
AcDbEntity
  8
1
  100
AcDbLine
  10
18.852
  20
-2.144633
  30
0
  11
18.864
  21
-2.132518
  31
0
  0
LINE
  5
85
  100
AcDbEntity
  8
1
  100
AcDbLine
  10
18.864
  20
-2.132518
  30
0
  11
18.876
  21
-2.1204
  31
0
  0
LINE
  5
86
  100
AcDbEntity
  8
1
  100
AcDbLine
  10
18.876
  20
-2.1204
  30
0
  11
18.888
  21
-2.108278
  31
0
  0
LINE
  5
87
  100
AcDbEntity
  8
1
  100
AcDbLine
  10
18.888
  20
-2.108278
  30
0
  11
18.9
  21
-2.096155
  31
0
  0
LINE
  5
88
  100
AcDbEntity
  8
1
  100
AcDbLine
  10
18.9
  20
-2.096155
  30
0
  11
18.912
  21
-2.084028
  31
0
  0
LINE
  5
89
  100
AcDbEntity
  8
1
  100
AcDbLine
  10
18.912
  20
-2.084028
  30
0
  11
18.924
  21
-2.071898
  31
0
  0
LINE
  5
8a
  100
AcDbEntity
  8
1
  100
AcDbLine
  10
18.924
  20
-2.071898
  30
0
  11
18.936
  21
-2.059766
  31
0
  0
LINE
  5
8b
  100
AcDbEntity
  8
1
  100
AcDbLine
  10
18.936
  20
-2.059766
  30
0
  11
18.948
  21
-2.04763
  31
0
  0
LINE
  5
8c
  100
AcDbEntity
  8
1
  100
AcDbLine
  10
18.948
  20
-2.04763
  30
0
  11
18.96
  21
-2.035491
  31
0
  0
LINE
  5
8d
  100
AcDbEntity
  8
1
  100
AcDbLine
  10
18.96
  20
-2.035491
  30
0
  11
18.972
  21
-2.02335
  31
0
  0
LINE
  5
8e
  100
AcDbEntity
  8
1
  100
AcDbLine
  10
18.972
  20
-2.02335
  30
0
  11
18.984
  21
-2.011205
  31
0
  0
LINE
  5
8f
  100
AcDbEntity
  8
1
  100
AcDbLine
  10
18.984
  20
-2.011205
  30
0
  11
18.996
  21
-1.999057
  31
0
  0
LINE
  5
90
  100
AcDbEntity
  8
1
  100
AcDbLine
  10
18.996
  20
-1.999057
  30
0
  11
19.008
  21
-1.986905
  31
0
  0
LINE
  5
91
  100
AcDbEntity
  8
1
  100
AcDbLine
  10
19.008
  20
-1.986905
  30
0
  11
19.02
  21
-1.97475
  31
0
  0
LINE
  5
92
  100
AcDbEntity
  8
1
  100
AcDbLine
  10
19.02
  20
-1.97475
  30
0
  11
19.032
  21
-1.962592
  31
0
  0
LINE
  5
93
  100
AcDbEntity
  8
1
  100
AcDbLine
  10
19.032
  20
-1.962592
  30
0
  11
19.044
  21
-1.95043
  31
0
  0
LINE
  5
94
  100
AcDbEntity
  8
1
  100
AcDbLine
  10
19.044
  20
-1.95043
  30
0
  11
19.056
  21
-1.938265
  31
0
  0
LINE
  5
95
  100
AcDbEntity
  8
1
  100
AcDbLine
  10
19.056
  20
-1.938265
  30
0
  11
19.068
  21
-1.926096
  31
0
  0
LINE
  5
96
  100
AcDbEntity
  8
1
  100
AcDbLine
  10
19.068
  20
-1.926096
  30
0
  11
19.08
  21
-1.913923
  31
0
  0
LINE
  5
97
  100
AcDbEntity
  8
1
  100
AcDbLine
  10
19.08
  20
-1.913923
  30
0
  11
19.092
  21
-1.901747
  31
0
  0
LINE
  5
98
  100
AcDbEntity
  8
1
  100
AcDbLine
  10
19.092
  20
-1.901747
  30
0
  11
19.104
  21
-1.889566
  31
0
  0
LINE
  5
99
  100
AcDbEntity
  8
1
  100
AcDbLine
  10
19.104
  20
-1.889566
  30
0
  11
19.116
  21
-1.877382
  31
0
  0
LINE
  5
9a
  100
AcDbEntity
  8
1
  100
AcDbLine
  10
19.116
  20
-1.877382
  30
0
  11
19.128
  21
-1.865194
  31
0
  0
LINE
  5
9b
  100
AcDbEntity
  8
1
  100
AcDbLine
  10
19.128
  20
-1.865194
  30
0
  11
19.14
  21
-1.853001
  31
0
  0
LINE
  5
9c
  100
AcDbEntity
  8
1
  100
AcDbLine
  10
19.14
  20
-1.853001
  30
0
  11
19.152
  21
-1.840805
  31
0
  0
LINE
  5
9d
  100
AcDbEntity
  8
1
  100
AcDbLine
  10
19.152
  20
-1.840805
  30
0
  11
19.164
  21
-1.828604
  31
0
  0
LINE
  5
9e
  100
AcDbEntity
  8
1
  100
AcDbLine
  10
19.164
  20
-1.828604
  30
0
  11
19.176
  21
-1.816399
  31
0
  0
LINE
  5
9f
  100
AcDbEntity
  8
1
  100
AcDbLine
  10
19.176
  20
-1.816399
  30
0
  11
19.188
  21
-1.80419
  31
0
  0
LINE
  5
a0
  100
AcDbEntity
  8
1
  100
AcDbLine
  10
19.188
  20
-1.80419
  30
0
  11
19.2
  21
-1.791975
  31
0
  0
LINE
  5
a1
  100
AcDbEntity
  8
1
  100
AcDbLine
  10
19.2
  20
-1.791975
  30
0
  11
19.212
  21
-1.779757
  31
0
  0
LINE
  5
a2
  100
AcDbEntity
  8
1
  100
AcDbLine
  10
19.212
  20
-1.779757
  30
0
  11
19.224
  21
-1.767533
  31
0
  0
LINE
  5
a3
  100
AcDbEntity
  8
1
  100
AcDbLine
  10
19.224
  20
-1.767533
  30
0
  11
19.236
  21
-1.755305
  31
0
  0
LINE
  5
a4
  100
AcDbEntity
  8
1
  100
AcDbLine
  10
19.236
  20
-1.755305
  30
0
  11
19.248
  21
-1.743072
  31
0
  0
LINE
  5
a5
  100
AcDbEntity
  8
1
  100
AcDbLine
  10
19.248
  20
-1.743072
  30
0
  11
19.26
  21
-1.730833
  31
0
  0
LINE
  5
a6
  100
AcDbEntity
  8
1
  100
AcDbLine
  10
19.26
  20
-1.730833
  30
0
  11
19.272
  21
-1.71859
  31
0
  0
LINE
  5
a7
  100
AcDbEntity
  8
1
  100
AcDbLine
  10
19.272
  20
-1.71859
  30
0
  11
19.284
  21
-1.706341
  31
0
  0
LINE
  5
a8
  100
AcDbEntity
  8
1
  100
AcDbLine
  10
19.284
  20
-1.706341
  30
0
  11
19.296
  21
-1.694087
  31
0
  0
LINE
  5
a9
  100
AcDbEntity
  8
1
  100
AcDbLine
  10
19.296
  20
-1.694087
  30
0
  11
19.308
  21
-1.681828
  31
0
  0
LINE
  5
aa
  100
AcDbEntity
  8
1
  100
AcDbLine
  10
19.308
  20
-1.681828
  30
0
  11
19.32
  21
-1.669562
  31
0
  0
LINE
  5
ab
  100
AcDbEntity
  8
1
  100
AcDbLine
  10
19.32
  20
-1.669562
  30
0
  11
19.332
  21
-1.657291
  31
0
  0
LINE
  5
ac
  100
AcDbEntity
  8
1
  100
AcDbLine
  10
19.332
  20
-1.657291
  30
0
  11
19.344
  21
-1.645014
  31
0
  0
LINE
  5
ad
  100
AcDbEntity
  8
1
  100
AcDbLine
  10
19.344
  20
-1.645014
  30
0
  11
19.356
  21
-1.632731
  31
0
  0
LINE
  5
ae
  100
AcDbEntity
  8
1
  100
AcDbLine
  10
19.356
  20
-1.632731
  30
0
  11
19.368
  21
-1.620442
  31
0
  0
LINE
  5
af
  100
AcDbEntity
  8
1
  100
AcDbLine
  10
19.368
  20
-1.620442
  30
0
  11
19.38
  21
-1.608147
  31
0
  0
LINE
  5
b0
  100
AcDbEntity
  8
1
  100
AcDbLine
  10
19.38
  20
-1.608147
  30
0
  11
19.392
  21
-1.595845
  31
0
  0
LINE
  5
b1
  100
AcDbEntity
  8
1
  100
AcDbLine
  10
19.392
  20
-1.595845
  30
0
  11
19.404
  21
-1.583536
  31
0
  0
LINE
  5
b2
  100
AcDbEntity
  8
1
  100
AcDbLine
  10
19.404
  20
-1.583536
  30
0
  11
19.416
  21
-1.571221
  31
0
  0
LINE
  5
b3
  100
AcDbEntity
  8
1
  100
AcDbLine
  10
19.416
  20
-1.571221
  30
0
  11
19.428
  21
-1.558898
  31
0
  0
LINE
  5
b4
  100
AcDbEntity
  8
1
  100
AcDbLine
  10
19.428
  20
-1.558898
  30
0
  11
19.44
  21
-1.546569
  31
0
  0
LINE
  5
b5
  100
AcDbEntity
  8
1
  100
AcDbLine
  10
19.44
  20
-1.546569
  30
0
  11
19.452
  21
-1.534232
  31
0
  0
LINE
  5
b6
  100
AcDbEntity
  8
1
  100
AcDbLine
  10
19.452
  20
-1.534232
  30
0
  11
19.464
  21
-1.521913
  31
0
  0
LINE
  5
b7
  100
AcDbEntity
  8
1
  100
AcDbLine
  10
19.464
  20
-1.521913
  30
0
  11
19.476
  21
-1.509604
  31
0
  0
LINE
  5
b8
  100
AcDbEntity
  8
1
  100
AcDbLine
  10
19.476
  20
-1.509604
  30
0
  11
19.488
  21
-1.497337
  31
0
  0
LINE
  5
b9
  100
AcDbEntity
  8
1
  100
AcDbLine
  10
19.488
  20
-1.497337
  30
0
  11
19.5
  21
-1.485097
  31
0
  0
LINE
  5
ba
  100
AcDbEntity
  8
1
  100
AcDbLine
  10
19.5
  20
-1.485097
  30
0
  11
19.512
  21
-1.472882
  31
0
  0
LINE
  5
bb
  100
AcDbEntity
  8
1
  100
AcDbLine
  10
19.512
  20
-1.472882
  30
0
  11
19.524
  21
-1.460713
  31
0
  0
LINE
  5
bc
  100
AcDbEntity
  8
1
  100
AcDbLine
  10
19.524
  20
-1.460713
  30
0
  11
19.536
  21
-1.44856
  31
0
  0
LINE
  5
bd
  100
AcDbEntity
  8
1
  100
AcDbLine
  10
19.536
  20
-1.44856
  30
0
  11
19.548
  21
-1.436459
  31
0
  0
LINE
  5
be
  100
AcDbEntity
  8
1
  100
AcDbLine
  10
19.548
  20
-1.436459
  30
0
  11
19.56
  21
-1.424381
  31
0
  0
LINE
  5
bf
  100
AcDbEntity
  8
1
  100
AcDbLine
  10
19.56
  20
-1.424381
  30
0
  11
19.572
  21
-1.412338
  31
0
  0
LINE
  5
c0
  100
AcDbEntity
  8
1
  100
AcDbLine
  10
19.572
  20
-1.412338
  30
0
  11
19.584
  21
-1.400338
  31
0
  0
LINE
  5
c1
  100
AcDbEntity
  8
1
  100
AcDbLine
  10
19.584
  20
-1.400338
  30
0
  11
19.596
  21
-1.388355
  31
0
  0
LINE
  5
c2
  100
AcDbEntity
  8
1
  100
AcDbLine
  10
19.596
  20
-1.388355
  30
0
  11
19.608
  21
-1.376433
  31
0
  0
LINE
  5
c3
  100
AcDbEntity
  8
1
  100
AcDbLine
  10
19.608
  20
-1.376433
  30
0
  11
19.62
  21
-1.364527
  31
0
  0
LINE
  5
c4
  100
AcDbEntity
  8
1
  100
AcDbLine
  10
19.62
  20
-1.364527
  30
0
  11
19.632
  21
-1.352669
  31
0
  0
LINE
  5
c5
  100
AcDbEntity
  8
1
  100
AcDbLine
  10
19.632
  20
-1.352669
  30
0
  11
19.644
  21
-1.340842
  31
0
  0
LINE
  5
c6
  100
AcDbEntity
  8
1
  100
AcDbLine
  10
19.644
  20
-1.340842
  30
0
  11
19.656
  21
-1.329045
  31
0
  0
LINE
  5
c7
  100
AcDbEntity
  8
1
  100
AcDbLine
  10
19.656
  20
-1.329045
  30
0
  11
19.668
  21
-1.317296
  31
0
  0
LINE
  5
c8
  100
AcDbEntity
  8
1
  100
AcDbLine
  10
19.668
  20
-1.317296
  30
0
  11
19.68
  21
-1.305565
  31
0
  0
LINE
  5
c9
  100
AcDbEntity
  8
1
  100
AcDbLine
  10
19.68
  20
-1.305565
  30
0
  11
19.692
  21
-1.293889
  31
0
  0
LINE
  5
ca
  100
AcDbEntity
  8
1
  100
AcDbLine
  10
19.692
  20
-1.293889
  30
0
  11
19.704
  21
-1.282234
  31
0
  0
LINE
  5
cb
  100
AcDbEntity
  8
1
  100
AcDbLine
  10
19.704
  20
-1.282234
  30
0
  11
19.716
  21
-1.270617
  31
0
  0
LINE
  5
cc
  100
AcDbEntity
  8
1
  100
AcDbLine
  10
19.716
  20
-1.270617
  30
0
  11
19.728
  21
-1.259036
  31
0
  0
LINE
  5
cd
  100
AcDbEntity
  8
1
  100
AcDbLine
  10
19.728
  20
-1.259036
  30
0
  11
19.74
  21
-1.247473
  31
0
  0
LINE
  5
ce
  100
AcDbEntity
  8
1
  100
AcDbLine
  10
19.74
  20
-1.247473
  30
0
  11
19.752
  21
-1.235964
  31
0
  0
LINE
  5
cf
  100
AcDbEntity
  8
1
  100
AcDbLine
  10
19.752
  20
-1.235964
  30
0
  11
19.764
  21
-1.224468
  31
0
  0
LINE
  5
d0
  100
AcDbEntity
  8
1
  100
AcDbLine
  10
19.764
  20
-1.224468
  30
0
  11
19.776
  21
-1.213008
  31
0
  0
LINE
  5
d1
  100
AcDbEntity
  8
1
  100
AcDbLine
  10
19.776
  20
-1.213008
  30
0
  11
19.788
  21
-1.201576
  31
0
  0
LINE
  5
d2
  100
AcDbEntity
  8
1
  100
AcDbLine
  10
19.788
  20
-1.201576
  30
0
  11
19.8
  21
-1.190157
  31
0
  0
LINE
  5
d3
  100
AcDbEntity
  8
1
  100
AcDbLine
  10
19.8
  20
-1.190157
  30
0
  11
19.812
  21
-1.178781
  31
0
  0
LINE
  5
d4
  100
AcDbEntity
  8
1
  100
AcDbLine
  10
19.812
  20
-1.178781
  30
0
  11
19.824
  21
-1.167413
  31
0
  0
LINE
  5
d5
  100
AcDbEntity
  8
1
  100
AcDbLine
  10
19.824
  20
-1.167413
  30
0
  11
19.836
  21
-1.156066
  31
0
  0
LINE
  5
d6
  100
AcDbEntity
  8
1
  100
AcDbLine
  10
19.836
  20
-1.156066
  30
0
  11
19.848
  21
-1.14474
  31
0
  0
LINE
  5
d7
  100
AcDbEntity
  8
1
  100
AcDbLine
  10
19.848
  20
-1.14474
  30
0
  11
19.86
  21
-1.133414
  31
0
  0
LINE
  5
d8
  100
AcDbEntity
  8
1
  100
AcDbLine
  10
19.86
  20
-1.133414
  30
0
  11
19.872
  21
-1.122107
  31
0
  0
LINE
  5
d9
  100
AcDbEntity
  8
1
  100
AcDbLine
  10
19.872
  20
-1.122107
  30
0
  11
19.884
  21
-1.110801
  31
0
  0
LINE
  5
da
  100
AcDbEntity
  8
1
  100
AcDbLine
  10
19.884
  20
-1.110801
  30
0
  11
19.896
  21
-1.099483
  31
0
  0
LINE
  5
db
  100
AcDbEntity
  8
1
  100
AcDbLine
  10
19.896
  20
-1.099483
  30
0
  11
19.908
  21
-1.088168
  31
0
  0
LINE
  5
dc
  100
AcDbEntity
  8
1
  100
AcDbLine
  10
19.908
  20
-1.088168
  30
0
  11
19.92
  21
-1.076835
  31
0
  0
LINE
  5
dd
  100
AcDbEntity
  8
1
  100
AcDbLine
  10
19.92
  20
-1.076835
  30
0
  11
19.932
  21
-1.06547
  31
0
  0
LINE
  5
de
  100
AcDbEntity
  8
1
  100
AcDbLine
  10
19.932
  20
-1.06547
  30
0
  11
19.944
  21
-1.054074
  31
0
  0
LINE
  5
df
  100
AcDbEntity
  8
1
  100
AcDbLine
  10
19.944
  20
-1.054074
  30
0
  11
19.956
  21
-1.042632
  31
0
  0
LINE
  5
e0
  100
AcDbEntity
  8
1
  100
AcDbLine
  10
19.956
  20
-1.042632
  30
0
  11
19.968
  21
-1.031122
  31
0
  0
LINE
  5
e1
  100
AcDbEntity
  8
1
  100
AcDbLine
  10
19.968
  20
-1.031122
  30
0
  11
19.98
  21
-1.019528
  31
0
  0
LINE
  5
e2
  100
AcDbEntity
  8
1
  100
AcDbLine
  10
19.98
  20
-1.019528
  30
0
  11
19.992
  21
-1.007825
  31
0
  0
LINE
  5
e3
  100
AcDbEntity
  8
1
  100
AcDbLine
  10
19.992
  20
-1.007825
  30
0
  11
20.004
  21
-0.995985
  31
0
  0
LINE
  5
e4
  100
AcDbEntity
  8
1
  100
AcDbLine
  10
20.004
  20
-0.995985
  30
0
  11
20.00858
  21
-0.99142
  31
0
  0
LINE
  5
e5
  100
AcDbEntity
  8
1
  100
AcDbLine
  10
20.00858
  20
0.99142
  30
0
  11
20.016
  21
0.98396
  31
0
  0
LINE
  5
e6
  100
AcDbEntity
  8
1
  100
AcDbLine
  10
20.016
  20
0.98396
  30
0
  11
20.028
  21
0.971693
  31
0
  0
LINE
  5
e7
  100
AcDbEntity
  8
1
  100
AcDbLine
  10
20.028
  20
0.971693
  30
0
  11
20.04
  21
0.959099
  31
0
  0
LINE
  5
e8
  100
AcDbEntity
  8
1
  100
AcDbLine
  10
20.04
  20
0.959099
  30
0
  11
20.052
  21
0.94605
  31
0
  0
LINE
  5
e9
  100
AcDbEntity
  8
1
  100
AcDbLine
  10
20.052
  20
0.94605
  30
0
  11
20.064
  21
0.93232
  31
0
  0
LINE
  5
ea
  100
AcDbEntity
  8
1
  100
AcDbLine
  10
20.064
  20
0.93232
  30
0
  11
20.076
  21
0.917463
  31
0
  0
LINE
  5
eb
  100
AcDbEntity
  8
1
  100
AcDbLine
  10
20.076
  20
0.917463
  30
0
  11
20.088
  21
0.900375
  31
0
  0
LINE
  5
ec
  100
AcDbEntity
  8
1
  100
AcDbLine
  10
20.088
  20
0.900375
  30
0
  11
20.1
  21
0.869384
  31
0
  0
LINE
  5
ed
  100
AcDbEntity
  8
1
  100
AcDbLine
  10
20.1
  20
0.869384
  30
0
  11
20.088
  21
0.852421
  31
0
  0
LINE
  5
ee
  100
AcDbEntity
  8
1
  100
AcDbLine
  10
20.088
  20
0.852421
  30
0
  11
20.076
  21
0.849529
  31
0
  0
LINE
  5
ef
  100
AcDbEntity
  8
1
  100
AcDbLine
  10
20.076
  20
0.849529
  30
0
  11
20.064
  21
0.849074
  31
0
  0
LINE
  5
f0
  100
AcDbEntity
  8
1
  100
AcDbLine
  10
20.064
  20
0.849074
  30
0
  11
20.052
  21
0.849702
  31
0
  0
LINE
  5
f1
  100
AcDbEntity
  8
1
  100
AcDbLine
  10
20.052
  20
0.849702
  30
0
  11
20.04
  21
0.850493
  31
0
  0
LINE
  5
f2
  100
AcDbEntity
  8
1
  100
AcDbLine
  10
20.04
  20
0.850493
  30
0
  11
20.028
  21
0.851254
  31
0
  0
LINE
  5
f3
  100
AcDbEntity
  8
1
  100
AcDbLine
  10
20.028
  20
0.851254
  30
0
  11
20.016
  21
0.851989
  31
0
  0
LINE
  5
f4
  100
AcDbEntity
  8
1
  100
AcDbLine
  10
20.016
  20
0.851989
  30
0
  11
20.004
  21
0.852701
  31
0
  0
LINE
  5
f5
  100
AcDbEntity
  8
1
  100
AcDbLine
  10
20.004
  20
0.852701
  30
0
  11
19.992
  21
0.853393
  31
0
  0
LINE
  5
f6
  100
AcDbEntity
  8
1
  100
AcDbLine
  10
19.992
  20
0.853393
  30
0
  11
19.98
  21
0.854066
  31
0
  0
LINE
  5
f7
  100
AcDbEntity
  8
1
  100
AcDbLine
  10
19.98
  20
0.854066
  30
0
  11
19.968
  21
0.854724
  31
0
  0
LINE
  5
f8
  100
AcDbEntity
  8
1
  100
AcDbLine
  10
19.968
  20
0.854724
  30
0
  11
19.956
  21
0.855367
  31
0
  0
LINE
  5
f9
  100
AcDbEntity
  8
1
  100
AcDbLine
  10
19.956
  20
0.855367
  30
0
  11
19.944
  21
0.855998
  31
0
  0
LINE
  5
fa
  100
AcDbEntity
  8
1
  100
AcDbLine
  10
19.944
  20
0.855998
  30
0
  11
19.932
  21
0.856616
  31
0
  0
LINE
  5
fb
  100
AcDbEntity
  8
1
  100
AcDbLine
  10
19.932
  20
0.856616
  30
0
  11
19.92
  21
0.857223
  31
0
  0
LINE
  5
fc
  100
AcDbEntity
  8
1
  100
AcDbLine
  10
19.92
  20
0.857223
  30
0
  11
19.908
  21
0.857821
  31
0
  0
LINE
  5
fd
  100
AcDbEntity
  8
1
  100
AcDbLine
  10
19.908
  20
0.857821
  30
0
  11
19.896
  21
0.858409
  31
0
  0
LINE
  5
fe
  100
AcDbEntity
  8
1
  100
AcDbLine
  10
19.896
  20
0.858409
  30
0
  11
19.884
  21
0.858988
  31
0
  0
LINE
  5
ff
  100
AcDbEntity
  8
1
  100
AcDbLine
  10
19.884
  20
0.858988
  30
0
  11
19.872
  21
0.85956
  31
0
  0
LINE
  5
100
  100
AcDbEntity
  8
1
  100
AcDbLine
  10
19.872
  20
0.85956
  30
0
  11
19.86
  21
0.860125
  31
0
  0
LINE
  5
101
  100
AcDbEntity
  8
1
  100
AcDbLine
  10
19.86
  20
0.860125
  30
0
  11
19.848
  21
0.860682
  31
0
  0
LINE
  5
102
  100
AcDbEntity
  8
1
  100
AcDbLine
  10
19.848
  20
0.860682
  30
0
  11
19.836
  21
0.861233
  31
0
  0
LINE
  5
103
  100
AcDbEntity
  8
1
  100
AcDbLine
  10
19.836
  20
0.861233
  30
0
  11
19.824
  21
0.861778
  31
0
  0
LINE
  5
104
  100
AcDbEntity
  8
1
  100
AcDbLine
  10
19.824
  20
0.861778
  30
0
  11
19.812
  21
0.862317
  31
0
  0
LINE
  5
105
  100
AcDbEntity
  8
1
  100
AcDbLine
  10
19.812
  20
0.862317
  30
0
  11
19.8
  21
0.862852
  31
0
  0
LINE
  5
106
  100
AcDbEntity
  8
1
  100
AcDbLine
  10
19.8
  20
0.862852
  30
0
  11
19.788
  21
0.863381
  31
0
  0
LINE
  5
107
  100
AcDbEntity
  8
1
  100
AcDbLine
  10
19.788
  20
0.863381
  30
0
  11
19.776
  21
0.863905
  31
0
  0
LINE
  5
108
  100
AcDbEntity
  8
1
  100
AcDbLine
  10
19.776
  20
0.863905
  30
0
  11
19.764
  21
0.864425
  31
0
  0
LINE
  5
109
  100
AcDbEntity
  8
1
  100
AcDbLine
  10
19.764
  20
0.864425
  30
0
  11
19.752
  21
0.86494
  31
0
  0
LINE
  5
10a
  100
AcDbEntity
  8
1
  100
AcDbLine
  10
19.752
  20
0.86494
  30
0
  11
19.74
  21
0.865452
  31
0
  0
LINE
  5
10b
  100
AcDbEntity
  8
1
  100
AcDbLine
  10
19.74
  20
0.865452
  30
0
  11
19.728
  21
0.86596
  31
0
  0
LINE
  5
10c
  100
AcDbEntity
  8
1
  100
AcDbLine
  10
19.728
  20
0.86596
  30
0
  11
19.716
  21
0.866464
  31
0
  0
LINE
  5
10d
  100
AcDbEntity
  8
1
  100
AcDbLine
  10
19.716
  20
0.866464
  30
0
  11
19.704
  21
0.866965
  31
0
  0
LINE
  5
10e
  100
AcDbEntity
  8
1
  100
AcDbLine
  10
19.704
  20
0.866965
  30
0
  11
19.692
  21
0.867462
  31
0
  0
LINE
  5
10f
  100
AcDbEntity
  8
1
  100
AcDbLine
  10
19.692
  20
0.867462
  30
0
  11
19.68
  21
0.867956
  31
0
  0
LINE
  5
110
  100
AcDbEntity
  8
1
  100
AcDbLine
  10
19.68
  20
0.867956
  30
0
  11
19.668
  21
0.868447
  31
0
  0
LINE
  5
111
  100
AcDbEntity
  8
1
  100
AcDbLine
  10
19.668
  20
0.868447
  30
0
  11
19.656
  21
0.868936
  31
0
  0
LINE
  5
112
  100
AcDbEntity
  8
1
  100
AcDbLine
  10
19.656
  20
0.868936
  30
0
  11
19.644
  21
0.869421
  31
0
  0
LINE
  5
113
  100
AcDbEntity
  8
1
  100
AcDbLine
  10
19.644
  20
0.869421
  30
0
  11
19.632
  21
0.869904
  31
0
  0
LINE
  5
114
  100
AcDbEntity
  8
1
  100
AcDbLine
  10
19.632
  20
0.869904
  30
0
  11
19.62
  21
0.870385
  31
0
  0
LINE
  5
115
  100
AcDbEntity
  8
1
  100
AcDbLine
  10
19.62
  20
0.870385
  30
0
  11
19.608
  21
0.870863
  31
0
  0
LINE
  5
116
  100
AcDbEntity
  8
1
  100
AcDbLine
  10
19.608
  20
0.870863
  30
0
  11
19.596
  21
0.871339
  31
0
  0
LINE
  5
117
  100
AcDbEntity
  8
1
  100
AcDbLine
  10
19.596
  20
0.871339
  30
0
  11
19.584
  21
0.871812
  31
0
  0
LINE
  5
118
  100
AcDbEntity
  8
1
  100
AcDbLine
  10
19.584
  20
0.871812
  30
0
  11
19.572
  21
0.872284
  31
0
  0
LINE
  5
119
  100
AcDbEntity
  8
1
  100
AcDbLine
  10
19.572
  20
0.872284
  30
0
  11
19.56
  21
0.872753
  31
0
  0
LINE
  5
11a
  100
AcDbEntity
  8
1
  100
AcDbLine
  10
19.56
  20
0.872753
  30
0
  11
19.548
  21
0.87322
  31
0
  0
LINE
  5
11b
  100
AcDbEntity
  8
1
  100
AcDbLine
  10
19.548
  20
0.87322
  30
0
  11
19.536
  21
0.873686
  31
0
  0
LINE
  5
11c
  100
AcDbEntity
  8
1
  100
AcDbLine
  10
19.536
  20
0.873686
  30
0
  11
19.524
  21
0.874149
  31
0
  0
LINE
  5
11d
  100
AcDbEntity
  8
1
  100
AcDbLine
  10
19.524
  20
0.874149
  30
0
  11
19.512
  21
0.874611
  31
0
  0
LINE
  5
11e
  100
AcDbEntity
  8
1
  100
AcDbLine
  10
19.512
  20
0.874611
  30
0
  11
19.5
  21
0.875071
  31
0
  0
LINE
  5
11f
  100
AcDbEntity
  8
1
  100
AcDbLine
  10
19.5
  20
0.875071
  30
0
  11
19.488
  21
0.87553
  31
0
  0
LINE
  5
120
  100
AcDbEntity
  8
1
  100
AcDbLine
  10
19.488
  20
0.87553
  30
0
  11
19.476
  21
0.875987
  31
0
  0
LINE
  5
121
  100
AcDbEntity
  8
1
  100
AcDbLine
  10
19.476
  20
0.875987
  30
0
  11
19.464
  21
0.876442
  31
0
  0
LINE
  5
122
  100
AcDbEntity
  8
1
  100
AcDbLine
  10
19.464
  20
0.876442
  30
0
  11
19.452
  21
0.876896
  31
0
  0
LINE
  5
123
  100
AcDbEntity
  8
1
  100
AcDbLine
  10
19.452
  20
0.876896
  30
0
  11
19.44
  21
0.877348
  31
0
  0
LINE
  5
124
  100
AcDbEntity
  8
1
  100
AcDbLine
  10
19.44
  20
0.877348
  30
0
  11
19.428
  21
0.877799
  31
0
  0
LINE
  5
125
  100
AcDbEntity
  8
1
  100
AcDbLine
  10
19.428
  20
0.877799
  30
0
  11
19.416
  21
0.878249
  31
0
  0
LINE
  5
126
  100
AcDbEntity
  8
1
  100
AcDbLine
  10
19.416
  20
0.878249
  30
0
  11
19.404
  21
0.878697
  31
0
  0
LINE
  5
127
  100
AcDbEntity
  8
1
  100
AcDbLine
  10
19.404
  20
0.878697
  30
0
  11
19.392
  21
0.879144
  31
0
  0
LINE
  5
128
  100
AcDbEntity
  8
1
  100
AcDbLine
  10
19.392
  20
0.879144
  30
0
  11
19.38
  21
0.87959
  31
0
  0
LINE
  5
129
  100
AcDbEntity
  8
1
  100
AcDbLine
  10
19.38
  20
0.87959
  30
0
  11
19.368
  21
0.880034
  31
0
  0
LINE
  5
12a
  100
AcDbEntity
  8
1
  100
AcDbLine
  10
19.368
  20
0.880034
  30
0
  11
19.356
  21
0.880478
  31
0
  0
LINE
  5
12b
  100
AcDbEntity
  8
1
  100
AcDbLine
  10
19.356
  20
0.880478
  30
0
  11
19.344
  21
0.88092
  31
0
  0
LINE
  5
12c
  100
AcDbEntity
  8
1
  100
AcDbLine
  10
19.344
  20
0.88092
  30
0
  11
19.332
  21
0.881361
  31
0
  0
LINE
  5
12d
  100
AcDbEntity
  8
1
  100
AcDbLine
  10
19.332
  20
0.881361
  30
0
  11
19.32
  21
0.881801
  31
0
  0
LINE
  5
12e
  100
AcDbEntity
  8
1
  100
AcDbLine
  10
19.32
  20
0.881801
  30
0
  11
19.308
  21
0.882241
  31
0
  0
LINE
  5
12f
  100
AcDbEntity
  8
1
  100
AcDbLine
  10
19.308
  20
0.882241
  30
0
  11
19.296
  21
0.882679
  31
0
  0
LINE
  5
130
  100
AcDbEntity
  8
1
  100
AcDbLine
  10
19.296
  20
0.882679
  30
0
  11
19.284
  21
0.883116
  31
0
  0
LINE
  5
131
  100
AcDbEntity
  8
1
  100
AcDbLine
  10
19.284
  20
0.883116
  30
0
  11
19.272
  21
0.883552
  31
0
  0
LINE
  5
132
  100
AcDbEntity
  8
1
  100
AcDbLine
  10
19.272
  20
0.883552
  30
0
  11
19.26
  21
0.883987
  31
0
  0
LINE
  5
133
  100
AcDbEntity
  8
1
  100
AcDbLine
  10
19.26
  20
0.883987
  30
0
  11
19.248
  21
0.884422
  31
0
  0
LINE
  5
134
  100
AcDbEntity
  8
1
  100
AcDbLine
  10
19.248
  20
0.884422
  30
0
  11
19.236
  21
0.884855
  31
0
  0
LINE
  5
135
  100
AcDbEntity
  8
1
  100
AcDbLine
  10
19.236
  20
0.884855
  30
0
  11
19.224
  21
0.885288
  31
0
  0
LINE
  5
136
  100
AcDbEntity
  8
1
  100
AcDbLine
  10
19.224
  20
0.885288
  30
0
  11
19.212
  21
0.885719
  31
0
  0
LINE
  5
137
  100
AcDbEntity
  8
1
  100
AcDbLine
  10
19.212
  20
0.885719
  30
0
  11
19.2
  21
0.88615
  31
0
  0
LINE
  5
138
  100
AcDbEntity
  8
1
  100
AcDbLine
  10
19.2
  20
0.88615
  30
0
  11
19.188
  21
0.886581
  31
0
  0
LINE
  5
139
  100
AcDbEntity
  8
1
  100
AcDbLine
  10
19.188
  20
0.886581
  30
0
  11
19.176
  21
0.88701
  31
0
  0
LINE
  5
13a
  100
AcDbEntity
  8
1
  100
AcDbLine
  10
19.176
  20
0.88701
  30
0
  11
19.164
  21
0.887439
  31
0
  0
LINE
  5
13b
  100
AcDbEntity
  8
1
  100
AcDbLine
  10
19.164
  20
0.887439
  30
0
  11
19.152
  21
0.887867
  31
0
  0
LINE
  5
13c
  100
AcDbEntity
  8
1
  100
AcDbLine
  10
19.152
  20
0.887867
  30
0
  11
19.14
  21
0.888294
  31
0
  0
LINE
  5
13d
  100
AcDbEntity
  8
1
  100
AcDbLine
  10
19.14
  20
0.888294
  30
0
  11
19.128
  21
0.88872
  31
0
  0
LINE
  5
13e
  100
AcDbEntity
  8
1
  100
AcDbLine
  10
19.128
  20
0.88872
  30
0
  11
19.116
  21
0.889146
  31
0
  0
LINE
  5
13f
  100
AcDbEntity
  8
1
  100
AcDbLine
  10
19.116
  20
0.889146
  30
0
  11
19.104
  21
0.889571
  31
0
  0
LINE
  5
140
  100
AcDbEntity
  8
1
  100
AcDbLine
  10
19.104
  20
0.889571
  30
0
  11
19.092
  21
0.889996
  31
0
  0
LINE
  5
141
  100
AcDbEntity
  8
1
  100
AcDbLine
  10
19.092
  20
0.889996
  30
0
  11
19.08
  21
0.89042
  31
0
  0
LINE
  5
142
  100
AcDbEntity
  8
1
  100
AcDbLine
  10
19.08
  20
0.89042
  30
0
  11
19.068
  21
0.890843
  31
0
  0
LINE
  5
143
  100
AcDbEntity
  8
1
  100
AcDbLine
  10
19.068
  20
0.890843
  30
0
  11
19.056
  21
0.891266
  31
0
  0
LINE
  5
144
  100
AcDbEntity
  8
1
  100
AcDbLine
  10
19.056
  20
0.891266
  30
0
  11
19.044
  21
0.891688
  31
0
  0
LINE
  5
145
  100
AcDbEntity
  8
1
  100
AcDbLine
  10
19.044
  20
0.891688
  30
0
  11
19.032
  21
0.892109
  31
0
  0
LINE
  5
146
  100
AcDbEntity
  8
1
  100
AcDbLine
  10
19.032
  20
0.892109
  30
0
  11
19.02
  21
0.89253
  31
0
  0
LINE
  5
147
  100
AcDbEntity
  8
1
  100
AcDbLine
  10
19.02
  20
0.89253
  30
0
  11
19.008
  21
0.892951
  31
0
  0
LINE
  5
148
  100
AcDbEntity
  8
1
  100
AcDbLine
  10
19.008
  20
0.892951
  30
0
  11
18.996
  21
0.893371
  31
0
  0
LINE
  5
149
  100
AcDbEntity
  8
1
  100
AcDbLine
  10
18.996
  20
0.893371
  30
0
  11
18.984
  21
0.89379
  31
0
  0
LINE
  5
14a
  100
AcDbEntity
  8
1
  100
AcDbLine
  10
18.984
  20
0.89379
  30
0
  11
18.972
  21
0.894209
  31
0
  0
LINE
  5
14b
  100
AcDbEntity
  8
1
  100
AcDbLine
  10
18.972
  20
0.894209
  30
0
  11
18.96
  21
0.894627
  31
0
  0
LINE
  5
14c
  100
AcDbEntity
  8
1
  100
AcDbLine
  10
18.96
  20
0.894627
  30
0
  11
18.948
  21
0.895045
  31
0
  0
LINE
  5
14d
  100
AcDbEntity
  8
1
  100
AcDbLine
  10
18.948
  20
0.895045
  30
0
  11
18.936
  21
0.895462
  31
0
  0
LINE
  5
14e
  100
AcDbEntity
  8
1
  100
AcDbLine
  10
18.936
  20
0.895462
  30
0
  11
18.924
  21
0.895879
  31
0
  0
LINE
  5
14f
  100
AcDbEntity
  8
1
  100
AcDbLine
  10
18.924
  20
0.895879
  30
0
  11
18.912
  21
0.896295
  31
0
  0
LINE
  5
150
  100
AcDbEntity
  8
1
  100
AcDbLine
  10
18.912
  20
0.896295
  30
0
  11
18.9
  21
0.896711
  31
0
  0
LINE
  5
151
  100
AcDbEntity
  8
1
  100
AcDbLine
  10
18.9
  20
0.896711
  30
0
  11
18.888
  21
0.897127
  31
0
  0
LINE
  5
152
  100
AcDbEntity
  8
1
  100
AcDbLine
  10
18.888
  20
0.897127
  30
0
  11
18.876
  21
0.897542
  31
0
  0
LINE
  5
153
  100
AcDbEntity
  8
1
  100
AcDbLine
  10
18.876
  20
0.897542
  30
0
  11
18.864
  21
0.897956
  31
0
  0
LINE
  5
154
  100
AcDbEntity
  8
1
  100
AcDbLine
  10
18.864
  20
0.897956
  30
0
  11
18.852
  21
0.898371
  31
0
  0
LINE
  5
155
  100
AcDbEntity
  8
1
  100
AcDbLine
  10
18.852
  20
0.898371
  30
0
  11
18.84
  21
0.898784
  31
0
  0
LINE
  5
156
  100
AcDbEntity
  8
1
  100
AcDbLine
  10
18.84
  20
0.898784
  30
0
  11
18.828
  21
0.899198
  31
0
  0
LINE
  5
157
  100
AcDbEntity
  8
1
  100
AcDbLine
  10
18.828
  20
0.899198
  30
0
  11
18.816
  21
0.899611
  31
0
  0
LINE
  5
158
  100
AcDbEntity
  8
1
  100
AcDbLine
  10
18.816
  20
0.899611
  30
0
  11
18.804
  21
0.900023
  31
0
  0
LINE
  5
159
  100
AcDbEntity
  8
1
  100
AcDbLine
  10
18.804
  20
0.900023
  30
0
  11
18.792
  21
0.900436
  31
0
  0
LINE
  5
15a
  100
AcDbEntity
  8
1
  100
AcDbLine
  10
18.792
  20
0.900436
  30
0
  11
18.78
  21
0.900847
  31
0
  0
LINE
  5
15b
  100
AcDbEntity
  8
1
  100
AcDbLine
  10
18.78
  20
0.900847
  30
0
  11
18.768
  21
0.901259
  31
0
  0
LINE
  5
15c
  100
AcDbEntity
  8
1
  100
AcDbLine
  10
18.768
  20
0.901259
  30
0
  11
18.756
  21
0.90167
  31
0
  0
LINE
  5
15d
  100
AcDbEntity
  8
1
  100
AcDbLine
  10
18.756
  20
0.90167
  30
0
  11
18.744
  21
0.902081
  31
0
  0
LINE
  5
15e
  100
AcDbEntity
  8
1
  100
AcDbLine
  10
18.744
  20
0.902081
  30
0
  11
18.732
  21
0.902491
  31
0
  0
LINE
  5
15f
  100
AcDbEntity
  8
1
  100
AcDbLine
  10
18.732
  20
0.902491
  30
0
  11
18.72
  21
0.902901
  31
0
  0
LINE
  5
160
  100
AcDbEntity
  8
1
  100
AcDbLine
  10
18.72
  20
0.902901
  30
0
  11
18.708
  21
0.903311
  31
0
  0
LINE
  5
161
  100
AcDbEntity
  8
1
  100
AcDbLine
  10
18.708
  20
0.903311
  30
0
  11
18.696
  21
0.90372
  31
0
  0
LINE
  5
162
  100
AcDbEntity
  8
1
  100
AcDbLine
  10
18.696
  20
0.90372
  30
0
  11
18.684
  21
0.904129
  31
0
  0
LINE
  5
163
  100
AcDbEntity
  8
1
  100
AcDbLine
  10
18.684
  20
0.904129
  30
0
  11
18.672
  21
0.904538
  31
0
  0
LINE
  5
164
  100
AcDbEntity
  8
1
  100
AcDbLine
  10
18.672
  20
0.904538
  30
0
  11
18.66
  21
0.904946
  31
0
  0
LINE
  5
165
  100
AcDbEntity
  8
1
  100
AcDbLine
  10
18.66
  20
0.904946
  30
0
  11
18.648
  21
0.905355
  31
0
  0
LINE
  5
166
  100
AcDbEntity
  8
1
  100
AcDbLine
  10
18.648
  20
0.905355
  30
0
  11
18.636
  21
0.905762
  31
0
  0
LINE
  5
167
  100
AcDbEntity
  8
1
  100
AcDbLine
  10
18.636
  20
0.905762
  30
0
  11
18.624
  21
0.90617
  31
0
  0
LINE
  5
168
  100
AcDbEntity
  8
1
  100
AcDbLine
  10
18.624
  20
0.90617
  30
0
  11
18.612
  21
0.906577
  31
0
  0
LINE
  5
169
  100
AcDbEntity
  8
1
  100
AcDbLine
  10
18.612
  20
0.906577
  30
0
  11
18.6
  21
0.906984
  31
0
  0
LINE
  5
16a
  100
AcDbEntity
  8
1
  100
AcDbLine
  10
18.6
  20
0.906984
  30
0
  11
18.588
  21
0.907391
  31
0
  0
LINE
  5
16b
  100
AcDbEntity
  8
1
  100
AcDbLine
  10
18.588
  20
0.907391
  30
0
  11
18.576
  21
0.907797
  31
0
  0
LINE
  5
16c
  100
AcDbEntity
  8
1
  100
AcDbLine
  10
18.576
  20
0.907797
  30
0
  11
18.564
  21
0.908203
  31
0
  0
LINE
  5
16d
  100
AcDbEntity
  8
1
  100
AcDbLine
  10
18.564
  20
0.908203
  30
0
  11
18.552
  21
0.908609
  31
0
  0
LINE
  5
16e
  100
AcDbEntity
  8
1
  100
AcDbLine
  10
18.552
  20
0.908609
  30
0
  11
18.54
  21
0.909015
  31
0
  0
LINE
  5
16f
  100
AcDbEntity
  8
1
  100
AcDbLine
  10
18.54
  20
0.909015
  30
0
  11
18.528
  21
0.90942
  31
0
  0
LINE
  5
170
  100
AcDbEntity
  8
1
  100
AcDbLine
  10
18.528
  20
0.90942
  30
0
  11
18.516
  21
0.909825
  31
0
  0
LINE
  5
171
  100
AcDbEntity
  8
1
  100
AcDbLine
  10
18.516
  20
0.909825
  30
0
  11
18.504
  21
0.91023
  31
0
  0
LINE
  5
172
  100
AcDbEntity
  8
1
  100
AcDbLine
  10
18.504
  20
0.91023
  30
0
  11
18.492
  21
0.910635
  31
0
  0
LINE
  5
173
  100
AcDbEntity
  8
1
  100
AcDbLine
  10
18.492
  20
0.910635
  30
0
  11
18.48
  21
0.911039
  31
0
  0
LINE
  5
174
  100
AcDbEntity
  8
1
  100
AcDbLine
  10
18.48
  20
0.911039
  30
0
  11
18.468
  21
0.911443
  31
0
  0
LINE
  5
175
  100
AcDbEntity
  8
1
  100
AcDbLine
  10
18.468
  20
0.911443
  30
0
  11
18.456
  21
0.911847
  31
0
  0
LINE
  5
176
  100
AcDbEntity
  8
1
  100
AcDbLine
  10
18.456
  20
0.911847
  30
0
  11
18.444
  21
0.912251
  31
0
  0
LINE
  5
177
  100
AcDbEntity
  8
1
  100
AcDbLine
  10
18.444
  20
0.912251
  30
0
  11
18.432
  21
0.912654
  31
0
  0
LINE
  5
178
  100
AcDbEntity
  8
1
  100
AcDbLine
  10
18.432
  20
0.912654
  30
0
  11
18.42
  21
0.913057
  31
0
  0
LINE
  5
179
  100
AcDbEntity
  8
1
  100
AcDbLine
  10
18.42
  20
0.913057
  30
0
  11
18.408
  21
0.91346
  31
0
  0
LINE
  5
17a
  100
AcDbEntity
  8
1
  100
AcDbLine
  10
18.408
  20
0.91346
  30
0
  11
18.396
  21
0.913863
  31
0
  0
LINE
  5
17b
  100
AcDbEntity
  8
1
  100
AcDbLine
  10
18.396
  20
0.913863
  30
0
  11
18.384
  21
0.914265
  31
0
  0
LINE
  5
17c
  100
AcDbEntity
  8
1
  100
AcDbLine
  10
18.384
  20
0.914265
  30
0
  11
18.372
  21
0.914668
  31
0
  0
LINE
  5
17d
  100
AcDbEntity
  8
1
  100
AcDbLine
  10
18.372
  20
0.914668
  30
0
  11
18.36
  21
0.91507
  31
0
  0
LINE
  5
17e
  100
AcDbEntity
  8
1
  100
AcDbLine
  10
18.36
  20
0.91507
  30
0
  11
18.348
  21
0.915472
  31
0
  0
LINE
  5
17f
  100
AcDbEntity
  8
1
  100
AcDbLine
  10
18.348
  20
0.915472
  30
0
  11
18.336
  21
0.915874
  31
0
  0
LINE
  5
180
  100
AcDbEntity
  8
1
  100
AcDbLine
  10
18.336
  20
0.915874
  30
0
  11
18.324
  21
0.916275
  31
0
  0
LINE
  5
181
  100
AcDbEntity
  8
1
  100
AcDbLine
  10
18.324
  20
0.916275
  30
0
  11
18.312
  21
0.916676
  31
0
  0
LINE
  5
182
  100
AcDbEntity
  8
1
  100
AcDbLine
  10
18.312
  20
0.916676
  30
0
  11
18.3
  21
0.917077
  31
0
  0
LINE
  5
183
  100
AcDbEntity
  8
1
  100
AcDbLine
  10
18.3
  20
0.917077
  30
0
  11
18.288
  21
0.917478
  31
0
  0
LINE
  5
184
  100
AcDbEntity
  8
1
  100
AcDbLine
  10
18.288
  20
0.917478
  30
0
  11
18.276
  21
0.917879
  31
0
  0
LINE
  5
185
  100
AcDbEntity
  8
1
  100
AcDbLine
  10
18.276
  20
0.917879
  30
0
  11
18.264
  21
0.91828
  31
0
  0
LINE
  5
186
  100
AcDbEntity
  8
1
  100
AcDbLine
  10
18.264
  20
0.91828
  30
0
  11
18.252
  21
0.91868
  31
0
  0
LINE
  5
187
  100
AcDbEntity
  8
1
  100
AcDbLine
  10
18.252
  20
0.91868
  30
0
  11
18.24
  21
0.91908
  31
0
  0
LINE
  5
188
  100
AcDbEntity
  8
1
  100
AcDbLine
  10
18.24
  20
0.91908
  30
0
  11
18.228
  21
0.91948
  31
0
  0
LINE
  5
189
  100
AcDbEntity
  8
1
  100
AcDbLine
  10
18.228
  20
0.91948
  30
0
  11
18.216
  21
0.91988
  31
0
  0
LINE
  5
18a
  100
AcDbEntity
  8
1
  100
AcDbLine
  10
18.216
  20
0.91988
  30
0
  11
18.204
  21
0.92028
  31
0
  0
LINE
  5
18b
  100
AcDbEntity
  8
1
  100
AcDbLine
  10
18.204
  20
0.92028
  30
0
  11
18.192
  21
0.92068
  31
0
  0
LINE
  5
18c
  100
AcDbEntity
  8
1
  100
AcDbLine
  10
18.192
  20
0.92068
  30
0
  11
18.18
  21
0.921079
  31
0
  0
LINE
  5
18d
  100
AcDbEntity
  8
1
  100
AcDbLine
  10
18.18
  20
0.921079
  30
0
  11
18.168
  21
0.921478
  31
0
  0
LINE
  5
18e
  100
AcDbEntity
  8
1
  100
AcDbLine
  10
18.168
  20
0.921478
  30
0
  11
18.156
  21
0.921877
  31
0
  0
LINE
  5
18f
  100
AcDbEntity
  8
1
  100
AcDbLine
  10
18.156
  20
0.921877
  30
0
  11
18.144
  21
0.922276
  31
0
  0
LINE
  5
190
  100
AcDbEntity
  8
1
  100
AcDbLine
  10
18.144
  20
0.922276
  30
0
  11
18.132
  21
0.922675
  31
0
  0
LINE
  5
191
  100
AcDbEntity
  8
1
  100
AcDbLine
  10
18.132
  20
0.922675
  30
0
  11
18.12
  21
0.923073
  31
0
  0
LINE
  5
192
  100
AcDbEntity
  8
1
  100
AcDbLine
  10
18.12
  20
0.923073
  30
0
  11
18.108
  21
0.923472
  31
0
  0
LINE
  5
193
  100
AcDbEntity
  8
1
  100
AcDbLine
  10
18.108
  20
0.923472
  30
0
  11
18.096
  21
0.92387
  31
0
  0
LINE
  5
194
  100
AcDbEntity
  8
1
  100
AcDbLine
  10
18.096
  20
0.92387
  30
0
  11
18.084
  21
0.924268
  31
0
  0
LINE
  5
195
  100
AcDbEntity
  8
1
  100
AcDbLine
  10
18.084
  20
0.924268
  30
0
  11
18.072
  21
0.924666
  31
0
  0
LINE
  5
196
  100
AcDbEntity
  8
1
  100
AcDbLine
  10
18.072
  20
0.924666
  30
0
  11
18.06
  21
0.925064
  31
0
  0
LINE
  5
197
  100
AcDbEntity
  8
1
  100
AcDbLine
  10
18.06
  20
0.925064
  30
0
  11
18.048
  21
0.925462
  31
0
  0
LINE
  5
198
  100
AcDbEntity
  8
1
  100
AcDbLine
  10
18.048
  20
0.925462
  30
0
  11
18.036
  21
0.925859
  31
0
  0
LINE
  5
199
  100
AcDbEntity
  8
1
  100
AcDbLine
  10
18.036
  20
0.925859
  30
0
  11
18.024
  21
0.926257
  31
0
  0
LINE
  5
19a
  100
AcDbEntity
  8
1
  100
AcDbLine
  10
18.024
  20
0.926257
  30
0
  11
18.012
  21
0.926654
  31
0
  0
LINE
  5
19b
  100
AcDbEntity
  8
1
  100
AcDbLine
  10
18.012
  20
0.926654
  30
0
  11
17.988
  21
0.928094
  31
0
  0
LINE
  5
19c
  100
AcDbEntity
  8
1
  100
AcDbLine
  10
17.988
  20
0.928094
  30
0
  11
17.976
  21
0.931222
  31
0
  0
LINE
  5
19d
  100
AcDbEntity
  8
1
  100
AcDbLine
  10
17.976
  20
0.931222
  30
0
  11
17.964
  21
0.93643
  31
0
  0
LINE
  5
19e
  100
AcDbEntity
  8
1
  100
AcDbLine
  10
17.964
  20
0.93643
  30
0
  11
17.952
  21
0.943708
  31
0
  0
LINE
  5
19f
  100
AcDbEntity
  8
1
  100
AcDbLine
  10
17.952
  20
0.943708
  30
0
  11
17.94
  21
0.953043
  31
0
  0
LINE
  5
1a0
  100
AcDbEntity
  8
1
  100
AcDbLine
  10
17.94
  20
0.953043
  30
0
  11
17.928
  21
0.964421
  31
0
  0
LINE
  5
1a1
  100
AcDbEntity
  8
1
  100
AcDbLine
  10
17.928
  20
0.964421
  30
0
  11
17.916
  21
0.977822
  31
0
  0
LINE
  5
1a2
  100
AcDbEntity
  8
1
  100
AcDbLine
  10
17.916
  20
0.977822
  30
0
  11
17.904
  21
0.993221
  31
0
  0
LINE
  5
1a3
  100
AcDbEntity
  8
1
  100
AcDbLine
  10
17.904
  20
0.993221
  30
0
  11
17.892
  21
1.010592
  31
0
  0
LINE
  5
1a4
  100
AcDbEntity
  8
1
  100
AcDbLine
  10
17.892
  20
1.010592
  30
0
  11
17.88
  21
1.029903
  31
0
  0
LINE
  5
1a5
  100
AcDbEntity
  8
1
  100
AcDbLine
  10
17.88
  20
1.029903
  30
0
  11
17.868
  21
1.051122
  31
0
  0
LINE
  5
1a6
  100
AcDbEntity
  8
1
  100
AcDbLine
  10
17.868
  20
1.051122
  30
0
  11
17.856
  21
1.074208
  31
0
  0
LINE
  5
1a7
  100
AcDbEntity
  8
1
  100
AcDbLine
  10
17.856
  20
1.074208
  30
0
  11
17.844
  21
1.099119
  31
0
  0
LINE
  5
1a8
  100
AcDbEntity
  8
1
  100
AcDbLine
  10
17.844
  20
1.099119
  30
0
  11
17.832
  21
1.125811
  31
0
  0
LINE
  5
1a9
  100
AcDbEntity
  8
1
  100
AcDbLine
  10
17.832
  20
1.125811
  30
0
  11
17.82
  21
1.154231
  31
0
  0
LINE
  5
1aa
  100
AcDbEntity
  8
1
  100
AcDbLine
  10
17.82
  20
1.154231
  30
0
  11
17.808
  21
1.184327
  31
0
  0
LINE
  5
1ab
  100
AcDbEntity
  8
1
  100
AcDbLine
  10
17.808
  20
1.184327
  30
0
  11
17.796
  21
1.21604
  31
0
  0
LINE
  5
1ac
  100
AcDbEntity
  8
1
  100
AcDbLine
  10
17.796
  20
1.21604
  30
0
  11
17.784
  21
1.249308
  31
0
  0
LINE
  5
1ad
  100
AcDbEntity
  8
1
  100
AcDbLine
  10
17.784
  20
1.249308
  30
0
  11
17.772
  21
1.284066
  31
0
  0
LINE
  5
1ae
  100
AcDbEntity
  8
1
  100
AcDbLine
  10
17.772
  20
1.284066
  30
0
  11
17.76
  21
1.320244
  31
0
  0
LINE
  5
1af
  100
AcDbEntity
  8
1
  100
AcDbLine
  10
17.76
  20
1.320244
  30
0
  11
17.748
  21
1.357769
  31
0
  0
LINE
  5
1b0
  100
AcDbEntity
  8
1
  100
AcDbLine
  10
17.748
  20
1.357769
  30
0
  11
17.736
  21
1.396563
  31
0
  0
LINE
  5
1b1
  100
AcDbEntity
  8
1
  100
AcDbLine
  10
17.736
  20
1.396563
  30
0
  11
17.724
  21
1.436545
  31
0
  0
LINE
  5
1b2
  100
AcDbEntity
  8
1
  100
AcDbLine
  10
17.724
  20
1.436545
  30
0
  11
17.712
  21
1.477631
  31
0
  0
LINE
  5
1b3
  100
AcDbEntity
  8
1
  100
AcDbLine
  10
17.712
  20
1.477631
  30
0
  11
17.7
  21
1.519734
  31
0
  0
LINE
  5
1b4
  100
AcDbEntity
  8
1
  100
AcDbLine
  10
17.7
  20
1.519734
  30
0
  11
17.688
  21
1.562762
  31
0
  0
LINE
  5
1b5
  100
AcDbEntity
  8
1
  100
AcDbLine
  10
17.688
  20
1.562762
  30
0
  11
17.676
  21
1.606622
  31
0
  0
LINE
  5
1b6
  100
AcDbEntity
  8
1
  100
AcDbLine
  10
17.676
  20
1.606622
  30
0
  11
17.664
  21
1.651218
  31
0
  0
LINE
  5
1b7
  100
AcDbEntity
  8
1
  100
AcDbLine
  10
17.664
  20
1.651218
  30
0
  11
17.652
  21
1.696449
  31
0
  0
LINE
  5
1b8
  100
AcDbEntity
  8
1
  100
AcDbLine
  10
17.652
  20
1.696449
  30
0
  11
17.64
  21
1.742216
  31
0
  0
LINE
  5
1b9
  100
AcDbEntity
  8
1
  100
AcDbLine
  10
17.64
  20
1.742216
  30
0
  11
17.628
  21
1.788414
  31
0
  0
LINE
  5
1ba
  100
AcDbEntity
  8
1
  100
AcDbLine
  10
17.628
  20
1.788414
  30
0
  11
17.616
  21
1.834939
  31
0
  0
LINE
  5
1bb
  100
AcDbEntity
  8
1
  100
AcDbLine
  10
17.616
  20
1.834939
  30
0
  11
17.604
  21
1.881686
  31
0
  0
LINE
  5
1bc
  100
AcDbEntity
  8
1
  100
AcDbLine
  10
17.604
  20
1.881686
  30
0
  11
17.592
  21
1.928546
  31
0
  0
LINE
  5
1bd
  100
AcDbEntity
  8
1
  100
AcDbLine
  10
17.592
  20
1.928546
  30
0
  11
17.58
  21
1.975414
  31
0
  0
LINE
  5
1be
  100
AcDbEntity
  8
1
  100
AcDbLine
  10
17.58
  20
1.975414
  30
0
  11
17.568
  21
2.022181
  31
0
  0
LINE
  5
1bf
  100
AcDbEntity
  8
1
  100
AcDbLine
  10
17.568
  20
2.022181
  30
0
  11
17.556
  21
2.068742
  31
0
  0
LINE
  5
1c0
  100
AcDbEntity
  8
1
  100
AcDbLine
  10
17.556
  20
2.068742
  30
0
  11
17.544
  21
2.114988
  31
0
  0
LINE
  5
1c1
  100
AcDbEntity
  8
1
  100
AcDbLine
  10
17.544
  20
2.114988
  30
0
  11
17.532
  21
2.160817
  31
0
  0
LINE
  5
1c2
  100
AcDbEntity
  8
1
  100
AcDbLine
  10
17.532
  20
2.160817
  30
0
  11
17.52
  21
2.206125
  31
0
  0
LINE
  5
1c3
  100
AcDbEntity
  8
1
  100
AcDbLine
  10
17.52
  20
2.206125
  30
0
  11
17.508
  21
2.250811
  31
0
  0
LINE
  5
1c4
  100
AcDbEntity
  8
1
  100
AcDbLine
  10
17.508
  20
2.250811
  30
0
  11
17.496
  21
2.294777
  31
0
  0
LINE
  5
1c5
  100
AcDbEntity
  8
1
  100
AcDbLine
  10
17.496
  20
2.294777
  30
0
  11
17.484
  21
2.337928
  31
0
  0
LINE
  5
1c6
  100
AcDbEntity
  8
1
  100
AcDbLine
  10
17.484
  20
2.337928
  30
0
  11
17.472
  21
2.380173
  31
0
  0
LINE
  5
1c7
  100
AcDbEntity
  8
1
  100
AcDbLine
  10
17.472
  20
2.380173
  30
0
  11
17.46
  21
2.421423
  31
0
  0
LINE
  5
1c8
  100
AcDbEntity
  8
1
  100
AcDbLine
  10
17.46
  20
2.421423
  30
0
  11
17.448
  21
2.461596
  31
0
  0
LINE
  5
1c9
  100
AcDbEntity
  8
1
  100
AcDbLine
  10
17.448
  20
2.461596
  30
0
  11
17.436
  21
2.500613
  31
0
  0
LINE
  5
1ca
  100
AcDbEntity
  8
1
  100
AcDbLine
  10
17.436
  20
2.500613
  30
0
  11
17.424
  21
2.538401
  31
0
  0
LINE
  5
1cb
  100
AcDbEntity
  8
1
  100
AcDbLine
  10
17.424
  20
2.538401
  30
0
  11
17.412
  21
2.574893
  31
0
  0
LINE
  5
1cc
  100
AcDbEntity
  8
1
  100
AcDbLine
  10
17.412
  20
2.574893
  30
0
  11
17.4
  21
2.610027
  31
0
  0
LINE
  5
1cd
  100
AcDbEntity
  8
1
  100
AcDbLine
  10
17.4
  20
2.610027
  30
0
  11
17.4
  21
2.647205
  31
0
  0
LINE
  5
1ce
  100
AcDbEntity
  8
1
  100
AcDbLine
  10
17.4
  20
2.647205
  30
0
  11
17.412
  21
2.668609
  31
0
  0
LINE
  5
1cf
  100
AcDbEntity
  8
1
  100
AcDbLine
  10
17.412
  20
2.668609
  30
0
  11
17.424
  21
2.689361
  31
0
  0
LINE
  5
1d0
  100
AcDbEntity
  8
1
  100
AcDbLine
  10
17.424
  20
2.689361
  30
0
  11
17.436
  21
2.709438
  31
0
  0
LINE
  5
1d1
  100
AcDbEntity
  8
1
  100
AcDbLine
  10
17.436
  20
2.709438
  30
0
  11
17.448
  21
2.728821
  31
0
  0
LINE
  5
1d2
  100
AcDbEntity
  8
1
  100
AcDbLine
  10
17.448
  20
2.728821
  30
0
  11
17.46
  21
2.747493
  31
0
  0
LINE
  5
1d3
  100
AcDbEntity
  8
1
  100
AcDbLine
  10
17.46
  20
2.747493
  30
0
  11
17.472
  21
2.765439
  31
0
  0
LINE
  5
1d4
  100
AcDbEntity
  8
1
  100
AcDbLine
  10
17.472
  20
2.765439
  30
0
  11
17.484
  21
2.782648
  31
0
  0
LINE
  5
1d5
  100
AcDbEntity
  8
1
  100
AcDbLine
  10
17.484
  20
2.782648
  30
0
  11
17.496
  21
2.799111
  31
0
  0
LINE
  5
1d6
  100
AcDbEntity
  8
1
  100
AcDbLine
  10
17.496
  20
2.799111
  30
0
  11
17.508
  21
2.814823
  31
0
  0
LINE
  5
1d7
  100
AcDbEntity
  8
1
  100
AcDbLine
  10
17.508
  20
2.814823
  30
0
  11
17.52
  21
2.829781
  31
0
  0
LINE
  5
1d8
  100
AcDbEntity
  8
1
  100
AcDbLine
  10
17.52
  20
2.829781
  30
0
  11
17.532
  21
2.843983
  31
0
  0
LINE
  5
1d9
  100
AcDbEntity
  8
1
  100
AcDbLine
  10
17.532
  20
2.843983
  30
0
  11
17.544
  21
2.857433
  31
0
  0
LINE
  5
1da
  100
AcDbEntity
  8
1
  100
AcDbLine
  10
17.544
  20
2.857433
  30
0
  11
17.556
  21
2.870136
  31
0
  0
LINE
  5
1db
  100
AcDbEntity
  8
1
  100
AcDbLine
  10
17.556
  20
2.870136
  30
0
  11
17.568
  21
2.882099
  31
0
  0
LINE
  5
1dc
  100
AcDbEntity
  8
1
  100
AcDbLine
  10
17.568
  20
2.882099
  30
0
  11
17.58
  21
2.893332
  31
0
  0
LINE
  5
1dd
  100
AcDbEntity
  8
1
  100
AcDbLine
  10
17.58
  20
2.893332
  30
0
  11
17.592
  21
2.903847
  31
0
  0
LINE
  5
1de
  100
AcDbEntity
  8
1
  100
AcDbLine
  10
17.592
  20
2.903847
  30
0
  11
17.604
  21
2.913658
  31
0
  0
LINE
  5
1df
  100
AcDbEntity
  8
1
  100
AcDbLine
  10
17.604
  20
2.913658
  30
0
  11
17.616
  21
2.922783
  31
0
  0
LINE
  5
1e0
  100
AcDbEntity
  8
1
  100
AcDbLine
  10
17.616
  20
2.922783
  30
0
  11
17.628
  21
2.931239
  31
0
  0
LINE
  5
1e1
  100
AcDbEntity
  8
1
  100
AcDbLine
  10
17.628
  20
2.931239
  30
0
  11
17.64
  21
2.939047
  31
0
  0
LINE
  5
1e2
  100
AcDbEntity
  8
1
  100
AcDbLine
  10
17.64
  20
2.939047
  30
0
  11
17.652
  21
2.946228
  31
0
  0
LINE
  5
1e3
  100
AcDbEntity
  8
1
  100
AcDbLine
  10
17.652
  20
2.946228
  30
0
  11
17.664
  21
2.952807
  31
0
  0
LINE
  5
1e4
  100
AcDbEntity
  8
1
  100
AcDbLine
  10
17.664
  20
2.952807
  30
0
  11
17.676
  21
2.958807
  31
0
  0
LINE
  5
1e5
  100
AcDbEntity
  8
1
  100
AcDbLine
  10
17.676
  20
2.958807
  30
0
  11
17.688
  21
2.964254
  31
0
  0
LINE
  5
1e6
  100
AcDbEntity
  8
1
  100
AcDbLine
  10
17.688
  20
2.964254
  30
0
  11
17.7
  21
2.969175
  31
0
  0
LINE
  5
1e7
  100
AcDbEntity
  8
1
  100
AcDbLine
  10
17.7
  20
2.969175
  30
0
  11
17.712
  21
2.973599
  31
0
  0
LINE
  5
1e8
  100
AcDbEntity
  8
1
  100
AcDbLine
  10
17.712
  20
2.973599
  30
0
  11
17.724
  21
2.977552
  31
0
  0
LINE
  5
1e9
  100
AcDbEntity
  8
1
  100
AcDbLine
  10
17.724
  20
2.977552
  30
0
  11
17.736
  21
2.981064
  31
0
  0
LINE
  5
1ea
  100
AcDbEntity
  8
1
  100
AcDbLine
  10
17.736
  20
2.981064
  30
0
  11
17.748
  21
2.984164
  31
0
  0
LINE
  5
1eb
  100
AcDbEntity
  8
1
  100
AcDbLine
  10
17.748
  20
2.984164
  30
0
  11
17.76
  21
2.986881
  31
0
  0
LINE
  5
1ec
  100
AcDbEntity
  8
1
  100
AcDbLine
  10
17.76
  20
2.986881
  30
0
  11
17.772
  21
2.989244
  31
0
  0
LINE
  5
1ed
  100
AcDbEntity
  8
1
  100
AcDbLine
  10
17.772
  20
2.989244
  30
0
  11
17.784
  21
2.991282
  31
0
  0
LINE
  5
1ee
  100
AcDbEntity
  8
1
  100
AcDbLine
  10
17.784
  20
2.991282
  30
0
  11
17.796
  21
2.993023
  31
0
  0
LINE
  5
1ef
  100
AcDbEntity
  8
1
  100
AcDbLine
  10
17.796
  20
2.993023
  30
0
  11
17.808
  21
2.994495
  31
0
  0
LINE
  5
1f0
  100
AcDbEntity
  8
1
  100
AcDbLine
  10
17.808
  20
2.994495
  30
0
  11
17.82
  21
2.995725
  31
0
  0
LINE
  5
1f1
  100
AcDbEntity
  8
1
  100
AcDbLine
  10
17.82
  20
2.995725
  30
0
  11
17.832
  21
2.99674
  31
0
  0
LINE
  5
1f2
  100
AcDbEntity
  8
1
  100
AcDbLine
  10
17.832
  20
2.99674
  30
0
  11
17.844
  21
2.997566
  31
0
  0
LINE
  5
1f3
  100
AcDbEntity
  8
1
  100
AcDbLine
  10
17.844
  20
2.997566
  30
0
  11
17.856
  21
2.998225
  31
0
  0
LINE
  5
1f4
  100
AcDbEntity
  8
1
  100
AcDbLine
  10
17.856
  20
2.998225
  30
0
  11
17.868
  21
2.998742
  31
0
  0
LINE
  5
1f5
  100
AcDbEntity
  8
1
  100
AcDbLine
  10
17.868
  20
2.998742
  30
0
  11
17.88
  21
2.999138
  31
0
  0
LINE
  5
1f6
  100
AcDbEntity
  8
1
  100
AcDbLine
  10
17.88
  20
2.999138
  30
0
  11
17.892
  21
2.999433
  31
0
  0
LINE
  5
1f7
  100
AcDbEntity
  8
1
  100
AcDbLine
  10
17.892
  20
2.999433
  30
0
  11
17.904
  21
2.999645
  31
0
  0
LINE
  5
1f8
  100
AcDbEntity
  8
1
  100
AcDbLine
  10
17.904
  20
2.999645
  30
0
  11
17.916
  21
2.999791
  31
0
  0
LINE
  5
1f9
  100
AcDbEntity
  8
1
  100
AcDbLine
  10
17.916
  20
2.999791
  30
0
  11
17.928
  21
2.999887
  31
0
  0
LINE
  5
1fa
  100
AcDbEntity
  8
1
  100
AcDbLine
  10
17.928
  20
2.999887
  30
0
  11
17.94
  21
2.999945
  31
0
  0
LINE
  5
1fb
  100
AcDbEntity
  8
1
  100
AcDbLine
  10
17.94
  20
2.999945
  30
0
  11
17.952
  21
2.999978
  31
0
  0
LINE
  5
1fc
  100
AcDbEntity
  8
1
  100
AcDbLine
  10
17.952
  20
2.999978
  30
0
  11
17.964
  21
2.999993
  31
0
  0
LINE
  5
1fd
  100
AcDbEntity
  8
1
  100
AcDbLine
  10
17.964
  20
2.999993
  30
0
  11
17.976
  21
2.999999
  31
0
  0
LINE
  5
1fe
  100
AcDbEntity
  8
1
  100
AcDbLine
  10
17.976
  20
2.999999
  30
0
  11
17.988
  21
3
  31
0
  0
LINE
  5
1ff
  100
AcDbEntity
  8
1
  100
AcDbLine
  10
17.988
  20
3
  30
0
  11
17.995216
  21
3
  31
0
  0
LINE
  5
200
  100
AcDbEntity
  8
1
  100
AcDbLine
  10
18
  20
3
  30
0
  11
18
  21
-3
  31
0
  0
LINE
  5
201
  100
AcDbEntity
  8
1
  100
AcDbLine
  10
18.012
  20
-2.935738
  30
0
  11
18.024
  21
-2.923569
  31
0
  0
LINE
  5
202
  100
AcDbEntity
  8
1
  100
AcDbLine
  10
18.024
  20
-2.923569
  30
0
  11
18.036
  21
-2.911397
  31
0
  0
LINE
  5
203
  100
AcDbEntity
  8
1
  100
AcDbLine
  10
18.036
  20
-2.911397
  30
0
  11
18.048
  21
-2.899223
  31
0
  0
LINE
  5
204
  100
AcDbEntity
  8
1
  100
AcDbLine
  10
18.048
  20
-2.899223
  30
0
  11
18.06
  21
-2.887046
  31
0
  0
LINE
  5
205
  100
AcDbEntity
  8
1
  100
AcDbLine
  10
18.06
  20
-2.887046
  30
0
  11
18.072
  21
-2.874867
  31
0
  0
LINE
  5
206
  100
AcDbEntity
  8
1
  100
AcDbLine
  10
18.072
  20
-2.874867
  30
0
  11
18.084
  21
-2.862686
  31
0
  0
LINE
  5
207
  100
AcDbEntity
  8
1
  100
AcDbLine
  10
18.084
  20
-2.862686
  30
0
  11
18.096
  21
-2.850502
  31
0
  0
LINE
  5
208
  100
AcDbEntity
  8
1
  100
AcDbLine
  10
18.096
  20
-2.850502
  30
0
  11
18.108
  21
-2.838315
  31
0
  0
LINE
  5
209
  100
AcDbEntity
  8
1
  100
AcDbLine
  10
18.108
  20
-2.838315
  30
0
  11
18.12
  21
-2.826126
  31
0
  0
LINE
  5
20a
  100
AcDbEntity
  8
1
  100
AcDbLine
  10
18.12
  20
-2.826126
  30
0
  11
18.132
  21
-2.813935
  31
0
  0
LINE
  5
20b
  100
AcDbEntity
  8
1
  100
AcDbLine
  10
18.132
  20
-2.813935
  30
0
  11
18.144
  21
-2.801741
  31
0
  0
LINE
  5
20c
  100
AcDbEntity
  8
1
  100
AcDbLine
  10
18.144
  20
-2.801741
  30
0
  11
18.156
  21
-2.789544
  31
0
  0
LINE
  5
20d
  100
AcDbEntity
  8
1
  100
AcDbLine
  10
18.156
  20
-2.789544
  30
0
  11
18.168
  21
-2.777344
  31
0
  0
LINE
  5
20e
  100
AcDbEntity
  8
1
  100
AcDbLine
  10
18.168
  20
-2.777344
  30
0
  11
18.18
  21
-2.765142
  31
0
  0
LINE
  5
20f
  100
AcDbEntity
  8
1
  100
AcDbLine
  10
18.18
  20
-2.765142
  30
0
  11
18.192
  21
-2.752937
  31
0
  0
LINE
  5
210
  100
AcDbEntity
  8
1
  100
AcDbLine
  10
18.192
  20
-2.752937
  30
0
  11
18.204
  21
-2.740729
  31
0
  0
LINE
  5
211
  100
AcDbEntity
  8
1
  100
AcDbLine
  10
18.204
  20
-2.740729
  30
0
  11
18.216
  21
-2.728519
  31
0
  0
LINE
  5
212
  100
AcDbEntity
  8
1
  100
AcDbLine
  10
18.216
  20
-2.728519
  30
0
  11
18.228
  21
-2.716306
  31
0
  0
LINE
  5
213
  100
AcDbEntity
  8
1
  100
AcDbLine
  10
18.228
  20
-2.716306
  30
0
  11
18.24
  21
-2.704089
  31
0
  0
LINE
  5
214
  100
AcDbEntity
  8
1
  100
AcDbLine
  10
18.24
  20
-2.704089
  30
0
  11
18.252
  21
-2.69187
  31
0
  0
LINE
  5
215
  100
AcDbEntity
  8
1
  100
AcDbLine
  10
18.252
  20
-2.69187
  30
0
  11
18.264
  21
-2.679648
  31
0
  0
LINE
  5
216
  100
AcDbEntity
  8
1
  100
AcDbLine
  10
18.264
  20
-2.679648
  30
0
  11
18.276
  21
-2.667423
  31
0
  0
LINE
  5
217
  100
AcDbEntity
  8
1
  100
AcDbLine
  10
18.276
  20
-2.667423
  30
0
  11
18.288
  21
-2.655195
  31
0
  0
LINE
  5
218
  100
AcDbEntity
  8
1
  100
AcDbLine
  10
18.288
  20
-2.655195
  30
0
  11
18.3
  21
-2.642963
  31
0
  0
LINE
  5
219
  100
AcDbEntity
  8
1
  100
AcDbLine
  10
18.3
  20
-2.642963
  30
0
  11
18.312
  21
-2.630729
  31
0
  0
LINE
  5
21a
  100
AcDbEntity
  8
1
  100
AcDbLine
  10
18.312
  20
-2.630729
  30
0
  11
18.324
  21
-2.618491
  31
0
  0
LINE
  5
21b
  100
AcDbEntity
  8
1
  100
AcDbLine
  10
18.324
  20
-2.618491
  30
0
  11
18.336
  21
-2.606251
  31
0
  0
LINE
  5
21c
  100
AcDbEntity
  8
1
  100
AcDbLine
  10
18.336
  20
-2.606251
  30
0
  11
18.348
  21
-2.594007
  31
0
  0
LINE
  5
21d
  100
AcDbEntity
  8
1
  100
AcDbLine
  10
18.348
  20
-2.594007
  30
0
  11
18.36
  21
-2.581759
  31
0
  0
LINE
  5
21e
  100
AcDbEntity
  8
1
  100
AcDbLine
  10
18.36
  20
-2.581759
  30
0
  11
18.372
  21
-2.569509
  31
0
  0
LINE
  5
21f
  100
AcDbEntity
  8
1
  100
AcDbLine
  10
18.372
  20
-2.569509
  30
0
  11
18.384
  21
-2.557255
  31
0
  0
LINE
  5
220
  100
AcDbEntity
  8
1
  100
AcDbLine
  10
18.384
  20
-2.557255
  30
0
  11
18.396
  21
-2.544997
  31
0
  0
LINE
  5
221
  100
AcDbEntity
  8
1
  100
AcDbLine
  10
18.396
  20
-2.544997
  30
0
  11
18.408
  21
-2.532736
  31
0
  0
LINE
  5
222
  100
AcDbEntity
  8
1
  100
AcDbLine
  10
18.408
  20
-2.532736
  30
0
  11
18.42
  21
-2.520471
  31
0
  0
LINE
  5
223
  100
AcDbEntity
  8
1
  100
AcDbLine
  10
18.42
  20
-2.520471
  30
0
  11
18.432
  21
-2.508203
  31
0
  0
LINE
  5
224
  100
AcDbEntity
  8
1
  100
AcDbLine
  10
18.432
  20
-2.508203
  30
0
  11
18.444
  21
-2.495932
  31
0
  0
LINE
  5
225
  100
AcDbEntity
  8
1
  100
AcDbLine
  10
18.444
  20
-2.495932
  30
0
  11
18.456
  21
-2.483656
  31
0
  0
LINE
  5
226
  100
AcDbEntity
  8
1
  100
AcDbLine
  10
18.456
  20
-2.483656
  30
0
  11
18.468
  21
-2.471377
  31
0
  0
LINE
  5
227
  100
AcDbEntity
  8
1
  100
AcDbLine
  10
18.468
  20
-2.471377
  30
0
  11
18.48
  21
-2.459094
  31
0
  0
LINE
  5
228
  100
AcDbEntity
  8
1
  100
AcDbLine
  10
18.48
  20
-2.459094
  30
0
  11
18.492
  21
-2.446807
  31
0
  0
LINE
  5
229
  100
AcDbEntity
  8
1
  100
AcDbLine
  10
18.492
  20
-2.446807
  30
0
  11
18.504
  21
-2.434516
  31
0
  0
LINE
  5
22a
  100
AcDbEntity
  8
1
  100
AcDbLine
  10
18.504
  20
-2.434516
  30
0
  11
18.516
  21
-2.422222
  31
0
  0
LINE
  5
22b
  100
AcDbEntity
  8
1
  100
AcDbLine
  10
18.516
  20
-2.422222
  30
0
  11
18.528
  21
-2.409923
  31
0
  0
LINE
  5
22c
  100
AcDbEntity
  8
1
  100
AcDbLine
  10
18.528
  20
-2.409923
  30
0
  11
18.54
  21
-2.39762
  31
0
  0
LINE
  5
22d
  100
AcDbEntity
  8
1
  100
AcDbLine
  10
18.54
  20
-2.39762
  30
0
  11
18.552
  21
-2.385313
  31
0
  0
LINE
  5
22e
  100
AcDbEntity
  8
1
  100
AcDbLine
  10
18.552
  20
-2.385313
  30
0
  11
18.564
  21
-2.373002
  31
0
  0
LINE
  5
22f
  100
AcDbEntity
  8
1
  100
AcDbLine
  10
18.564
  20
-2.373002
  30
0
  11
18.576
  21
-2.360686
  31
0
  0
LINE
  5
230
  100
AcDbEntity
  8
1
  100
AcDbLine
  10
18.576
  20
-2.360686
  30
0
  11
18.588
  21
-2.348367
  31
0
  0
LINE
  5
231
  100
AcDbEntity
  8
1
  100
AcDbLine
  10
18.588
  20
-2.348367
  30
0
  11
18.6
  21
-2.336042
  31
0
  0
LINE
  5
232
  100
AcDbEntity
  8
1
  100
AcDbLine
  10
18.6
  20
-2.336042
  30
0
  11
18.612
  21
-2.323714
  31
0
  0
LINE
  5
233
  100
AcDbEntity
  8
1
  100
AcDbLine
  10
18.612
  20
-2.323714
  30
0
  11
18.624
  21
-2.311381
  31
0
  0
LINE
  5
234
  100
AcDbEntity
  8
1
  100
AcDbLine
  10
18.624
  20
-2.311381
  30
0
  11
18.636
  21
-2.299043
  31
0
  0
LINE
  5
235
  100
AcDbEntity
  8
1
  100
AcDbLine
  10
18.636
  20
-2.299043
  30
0
  11
18.648
  21
-2.2867
  31
0
  0
LINE
  5
236
  100
AcDbEntity
  8
1
  100
AcDbLine
  10
18.648
  20
-2.2867
  30
0
  11
18.66
  21
-2.274353
  31
0
  0
LINE
  5
237
  100
AcDbEntity
  8
1
  100
AcDbLine
  10
18.66
  20
-2.274353
  30
0
  11
18.672
  21
-2.262001
  31
0
  0
LINE
  5
238
  100
AcDbEntity
  8
1
  100
AcDbLine
  10
18.672
  20
-2.262001
  30
0
  11
18.684
  21
-2.249644
  31
0
  0
LINE
  5
239
  100
AcDbEntity
  8
1
  100
AcDbLine
  10
18.684
  20
-2.249644
  30
0
  11
18.696
  21
-2.237282
  31
0
  0
LINE
  5
23a
  100
AcDbEntity
  8
1
  100
AcDbLine
  10
18.696
  20
-2.237282
  30
0
  11
18.708
  21
-2.224915
  31
0
  0
LINE
  5
23b
  100
AcDbEntity
  8
1
  100
AcDbLine
  10
18.708
  20
-2.224915
  30
0
  11
18.72
  21
-2.212543
  31
0
  0
LINE
  5
23c
  100
AcDbEntity
  8
1
  100
AcDbLine
  10
18.72
  20
-2.212543
  30
0
  11
18.732
  21
-2.200166
  31
0
  0
LINE
  5
23d
  100
AcDbEntity
  8
1
  100
AcDbLine
  10
18.732
  20
-2.200166
  30
0
  11
18.744
  21
-2.187783
  31
0
  0
LINE
  5
23e
  100
AcDbEntity
  8
1
  100
AcDbLine
  10
18.744
  20
-2.187783
  30
0
  11
18.756
  21
-2.175395
  31
0
  0
LINE
  5
23f
  100
AcDbEntity
  8
1
  100
AcDbLine
  10
18.756
  20
-2.175395
  30
0
  11
18.768
  21
-2.163002
  31
0
  0
LINE
  5
240
  100
AcDbEntity
  8
1
  100
AcDbLine
  10
18.768
  20
-2.163002
  30
0
  11
18.78
  21
-2.150603
  31
0
  0
LINE
  5
241
  100
AcDbEntity
  8
1
  100
AcDbLine
  10
18.78
  20
-2.150603
  30
0
  11
18.792
  21
-2.138198
  31
0
  0
LINE
  5
242
  100
AcDbEntity
  8
1
  100
AcDbLine
  10
18.792
  20
-2.138198
  30
0
  11
18.804
  21
-2.125787
  31
0
  0
LINE
  5
243
  100
AcDbEntity
  8
1
  100
AcDbLine
  10
18.804
  20
-2.125787
  30
0
  11
18.816
  21
-2.113371
  31
0
  0
LINE
  5
244
  100
AcDbEntity
  8
1
  100
AcDbLine
  10
18.816
  20
-2.113371
  30
0
  11
18.828
  21
-2.100949
  31
0
  0
LINE
  5
245
  100
AcDbEntity
  8
1
  100
AcDbLine
  10
18.828
  20
-2.100949
  30
0
  11
18.84
  21
-2.088521
  31
0
  0
LINE
  5
246
  100
AcDbEntity
  8
1
  100
AcDbLine
  10
18.84
  20
-2.088521
  30
0
  11
18.852
  21
-2.076086
  31
0
  0
LINE
  5
247
  100
AcDbEntity
  8
1
  100
AcDbLine
  10
18.852
  20
-2.076086
  30
0
  11
18.864
  21
-2.063645
  31
0
  0
LINE
  5
248
  100
AcDbEntity
  8
1
  100
AcDbLine
  10
18.864
  20
-2.063645
  30
0
  11
18.876
  21
-2.051198
  31
0
  0
LINE
  5
249
  100
AcDbEntity
  8
1
  100
AcDbLine
  10
18.876
  20
-2.051198
  30
0
  11
18.888
  21
-2.038745
  31
0
  0
LINE
  5
24a
  100
AcDbEntity
  8
1
  100
AcDbLine
  10
18.888
  20
-2.038745
  30
0
  11
18.9
  21
-2.026284
  31
0
  0
LINE
  5
24b
  100
AcDbEntity
  8
1
  100
AcDbLine
  10
18.9
  20
-2.026284
  30
0
  11
18.912
  21
-2.013818
  31
0
  0
LINE
  5
24c
  100
AcDbEntity
  8
1
  100
AcDbLine
  10
18.912
  20
-2.013818
  30
0
  11
18.924
  21
-2.001344
  31
0
  0
LINE
  5
24d
  100
AcDbEntity
  8
1
  100
AcDbLine
  10
18.924
  20
-2.001344
  30
0
  11
18.936
  21
-1.988863
  31
0
  0
LINE
  5
24e
  100
AcDbEntity
  8
1
  100
AcDbLine
  10
18.936
  20
-1.988863
  30
0
  11
18.948
  21
-1.976376
  31
0
  0
LINE
  5
24f
  100
AcDbEntity
  8
1
  100
AcDbLine
  10
18.948
  20
-1.976376
  30
0
  11
18.96
  21
-1.963881
  31
0
  0
LINE
  5
250
  100
AcDbEntity
  8
1
  100
AcDbLine
  10
18.96
  20
-1.963881
  30
0
  11
18.972
  21
-1.951379
  31
0
  0
LINE
  5
251
  100
AcDbEntity
  8
1
  100
AcDbLine
  10
18.972
  20
-1.951379
  30
0
  11
18.984
  21
-1.938869
  31
0
  0
LINE
  5
252
  100
AcDbEntity
  8
1
  100
AcDbLine
  10
18.984
  20
-1.938869
  30
0
  11
18.996
  21
-1.926352
  31
0
  0
LINE
  5
253
  100
AcDbEntity
  8
1
  100
AcDbLine
  10
18.996
  20
-1.926352
  30
0
  11
19.008
  21
-1.913827
  31
0
  0
LINE
  5
254
  100
AcDbEntity
  8
1
  100
AcDbLine
  10
19.008
  20
-1.913827
  30
0
  11
19.02
  21
-1.901294
  31
0
  0
LINE
  5
255
  100
AcDbEntity
  8
1
  100
AcDbLine
  10
19.02
  20
-1.901294
  30
0
  11
19.032
  21
-1.888753
  31
0
  0
LINE
  5
256
  100
AcDbEntity
  8
1
  100
AcDbLine
  10
19.032
  20
-1.888753
  30
0
  11
19.044
  21
-1.876204
  31
0
  0
LINE
  5
257
  100
AcDbEntity
  8
1
  100
AcDbLine
  10
19.044
  20
-1.876204
  30
0
  11
19.056
  21
-1.863646
  31
0
  0
LINE
  5
258
  100
AcDbEntity
  8
1
  100
AcDbLine
  10
19.056
  20
-1.863646
  30
0
  11
19.068
  21
-1.851081
  31
0
  0
LINE
  5
259
  100
AcDbEntity
  8
1
  100
AcDbLine
  10
19.068
  20
-1.851081
  30
0
  11
19.08
  21
-1.838506
  31
0
  0
LINE
  5
25a
  100
AcDbEntity
  8
1
  100
AcDbLine
  10
19.08
  20
-1.838506
  30
0
  11
19.092
  21
-1.825923
  31
0
  0
LINE
  5
25b
  100
AcDbEntity
  8
1
  100
AcDbLine
  10
19.092
  20
-1.825923
  30
0
  11
19.104
  21
-1.813331
  31
0
  0
LINE
  5
25c
  100
AcDbEntity
  8
1
  100
AcDbLine
  10
19.104
  20
-1.813331
  30
0
  11
19.116
  21
-1.800729
  31
0
  0
LINE
  5
25d
  100
AcDbEntity
  8
1
  100
AcDbLine
  10
19.116
  20
-1.800729
  30
0
  11
19.128
  21
-1.788118
  31
0
  0
LINE
  5
25e
  100
AcDbEntity
  8
1
  100
AcDbLine
  10
19.128
  20
-1.788118
  30
0
  11
19.14
  21
-1.775498
  31
0
  0
LINE
  5
25f
  100
AcDbEntity
  8
1
  100
AcDbLine
  10
19.14
  20
-1.775498
  30
0
  11
19.152
  21
-1.762868
  31
0
  0
LINE
  5
260
  100
AcDbEntity
  8
1
  100
AcDbLine
  10
19.152
  20
-1.762868
  30
0
  11
19.164
  21
-1.750228
  31
0
  0
LINE
  5
261
  100
AcDbEntity
  8
1
  100
AcDbLine
  10
19.164
  20
-1.750228
  30
0
  11
19.176
  21
-1.737578
  31
0
  0
LINE
  5
262
  100
AcDbEntity
  8
1
  100
AcDbLine
  10
19.176
  20
-1.737578
  30
0
  11
19.188
  21
-1.724918
  31
0
  0
LINE
  5
263
  100
AcDbEntity
  8
1
  100
AcDbLine
  10
19.188
  20
-1.724918
  30
0
  11
19.2
  21
-1.712247
  31
0
  0
LINE
  5
264
  100
AcDbEntity
  8
1
  100
AcDbLine
  10
19.2
  20
-1.712247
  30
0
  11
19.212
  21
-1.699565
  31
0
  0
LINE
  5
265
  100
AcDbEntity
  8
1
  100
AcDbLine
  10
19.212
  20
-1.699565
  30
0
  11
19.224
  21
-1.686873
  31
0
  0
LINE
  5
266
  100
AcDbEntity
  8
1
  100
AcDbLine
  10
19.224
  20
-1.686873
  30
0
  11
19.236
  21
-1.674169
  31
0
  0
LINE
  5
267
  100
AcDbEntity
  8
1
  100
AcDbLine
  10
19.236
  20
-1.674169
  30
0
  11
19.248
  21
-1.661454
  31
0
  0
LINE
  5
268
  100
AcDbEntity
  8
1
  100
AcDbLine
  10
19.248
  20
-1.661454
  30
0
  11
19.26
  21
-1.648727
  31
0
  0
LINE
  5
269
  100
AcDbEntity
  8
1
  100
AcDbLine
  10
19.26
  20
-1.648727
  30
0
  11
19.272
  21
-1.635988
  31
0
  0
LINE
  5
26a
  100
AcDbEntity
  8
1
  100
AcDbLine
  10
19.272
  20
-1.635988
  30
0
  11
19.284
  21
-1.623238
  31
0
  0
LINE
  5
26b
  100
AcDbEntity
  8
1
  100
AcDbLine
  10
19.284
  20
-1.623238
  30
0
  11
19.296
  21
-1.610474
  31
0
  0
LINE
  5
26c
  100
AcDbEntity
  8
1
  100
AcDbLine
  10
19.296
  20
-1.610474
  30
0
  11
19.308
  21
-1.597698
  31
0
  0
LINE
  5
26d
  100
AcDbEntity
  8
1
  100
AcDbLine
  10
19.308
  20
-1.597698
  30
0
  11
19.32
  21
-1.584909
  31
0
  0
LINE
  5
26e
  100
AcDbEntity
  8
1
  100
AcDbLine
  10
19.32
  20
-1.584909
  30
0
  11
19.332
  21
-1.572107
  31
0
  0
LINE
  5
26f
  100
AcDbEntity
  8
1
  100
AcDbLine
  10
19.332
  20
-1.572107
  30
0
  11
19.344
  21
-1.559291
  31
0
  0
LINE
  5
270
  100
AcDbEntity
  8
1
  100
AcDbLine
  10
19.344
  20
-1.559291
  30
0
  11
19.356
  21
-1.546462
  31
0
  0
LINE
  5
271
  100
AcDbEntity
  8
1
  100
AcDbLine
  10
19.356
  20
-1.546462
  30
0
  11
19.368
  21
-1.533618
  31
0
  0
LINE
  5
272
  100
AcDbEntity
  8
1
  100
AcDbLine
  10
19.368
  20
-1.533618
  30
0
  11
19.38
  21
-1.520759
  31
0
  0
LINE
  5
273
  100
AcDbEntity
  8
1
  100
AcDbLine
  10
19.38
  20
-1.520759
  30
0
  11
19.392
  21
-1.507886
  31
0
  0
LINE
  5
274
  100
AcDbEntity
  8
1
  100
AcDbLine
  10
19.392
  20
-1.507886
  30
0
  11
19.404
  21
-1.494998
  31
0
  0
LINE
  5
275
  100
AcDbEntity
  8
1
  100
AcDbLine
  10
19.404
  20
-1.494998
  30
0
  11
19.416
  21
-1.482094
  31
0
  0
LINE
  5
276
  100
AcDbEntity
  8
1
  100
AcDbLine
  10
19.416
  20
-1.482094
  30
0
  11
19.428
  21
-1.469174
  31
0
  0
LINE
  5
277
  100
AcDbEntity
  8
1
  100
AcDbLine
  10
19.428
  20
-1.469174
  30
0
  11
19.44
  21
-1.456238
  31
0
  0
LINE
  5
278
  100
AcDbEntity
  8
1
  100
AcDbLine
  10
19.44
  20
-1.456238
  30
0
  11
19.452
  21
-1.443285
  31
0
  0
LINE
  5
279
  100
AcDbEntity
  8
1
  100
AcDbLine
  10
19.452
  20
-1.443285
  30
0
  11
19.464
  21
-1.430376
  31
0
  0
LINE
  5
27a
  100
AcDbEntity
  8
1
  100
AcDbLine
  10
19.464
  20
-1.430376
  30
0
  11
19.476
  21
-1.417489
  31
0
  0
LINE
  5
27b
  100
AcDbEntity
  8
1
  100
AcDbLine
  10
19.476
  20
-1.417489
  30
0
  11
19.488
  21
-1.404703
  31
0
  0
LINE
  5
27c
  100
AcDbEntity
  8
1
  100
AcDbLine
  10
19.488
  20
-1.404703
  30
0
  11
19.5
  21
-1.391976
  31
0
  0
LINE
  5
27d
  100
AcDbEntity
  8
1
  100
AcDbLine
  10
19.5
  20
-1.391976
  30
0
  11
19.512
  21
-1.379308
  31
0
  0
LINE
  5
27e
  100
AcDbEntity
  8
1
  100
AcDbLine
  10
19.512
  20
-1.379308
  30
0
  11
19.524
  21
-1.366747
  31
0
  0
LINE
  5
27f
  100
AcDbEntity
  8
1
  100
AcDbLine
  10
19.524
  20
-1.366747
  30
0
  11
19.536
  21
-1.354219
  31
0
  0
LINE
  5
280
  100
AcDbEntity
  8
1
  100
AcDbLine
  10
19.536
  20
-1.354219
  30
0
  11
19.548
  21
-1.341811
  31
0
  0
LINE
  5
281
  100
AcDbEntity
  8
1
  100
AcDbLine
  10
19.548
  20
-1.341811
  30
0
  11
19.56
  21
-1.329455
  31
0
  0
LINE
  5
282
  100
AcDbEntity
  8
1
  100
AcDbLine
  10
19.56
  20
-1.329455
  30
0
  11
19.572
  21
-1.317179
  31
0
  0
LINE
  5
283
  100
AcDbEntity
  8
1
  100
AcDbLine
  10
19.572
  20
-1.317179
  30
0
  11
19.584
  21
-1.304998
  31
0
  0
LINE
  5
284
  100
AcDbEntity
  8
1
  100
AcDbLine
  10
19.584
  20
-1.304998
  30
0
  11
19.596
  21
-1.29286
  31
0
  0
LINE
  5
285
  100
AcDbEntity
  8
1
  100
AcDbLine
  10
19.596
  20
-1.29286
  30
0
  11
19.608
  21
-1.28086
  31
0
  0
LINE
  5
286
  100
AcDbEntity
  8
1
  100
AcDbLine
  10
19.608
  20
-1.28086
  30
0
  11
19.62
  21
-1.2689
  31
0
  0
LINE
  5
287
  100
AcDbEntity
  8
1
  100
AcDbLine
  10
19.62
  20
-1.2689
  30
0
  11
19.632
  21
-1.25705
  31
0
  0
LINE
  5
288
  100
AcDbEntity
  8
1
  100
AcDbLine
  10
19.632
  20
-1.25705
  30
0
  11
19.644
  21
-1.245278
  31
0
  0
LINE
  5
289
  100
AcDbEntity
  8
1
  100
AcDbLine
  10
19.644
  20
-1.245278
  30
0
  11
19.656
  21
-1.233578
  31
0
  0
LINE
  5
28a
  100
AcDbEntity
  8
1
  100
AcDbLine
  10
19.656
  20
-1.233578
  30
0
  11
19.668
  21
-1.222
  31
0
  0
LINE
  5
28b
  100
AcDbEntity
  8
1
  100
AcDbLine
  10
19.668
  20
-1.222
  30
0
  11
19.68
  21
-1.210467
  31
0
  0
LINE
  5
28c
  100
AcDbEntity
  8
1
  100
AcDbLine
  10
19.68
  20
-1.210467
  30
0
  11
19.692
  21
-1.199077
  31
0
  0
LINE
  5
28d
  100
AcDbEntity
  8
1
  100
AcDbLine
  10
19.692
  20
-1.199077
  30
0
  11
19.704
  21
-1.187747
  31
0
  0
LINE
  5
28e
  100
AcDbEntity
  8
1
  100
AcDbLine
  10
19.704
  20
-1.187747
  30
0
  11
19.716
  21
-1.17652
  31
0
  0
LINE
  5
28f
  100
AcDbEntity
  8
1
  100
AcDbLine
  10
19.716
  20
-1.17652
  30
0
  11
19.728
  21
-1.1654
  31
0
  0
LINE
  5
290
  100
AcDbEntity
  8
1
  100
AcDbLine
  10
19.728
  20
-1.1654
  30
0
  11
19.74
  21
-1.15434
  31
0
  0
LINE
  5
291
  100
AcDbEntity
  8
1
  100
AcDbLine
  10
19.74
  20
-1.15434
  30
0
  11
19.752
  21
-1.143439
  31
0
  0
LINE
  5
292
  100
AcDbEntity
  8
1
  100
AcDbLine
  10
19.752
  20
-1.143439
  30
0
  11
19.764
  21
-1.132595
  31
0
  0
LINE
  5
293
  100
AcDbEntity
  8
1
  100
AcDbLine
  10
19.764
  20
-1.132595
  30
0
  11
19.776
  21
-1.121876
  31
0
  0
LINE
  5
294
  100
AcDbEntity
  8
1
  100
AcDbLine
  10
19.776
  20
-1.121876
  30
0
  11
19.788
  21
-1.111265
  31
0
  0
LINE
  5
295
  100
AcDbEntity
  8
1
  100
AcDbLine
  10
19.788
  20
-1.111265
  30
0
  11
19.8
  21
-1.100726
  31
0
  0
LINE
  5
296
  100
AcDbEntity
  8
1
  100
AcDbLine
  10
19.8
  20
-1.100726
  30
0
  11
19.812
  21
-1.090357
  31
0
  0
LINE
  5
297
  100
AcDbEntity
  8
1
  100
AcDbLine
  10
19.812
  20
-1.090357
  30
0
  11
19.824
  21
-1.080062
  31
0
  0
LINE
  5
298
  100
AcDbEntity
  8
1
  100
AcDbLine
  10
19.824
  20
-1.080062
  30
0
  11
19.836
  21
-1.06989
  31
0
  0
LINE
  5
299
  100
AcDbEntity
  8
1
  100
AcDbLine
  10
19.836
  20
-1.06989
  30
0
  11
19.848
  21
-1.059857
  31
0
  0
LINE
  5
29a
  100
AcDbEntity
  8
1
  100
AcDbLine
  10
19.848
  20
-1.059857
  30
0
  11
19.86
  21
-1.049909
  31
0
  0
LINE
  5
29b
  100
AcDbEntity
  8
1
  100
AcDbLine
  10
19.86
  20
-1.049909
  30
0
  11
19.872
  21
-1.040123
  31
0
  0
LINE
  5
29c
  100
AcDbEntity
  8
1
  100
AcDbLine
  10
19.872
  20
-1.040123
  30
0
  11
19.884
  21
-1.030463
  31
0
  0
LINE
  5
29d
  100
AcDbEntity
  8
1
  100
AcDbLine
  10
19.884
  20
-1.030463
  30
0
  11
19.896
  21
-1.020905
  31
0
  0
LINE
  5
29e
  100
AcDbEntity
  8
1
  100
AcDbLine
  10
19.896
  20
-1.020905
  30
0
  11
19.908
  21
-1.011529
  31
0
  0
LINE
  5
29f
  100
AcDbEntity
  8
1
  100
AcDbLine
  10
19.908
  20
-1.011529
  30
0
  11
19.92
  21
-1.00229
  31
0
  0
LINE
  5
2a0
  100
AcDbEntity
  8
1
  100
AcDbLine
  10
19.92
  20
-1.00229
  30
0
  11
19.932
  21
-0.993176
  31
0
  0
LINE
  5
2a1
  100
AcDbEntity
  8
1
  100
AcDbLine
  10
19.932
  20
-0.993176
  30
0
  11
19.944
  21
-0.984236
  31
0
  0
LINE
  5
2a2
  100
AcDbEntity
  8
1
  100
AcDbLine
  10
19.944
  20
-0.984236
  30
0
  11
19.956
  21
-0.975485
  31
0
  0
LINE
  5
2a3
  100
AcDbEntity
  8
1
  100
AcDbLine
  10
19.956
  20
-0.975485
  30
0
  11
19.968
  21
-0.966891
  31
0
  0
LINE
  5
2a4
  100
AcDbEntity
  8
1
  100
AcDbLine
  10
19.968
  20
-0.966891
  30
0
  11
19.98
  21
-0.958469
  31
0
  0
LINE
  5
2a5
  100
AcDbEntity
  8
1
  100
AcDbLine
  10
19.98
  20
-0.958469
  30
0
  11
19.992
  21
-0.950241
  31
0
  0
LINE
  5
2a6
  100
AcDbEntity
  8
1
  100
AcDbLine
  10
19.992
  20
-0.950241
  30
0
  11
20.004
  21
-0.94227
  31
0
  0
LINE
  5
2a7
  100
AcDbEntity
  8
1
  100
AcDbLine
  10
20.004
  20
-0.94227
  30
0
  11
20.016
  21
-0.934527
  31
0
  0
LINE
  5
2a8
  100
AcDbEntity
  8
1
  100
AcDbLine
  10
20.016
  20
-0.934527
  30
0
  11
20.028
  21
-0.927042
  31
0
  0
LINE
  5
2a9
  100
AcDbEntity
  8
1
  100
AcDbLine
  10
20.028
  20
-0.927042
  30
0
  11
20.04
  21
-0.919852
  31
0
  0
LINE
  5
2aa
  100
AcDbEntity
  8
1
  100
AcDbLine
  10
20.04
  20
-0.919852
  30
0
  11
20.052
  21
-0.913004
  31
0
  0
LINE
  5
2ab
  100
AcDbEntity
  8
1
  100
AcDbLine
  10
20.052
  20
-0.913004
  30
0
  11
20.064
  21
-0.906603
  31
0
  0
LINE
  5
2ac
  100
AcDbEntity
  8
1
  100
AcDbLine
  10
20.064
  20
-0.906603
  30
0
  11
20.076
  21
-0.900818
  31
0
  0
LINE
  5
2ad
  100
AcDbEntity
  8
1
  100
AcDbLine
  10
20.076
  20
-0.900818
  30
0
  11
20.088
  21
-0.895967
  31
0
  0
LINE
  5
2ae
  100
AcDbEntity
  8
1
  100
AcDbLine
  10
20.088
  20
-0.895967
  30
0
  11
20.1
  21
-0.895466
  31
0
  0
LINE
  5
2af
  100
AcDbEntity
  8
1
  100
AcDbLine
  10
20.016
  20
-0.008857
  30
0
  11
20.028
  21
-0.024436
  31
0
  0
LINE
  5
2b0
  100
AcDbEntity
  8
1
  100
AcDbLine
  10
20.028
  20
-0.024436
  30
0
  11
20.04
  21
-0.041588
  31
0
  0
LINE
  5
2b1
  100
AcDbEntity
  8
1
  100
AcDbLine
  10
20.04
  20
-0.041588
  30
0
  11
20.052
  21
-0.060778
  31
0
  0
LINE
  5
2b2
  100
AcDbEntity
  8
1
  100
AcDbLine
  10
20.052
  20
-0.060778
  30
0
  11
20.064
  21
-0.082917
  31
0
  0
LINE
  5
2b3
  100
AcDbEntity
  8
1
  100
AcDbLine
  10
20.064
  20
-0.082917
  30
0
  11
20.076
  21
-0.109715
  31
0
  0
LINE
  5
2b4
  100
AcDbEntity
  8
1
  100
AcDbLine
  10
20.076
  20
-0.109715
  30
0
  11
20.088
  21
-0.145153
  31
0
  0
LINE
  5
2b5
  100
AcDbEntity
  8
1
  100
AcDbLine
  10
20.088
  20
-0.145153
  30
0
  11
20.1
  21
-0.232748
  31
0
  0
LINE
  5
2b6
  100
AcDbEntity
  8
1
  100
AcDbLine
  10
20.1
  20
-0.232748
  30
0
  11
20.088
  21
-0.324226
  31
0
  0
LINE
  5
2b7
  100
AcDbEntity
  8
1
  100
AcDbLine
  10
20.088
  20
-0.324226
  30
0
  11
20.076
  21
-0.363423
  31
0
  0
LINE
  5
2b8
  100
AcDbEntity
  8
1
  100
AcDbLine
  10
20.076
  20
-0.363423
  30
0
  11
20.064
  21
-0.393916
  31
0
  0
LINE
  5
2b9
  100
AcDbEntity
  8
1
  100
AcDbLine
  10
20.064
  20
-0.393916
  30
0
  11
20.052
  21
-0.42037
  31
0
  0
LINE
  5
2ba
  100
AcDbEntity
  8
1
  100
AcDbLine
  10
20.052
  20
-0.42037
  30
0
  11
20.04
  21
-0.445265
  31
0
  0
LINE
  5
2bb
  100
AcDbEntity
  8
1
  100
AcDbLine
  10
20.04
  20
-0.445265
  30
0
  11
20.028
  21
-0.469202
  31
0
  0
LINE
  5
2bc
  100
AcDbEntity
  8
1
  100
AcDbLine
  10
20.028
  20
-0.469202
  30
0
  11
20.016
  21
-0.492311
  31
0
  0
LINE
  5
2bd
  100
AcDbEntity
  8
1
  100
AcDbLine
  10
20.016
  20
-0.492311
  30
0
  11
20.004
  21
-0.514701
  31
0
  0
LINE
  5
2be
  100
AcDbEntity
  8
1
  100
AcDbLine
  10
20.004
  20
-0.514701
  30
0
  11
19.992
  21
-0.536456
  31
0
  0
LINE
  5
2bf
  100
AcDbEntity
  8
1
  100
AcDbLine
  10
19.992
  20
-0.536456
  30
0
  11
19.98
  21
-0.557647
  31
0
  0
LINE
  5
2c0
  100
AcDbEntity
  8
1
  100
AcDbLine
  10
19.98
  20
-0.557647
  30
0
  11
19.968
  21
-0.578334
  31
0
  0
LINE
  5
2c1
  100
AcDbEntity
  8
1
  100
AcDbLine
  10
19.968
  20
-0.578334
  30
0
  11
19.956
  21
-0.598567
  31
0
  0
LINE
  5
2c2
  100
AcDbEntity
  8
1
  100
AcDbLine
  10
19.956
  20
-0.598567
  30
0
  11
19.944
  21
-0.618388
  31
0
  0
LINE
  5
2c3
  100
AcDbEntity
  8
1
  100
AcDbLine
  10
19.944
  20
-0.618388
  30
0
  11
19.932
  21
-0.637835
  31
0
  0
LINE
  5
2c4
  100
AcDbEntity
  8
1
  100
AcDbLine
  10
19.932
  20
-0.637835
  30
0
  11
19.92
  21
-0.656939
  31
0
  0
LINE
  5
2c5
  100
AcDbEntity
  8
1
  100
AcDbLine
  10
19.92
  20
-0.656939
  30
0
  11
19.908
  21
-0.675728
  31
0
  0
LINE
  5
2c6
  100
AcDbEntity
  8
1
  100
AcDbLine
  10
19.908
  20
-0.675728
  30
0
  11
19.896
  21
-0.694226
  31
0
  0
LINE
  5
2c7
  100
AcDbEntity
  8
1
  100
AcDbLine
  10
19.896
  20
-0.694226
  30
0
  11
19.884
  21
-0.712457
  31
0
  0
LINE
  5
2c8
  100
AcDbEntity
  8
1
  100
AcDbLine
  10
19.884
  20
-0.712457
  30
0
  11
19.872
  21
-0.730438
  31
0
  0
LINE
  5
2c9
  100
AcDbEntity
  8
1
  100
AcDbLine
  10
19.872
  20
-0.730438
  30
0
  11
19.86
  21
-0.748188
  31
0
  0
LINE
  5
2ca
  100
AcDbEntity
  8
1
  100
AcDbLine
  10
19.86
  20
-0.748188
  30
0
  11
19.848
  21
-0.765722
  31
0
  0
LINE
  5
2cb
  100
AcDbEntity
  8
1
  100
AcDbLine
  10
19.848
  20
-0.765722
  30
0
  11
19.836
  21
-0.783054
  31
0
  0
LINE
  5
2cc
  100
AcDbEntity
  8
1
  100
AcDbLine
  10
19.836
  20
-0.783054
  30
0
  11
19.824
  21
-0.800197
  31
0
  0
LINE
  5
2cd
  100
AcDbEntity
  8
1
  100
AcDbLine
  10
19.824
  20
-0.800197
  30
0
  11
19.812
  21
-0.817161
  31
0
  0
LINE
  5
2ce
  100
AcDbEntity
  8
1
  100
AcDbLine
  10
19.812
  20
-0.817161
  30
0
  11
19.8
  21
-0.833959
  31
0
  0
LINE
  5
2cf
  100
AcDbEntity
  8
1
  100
AcDbLine
  10
19.8
  20
-0.833959
  30
0
  11
19.788
  21
-0.850599
  31
0
  0
LINE
  5
2d0
  100
AcDbEntity
  8
1
  100
AcDbLine
  10
19.788
  20
-0.850599
  30
0
  11
19.776
  21
-0.86709
  31
0
  0
LINE
  5
2d1
  100
AcDbEntity
  8
1
  100
AcDbLine
  10
19.776
  20
-0.86709
  30
0
  11
19.764
  21
-0.88344
  31
0
  0
LINE
  5
2d2
  100
AcDbEntity
  8
1
  100
AcDbLine
  10
19.764
  20
-0.88344
  30
0
  11
19.752
  21
-0.899657
  31
0
  0
LINE
  5
2d3
  100
AcDbEntity
  8
1
  100
AcDbLine
  10
19.752
  20
-0.899657
  30
0
  11
19.74
  21
-0.915747
  31
0
  0
LINE
  5
2d4
  100
AcDbEntity
  8
1
  100
AcDbLine
  10
19.74
  20
-0.915747
  30
0
  11
19.728
  21
-0.931718
  31
0
  0
LINE
  5
2d5
  100
AcDbEntity
  8
1
  100
AcDbLine
  10
19.728
  20
-0.931718
  30
0
  11
19.716
  21
-0.947574
  31
0
  0
LINE
  5
2d6
  100
AcDbEntity
  8
1
  100
AcDbLine
  10
19.716
  20
-0.947574
  30
0
  11
19.704
  21
-0.963322
  31
0
  0
LINE
  5
2d7
  100
AcDbEntity
  8
1
  100
AcDbLine
  10
19.704
  20
-0.963322
  30
0
  11
19.692
  21
-0.978966
  31
0
  0
LINE
  5
2d8
  100
AcDbEntity
  8
1
  100
AcDbLine
  10
19.692
  20
-0.978966
  30
0
  11
19.68
  21
-0.994511
  31
0
  0
LINE
  5
2d9
  100
AcDbEntity
  8
1
  100
AcDbLine
  10
19.68
  20
-0.994511
  30
0
  11
19.668
  21
-1.009962
  31
0
  0
LINE
  5
2da
  100
AcDbEntity
  8
1
  100
AcDbLine
  10
19.668
  20
-1.009962
  30
0
  11
19.656
  21
-1.025323
  31
0
  0
LINE
  5
2db
  100
AcDbEntity
  8
1
  100
AcDbLine
  10
19.656
  20
-1.025323
  30
0
  11
19.644
  21
-1.040597
  31
0
  0
LINE
  5
2dc
  100
AcDbEntity
  8
1
  100
AcDbLine
  10
19.644
  20
-1.040597
  30
0
  11
19.632
  21
-1.055789
  31
0
  0
LINE
  5
2dd
  100
AcDbEntity
  8
1
  100
AcDbLine
  10
19.632
  20
-1.055789
  30
0
  11
19.62
  21
-1.070901
  31
0
  0
LINE
  5
2de
  100
AcDbEntity
  8
1
  100
AcDbLine
  10
19.62
  20
-1.070901
  30
0
  11
19.608
  21
-1.085938
  31
0
  0
LINE
  5
2df
  100
AcDbEntity
  8
1
  100
AcDbLine
  10
19.608
  20
-1.085938
  30
0
  11
19.596
  21
-1.100902
  31
0
  0
LINE
  5
2e0
  100
AcDbEntity
  8
1
  100
AcDbLine
  10
19.596
  20
-1.100902
  30
0
  11
19.584
  21
-1.115795
  31
0
  0
LINE
  5
2e1
  100
AcDbEntity
  8
1
  100
AcDbLine
  10
19.584
  20
-1.115795
  30
0
  11
19.572
  21
-1.130622
  31
0
  0
LINE
  5
2e2
  100
AcDbEntity
  8
1
  100
AcDbLine
  10
19.572
  20
-1.130622
  30
0
  11
19.56
  21
-1.145383
  31
0
  0
LINE
  5
2e3
  100
AcDbEntity
  8
1
  100
AcDbLine
  10
19.56
  20
-1.145383
  30
0
  11
19.548
  21
-1.160082
  31
0
  0
LINE
  5
2e4
  100
AcDbEntity
  8
1
  100
AcDbLine
  10
19.548
  20
-1.160082
  30
0
  11
19.536
  21
-1.174721
  31
0
  0
LINE
  5
2e5
  100
AcDbEntity
  8
1
  100
AcDbLine
  10
19.536
  20
-1.174721
  30
0
  11
19.524
  21
-1.189302
  31
0
  0
LINE
  5
2e6
  100
AcDbEntity
  8
1
  100
AcDbLine
  10
19.524
  20
-1.189302
  30
0
  11
19.512
  21
-1.203827
  31
0
  0
LINE
  5
2e7
  100
AcDbEntity
  8
1
  100
AcDbLine
  10
19.512
  20
-1.203827
  30
0
  11
19.5
  21
-1.218298
  31
0
  0
LINE
  5
2e8
  100
AcDbEntity
  8
1
  100
AcDbLine
  10
19.5
  20
-1.218298
  30
0
  11
19.488
  21
-1.232717
  31
0
  0
LINE
  5
2e9
  100
AcDbEntity
  8
1
  100
AcDbLine
  10
19.488
  20
-1.232717
  30
0
  11
19.476
  21
-1.247086
  31
0
  0
LINE
  5
2ea
  100
AcDbEntity
  8
1
  100
AcDbLine
  10
19.476
  20
-1.247086
  30
0
  11
19.464
  21
-1.261406
  31
0
  0
LINE
  5
2eb
  100
AcDbEntity
  8
1
  100
AcDbLine
  10
19.464
  20
-1.261406
  30
0
  11
19.452
  21
-1.275679
  31
0
  0
LINE
  5
2ec
  100
AcDbEntity
  8
1
  100
AcDbLine
  10
19.452
  20
-1.275679
  30
0
  11
19.44
  21
-1.289907
  31
0
  0
LINE
  5
2ed
  100
AcDbEntity
  8
1
  100
AcDbLine
  10
19.44
  20
-1.289907
  30
0
  11
19.428
  21
-1.304091
  31
0
  0
LINE
  5
2ee
  100
AcDbEntity
  8
1
  100
AcDbLine
  10
19.428
  20
-1.304091
  30
0
  11
19.416
  21
-1.318232
  31
0
  0
LINE
  5
2ef
  100
AcDbEntity
  8
1
  100
AcDbLine
  10
19.416
  20
-1.318232
  30
0
  11
19.404
  21
-1.332332
  31
0
  0
LINE
  5
2f0
  100
AcDbEntity
  8
1
  100
AcDbLine
  10
19.404
  20
-1.332332
  30
0
  11
19.392
  21
-1.346391
  31
0
  0
LINE
  5
2f1
  100
AcDbEntity
  8
1
  100
AcDbLine
  10
19.392
  20
-1.346391
  30
0
  11
19.38
  21
-1.360412
  31
0
  0
LINE
  5
2f2
  100
AcDbEntity
  8
1
  100
AcDbLine
  10
19.38
  20
-1.360412
  30
0
  11
19.368
  21
-1.374396
  31
0
  0
LINE
  5
2f3
  100
AcDbEntity
  8
1
  100
AcDbLine
  10
19.368
  20
-1.374396
  30
0
  11
19.356
  21
-1.388342
  31
0
  0
LINE
  5
2f4
  100
AcDbEntity
  8
1
  100
AcDbLine
  10
19.356
  20
-1.388342
  30
0
  11
19.344
  21
-1.402254
  31
0
  0
LINE
  5
2f5
  100
AcDbEntity
  8
1
  100
AcDbLine
  10
19.344
  20
-1.402254
  30
0
  11
19.332
  21
-1.416131
  31
0
  0
LINE
  5
2f6
  100
AcDbEntity
  8
1
  100
AcDbLine
  10
19.332
  20
-1.416131
  30
0
  11
19.32
  21
-1.429974
  31
0
  0
LINE
  5
2f7
  100
AcDbEntity
  8
1
  100
AcDbLine
  10
19.32
  20
-1.429974
  30
0
  11
19.308
  21
-1.443785
  31
0
  0
LINE
  5
2f8
  100
AcDbEntity
  8
1
  100
AcDbLine
  10
19.308
  20
-1.443785
  30
0
  11
19.296
  21
-1.457565
  31
0
  0
LINE
  5
2f9
  100
AcDbEntity
  8
1
  100
AcDbLine
  10
19.296
  20
-1.457565
  30
0
  11
19.284
  21
-1.471313
  31
0
  0
LINE
  5
2fa
  100
AcDbEntity
  8
1
  100
AcDbLine
  10
19.284
  20
-1.471313
  30
0
  11
19.272
  21
-1.485032
  31
0
  0
LINE
  5
2fb
  100
AcDbEntity
  8
1
  100
AcDbLine
  10
19.272
  20
-1.485032
  30
0
  11
19.26
  21
-1.498722
  31
0
  0
LINE
  5
2fc
  100
AcDbEntity
  8
1
  100
AcDbLine
  10
19.26
  20
-1.498722
  30
0
  11
19.248
  21
-1.512383
  31
0
  0
LINE
  5
2fd
  100
AcDbEntity
  8
1
  100
AcDbLine
  10
19.248
  20
-1.512383
  30
0
  11
19.236
  21
-1.526017
  31
0
  0
LINE
  5
2fe
  100
AcDbEntity
  8
1
  100
AcDbLine
  10
19.236
  20
-1.526017
  30
0
  11
19.224
  21
-1.539624
  31
0
  0
LINE
  5
2ff
  100
AcDbEntity
  8
1
  100
AcDbLine
  10
19.224
  20
-1.539624
  30
0
  11
19.212
  21
-1.553205
  31
0
  0
LINE
  5
300
  100
AcDbEntity
  8
1
  100
AcDbLine
  10
19.212
  20
-1.553205
  30
0
  11
19.2
  21
-1.56676
  31
0
  0
LINE
  5
301
  100
AcDbEntity
  8
1
  100
AcDbLine
  10
19.2
  20
-1.56676
  30
0
  11
19.188
  21
-1.580291
  31
0
  0
LINE
  5
302
  100
AcDbEntity
  8
1
  100
AcDbLine
  10
19.188
  20
-1.580291
  30
0
  11
19.176
  21
-1.593797
  31
0
  0
LINE
  5
303
  100
AcDbEntity
  8
1
  100
AcDbLine
  10
19.176
  20
-1.593797
  30
0
  11
19.164
  21
-1.60728
  31
0
  0
LINE
  5
304
  100
AcDbEntity
  8
1
  100
AcDbLine
  10
19.164
  20
-1.60728
  30
0
  11
19.152
  21
-1.62074
  31
0
  0
LINE
  5
305
  100
AcDbEntity
  8
1
  100
AcDbLine
  10
19.152
  20
-1.62074
  30
0
  11
19.14
  21
-1.634177
  31
0
  0
LINE
  5
306
  100
AcDbEntity
  8
1
  100
AcDbLine
  10
19.14
  20
-1.634177
  30
0
  11
19.128
  21
-1.647592
  31
0
  0
LINE
  5
307
  100
AcDbEntity
  8
1
  100
AcDbLine
  10
19.128
  20
-1.647592
  30
0
  11
19.116
  21
-1.660986
  31
0
  0
LINE
  5
308
  100
AcDbEntity
  8
1
  100
AcDbLine
  10
19.116
  20
-1.660986
  30
0
  11
19.104
  21
-1.674359
  31
0
  0
LINE
  5
309
  100
AcDbEntity
  8
1
  100
AcDbLine
  10
19.104
  20
-1.674359
  30
0
  11
19.092
  21
-1.687712
  31
0
  0
LINE
  5
30a
  100
AcDbEntity
  8
1
  100
AcDbLine
  10
19.092
  20
-1.687712
  30
0
  11
19.08
  21
-1.701044
  31
0
  0
LINE
  5
30b
  100
AcDbEntity
  8
1
  100
AcDbLine
  10
19.08
  20
-1.701044
  30
0
  11
19.068
  21
-1.714358
  31
0
  0
LINE
  5
30c
  100
AcDbEntity
  8
1
  100
AcDbLine
  10
19.068
  20
-1.714358
  30
0
  11
19.056
  21
-1.727652
  31
0
  0
LINE
  5
30d
  100
AcDbEntity
  8
1
  100
AcDbLine
  10
19.056
  20
-1.727652
  30
0
  11
19.044
  21
-1.740927
  31
0
  0
LINE
  5
30e
  100
AcDbEntity
  8
1
  100
AcDbLine
  10
19.044
  20
-1.740927
  30
0
  11
19.032
  21
-1.754185
  31
0
  0
LINE
  5
30f
  100
AcDbEntity
  8
1
  100
AcDbLine
  10
19.032
  20
-1.754185
  30
0
  11
19.02
  21
-1.767425
  31
0
  0
LINE
  5
310
  100
AcDbEntity
  8
1
  100
AcDbLine
  10
19.02
  20
-1.767425
  30
0
  11
19.008
  21
-1.780647
  31
0
  0
LINE
  5
311
  100
AcDbEntity
  8
1
  100
AcDbLine
  10
19.008
  20
-1.780647
  30
0
  11
18.996
  21
-1.793852
  31
0
  0
LINE
  5
312
  100
AcDbEntity
  8
1
  100
AcDbLine
  10
18.996
  20
-1.793852
  30
0
  11
18.984
  21
-1.807041
  31
0
  0
LINE
  5
313
  100
AcDbEntity
  8
1
  100
AcDbLine
  10
18.984
  20
-1.807041
  30
0
  11
18.972
  21
-1.820213
  31
0
  0
LINE
  5
314
  100
AcDbEntity
  8
1
  100
AcDbLine
  10
18.972
  20
-1.820213
  30
0
  11
18.96
  21
-1.833369
  31
0
  0
LINE
  5
315
  100
AcDbEntity
  8
1
  100
AcDbLine
  10
18.96
  20
-1.833369
  30
0
  11
18.948
  21
-1.84651
  31
0
  0
LINE
  5
316
  100
AcDbEntity
  8
1
  100
AcDbLine
  10
18.948
  20
-1.84651
  30
0
  11
18.936
  21
-1.859635
  31
0
  0
LINE
  5
317
  100
AcDbEntity
  8
1
  100
AcDbLine
  10
18.936
  20
-1.859635
  30
0
  11
18.924
  21
-1.872746
  31
0
  0
LINE
  5
318
  100
AcDbEntity
  8
1
  100
AcDbLine
  10
18.924
  20
-1.872746
  30
0
  11
18.912
  21
-1.885842
  31
0
  0
LINE
  5
319
  100
AcDbEntity
  8
1
  100
AcDbLine
  10
18.912
  20
-1.885842
  30
0
  11
18.9
  21
-1.898923
  31
0
  0
LINE
  5
31a
  100
AcDbEntity
  8
1
  100
AcDbLine
  10
18.9
  20
-1.898923
  30
0
  11
18.888
  21
-1.91199
  31
0
  0
LINE
  5
31b
  100
AcDbEntity
  8
1
  100
AcDbLine
  10
18.888
  20
-1.91199
  30
0
  11
18.876
  21
-1.925044
  31
0
  0
LINE
  5
31c
  100
AcDbEntity
  8
1
  100
AcDbLine
  10
18.876
  20
-1.925044
  30
0
  11
18.864
  21
-1.938084
  31
0
  0
LINE
  5
31d
  100
AcDbEntity
  8
1
  100
AcDbLine
  10
18.864
  20
-1.938084
  30
0
  11
18.852
  21
-1.951111
  31
0
  0
LINE
  5
31e
  100
AcDbEntity
  8
1
  100
AcDbLine
  10
18.852
  20
-1.951111
  30
0
  11
18.84
  21
-1.964125
  31
0
  0
LINE
  5
31f
  100
AcDbEntity
  8
1
  100
AcDbLine
  10
18.84
  20
-1.964125
  30
0
  11
18.828
  21
-1.977126
  31
0
  0
LINE
  5
320
  100
AcDbEntity
  8
1
  100
AcDbLine
  10
18.828
  20
-1.977126
  30
0
  11
18.816
  21
-1.990115
  31
0
  0
LINE
  5
321
  100
AcDbEntity
  8
1
  100
AcDbLine
  10
18.816
  20
-1.990115
  30
0
  11
18.804
  21
-2.003091
  31
0
  0
LINE
  5
322
  100
AcDbEntity
  8
1
  100
AcDbLine
  10
18.804
  20
-2.003091
  30
0
  11
18.792
  21
-2.016056
  31
0
  0
LINE
  5
323
  100
AcDbEntity
  8
1
  100
AcDbLine
  10
18.792
  20
-2.016056
  30
0
  11
18.78
  21
-2.029008
  31
0
  0
LINE
  5
324
  100
AcDbEntity
  8
1
  100
AcDbLine
  10
18.78
  20
-2.029008
  30
0
  11
18.768
  21
-2.041949
  31
0
  0
LINE
  5
325
  100
AcDbEntity
  8
1
  100
AcDbLine
  10
18.768
  20
-2.041949
  30
0
  11
18.756
  21
-2.054879
  31
0
  0
LINE
  5
326
  100
AcDbEntity
  8
1
  100
AcDbLine
  10
18.756
  20
-2.054879
  30
0
  11
18.744
  21
-2.067798
  31
0
  0
LINE
  5
327
  100
AcDbEntity
  8
1
  100
AcDbLine
  10
18.744
  20
-2.067798
  30
0
  11
18.732
  21
-2.080705
  31
0
  0
LINE
  5
328
  100
AcDbEntity
  8
1
  100
AcDbLine
  10
18.732
  20
-2.080705
  30
0
  11
18.72
  21
-2.093602
  31
0
  0
LINE
  5
329
  100
AcDbEntity
  8
1
  100
AcDbLine
  10
18.72
  20
-2.093602
  30
0
  11
18.708
  21
-2.106488
  31
0
  0
LINE
  5
32a
  100
AcDbEntity
  8
1
  100
AcDbLine
  10
18.708
  20
-2.106488
  30
0
  11
18.696
  21
-2.119365
  31
0
  0
LINE
  5
32b
  100
AcDbEntity
  8
1
  100
AcDbLine
  10
18.696
  20
-2.119365
  30
0
  11
18.684
  21
-2.13223
  31
0
  0
LINE
  5
32c
  100
AcDbEntity
  8
1
  100
AcDbLine
  10
18.684
  20
-2.13223
  30
0
  11
18.672
  21
-2.145086
  31
0
  0
LINE
  5
32d
  100
AcDbEntity
  8
1
  100
AcDbLine
  10
18.672
  20
-2.145086
  30
0
  11
18.66
  21
-2.157932
  31
0
  0
LINE
  5
32e
  100
AcDbEntity
  8
1
  100
AcDbLine
  10
18.66
  20
-2.157932
  30
0
  11
18.648
  21
-2.170769
  31
0
  0
LINE
  5
32f
  100
AcDbEntity
  8
1
  100
AcDbLine
  10
18.648
  20
-2.170769
  30
0
  11
18.636
  21
-2.183596
  31
0
  0
LINE
  5
330
  100
AcDbEntity
  8
1
  100
AcDbLine
  10
18.636
  20
-2.183596
  30
0
  11
18.624
  21
-2.196413
  31
0
  0
LINE
  5
331
  100
AcDbEntity
  8
1
  100
AcDbLine
  10
18.624
  20
-2.196413
  30
0
  11
18.612
  21
-2.209222
  31
0
  0
LINE
  5
332
  100
AcDbEntity
  8
1
  100
AcDbLine
  10
18.612
  20
-2.209222
  30
0
  11
18.6
  21
-2.222022
  31
0
  0
LINE
  5
333
  100
AcDbEntity
  8
1
  100
AcDbLine
  10
18.6
  20
-2.222022
  30
0
  11
18.588
  21
-2.234812
  31
0
  0
LINE
  5
334
  100
AcDbEntity
  8
1
  100
AcDbLine
  10
18.588
  20
-2.234812
  30
0
  11
18.576
  21
-2.247594
  31
0
  0
LINE
  5
335
  100
AcDbEntity
  8
1
  100
AcDbLine
  10
18.576
  20
-2.247594
  30
0
  11
18.564
  21
-2.260368
  31
0
  0
LINE
  5
336
  100
AcDbEntity
  8
1
  100
AcDbLine
  10
18.564
  20
-2.260368
  30
0
  11
18.552
  21
-2.273133
  31
0
  0
LINE
  5
337
  100
AcDbEntity
  8
1
  100
AcDbLine
  10
18.552
  20
-2.273133
  30
0
  11
18.54
  21
-2.28589
  31
0
  0
LINE
  5
338
  100
AcDbEntity
  8
1
  100
AcDbLine
  10
18.54
  20
-2.28589
  30
0
  11
18.528
  21
-2.298639
  31
0
  0
LINE
  5
339
  100
AcDbEntity
  8
1
  100
AcDbLine
  10
18.528
  20
-2.298639
  30
0
  11
18.516
  21
-2.311379
  31
0
  0
LINE
  5
33a
  100
AcDbEntity
  8
1
  100
AcDbLine
  10
18.516
  20
-2.311379
  30
0
  11
18.504
  21
-2.324112
  31
0
  0
LINE
  5
33b
  100
AcDbEntity
  8
1
  100
AcDbLine
  10
18.504
  20
-2.324112
  30
0
  11
18.492
  21
-2.336837
  31
0
  0
LINE
  5
33c
  100
AcDbEntity
  8
1
  100
AcDbLine
  10
18.492
  20
-2.336837
  30
0
  11
18.48
  21
-2.349555
  31
0
  0
LINE
  5
33d
  100
AcDbEntity
  8
1
  100
AcDbLine
  10
18.48
  20
-2.349555
  30
0
  11
18.468
  21
-2.362265
  31
0
  0
LINE
  5
33e
  100
AcDbEntity
  8
1
  100
AcDbLine
  10
18.468
  20
-2.362265
  30
0
  11
18.456
  21
-2.374968
  31
0
  0
LINE
  5
33f
  100
AcDbEntity
  8
1
  100
AcDbLine
  10
18.456
  20
-2.374968
  30
0
  11
18.444
  21
-2.387663
  31
0
  0
LINE
  5
340
  100
AcDbEntity
  8
1
  100
AcDbLine
  10
18.444
  20
-2.387663
  30
0
  11
18.432
  21
-2.400351
  31
0
  0
LINE
  5
341
  100
AcDbEntity
  8
1
  100
AcDbLine
  10
18.432
  20
-2.400351
  30
0
  11
18.42
  21
-2.413033
  31
0
  0
LINE
  5
342
  100
AcDbEntity
  8
1
  100
AcDbLine
  10
18.42
  20
-2.413033
  30
0
  11
18.408
  21
-2.425707
  31
0
  0
LINE
  5
343
  100
AcDbEntity
  8
1
  100
AcDbLine
  10
18.408
  20
-2.425707
  30
0
  11
18.396
  21
-2.438375
  31
0
  0
LINE
  5
344
  100
AcDbEntity
  8
1
  100
AcDbLine
  10
18.396
  20
-2.438375
  30
0
  11
18.384
  21
-2.451035
  31
0
  0
LINE
  5
345
  100
AcDbEntity
  8
1
  100
AcDbLine
  10
18.384
  20
-2.451035
  30
0
  11
18.372
  21
-2.46369
  31
0
  0
LINE
  5
346
  100
AcDbEntity
  8
1
  100
AcDbLine
  10
18.372
  20
-2.46369
  30
0
  11
18.36
  21
-2.476337
  31
0
  0
LINE
  5
347
  100
AcDbEntity
  8
1
  100
AcDbLine
  10
18.36
  20
-2.476337
  30
0
  11
18.348
  21
-2.488979
  31
0
  0
LINE
  5
348
  100
AcDbEntity
  8
1
  100
AcDbLine
  10
18.348
  20
-2.488979
  30
0
  11
18.336
  21
-2.501614
  31
0
  0
LINE
  5
349
  100
AcDbEntity
  8
1
  100
AcDbLine
  10
18.336
  20
-2.501614
  30
0
  11
18.324
  21
-2.514243
  31
0
  0
LINE
  5
34a
  100
AcDbEntity
  8
1
  100
AcDbLine
  10
18.324
  20
-2.514243
  30
0
  11
18.312
  21
-2.526865
  31
0
  0
LINE
  5
34b
  100
AcDbEntity
  8
1
  100
AcDbLine
  10
18.312
  20
-2.526865
  30
0
  11
18.3
  21
-2.539482
  31
0
  0
LINE
  5
34c
  100
AcDbEntity
  8
1
  100
AcDbLine
  10
18.3
  20
-2.539482
  30
0
  11
18.288
  21
-2.552093
  31
0
  0
LINE
  5
34d
  100
AcDbEntity
  8
1
  100
AcDbLine
  10
18.288
  20
-2.552093
  30
0
  11
18.276
  21
-2.564698
  31
0
  0
LINE
  5
34e
  100
AcDbEntity
  8
1
  100
AcDbLine
  10
18.276
  20
-2.564698
  30
0
  11
18.264
  21
-2.577297
  31
0
  0
LINE
  5
34f
  100
AcDbEntity
  8
1
  100
AcDbLine
  10
18.264
  20
-2.577297
  30
0
  11
18.252
  21
-2.58989
  31
0
  0
LINE
  5
350
  100
AcDbEntity
  8
1
  100
AcDbLine
  10
18.252
  20
-2.58989
  30
0
  11
18.24
  21
-2.602478
  31
0
  0
LINE
  5
351
  100
AcDbEntity
  8
1
  100
AcDbLine
  10
18.24
  20
-2.602478
  30
0
  11
18.228
  21
-2.61506
  31
0
  0
LINE
  5
352
  100
AcDbEntity
  8
1
  100
AcDbLine
  10
18.228
  20
-2.61506
  30
0
  11
18.216
  21
-2.627637
  31
0
  0
LINE
  5
353
  100
AcDbEntity
  8
1
  100
AcDbLine
  10
18.216
  20
-2.627637
  30
0
  11
18.204
  21
-2.640208
  31
0
  0
LINE
  5
354
  100
AcDbEntity
  8
1
  100
AcDbLine
  10
18.204
  20
-2.640208
  30
0
  11
18.192
  21
-2.652775
  31
0
  0
LINE
  5
355
  100
AcDbEntity
  8
1
  100
AcDbLine
  10
18.192
  20
-2.652775
  30
0
  11
18.18
  21
-2.665336
  31
0
  0
LINE
  5
356
  100
AcDbEntity
  8
1
  100
AcDbLine
  10
18.18
  20
-2.665336
  30
0
  11
18.168
  21
-2.677891
  31
0
  0
LINE
  5
357
  100
AcDbEntity
  8
1
  100
AcDbLine
  10
18.168
  20
-2.677891
  30
0
  11
18.156
  21
-2.690442
  31
0
  0
LINE
  5
358
  100
AcDbEntity
  8
1
  100
AcDbLine
  10
18.156
  20
-2.690442
  30
0
  11
18.144
  21
-2.702988
  31
0
  0
LINE
  5
359
  100
AcDbEntity
  8
1
  100
AcDbLine
  10
18.144
  20
-2.702988
  30
0
  11
18.132
  21
-2.715529
  31
0
  0
LINE
  5
35a
  100
AcDbEntity
  8
1
  100
AcDbLine
  10
18.132
  20
-2.715529
  30
0
  11
18.12
  21
-2.728064
  31
0
  0
LINE
  5
35b
  100
AcDbEntity
  8
1
  100
AcDbLine
  10
18.12
  20
-2.728064
  30
0
  11
18.108
  21
-2.740596
  31
0
  0
LINE
  5
35c
  100
AcDbEntity
  8
1
  100
AcDbLine
  10
18.108
  20
-2.740596
  30
0
  11
18.096
  21
-2.753122
  31
0
  0
LINE
  5
35d
  100
AcDbEntity
  8
1
  100
AcDbLine
  10
18.096
  20
-2.753122
  30
0
  11
18.084
  21
-2.765644
  31
0
  0
LINE
  5
35e
  100
AcDbEntity
  8
1
  100
AcDbLine
  10
18.084
  20
-2.765644
  30
0
  11
18.072
  21
-2.778161
  31
0
  0
LINE
  5
35f
  100
AcDbEntity
  8
1
  100
AcDbLine
  10
18.072
  20
-2.778161
  30
0
  11
18.06
  21
-2.790673
  31
0
  0
LINE
  5
360
  100
AcDbEntity
  8
1
  100
AcDbLine
  10
18.06
  20
-2.790673
  30
0
  11
18.048
  21
-2.803181
  31
0
  0
LINE
  5
361
  100
AcDbEntity
  8
1
  100
AcDbLine
  10
18.048
  20
-2.803181
  30
0
  11
18.036
  21
-2.815685
  31
0
  0
LINE
  5
362
  100
AcDbEntity
  8
1
  100
AcDbLine
  10
18.036
  20
-2.815685
  30
0
  11
18.024
  21
-2.828184
  31
0
  0
LINE
  5
363
  100
AcDbEntity
  8
1
  100
AcDbLine
  10
18.024
  20
-2.828184
  30
0
  11
18.012
  21
-2.840679
  31
0
  0
LINE
  5
364
  100
AcDbEntity
  8
1
  100
AcDbLine
  10
18.012
  20
-2.840679
  30
0
  11
17.988
  21
-2.85283
  31
0
  0
LINE
  5
365
  100
AcDbEntity
  8
1
  100
AcDbLine
  10
17.988
  20
-2.85283
  30
0
  11
17.976
  21
-2.851811
  31
0
  0
LINE
  5
366
  100
AcDbEntity
  8
1
  100
AcDbLine
  10
17.976
  20
-2.851811
  30
0
  11
17.964
  21
-2.850105
  31
0
  0
LINE
  5
367
  100
AcDbEntity
  8
1
  100
AcDbLine
  10
17.964
  20
-2.850105
  30
0
  11
17.952
  21
-2.847704
  31
0
  0
LINE
  5
368
  100
AcDbEntity
  8
1
  100
AcDbLine
  10
17.952
  20
-2.847704
  30
0
  11
17.94
  21
-2.844593
  31
0
  0
LINE
  5
369
  100
AcDbEntity
  8
1
  100
AcDbLine
  10
17.94
  20
-2.844593
  30
0
  11
17.928
  21
-2.840755
  31
0
  0
LINE
  5
36a
  100
AcDbEntity
  8
1
  100
AcDbLine
  10
17.928
  20
-2.840755
  30
0
  11
17.916
  21
-2.836171
  31
0
  0
LINE
  5
36b
  100
AcDbEntity
  8
1
  100
AcDbLine
  10
17.916
  20
-2.836171
  30
0
  11
17.904
  21
-2.830815
  31
0
  0
LINE
  5
36c
  100
AcDbEntity
  8
1
  100
AcDbLine
  10
17.904
  20
-2.830815
  30
0
  11
17.892
  21
-2.82466
  31
0
  0
LINE
  5
36d
  100
AcDbEntity
  8
1
  100
AcDbLine
  10
17.892
  20
-2.82466
  30
0
  11
17.88
  21
-2.817676
  31
0
  0
LINE
  5
36e
  100
AcDbEntity
  8
1
  100
AcDbLine
  10
17.88
  20
-2.817676
  30
0
  11
17.868
  21
-2.80983
  31
0
  0
LINE
  5
36f
  100
AcDbEntity
  8
1
  100
AcDbLine
  10
17.868
  20
-2.80983
  30
0
  11
17.856
  21
-2.801085
  31
0
  0
LINE
  5
370
  100
AcDbEntity
  8
1
  100
AcDbLine
  10
17.856
  20
-2.801085
  30
0
  11
17.844
  21
-2.791404
  31
0
  0
LINE
  5
371
  100
AcDbEntity
  8
1
  100
AcDbLine
  10
17.844
  20
-2.791404
  30
0
  11
17.832
  21
-2.780746
  31
0
  0
LINE
  5
372
  100
AcDbEntity
  8
1
  100
AcDbLine
  10
17.832
  20
-2.780746
  30
0
  11
17.82
  21
-2.76907
  31
0
  0
LINE
  5
373
  100
AcDbEntity
  8
1
  100
AcDbLine
  10
17.82
  20
-2.76907
  30
0
  11
17.808
  21
-2.756333
  31
0
  0
LINE
  5
374
  100
AcDbEntity
  8
1
  100
AcDbLine
  10
17.808
  20
-2.756333
  30
0
  11
17.796
  21
-2.742489
  31
0
  0
LINE
  5
375
  100
AcDbEntity
  8
1
  100
AcDbLine
  10
17.796
  20
-2.742489
  30
0
  11
17.784
  21
-2.727495
  31
0
  0
LINE
  5
376
  100
AcDbEntity
  8
1
  100
AcDbLine
  10
17.784
  20
-2.727495
  30
0
  11
17.772
  21
-2.711305
  31
0
  0
LINE
  5
377
  100
AcDbEntity
  8
1
  100
AcDbLine
  10
17.772
  20
-2.711305
  30
0
  11
17.76
  21
-2.693874
  31
0
  0
LINE
  5
378
  100
AcDbEntity
  8
1
  100
AcDbLine
  10
17.76
  20
-2.693874
  30
0
  11
17.748
  21
-2.675157
  31
0
  0
LINE
  5
379
  100
AcDbEntity
  8
1
  100
AcDbLine
  10
17.748
  20
-2.675157
  30
0
  11
17.736
  21
-2.655111
  31
0
  0
LINE
  5
37a
  100
AcDbEntity
  8
1
  100
AcDbLine
  10
17.736
  20
-2.655111
  30
0
  11
17.724
  21
-2.633693
  31
0
  0
LINE
  5
37b
  100
AcDbEntity
  8
1
  100
AcDbLine
  10
17.724
  20
-2.633693
  30
0
  11
17.712
  21
-2.610863
  31
0
  0
LINE
  5
37c
  100
AcDbEntity
  8
1
  100
AcDbLine
  10
17.712
  20
-2.610863
  30
0
  11
17.7
  21
-2.586583
  31
0
  0
LINE
  5
37d
  100
AcDbEntity
  8
1
  100
AcDbLine
  10
17.7
  20
-2.586583
  30
0
  11
17.688
  21
-2.560815
  31
0
  0
LINE
  5
37e
  100
AcDbEntity
  8
1
  100
AcDbLine
  10
17.688
  20
-2.560815
  30
0
  11
17.676
  21
-2.533528
  31
0
  0
LINE
  5
37f
  100
AcDbEntity
  8
1
  100
AcDbLine
  10
17.676
  20
-2.533528
  30
0
  11
17.664
  21
-2.504692
  31
0
  0
LINE
  5
380
  100
AcDbEntity
  8
1
  100
AcDbLine
  10
17.664
  20
-2.504692
  30
0
  11
17.652
  21
-2.47428
  31
0
  0
LINE
  5
381
  100
AcDbEntity
  8
1
  100
AcDbLine
  10
17.652
  20
-2.47428
  30
0
  11
17.64
  21
-2.44227
  31
0
  0
LINE
  5
382
  100
AcDbEntity
  8
1
  100
AcDbLine
  10
17.64
  20
-2.44227
  30
0
  11
17.628
  21
-2.408646
  31
0
  0
LINE
  5
383
  100
AcDbEntity
  8
1
  100
AcDbLine
  10
17.628
  20
-2.408646
  30
0
  11
17.616
  21
-2.373394
  31
0
  0
LINE
  5
384
  100
AcDbEntity
  8
1
  100
AcDbLine
  10
17.616
  20
-2.373394
  30
0
  11
17.604
  21
-2.336506
  31
0
  0
LINE
  5
385
  100
AcDbEntity
  8
1
  100
AcDbLine
  10
17.604
  20
-2.336506
  30
0
  11
17.592
  21
-2.297979
  31
0
  0
LINE
  5
386
  100
AcDbEntity
  8
1
  100
AcDbLine
  10
17.592
  20
-2.297979
  30
0
  11
17.58
  21
-2.257817
  31
0
  0
LINE
  5
387
  100
AcDbEntity
  8
1
  100
AcDbLine
  10
17.58
  20
-2.257817
  30
0
  11
17.568
  21
-2.216029
  31
0
  0
LINE
  5
388
  100
AcDbEntity
  8
1
  100
AcDbLine
  10
17.568
  20
-2.216029
  30
0
  11
17.556
  21
-2.172627
  31
0
  0
LINE
  5
389
  100
AcDbEntity
  8
1
  100
AcDbLine
  10
17.556
  20
-2.172627
  30
0
  11
17.544
  21
-2.127633
  31
0
  0
LINE
  5
38a
  100
AcDbEntity
  8
1
  100
AcDbLine
  10
17.544
  20
-2.127633
  30
0
  11
17.532
  21
-2.081074
  31
0
  0
LINE
  5
38b
  100
AcDbEntity
  8
1
  100
AcDbLine
  10
17.532
  20
-2.081074
  30
0
  11
17.52
  21
-2.032981
  31
0
  0
LINE
  5
38c
  100
AcDbEntity
  8
1
  100
AcDbLine
  10
17.52
  20
-2.032981
  30
0
  11
17.508
  21
-1.983393
  31
0
  0
LINE
  5
38d
  100
AcDbEntity
  8
1
  100
AcDbLine
  10
17.508
  20
-1.983393
  30
0
  11
17.496
  21
-1.932355
  31
0
  0
LINE
  5
38e
  100
AcDbEntity
  8
1
  100
AcDbLine
  10
17.496
  20
-1.932355
  30
0
  11
17.484
  21
-1.879918
  31
0
  0
LINE
  5
38f
  100
AcDbEntity
  8
1
  100
AcDbLine
  10
17.484
  20
-1.879918
  30
0
  11
17.472
  21
-1.826137
  31
0
  0
LINE
  5
390
  100
AcDbEntity
  8
1
  100
AcDbLine
  10
17.472
  20
-1.826137
  30
0
  11
17.46
  21
-1.771076
  31
0
  0
LINE
  5
391
  100
AcDbEntity
  8
1
  100
AcDbLine
  10
17.46
  20
-1.771076
  30
0
  11
17.448
  21
-1.714802
  31
0
  0
LINE
  5
392
  100
AcDbEntity
  8
1
  100
AcDbLine
  10
17.448
  20
-1.714802
  30
0
  11
17.436
  21
-1.657388
  31
0
  0
LINE
  5
393
  100
AcDbEntity
  8
1
  100
AcDbLine
  10
17.436
  20
-1.657388
  30
0
  11
17.424
  21
-1.598911
  31
0
  0
LINE
  5
394
  100
AcDbEntity
  8
1
  100
AcDbLine
  10
17.424
  20
-1.598911
  30
0
  11
17.412
  21
-1.539456
  31
0
  0
LINE
  5
395
  100
AcDbEntity
  8
1
  100
AcDbLine
  10
17.412
  20
-1.539456
  30
0
  11
17.4
  21
-1.479107
  31
0
  0
LINE
  5
396
  100
AcDbEntity
  8
1
  100
AcDbLine
  10
17.4
  20
-1.479107
  30
0
  11
17.4
  21
-1.411491
  31
0
  0
LINE
  5
397
  100
AcDbEntity
  8
1
  100
AcDbLine
  10
17.4
  20
-1.411491
  30
0
  11
17.412
  21
-1.370594
  31
0
  0
LINE
  5
398
  100
AcDbEntity
  8
1
  100
AcDbLine
  10
17.412
  20
-1.370594
  30
0
  11
17.424
  21
-1.329413
  31
0
  0
LINE
  5
399
  100
AcDbEntity
  8
1
  100
AcDbLine
  10
17.424
  20
-1.329413
  30
0
  11
17.436
  21
-1.288001
  31
0
  0
LINE
  5
39a
  100
AcDbEntity
  8
1
  100
AcDbLine
  10
17.436
  20
-1.288001
  30
0
  11
17.448
  21
-1.246409
  31
0
  0
LINE
  5
39b
  100
AcDbEntity
  8
1
  100
AcDbLine
  10
17.448
  20
-1.246409
  30
0
  11
17.46
  21
-1.204692
  31
0
  0
LINE
  5
39c
  100
AcDbEntity
  8
1
  100
AcDbLine
  10
17.46
  20
-1.204692
  30
0
  11
17.472
  21
-1.162905
  31
0
  0
LINE
  5
39d
  100
AcDbEntity
  8
1
  100
AcDbLine
  10
17.472
  20
-1.162905
  30
0
  11
17.484
  21
-1.121102
  31
0
  0
LINE
  5
39e
  100
AcDbEntity
  8
1
  100
AcDbLine
  10
17.484
  20
-1.121102
  30
0
  11
17.496
  21
-1.079341
  31
0
  0
LINE
  5
39f
  100
AcDbEntity
  8
1
  100
AcDbLine
  10
17.496
  20
-1.079341
  30
0
  11
17.508
  21
-1.037676
  31
0
  0
LINE
  5
3a0
  100
AcDbEntity
  8
1
  100
AcDbLine
  10
17.508
  20
-1.037676
  30
0
  11
17.52
  21
-0.996164
  31
0
  0
LINE
  5
3a1
  100
AcDbEntity
  8
1
  100
AcDbLine
  10
17.52
  20
-0.996164
  30
0
  11
17.532
  21
-0.954861
  31
0
  0
LINE
  5
3a2
  100
AcDbEntity
  8
1
  100
AcDbLine
  10
17.532
  20
-0.954861
  30
0
  11
17.544
  21
-0.913824
  31
0
  0
LINE
  5
3a3
  100
AcDbEntity
  8
1
  100
AcDbLine
  10
17.544
  20
-0.913824
  30
0
  11
17.556
  21
-0.873108
  31
0
  0
LINE
  5
3a4
  100
AcDbEntity
  8
1
  100
AcDbLine
  10
17.556
  20
-0.873108
  30
0
  11
17.568
  21
-0.832769
  31
0
  0
LINE
  5
3a5
  100
AcDbEntity
  8
1
  100
AcDbLine
  10
17.568
  20
-0.832769
  30
0
  11
17.58
  21
-0.792862
  31
0
  0
LINE
  5
3a6
  100
AcDbEntity
  8
1
  100
AcDbLine
  10
17.58
  20
-0.792862
  30
0
  11
17.592
  21
-0.753441
  31
0
  0
LINE
  5
3a7
  100
AcDbEntity
  8
1
  100
AcDbLine
  10
17.592
  20
-0.753441
  30
0
  11
17.604
  21
-0.714559
  31
0
  0
LINE
  5
3a8
  100
AcDbEntity
  8
1
  100
AcDbLine
  10
17.604
  20
-0.714559
  30
0
  11
17.616
  21
-0.676269
  31
0
  0
LINE
  5
3a9
  100
AcDbEntity
  8
1
  100
AcDbLine
  10
17.616
  20
-0.676269
  30
0
  11
17.628
  21
-0.638621
  31
0
  0
LINE
  5
3aa
  100
AcDbEntity
  8
1
  100
AcDbLine
  10
17.628
  20
-0.638621
  30
0
  11
17.64
  21
-0.601667
  31
0
  0
LINE
  5
3ab
  100
AcDbEntity
  8
1
  100
AcDbLine
  10
17.64
  20
-0.601667
  30
0
  11
17.652
  21
-0.565454
  31
0
  0
LINE
  5
3ac
  100
AcDbEntity
  8
1
  100
AcDbLine
  10
17.652
  20
-0.565454
  30
0
  11
17.664
  21
-0.530031
  31
0
  0
LINE
  5
3ad
  100
AcDbEntity
  8
1
  100
AcDbLine
  10
17.664
  20
-0.530031
  30
0
  11
17.676
  21
-0.495443
  31
0
  0
LINE
  5
3ae
  100
AcDbEntity
  8
1
  100
AcDbLine
  10
17.676
  20
-0.495443
  30
0
  11
17.688
  21
-0.461735
  31
0
  0
LINE
  5
3af
  100
AcDbEntity
  8
1
  100
AcDbLine
  10
17.688
  20
-0.461735
  30
0
  11
17.7
  21
-0.42895
  31
0
  0
LINE
  5
3b0
  100
AcDbEntity
  8
1
  100
AcDbLine
  10
17.7
  20
-0.42895
  30
0
  11
17.712
  21
-0.397128
  31
0
  0
LINE
  5
3b1
  100
AcDbEntity
  8
1
  100
AcDbLine
  10
17.712
  20
-0.397128
  30
0
  11
17.724
  21
-0.366311
  31
0
  0
LINE
  5
3b2
  100
AcDbEntity
  8
1
  100
AcDbLine
  10
17.724
  20
-0.366311
  30
0
  11
17.736
  21
-0.336535
  31
0
  0
LINE
  5
3b3
  100
AcDbEntity
  8
1
  100
AcDbLine
  10
17.736
  20
-0.336535
  30
0
  11
17.748
  21
-0.307837
  31
0
  0
LINE
  5
3b4
  100
AcDbEntity
  8
1
  100
AcDbLine
  10
17.748
  20
-0.307837
  30
0
  11
17.76
  21
-0.280252
  31
0
  0
LINE
  5
3b5
  100
AcDbEntity
  8
1
  100
AcDbLine
  10
17.76
  20
-0.280252
  30
0
  11
17.772
  21
-0.253812
  31
0
  0
LINE
  5
3b6
  100
AcDbEntity
  8
1
  100
AcDbLine
  10
17.772
  20
-0.253812
  30
0
  11
17.784
  21
-0.228548
  31
0
  0
LINE
  5
3b7
  100
AcDbEntity
  8
1
  100
AcDbLine
  10
17.784
  20
-0.228548
  30
0
  11
17.796
  21
-0.20449
  31
0
  0
LINE
  5
3b8
  100
AcDbEntity
  8
1
  100
AcDbLine
  10
17.796
  20
-0.20449
  30
0
  11
17.808
  21
-0.181664
  31
0
  0
LINE
  5
3b9
  100
AcDbEntity
  8
1
  100
AcDbLine
  10
17.808
  20
-0.181664
  30
0
  11
17.82
  21
-0.160097
  31
0
  0
LINE
  5
3ba
  100
AcDbEntity
  8
1
  100
AcDbLine
  10
17.82
  20
-0.160097
  30
0
  11
17.832
  21
-0.139812
  31
0
  0
LINE
  5
3bb
  100
AcDbEntity
  8
1
  100
AcDbLine
  10
17.832
  20
-0.139812
  30
0
  11
17.844
  21
-0.120832
  31
0
  0
LINE
  5
3bc
  100
AcDbEntity
  8
1
  100
AcDbLine
  10
17.844
  20
-0.120832
  30
0
  11
17.856
  21
-0.103177
  31
0
  0
LINE
  5
3bd
  100
AcDbEntity
  8
1
  100
AcDbLine
  10
17.856
  20
-0.103177
  30
0
  11
17.868
  21
-0.086867
  31
0
  0
LINE
  5
3be
  100
AcDbEntity
  8
1
  100
AcDbLine
  10
17.868
  20
-0.086867
  30
0
  11
17.88
  21
-0.071919
  31
0
  0
LINE
  5
3bf
  100
AcDbEntity
  8
1
  100
AcDbLine
  10
17.88
  20
-0.071919
  30
0
  11
17.892
  21
-0.058347
  31
0
  0
LINE
  5
3c0
  100
AcDbEntity
  8
1
  100
AcDbLine
  10
17.892
  20
-0.058347
  30
0
  11
17.904
  21
-0.046167
  31
0
  0
LINE
  5
3c1
  100
AcDbEntity
  8
1
  100
AcDbLine
  10
17.904
  20
-0.046167
  30
0
  11
17.916
  21
-0.035391
  31
0
  0
LINE
  5
3c2
  100
AcDbEntity
  8
1
  100
AcDbLine
  10
17.916
  20
-0.035391
  30
0
  11
17.928
  21
-0.02603
  31
0
  0
LINE
  5
3c3
  100
AcDbEntity
  8
1
  100
AcDbLine
  10
17.928
  20
-0.02603
  30
0
  11
17.94
  21
-0.018093
  31
0
  0
LINE
  5
3c4
  100
AcDbEntity
  8
1
  100
AcDbLine
  10
17.94
  20
-0.018093
  30
0
  11
17.952
  21
-0.011588
  31
0
  0
LINE
  5
3c5
  100
AcDbEntity
  8
1
  100
AcDbLine
  10
17.952
  20
-0.011588
  30
0
  11
17.964
  21
-0.006522
  31
0
  0
LINE
  5
3c6
  100
AcDbEntity
  8
1
  100
AcDbLine
  10
17.964
  20
-0.006522
  30
0
  11
17.976
  21
-0.0029
  31
0
  0
LINE
  5
3c7
  100
AcDbEntity
  8
1
  100
AcDbLine
  10
17.976
  20
-0.0029
  30
0
  11
17.988
  21
-0.000725
  31
0
  0
LINE
  5
3c8
  100
AcDbEntity
  8
1
  100
AcDbLine
  10
17.988
  20
-0.000725
  30
0
  11
18.012
  21
0.001687
  31
0
  0
LINE
  5
3c9
  100
AcDbEntity
  8
1
  100
AcDbLine
  10
18.012
  20
0.001687
  30
0
  11
18.024
  21
0.003373
  31
0
  0
LINE
  5
3ca
  100
AcDbEntity
  8
1
  100
AcDbLine
  10
18.024
  20
0.003373
  30
0
  11
18.036
  21
0.00506
  31
0
  0
LINE
  5
3cb
  100
AcDbEntity
  8
1
  100
AcDbLine
  10
18.036
  20
0.00506
  30
0
  11
18.048
  21
0.006747
  31
0
  0
LINE
  5
3cc
  100
AcDbEntity
  8
1
  100
AcDbLine
  10
18.048
  20
0.006747
  30
0
  11
18.06
  21
0.008434
  31
0
  0
LINE
  5
3cd
  100
AcDbEntity
  8
1
  100
AcDbLine
  10
18.06
  20
0.008434
  30
0
  11
18.072
  21
0.010121
  31
0
  0
LINE
  5
3ce
  100
AcDbEntity
  8
1
  100
AcDbLine
  10
18.072
  20
0.010121
  30
0
  11
18.084
  21
0.011809
  31
0
  0
LINE
  5
3cf
  100
AcDbEntity
  8
1
  100
AcDbLine
  10
18.084
  20
0.011809
  30
0
  11
18.096
  21
0.013496
  31
0
  0
LINE
  5
3d0
  100
AcDbEntity
  8
1
  100
AcDbLine
  10
18.096
  20
0.013496
  30
0
  11
18.108
  21
0.015184
  31
0
  0
LINE
  5
3d1
  100
AcDbEntity
  8
1
  100
AcDbLine
  10
18.108
  20
0.015184
  30
0
  11
18.12
  21
0.016872
  31
0
  0
LINE
  5
3d2
  100
AcDbEntity
  8
1
  100
AcDbLine
  10
18.12
  20
0.016872
  30
0
  11
18.132
  21
0.01856
  31
0
  0
LINE
  5
3d3
  100
AcDbEntity
  8
1
  100
AcDbLine
  10
18.132
  20
0.01856
  30
0
  11
18.144
  21
0.020248
  31
0
  0
LINE
  5
3d4
  100
AcDbEntity
  8
1
  100
AcDbLine
  10
18.144
  20
0.020248
  30
0
  11
18.156
  21
0.021936
  31
0
  0
LINE
  5
3d5
  100
AcDbEntity
  8
1
  100
AcDbLine
  10
18.156
  20
0.021936
  30
0
  11
18.168
  21
0.023625
  31
0
  0
LINE
  5
3d6
  100
AcDbEntity
  8
1
  100
AcDbLine
  10
18.168
  20
0.023625
  30
0
  11
18.18
  21
0.025313
  31
0
  0
LINE
  5
3d7
  100
AcDbEntity
  8
1
  100
AcDbLine
  10
18.18
  20
0.025313
  30
0
  11
18.192
  21
0.027002
  31
0
  0
LINE
  5
3d8
  100
AcDbEntity
  8
1
  100
AcDbLine
  10
18.192
  20
0.027002
  30
0
  11
18.204
  21
0.028691
  31
0
  0
LINE
  5
3d9
  100
AcDbEntity
  8
1
  100
AcDbLine
  10
18.204
  20
0.028691
  30
0
  11
18.216
  21
0.03038
  31
0
  0
LINE
  5
3da
  100
AcDbEntity
  8
1
  100
AcDbLine
  10
18.216
  20
0.03038
  30
0
  11
18.228
  21
0.032069
  31
0
  0
LINE
  5
3db
  100
AcDbEntity
  8
1
  100
AcDbLine
  10
18.228
  20
0.032069
  30
0
  11
18.24
  21
0.033759
  31
0
  0
LINE
  5
3dc
  100
AcDbEntity
  8
1
  100
AcDbLine
  10
18.24
  20
0.033759
  30
0
  11
18.252
  21
0.035448
  31
0
  0
LINE
  5
3dd
  100
AcDbEntity
  8
1
  100
AcDbLine
  10
18.252
  20
0.035448
  30
0
  11
18.264
  21
0.037138
  31
0
  0
LINE
  5
3de
  100
AcDbEntity
  8
1
  100
AcDbLine
  10
18.264
  20
0.037138
  30
0
  11
18.276
  21
0.038828
  31
0
  0
LINE
  5
3df
  100
AcDbEntity
  8
1
  100
AcDbLine
  10
18.276
  20
0.038828
  30
0
  11
18.288
  21
0.040518
  31
0
  0
LINE
  5
3e0
  100
AcDbEntity
  8
1
  100
AcDbLine
  10
18.288
  20
0.040518
  30
0
  11
18.3
  21
0.042209
  31
0
  0
LINE
  5
3e1
  100
AcDbEntity
  8
1
  100
AcDbLine
  10
18.3
  20
0.042209
  30
0
  11
18.312
  21
0.043899
  31
0
  0
LINE
  5
3e2
  100
AcDbEntity
  8
1
  100
AcDbLine
  10
18.312
  20
0.043899
  30
0
  11
18.324
  21
0.04559
  31
0
  0
LINE
  5
3e3
  100
AcDbEntity
  8
1
  100
AcDbLine
  10
18.324
  20
0.04559
  30
0
  11
18.336
  21
0.047281
  31
0
  0
LINE
  5
3e4
  100
AcDbEntity
  8
1
  100
AcDbLine
  10
18.336
  20
0.047281
  30
0
  11
18.348
  21
0.048972
  31
0
  0
LINE
  5
3e5
  100
AcDbEntity
  8
1
  100
AcDbLine
  10
18.348
  20
0.048972
  30
0
  11
18.36
  21
0.050663
  31
0
  0
LINE
  5
3e6
  100
AcDbEntity
  8
1
  100
AcDbLine
  10
18.36
  20
0.050663
  30
0
  11
18.372
  21
0.052354
  31
0
  0
LINE
  5
3e7
  100
AcDbEntity
  8
1
  100
AcDbLine
  10
18.372
  20
0.052354
  30
0
  11
18.384
  21
0.054046
  31
0
  0
LINE
  5
3e8
  100
AcDbEntity
  8
1
  100
AcDbLine
  10
18.384
  20
0.054046
  30
0
  11
18.396
  21
0.055738
  31
0
  0
LINE
  5
3e9
  100
AcDbEntity
  8
1
  100
AcDbLine
  10
18.396
  20
0.055738
  30
0
  11
18.408
  21
0.05743
  31
0
  0
LINE
  5
3ea
  100
AcDbEntity
  8
1
  100
AcDbLine
  10
18.408
  20
0.05743
  30
0
  11
18.42
  21
0.059122
  31
0
  0
LINE
  5
3eb
  100
AcDbEntity
  8
1
  100
AcDbLine
  10
18.42
  20
0.059122
  30
0
  11
18.432
  21
0.060815
  31
0
  0
LINE
  5
3ec
  100
AcDbEntity
  8
1
  100
AcDbLine
  10
18.432
  20
0.060815
  30
0
  11
18.444
  21
0.062508
  31
0
  0
LINE
  5
3ed
  100
AcDbEntity
  8
1
  100
AcDbLine
  10
18.444
  20
0.062508
  30
0
  11
18.456
  21
0.0642
  31
0
  0
LINE
  5
3ee
  100
AcDbEntity
  8
1
  100
AcDbLine
  10
18.456
  20
0.0642
  30
0
  11
18.468
  21
0.065894
  31
0
  0
LINE
  5
3ef
  100
AcDbEntity
  8
1
  100
AcDbLine
  10
18.468
  20
0.065894
  30
0
  11
18.48
  21
0.067587
  31
0
  0
LINE
  5
3f0
  100
AcDbEntity
  8
1
  100
AcDbLine
  10
18.48
  20
0.067587
  30
0
  11
18.492
  21
0.069281
  31
0
  0
LINE
  5
3f1
  100
AcDbEntity
  8
1
  100
AcDbLine
  10
18.492
  20
0.069281
  30
0
  11
18.504
  21
0.070974
  31
0
  0
LINE
  5
3f2
  100
AcDbEntity
  8
1
  100
AcDbLine
  10
18.504
  20
0.070974
  30
0
  11
18.516
  21
0.072668
  31
0
  0
LINE
  5
3f3
  100
AcDbEntity
  8
1
  100
AcDbLine
  10
18.516
  20
0.072668
  30
0
  11
18.528
  21
0.074363
  31
0
  0
LINE
  5
3f4
  100
AcDbEntity
  8
1
  100
AcDbLine
  10
18.528
  20
0.074363
  30
0
  11
18.54
  21
0.076057
  31
0
  0
LINE
  5
3f5
  100
AcDbEntity
  8
1
  100
AcDbLine
  10
18.54
  20
0.076057
  30
0
  11
18.552
  21
0.077752
  31
0
  0
LINE
  5
3f6
  100
AcDbEntity
  8
1
  100
AcDbLine
  10
18.552
  20
0.077752
  30
0
  11
18.564
  21
0.079447
  31
0
  0
LINE
  5
3f7
  100
AcDbEntity
  8
1
  100
AcDbLine
  10
18.564
  20
0.079447
  30
0
  11
18.576
  21
0.081142
  31
0
  0
LINE
  5
3f8
  100
AcDbEntity
  8
1
  100
AcDbLine
  10
18.576
  20
0.081142
  30
0
  11
18.588
  21
0.082838
  31
0
  0
LINE
  5
3f9
  100
AcDbEntity
  8
1
  100
AcDbLine
  10
18.588
  20
0.082838
  30
0
  11
18.6
  21
0.084534
  31
0
  0
LINE
  5
3fa
  100
AcDbEntity
  8
1
  100
AcDbLine
  10
18.6
  20
0.084534
  30
0
  11
18.612
  21
0.08623
  31
0
  0
LINE
  5
3fb
  100
AcDbEntity
  8
1
  100
AcDbLine
  10
18.612
  20
0.08623
  30
0
  11
18.624
  21
0.087926
  31
0
  0
LINE
  5
3fc
  100
AcDbEntity
  8
1
  100
AcDbLine
  10
18.624
  20
0.087926
  30
0
  11
18.636
  21
0.089623
  31
0
  0
LINE
  5
3fd
  100
AcDbEntity
  8
1
  100
AcDbLine
  10
18.636
  20
0.089623
  30
0
  11
18.648
  21
0.09132
  31
0
  0
LINE
  5
3fe
  100
AcDbEntity
  8
1
  100
AcDbLine
  10
18.648
  20
0.09132
  30
0
  11
18.66
  21
0.093017
  31
0
  0
LINE
  5
3ff
  100
AcDbEntity
  8
1
  100
AcDbLine
  10
18.66
  20
0.093017
  30
0
  11
18.672
  21
0.094714
  31
0
  0
LINE
  5
400
  100
AcDbEntity
  8
1
  100
AcDbLine
  10
18.672
  20
0.094714
  30
0
  11
18.684
  21
0.096412
  31
0
  0
LINE
  5
401
  100
AcDbEntity
  8
1
  100
AcDbLine
  10
18.684
  20
0.096412
  30
0
  11
18.696
  21
0.09811
  31
0
  0
LINE
  5
402
  100
AcDbEntity
  8
1
  100
AcDbLine
  10
18.696
  20
0.09811
  30
0
  11
18.708
  21
0.099808
  31
0
  0
LINE
  5
403
  100
AcDbEntity
  8
1
  100
AcDbLine
  10
18.708
  20
0.099808
  30
0
  11
18.72
  21
0.101507
  31
0
  0
LINE
  5
404
  100
AcDbEntity
  8
1
  100
AcDbLine
  10
18.72
  20
0.101507
  30
0
  11
18.732
  21
0.103206
  31
0
  0
LINE
  5
405
  100
AcDbEntity
  8
1
  100
AcDbLine
  10
18.732
  20
0.103206
  30
0
  11
18.744
  21
0.104905
  31
0
  0
LINE
  5
406
  100
AcDbEntity
  8
1
  100
AcDbLine
  10
18.744
  20
0.104905
  30
0
  11
18.756
  21
0.106605
  31
0
  0
LINE
  5
407
  100
AcDbEntity
  8
1
  100
AcDbLine
  10
18.756
  20
0.106605
  30
0
  11
18.768
  21
0.108305
  31
0
  0
LINE
  5
408
  100
AcDbEntity
  8
1
  100
AcDbLine
  10
18.768
  20
0.108305
  30
0
  11
18.78
  21
0.110005
  31
0
  0
LINE
  5
409
  100
AcDbEntity
  8
1
  100
AcDbLine
  10
18.78
  20
0.110005
  30
0
  11
18.792
  21
0.111706
  31
0
  0
LINE
  5
40a
  100
AcDbEntity
  8
1
  100
AcDbLine
  10
18.792
  20
0.111706
  30
0
  11
18.804
  21
0.113407
  31
0
  0
LINE
  5
40b
  100
AcDbEntity
  8
1
  100
AcDbLine
  10
18.804
  20
0.113407
  30
0
  11
18.816
  21
0.115108
  31
0
  0
LINE
  5
40c
  100
AcDbEntity
  8
1
  100
AcDbLine
  10
18.816
  20
0.115108
  30
0
  11
18.828
  21
0.11681
  31
0
  0
LINE
  5
40d
  100
AcDbEntity
  8
1
  100
AcDbLine
  10
18.828
  20
0.11681
  30
0
  11
18.84
  21
0.118512
  31
0
  0
LINE
  5
40e
  100
AcDbEntity
  8
1
  100
AcDbLine
  10
18.84
  20
0.118512
  30
0
  11
18.852
  21
0.120214
  31
0
  0
LINE
  5
40f
  100
AcDbEntity
  8
1
  100
AcDbLine
  10
18.852
  20
0.120214
  30
0
  11
18.864
  21
0.121917
  31
0
  0
LINE
  5
410
  100
AcDbEntity
  8
1
  100
AcDbLine
  10
18.864
  20
0.121917
  30
0
  11
18.876
  21
0.12362
  31
0
  0
LINE
  5
411
  100
AcDbEntity
  8
1
  100
AcDbLine
  10
18.876
  20
0.12362
  30
0
  11
18.888
  21
0.125323
  31
0
  0
LINE
  5
412
  100
AcDbEntity
  8
1
  100
AcDbLine
  10
18.888
  20
0.125323
  30
0
  11
18.9
  21
0.127027
  31
0
  0
LINE
  5
413
  100
AcDbEntity
  8
1
  100
AcDbLine
  10
18.9
  20
0.127027
  30
0
  11
18.912
  21
0.128731
  31
0
  0
LINE
  5
414
  100
AcDbEntity
  8
1
  100
AcDbLine
  10
18.912
  20
0.128731
  30
0
  11
18.924
  21
0.130436
  31
0
  0
LINE
  5
415
  100
AcDbEntity
  8
1
  100
AcDbLine
  10
18.924
  20
0.130436
  30
0
  11
18.936
  21
0.132141
  31
0
  0
LINE
  5
416
  100
AcDbEntity
  8
1
  100
AcDbLine
  10
18.936
  20
0.132141
  30
0
  11
18.948
  21
0.133847
  31
0
  0
LINE
  5
417
  100
AcDbEntity
  8
1
  100
AcDbLine
  10
18.948
  20
0.133847
  30
0
  11
18.96
  21
0.135553
  31
0
  0
LINE
  5
418
  100
AcDbEntity
  8
1
  100
AcDbLine
  10
18.96
  20
0.135553
  30
0
  11
18.972
  21
0.137259
  31
0
  0
LINE
  5
419
  100
AcDbEntity
  8
1
  100
AcDbLine
  10
18.972
  20
0.137259
  30
0
  11
18.984
  21
0.138966
  31
0
  0
LINE
  5
41a
  100
AcDbEntity
  8
1
  100
AcDbLine
  10
18.984
  20
0.138966
  30
0
  11
18.996
  21
0.140673
  31
0
  0
LINE
  5
41b
  100
AcDbEntity
  8
1
  100
AcDbLine
  10
18.996
  20
0.140673
  30
0
  11
19.008
  21
0.142381
  31
0
  0
LINE
  5
41c
  100
AcDbEntity
  8
1
  100
AcDbLine
  10
19.008
  20
0.142381
  30
0
  11
19.02
  21
0.144089
  31
0
  0
LINE
  5
41d
  100
AcDbEntity
  8
1
  100
AcDbLine
  10
19.02
  20
0.144089
  30
0
  11
19.032
  21
0.145798
  31
0
  0
LINE
  5
41e
  100
AcDbEntity
  8
1
  100
AcDbLine
  10
19.032
  20
0.145798
  30
0
  11
19.044
  21
0.147507
  31
0
  0
LINE
  5
41f
  100
AcDbEntity
  8
1
  100
AcDbLine
  10
19.044
  20
0.147507
  30
0
  11
19.056
  21
0.149217
  31
0
  0
LINE
  5
420
  100
AcDbEntity
  8
1
  100
AcDbLine
  10
19.056
  20
0.149217
  30
0
  11
19.068
  21
0.150927
  31
0
  0
LINE
  5
421
  100
AcDbEntity
  8
1
  100
AcDbLine
  10
19.068
  20
0.150927
  30
0
  11
19.08
  21
0.152638
  31
0
  0
LINE
  5
422
  100
AcDbEntity
  8
1
  100
AcDbLine
  10
19.08
  20
0.152638
  30
0
  11
19.092
  21
0.154349
  31
0
  0
LINE
  5
423
  100
AcDbEntity
  8
1
  100
AcDbLine
  10
19.092
  20
0.154349
  30
0
  11
19.104
  21
0.156061
  31
0
  0
LINE
  5
424
  100
AcDbEntity
  8
1
  100
AcDbLine
  10
19.104
  20
0.156061
  30
0
  11
19.116
  21
0.157774
  31
0
  0
LINE
  5
425
  100
AcDbEntity
  8
1
  100
AcDbLine
  10
19.116
  20
0.157774
  30
0
  11
19.128
  21
0.159487
  31
0
  0
LINE
  5
426
  100
AcDbEntity
  8
1
  100
AcDbLine
  10
19.128
  20
0.159487
  30
0
  11
19.14
  21
0.1612
  31
0
  0
LINE
  5
427
  100
AcDbEntity
  8
1
  100
AcDbLine
  10
19.14
  20
0.1612
  30
0
  11
19.152
  21
0.162914
  31
0
  0
LINE
  5
428
  100
AcDbEntity
  8
1
  100
AcDbLine
  10
19.152
  20
0.162914
  30
0
  11
19.164
  21
0.164629
  31
0
  0
LINE
  5
429
  100
AcDbEntity
  8
1
  100
AcDbLine
  10
19.164
  20
0.164629
  30
0
  11
19.176
  21
0.166344
  31
0
  0
LINE
  5
42a
  100
AcDbEntity
  8
1
  100
AcDbLine
  10
19.176
  20
0.166344
  30
0
  11
19.188
  21
0.16806
  31
0
  0
LINE
  5
42b
  100
AcDbEntity
  8
1
  100
AcDbLine
  10
19.188
  20
0.16806
  30
0
  11
19.2
  21
0.169777
  31
0
  0
LINE
  5
42c
  100
AcDbEntity
  8
1
  100
AcDbLine
  10
19.2
  20
0.169777
  30
0
  11
19.212
  21
0.171494
  31
0
  0
LINE
  5
42d
  100
AcDbEntity
  8
1
  100
AcDbLine
  10
19.212
  20
0.171494
  30
0
  11
19.224
  21
0.173212
  31
0
  0
LINE
  5
42e
  100
AcDbEntity
  8
1
  100
AcDbLine
  10
19.224
  20
0.173212
  30
0
  11
19.236
  21
0.17493
  31
0
  0
LINE
  5
42f
  100
AcDbEntity
  8
1
  100
AcDbLine
  10
19.236
  20
0.17493
  30
0
  11
19.248
  21
0.17665
  31
0
  0
LINE
  5
430
  100
AcDbEntity
  8
1
  100
AcDbLine
  10
19.248
  20
0.17665
  30
0
  11
19.26
  21
0.17837
  31
0
  0
LINE
  5
431
  100
AcDbEntity
  8
1
  100
AcDbLine
  10
19.26
  20
0.17837
  30
0
  11
19.272
  21
0.18009
  31
0
  0
LINE
  5
432
  100
AcDbEntity
  8
1
  100
AcDbLine
  10
19.272
  20
0.18009
  30
0
  11
19.284
  21
0.181812
  31
0
  0
LINE
  5
433
  100
AcDbEntity
  8
1
  100
AcDbLine
  10
19.284
  20
0.181812
  30
0
  11
19.296
  21
0.183534
  31
0
  0
LINE
  5
434
  100
AcDbEntity
  8
1
  100
AcDbLine
  10
19.296
  20
0.183534
  30
0
  11
19.308
  21
0.185257
  31
0
  0
LINE
  5
435
  100
AcDbEntity
  8
1
  100
AcDbLine
  10
19.308
  20
0.185257
  30
0
  11
19.32
  21
0.186981
  31
0
  0
LINE
  5
436
  100
AcDbEntity
  8
1
  100
AcDbLine
  10
19.32
  20
0.186981
  30
0
  11
19.332
  21
0.188705
  31
0
  0
LINE
  5
437
  100
AcDbEntity
  8
1
  100
AcDbLine
  10
19.332
  20
0.188705
  30
0
  11
19.344
  21
0.190431
  31
0
  0
LINE
  5
438
  100
AcDbEntity
  8
1
  100
AcDbLine
  10
19.344
  20
0.190431
  30
0
  11
19.356
  21
0.192157
  31
0
  0
LINE
  5
439
  100
AcDbEntity
  8
1
  100
AcDbLine
  10
19.356
  20
0.192157
  30
0
  11
19.368
  21
0.193884
  31
0
  0
LINE
  5
43a
  100
AcDbEntity
  8
1
  100
AcDbLine
  10
19.368
  20
0.193884
  30
0
  11
19.38
  21
0.195612
  31
0
  0
LINE
  5
43b
  100
AcDbEntity
  8
1
  100
AcDbLine
  10
19.38
  20
0.195612
  30
0
  11
19.392
  21
0.197341
  31
0
  0
LINE
  5
43c
  100
AcDbEntity
  8
1
  100
AcDbLine
  10
19.392
  20
0.197341
  30
0
  11
19.404
  21
0.199071
  31
0
  0
LINE
  5
43d
  100
AcDbEntity
  8
1
  100
AcDbLine
  10
19.404
  20
0.199071
  30
0
  11
19.416
  21
0.200802
  31
0
  0
LINE
  5
43e
  100
AcDbEntity
  8
1
  100
AcDbLine
  10
19.416
  20
0.200802
  30
0
  11
19.428
  21
0.202534
  31
0
  0
LINE
  5
43f
  100
AcDbEntity
  8
1
  100
AcDbLine
  10
19.428
  20
0.202534
  30
0
  11
19.44
  21
0.204266
  31
0
  0
LINE
  5
440
  100
AcDbEntity
  8
1
  100
AcDbLine
  10
19.44
  20
0.204266
  30
0
  11
19.452
  21
0.206
  31
0
  0
LINE
  5
441
  100
AcDbEntity
  8
1
  100
AcDbLine
  10
19.452
  20
0.206
  30
0
  11
19.464
  21
0.207546
  31
0
  0
LINE
  5
442
  100
AcDbEntity
  8
1
  100
AcDbLine
  10
19.464
  20
0.207546
  30
0
  11
19.476
  21
0.208979
  31
0
  0
LINE
  5
443
  100
AcDbEntity
  8
1
  100
AcDbLine
  10
19.476
  20
0.208979
  30
0
  11
19.488
  21
0.21006
  31
0
  0
LINE
  5
444
  100
AcDbEntity
  8
1
  100
AcDbLine
  10
19.488
  20
0.21006
  30
0
  11
19.5
  21
0.210922
  31
0
  0
LINE
  5
445
  100
AcDbEntity
  8
1
  100
AcDbLine
  10
19.5
  20
0.210922
  30
0
  11
19.512
  21
0.211575
  31
0
  0
LINE
  5
446
  100
AcDbEntity
  8
1
  100
AcDbLine
  10
19.512
  20
0.211575
  30
0
  11
19.524
  21
0.211882
  31
0
  0
LINE
  5
447
  100
AcDbEntity
  8
1
  100
AcDbLine
  10
19.524
  20
0.211882
  30
0
  11
19.536
  21
0.212063
  31
0
  0
LINE
  5
448
  100
AcDbEntity
  8
1
  100
AcDbLine
  10
19.536
  20
0.212063
  30
0
  11
19.548
  21
0.211875
  31
0
  0
LINE
  5
449
  100
AcDbEntity
  8
1
  100
AcDbLine
  10
19.548
  20
0.211875
  30
0
  11
19.56
  21
0.211517
  31
0
  0
LINE
  5
44a
  100
AcDbEntity
  8
1
  100
AcDbLine
  10
19.56
  20
0.211517
  30
0
  11
19.572
  21
0.210914
  31
0
  0
LINE
  5
44b
  100
AcDbEntity
  8
1
  100
AcDbLine
  10
19.572
  20
0.210914
  30
0
  11
19.584
  21
0.210026
  31
0
  0
LINE
  5
44c
  100
AcDbEntity
  8
1
  100
AcDbLine
  10
19.584
  20
0.210026
  30
0
  11
19.596
  21
0.20901
  31
0
  0
LINE
  5
44d
  100
AcDbEntity
  8
1
  100
AcDbLine
  10
19.596
  20
0.20901
  30
0
  11
19.608
  21
0.207596
  31
0
  0
LINE
  5
44e
  100
AcDbEntity
  8
1
  100
AcDbLine
  10
19.608
  20
0.207596
  30
0
  11
19.62
  21
0.20607
  31
0
  0
LINE
  5
44f
  100
AcDbEntity
  8
1
  100
AcDbLine
  10
19.62
  20
0.20607
  30
0
  11
19.632
  21
0.204234
  31
0
  0
LINE
  5
450
  100
AcDbEntity
  8
1
  100
AcDbLine
  10
19.632
  20
0.204234
  30
0
  11
19.644
  21
0.202186
  31
0
  0
LINE
  5
451
  100
AcDbEntity
  8
1
  100
AcDbLine
  10
19.644
  20
0.202186
  30
0
  11
19.656
  21
0.19994
  31
0
  0
LINE
  5
452
  100
AcDbEntity
  8
1
  100
AcDbLine
  10
19.656
  20
0.19994
  30
0
  11
19.668
  21
0.197368
  31
0
  0
LINE
  5
453
  100
AcDbEntity
  8
1
  100
AcDbLine
  10
19.668
  20
0.197368
  30
0
  11
19.68
  21
0.19468
  31
0
  0
LINE
  5
454
  100
AcDbEntity
  8
1
  100
AcDbLine
  10
19.68
  20
0.19468
  30
0
  11
19.692
  21
0.191611
  31
0
  0
LINE
  5
455
  100
AcDbEntity
  8
1
  100
AcDbLine
  10
19.692
  20
0.191611
  30
0
  11
19.704
  21
0.18839
  31
0
  0
LINE
  5
456
  100
AcDbEntity
  8
1
  100
AcDbLine
  10
19.704
  20
0.18839
  30
0
  11
19.716
  21
0.184904
  31
0
  0
LINE
  5
457
  100
AcDbEntity
  8
1
  100
AcDbLine
  10
19.716
  20
0.184904
  30
0
  11
19.728
  21
0.18114
  31
0
  0
LINE
  5
458
  100
AcDbEntity
  8
1
  100
AcDbLine
  10
19.728
  20
0.18114
  30
0
  11
19.74
  21
0.17723
  31
0
  0
LINE
  5
459
  100
AcDbEntity
  8
1
  100
AcDbLine
  10
19.74
  20
0.17723
  30
0
  11
19.752
  21
0.172909
  31
0
  0
LINE
  5
45a
  100
AcDbEntity
  8
1
  100
AcDbLine
  10
19.752
  20
0.172909
  30
0
  11
19.764
  21
0.168448
  31
0
  0
LINE
  5
45b
  100
AcDbEntity
  8
1
  100
AcDbLine
  10
19.764
  20
0.168448
  30
0
  11
19.776
  21
0.163669
  31
0
  0
LINE
  5
45c
  100
AcDbEntity
  8
1
  100
AcDbLine
  10
19.776
  20
0.163669
  30
0
  11
19.788
  21
0.158616
  31
0
  0
LINE
  5
45d
  100
AcDbEntity
  8
1
  100
AcDbLine
  10
19.788
  20
0.158616
  30
0
  11
19.8
  21
0.153385
  31
0
  0
LINE
  5
45e
  100
AcDbEntity
  8
1
  100
AcDbLine
  10
19.8
  20
0.153385
  30
0
  11
19.812
  21
0.14771
  31
0
  0
LINE
  5
45f
  100
AcDbEntity
  8
1
  100
AcDbLine
  10
19.812
  20
0.14771
  30
0
  11
19.824
  21
0.141853
  31
0
  0
LINE
  5
460
  100
AcDbEntity
  8
1
  100
AcDbLine
  10
19.824
  20
0.141853
  30
0
  11
19.836
  21
0.135675
  31
0
  0
LINE
  5
461
  100
AcDbEntity
  8
1
  100
AcDbLine
  10
19.836
  20
0.135675
  30
0
  11
19.848
  21
0.129131
  31
0
  0
LINE
  5
462
  100
AcDbEntity
  8
1
  100
AcDbLine
  10
19.848
  20
0.129131
  30
0
  11
19.86
  21
0.122363
  31
0
  0
LINE
  5
463
  100
AcDbEntity
  8
1
  100
AcDbLine
  10
19.86
  20
0.122363
  30
0
  11
19.872
  21
0.115155
  31
0
  0
LINE
  5
464
  100
AcDbEntity
  8
1
  100
AcDbLine
  10
19.872
  20
0.115155
  30
0
  11
19.884
  21
0.107602
  31
0
  0
LINE
  5
465
  100
AcDbEntity
  8
1
  100
AcDbLine
  10
19.884
  20
0.107602
  30
0
  11
19.896
  21
0.099762
  31
0
  0
LINE
  5
466
  100
AcDbEntity
  8
1
  100
AcDbLine
  10
19.896
  20
0.099762
  30
0
  11
19.908
  21
0.091398
  31
0
  0
LINE
  5
467
  100
AcDbEntity
  8
1
  100
AcDbLine
  10
19.908
  20
0.091398
  30
0
  11
19.92
  21
0.082625
  31
0
  0
LINE
  5
468
  100
AcDbEntity
  8
1
  100
AcDbLine
  10
19.92
  20
0.082625
  30
0
  11
19.932
  21
0.073465
  31
0
  0
LINE
  5
469
  100
AcDbEntity
  8
1
  100
AcDbLine
  10
19.932
  20
0.073465
  30
0
  11
19.944
  21
0.063758
  31
0
  0
LINE
  5
46a
  100
AcDbEntity
  8
1
  100
AcDbLine
  10
19.944
  20
0.063758
  30
0
  11
19.956
  21
0.053432
  31
0
  0
LINE
  5
46b
  100
AcDbEntity
  8
1
  100
AcDbLine
  10
19.956
  20
0.053432
  30
0
  11
19.968
  21
0.04255
  31
0
  0
LINE
  5
46c
  100
AcDbEntity
  8
1
  100
AcDbLine
  10
19.968
  20
0.04255
  30
0
  11
19.98
  21
0.031032
  31
0
  0
LINE
  5
46d
  100
AcDbEntity
  8
1
  100
AcDbLine
  10
19.98
  20
0.031032
  30
0
  11
19.992
  21
0.018763
  31
0
  0
LINE
  5
46e
  100
AcDbEntity
  8
1
  100
AcDbLine
  10
19.992
  20
0.018763
  30
0
  11
20.004
  21
0.005467
  31
0
  0
LINE
  5
46f
  100
AcDbEntity
  8
1
  100
AcDbLine
  10
20.004
  20
0.005467
  30
0
  11
20.016
  21
-0.008857
  31
0
  0
LINE
  5
470
  100
AcDbEntity
  8
1
  100
AcDbLine
  10
20.1
  20
0.066116
  30
0
  11
20.088
  21
0.154814
  31
0
  0
LINE
  5
471
  100
AcDbEntity
  8
1
  100
AcDbLine
  10
20.088
  20
0.154814
  30
0
  11
20.076
  21
0.189823
  31
0
  0
LINE
  5
472
  100
AcDbEntity
  8
1
  100
AcDbLine
  10
20.076
  20
0.189823
  30
0
  11
20.064
  21
0.215979
  31
0
  0
LINE
  5
473
  100
AcDbEntity
  8
1
  100
AcDbLine
  10
20.064
  20
0.215979
  30
0
  11
20.052
  21
0.237397
  31
0
  0
LINE
  5
474
  100
AcDbEntity
  8
1
  100
AcDbLine
  10
20.052
  20
0.237397
  30
0
  11
20.04
  21
0.255834
  31
0
  0
LINE
  5
475
  100
AcDbEntity
  8
1
  100
AcDbLine
  10
20.04
  20
0.255834
  30
0
  11
20.028
  21
0.272223
  31
0
  0
LINE
  5
476
  100
AcDbEntity
  8
1
  100
AcDbLine
  10
20.028
  20
0.272223
  30
0
  11
20.016
  21
0.287042
  31
0
  0
LINE
  5
477
  100
AcDbEntity
  8
1
  100
AcDbLine
  10
20.016
  20
0.287042
  30
0
  11
20.004
  21
0.300619
  31
0
  0
LINE
  5
478
  100
AcDbEntity
  8
1
  100
AcDbLine
  10
20.004
  20
0.300619
  30
0
  11
19.992
  21
0.313184
  31
0
  0
LINE
  5
479
  100
AcDbEntity
  8
1
  100
AcDbLine
  10
19.992
  20
0.313184
  30
0
  11
19.98
  21
0.324752
  31
0
  0
LINE
  5
47a
  100
AcDbEntity
  8
1
  100
AcDbLine
  10
19.98
  20
0.324752
  30
0
  11
19.968
  21
0.335594
  31
0
  0
LINE
  5
47b
  100
AcDbEntity
  8
1
  100
AcDbLine
  10
19.968
  20
0.335594
  30
0
  11
19.956
  21
0.34582
  31
0
  0
LINE
  5
47c
  100
AcDbEntity
  8
1
  100
AcDbLine
  10
19.956
  20
0.34582
  30
0
  11
19.944
  21
0.355516
  31
0
  0
LINE
  5
47d
  100
AcDbEntity
  8
1
  100
AcDbLine
  10
19.944
  20
0.355516
  30
0
  11
19.932
  21
0.364624
  31
0
  0
LINE
  5
47e
  100
AcDbEntity
  8
1
  100
AcDbLine
  10
19.932
  20
0.364624
  30
0
  11
19.92
  21
0.373216
  31
0
  0
LINE
  5
47f
  100
AcDbEntity
  8
1
  100
AcDbLine
  10
19.92
  20
0.373216
  30
0
  11
19.908
  21
0.381444
  31
0
  0
LINE
  5
480
  100
AcDbEntity
  8
1
  100
AcDbLine
  10
19.908
  20
0.381444
  30
0
  11
19.896
  21
0.389288
  31
0
  0
LINE
  5
481
  100
AcDbEntity
  8
1
  100
AcDbLine
  10
19.896
  20
0.389288
  30
0
  11
19.884
  21
0.396645
  31
0
  0
LINE
  5
482
  100
AcDbEntity
  8
1
  100
AcDbLine
  10
19.884
  20
0.396645
  30
0
  11
19.872
  21
0.403735
  31
0
  0
LINE
  5
483
  100
AcDbEntity
  8
1
  100
AcDbLine
  10
19.872
  20
0.403735
  30
0
  11
19.86
  21
0.410507
  31
0
  0
LINE
  5
484
  100
AcDbEntity
  8
1
  100
AcDbLine
  10
19.86
  20
0.410507
  30
0
  11
19.848
  21
0.416872
  31
0
  0
LINE
  5
485
  100
AcDbEntity
  8
1
  100
AcDbLine
  10
19.848
  20
0.416872
  30
0
  11
19.836
  21
0.423032
  31
0
  0
LINE
  5
486
  100
AcDbEntity
  8
1
  100
AcDbLine
  10
19.836
  20
0.423032
  30
0
  11
19.824
  21
0.428855
  31
0
  0
LINE
  5
487
  100
AcDbEntity
  8
1
  100
AcDbLine
  10
19.824
  20
0.428855
  30
0
  11
19.812
  21
0.434383
  31
0
  0
LINE
  5
488
  100
AcDbEntity
  8
1
  100
AcDbLine
  10
19.812
  20
0.434383
  30
0
  11
19.8
  21
0.439745
  31
0
  0
LINE
  5
489
  100
AcDbEntity
  8
1
  100
AcDbLine
  10
19.8
  20
0.439745
  30
0
  11
19.788
  21
0.4447
  31
0
  0
LINE
  5
48a
  100
AcDbEntity
  8
1
  100
AcDbLine
  10
19.788
  20
0.4447
  30
0
  11
19.776
  21
0.449492
  31
0
  0
LINE
  5
48b
  100
AcDbEntity
  8
1
  100
AcDbLine
  10
19.776
  20
0.449492
  30
0
  11
19.764
  21
0.454034
  31
0
  0
LINE
  5
48c
  100
AcDbEntity
  8
1
  100
AcDbLine
  10
19.764
  20
0.454034
  30
0
  11
19.752
  21
0.458284
  31
0
  0
LINE
  5
48d
  100
AcDbEntity
  8
1
  100
AcDbLine
  10
19.752
  20
0.458284
  30
0
  11
19.74
  21
0.462408
  31
0
  0
LINE
  5
48e
  100
AcDbEntity
  8
1
  100
AcDbLine
  10
19.74
  20
0.462408
  30
0
  11
19.728
  21
0.466153
  31
0
  0
LINE
  5
48f
  100
AcDbEntity
  8
1
  100
AcDbLine
  10
19.728
  20
0.466153
  30
0
  11
19.716
  21
0.469765
  31
0
  0
LINE
  5
490
  100
AcDbEntity
  8
1
  100
AcDbLine
  10
19.716
  20
0.469765
  30
0
  11
19.704
  21
0.473122
  31
0
  0
LINE
  5
491
  100
AcDbEntity
  8
1
  100
AcDbLine
  10
19.704
  20
0.473122
  30
0
  11
19.692
  21
0.476234
  31
0
  0
LINE
  5
492
  100
AcDbEntity
  8
1
  100
AcDbLine
  10
19.692
  20
0.476234
  30
0
  11
19.68
  21
0.479209
  31
0
  0
LINE
  5
493
  100
AcDbEntity
  8
1
  100
AcDbLine
  10
19.68
  20
0.479209
  30
0
  11
19.668
  21
0.48183
  31
0
  0
LINE
  5
494
  100
AcDbEntity
  8
1
  100
AcDbLine
  10
19.668
  20
0.48183
  30
0
  11
19.656
  21
0.484345
  31
0
  0
LINE
  5
495
  100
AcDbEntity
  8
1
  100
AcDbLine
  10
19.656
  20
0.484345
  30
0
  11
19.644
  21
0.486558
  31
0
  0
LINE
  5
496
  100
AcDbEntity
  8
1
  100
AcDbLine
  10
19.644
  20
0.486558
  30
0
  11
19.632
  21
0.488588
  31
0
  0
LINE
  5
497
  100
AcDbEntity
  8
1
  100
AcDbLine
  10
19.632
  20
0.488588
  30
0
  11
19.62
  21
0.490421
  31
0
  0
LINE
  5
498
  100
AcDbEntity
  8
1
  100
AcDbLine
  10
19.62
  20
0.490421
  30
0
  11
19.608
  21
0.491966
  31
0
  0
LINE
  5
499
  100
AcDbEntity
  8
1
  100
AcDbLine
  10
19.608
  20
0.491966
  30
0
  11
19.596
  21
0.493405
  31
0
  0
LINE
  5
49a
  100
AcDbEntity
  8
1
  100
AcDbLine
  10
19.596
  20
0.493405
  30
0
  11
19.584
  21
0.494473
  31
0
  0
LINE
  5
49b
  100
AcDbEntity
  8
1
  100
AcDbLine
  10
19.584
  20
0.494473
  30
0
  11
19.572
  21
0.495421
  31
0
  0
LINE
  5
49c
  100
AcDbEntity
  8
1
  100
AcDbLine
  10
19.572
  20
0.495421
  30
0
  11
19.56
  21
0.496103
  31
0
  0
LINE
  5
49d
  100
AcDbEntity
  8
1
  100
AcDbLine
  10
19.56
  20
0.496103
  30
0
  11
19.548
  21
0.496553
  31
0
  0
LINE
  5
49e
  100
AcDbEntity
  8
1
  100
AcDbLine
  10
19.548
  20
0.496553
  30
0
  11
19.536
  21
0.496844
  31
0
  0
LINE
  5
49f
  100
AcDbEntity
  8
1
  100
AcDbLine
  10
19.536
  20
0.496844
  30
0
  11
19.524
  21
0.496786
  31
0
  0
LINE
  5
4a0
  100
AcDbEntity
  8
1
  100
AcDbLine
  10
19.524
  20
0.496786
  30
0
  11
19.512
  21
0.496609
  31
0
  0
LINE
  5
4a1
  100
AcDbEntity
  8
1
  100
AcDbLine
  10
19.512
  20
0.496609
  30
0
  11
19.5
  21
0.496104
  31
0
  0
LINE
  5
4a2
  100
AcDbEntity
  8
1
  100
AcDbLine
  10
19.5
  20
0.496104
  30
0
  11
19.488
  21
0.495399
  31
0
  0
LINE
  5
4a3
  100
AcDbEntity
  8
1
  100
AcDbLine
  10
19.488
  20
0.495399
  30
0
  11
19.476
  21
0.494487
  31
0
  0
LINE
  5
4a4
  100
AcDbEntity
  8
1
  100
AcDbLine
  10
19.476
  20
0.494487
  30
0
  11
19.464
  21
0.49324
  31
0
  0
LINE
  5
4a5
  100
AcDbEntity
  8
1
  100
AcDbLine
  10
19.464
  20
0.49324
  30
0
  11
19.452
  21
0.491882
  31
0
  0
LINE
  5
4a6
  100
AcDbEntity
  8
1
  100
AcDbLine
  10
19.452
  20
0.491882
  30
0
  11
19.44
  21
0.490344
  31
0
  0
LINE
  5
4a7
  100
AcDbEntity
  8
1
  100
AcDbLine
  10
19.44
  20
0.490344
  30
0
  11
19.428
  21
0.488802
  31
0
  0
LINE
  5
4a8
  100
AcDbEntity
  8
1
  100
AcDbLine
  10
19.428
  20
0.488802
  30
0
  11
19.416
  21
0.487257
  31
0
  0
LINE
  5
4a9
  100
AcDbEntity
  8
1
  100
AcDbLine
  10
19.416
  20
0.487257
  30
0
  11
19.404
  21
0.485708
  31
0
  0
LINE
  5
4aa
  100
AcDbEntity
  8
1
  100
AcDbLine
  10
19.404
  20
0.485708
  30
0
  11
19.392
  21
0.484157
  31
0
  0
LINE
  5
4ab
  100
AcDbEntity
  8
1
  100
AcDbLine
  10
19.392
  20
0.484157
  30
0
  11
19.38
  21
0.482603
  31
0
  0
LINE
  5
4ac
  100
AcDbEntity
  8
1
  100
AcDbLine
  10
19.38
  20
0.482603
  30
0
  11
19.368
  21
0.481045
  31
0
  0
LINE
  5
4ad
  100
AcDbEntity
  8
1
  100
AcDbLine
  10
19.368
  20
0.481045
  30
0
  11
19.356
  21
0.479485
  31
0
  0
LINE
  5
4ae
  100
AcDbEntity
  8
1
  100
AcDbLine
  10
19.356
  20
0.479485
  30
0
  11
19.344
  21
0.477923
  31
0
  0
LINE
  5
4af
  100
AcDbEntity
  8
1
  100
AcDbLine
  10
19.344
  20
0.477923
  30
0
  11
19.332
  21
0.476357
  31
0
  0
LINE
  5
4b0
  100
AcDbEntity
  8
1
  100
AcDbLine
  10
19.332
  20
0.476357
  30
0
  11
19.32
  21
0.47479
  31
0
  0
LINE
  5
4b1
  100
AcDbEntity
  8
1
  100
AcDbLine
  10
19.32
  20
0.47479
  30
0
  11
19.308
  21
0.473219
  31
0
  0
LINE
  5
4b2
  100
AcDbEntity
  8
1
  100
AcDbLine
  10
19.308
  20
0.473219
  30
0
  11
19.296
  21
0.471647
  31
0
  0
LINE
  5
4b3
  100
AcDbEntity
  8
1
  100
AcDbLine
  10
19.296
  20
0.471647
  30
0
  11
19.284
  21
0.470072
  31
0
  0
LINE
  5
4b4
  100
AcDbEntity
  8
1
  100
AcDbLine
  10
19.284
  20
0.470072
  30
0
  11
19.272
  21
0.468495
  31
0
  0
LINE
  5
4b5
  100
AcDbEntity
  8
1
  100
AcDbLine
  10
19.272
  20
0.468495
  30
0
  11
19.26
  21
0.466915
  31
0
  0
LINE
  5
4b6
  100
AcDbEntity
  8
1
  100
AcDbLine
  10
19.26
  20
0.466915
  30
0
  11
19.248
  21
0.465334
  31
0
  0
LINE
  5
4b7
  100
AcDbEntity
  8
1
  100
AcDbLine
  10
19.248
  20
0.465334
  30
0
  11
19.236
  21
0.46375
  31
0
  0
LINE
  5
4b8
  100
AcDbEntity
  8
1
  100
AcDbLine
  10
19.236
  20
0.46375
  30
0
  11
19.224
  21
0.462165
  31
0
  0
LINE
  5
4b9
  100
AcDbEntity
  8
1
  100
AcDbLine
  10
19.224
  20
0.462165
  30
0
  11
19.212
  21
0.460578
  31
0
  0
LINE
  5
4ba
  100
AcDbEntity
  8
1
  100
AcDbLine
  10
19.212
  20
0.460578
  30
0
  11
19.2
  21
0.458988
  31
0
  0
LINE
  5
4bb
  100
AcDbEntity
  8
1
  100
AcDbLine
  10
19.2
  20
0.458988
  30
0
  11
19.188
  21
0.457397
  31
0
  0
LINE
  5
4bc
  100
AcDbEntity
  8
1
  100
AcDbLine
  10
19.188
  20
0.457397
  30
0
  11
19.176
  21
0.455805
  31
0
  0
LINE
  5
4bd
  100
AcDbEntity
  8
1
  100
AcDbLine
  10
19.176
  20
0.455805
  30
0
  11
19.164
  21
0.45421
  31
0
  0
LINE
  5
4be
  100
AcDbEntity
  8
1
  100
AcDbLine
  10
19.164
  20
0.45421
  30
0
  11
19.152
  21
0.452614
  31
0
  0
LINE
  5
4bf
  100
AcDbEntity
  8
1
  100
AcDbLine
  10
19.152
  20
0.452614
  30
0
  11
19.14
  21
0.451016
  31
0
  0
LINE
  5
4c0
  100
AcDbEntity
  8
1
  100
AcDbLine
  10
19.14
  20
0.451016
  30
0
  11
19.128
  21
0.449417
  31
0
  0
LINE
  5
4c1
  100
AcDbEntity
  8
1
  100
AcDbLine
  10
19.128
  20
0.449417
  30
0
  11
19.116
  21
0.447816
  31
0
  0
LINE
  5
4c2
  100
AcDbEntity
  8
1
  100
AcDbLine
  10
19.116
  20
0.447816
  30
0
  11
19.104
  21
0.446213
  31
0
  0
LINE
  5
4c3
  100
AcDbEntity
  8
1
  100
AcDbLine
  10
19.104
  20
0.446213
  30
0
  11
19.092
  21
0.444609
  31
0
  0
LINE
  5
4c4
  100
AcDbEntity
  8
1
  100
AcDbLine
  10
19.092
  20
0.444609
  30
0
  11
19.08
  21
0.443004
  31
0
  0
LINE
  5
4c5
  100
AcDbEntity
  8
1
  100
AcDbLine
  10
19.08
  20
0.443004
  30
0
  11
19.068
  21
0.441397
  31
0
  0
LINE
  5
4c6
  100
AcDbEntity
  8
1
  100
AcDbLine
  10
19.068
  20
0.441397
  30
0
  11
19.056
  21
0.439789
  31
0
  0
LINE
  5
4c7
  100
AcDbEntity
  8
1
  100
AcDbLine
  10
19.056
  20
0.439789
  30
0
  11
19.044
  21
0.43818
  31
0
  0
LINE
  5
4c8
  100
AcDbEntity
  8
1
  100
AcDbLine
  10
19.044
  20
0.43818
  30
0
  11
19.032
  21
0.436569
  31
0
  0
LINE
  5
4c9
  100
AcDbEntity
  8
1
  100
AcDbLine
  10
19.032
  20
0.436569
  30
0
  11
19.02
  21
0.434957
  31
0
  0
LINE
  5
4ca
  100
AcDbEntity
  8
1
  100
AcDbLine
  10
19.02
  20
0.434957
  30
0
  11
19.008
  21
0.433344
  31
0
  0
LINE
  5
4cb
  100
AcDbEntity
  8
1
  100
AcDbLine
  10
19.008
  20
0.433344
  30
0
  11
18.996
  21
0.43173
  31
0
  0
LINE
  5
4cc
  100
AcDbEntity
  8
1
  100
AcDbLine
  10
18.996
  20
0.43173
  30
0
  11
18.984
  21
0.430115
  31
0
  0
LINE
  5
4cd
  100
AcDbEntity
  8
1
  100
AcDbLine
  10
18.984
  20
0.430115
  30
0
  11
18.972
  21
0.428498
  31
0
  0
LINE
  5
4ce
  100
AcDbEntity
  8
1
  100
AcDbLine
  10
18.972
  20
0.428498
  30
0
  11
18.96
  21
0.426881
  31
0
  0
LINE
  5
4cf
  100
AcDbEntity
  8
1
  100
AcDbLine
  10
18.96
  20
0.426881
  30
0
  11
18.948
  21
0.425262
  31
0
  0
LINE
  5
4d0
  100
AcDbEntity
  8
1
  100
AcDbLine
  10
18.948
  20
0.425262
  30
0
  11
18.936
  21
0.423642
  31
0
  0
LINE
  5
4d1
  100
AcDbEntity
  8
1
  100
AcDbLine
  10
18.936
  20
0.423642
  30
0
  11
18.924
  21
0.422022
  31
0
  0
LINE
  5
4d2
  100
AcDbEntity
  8
1
  100
AcDbLine
  10
18.924
  20
0.422022
  30
0
  11
18.912
  21
0.4204
  31
0
  0
LINE
  5
4d3
  100
AcDbEntity
  8
1
  100
AcDbLine
  10
18.912
  20
0.4204
  30
0
  11
18.9
  21
0.418777
  31
0
  0
LINE
  5
4d4
  100
AcDbEntity
  8
1
  100
AcDbLine
  10
18.9
  20
0.418777
  30
0
  11
18.888
  21
0.417154
  31
0
  0
LINE
  5
4d5
  100
AcDbEntity
  8
1
  100
AcDbLine
  10
18.888
  20
0.417154
  30
0
  11
18.876
  21
0.415529
  31
0
  0
LINE
  5
4d6
  100
AcDbEntity
  8
1
  100
AcDbLine
  10
18.876
  20
0.415529
  30
0
  11
18.864
  21
0.413904
  31
0
  0
LINE
  5
4d7
  100
AcDbEntity
  8
1
  100
AcDbLine
  10
18.864
  20
0.413904
  30
0
  11
18.852
  21
0.412278
  31
0
  0
LINE
  5
4d8
  100
AcDbEntity
  8
1
  100
AcDbLine
  10
18.852
  20
0.412278
  30
0
  11
18.84
  21
0.410651
  31
0
  0
LINE
  5
4d9
  100
AcDbEntity
  8
1
  100
AcDbLine
  10
18.84
  20
0.410651
  30
0
  11
18.828
  21
0.409023
  31
0
  0
LINE
  5
4da
  100
AcDbEntity
  8
1
  100
AcDbLine
  10
18.828
  20
0.409023
  30
0
  11
18.816
  21
0.407394
  31
0
  0
LINE
  5
4db
  100
AcDbEntity
  8
1
  100
AcDbLine
  10
18.816
  20
0.407394
  30
0
  11
18.804
  21
0.405764
  31
0
  0
LINE
  5
4dc
  100
AcDbEntity
  8
1
  100
AcDbLine
  10
18.804
  20
0.405764
  30
0
  11
18.792
  21
0.404134
  31
0
  0
LINE
  5
4dd
  100
AcDbEntity
  8
1
  100
AcDbLine
  10
18.792
  20
0.404134
  30
0
  11
18.78
  21
0.402503
  31
0
  0
LINE
  5
4de
  100
AcDbEntity
  8
1
  100
AcDbLine
  10
18.78
  20
0.402503
  30
0
  11
18.768
  21
0.400871
  31
0
  0
LINE
  5
4df
  100
AcDbEntity
  8
1
  100
AcDbLine
  10
18.768
  20
0.400871
  30
0
  11
18.756
  21
0.399239
  31
0
  0
LINE
  5
4e0
  100
AcDbEntity
  8
1
  100
AcDbLine
  10
18.756
  20
0.399239
  30
0
  11
18.744
  21
0.397606
  31
0
  0
LINE
  5
4e1
  100
AcDbEntity
  8
1
  100
AcDbLine
  10
18.744
  20
0.397606
  30
0
  11
18.732
  21
0.395972
  31
0
  0
LINE
  5
4e2
  100
AcDbEntity
  8
1
  100
AcDbLine
  10
18.732
  20
0.395972
  30
0
  11
18.72
  21
0.394337
  31
0
  0
LINE
  5
4e3
  100
AcDbEntity
  8
1
  100
AcDbLine
  10
18.72
  20
0.394337
  30
0
  11
18.708
  21
0.392702
  31
0
  0
LINE
  5
4e4
  100
AcDbEntity
  8
1
  100
AcDbLine
  10
18.708
  20
0.392702
  30
0
  11
18.696
  21
0.391066
  31
0
  0
LINE
  5
4e5
  100
AcDbEntity
  8
1
  100
AcDbLine
  10
18.696
  20
0.391066
  30
0
  11
18.684
  21
0.38943
  31
0
  0
LINE
  5
4e6
  100
AcDbEntity
  8
1
  100
AcDbLine
  10
18.684
  20
0.38943
  30
0
  11
18.672
  21
0.387793
  31
0
  0
LINE
  5
4e7
  100
AcDbEntity
  8
1
  100
AcDbLine
  10
18.672
  20
0.387793
  30
0
  11
18.66
  21
0.386155
  31
0
  0
LINE
  5
4e8
  100
AcDbEntity
  8
1
  100
AcDbLine
  10
18.66
  20
0.386155
  30
0
  11
18.648
  21
0.384517
  31
0
  0
LINE
  5
4e9
  100
AcDbEntity
  8
1
  100
AcDbLine
  10
18.648
  20
0.384517
  30
0
  11
18.636
  21
0.382878
  31
0
  0
LINE
  5
4ea
  100
AcDbEntity
  8
1
  100
AcDbLine
  10
18.636
  20
0.382878
  30
0
  11
18.624
  21
0.381238
  31
0
  0
LINE
  5
4eb
  100
AcDbEntity
  8
1
  100
AcDbLine
  10
18.624
  20
0.381238
  30
0
  11
18.612
  21
0.379598
  31
0
  0
LINE
  5
4ec
  100
AcDbEntity
  8
1
  100
AcDbLine
  10
18.612
  20
0.379598
  30
0
  11
18.6
  21
0.377958
  31
0
  0
LINE
  5
4ed
  100
AcDbEntity
  8
1
  100
AcDbLine
  10
18.6
  20
0.377958
  30
0
  11
18.588
  21
0.376317
  31
0
  0
LINE
  5
4ee
  100
AcDbEntity
  8
1
  100
AcDbLine
  10
18.588
  20
0.376317
  30
0
  11
18.576
  21
0.374675
  31
0
  0
LINE
  5
4ef
  100
AcDbEntity
  8
1
  100
AcDbLine
  10
18.576
  20
0.374675
  30
0
  11
18.564
  21
0.373033
  31
0
  0
LINE
  5
4f0
  100
AcDbEntity
  8
1
  100
AcDbLine
  10
18.564
  20
0.373033
  30
0
  11
18.552
  21
0.371391
  31
0
  0
LINE
  5
4f1
  100
AcDbEntity
  8
1
  100
AcDbLine
  10
18.552
  20
0.371391
  30
0
  11
18.54
  21
0.369748
  31
0
  0
LINE
  5
4f2
  100
AcDbEntity
  8
1
  100
AcDbLine
  10
18.54
  20
0.369748
  30
0
  11
18.528
  21
0.368104
  31
0
  0
LINE
  5
4f3
  100
AcDbEntity
  8
1
  100
AcDbLine
  10
18.528
  20
0.368104
  30
0
  11
18.516
  21
0.36646
  31
0
  0
LINE
  5
4f4
  100
AcDbEntity
  8
1
  100
AcDbLine
  10
18.516
  20
0.36646
  30
0
  11
18.504
  21
0.364816
  31
0
  0
LINE
  5
4f5
  100
AcDbEntity
  8
1
  100
AcDbLine
  10
18.504
  20
0.364816
  30
0
  11
18.492
  21
0.363171
  31
0
  0
LINE
  5
4f6
  100
AcDbEntity
  8
1
  100
AcDbLine
  10
18.492
  20
0.363171
  30
0
  11
18.48
  21
0.361526
  31
0
  0
LINE
  5
4f7
  100
AcDbEntity
  8
1
  100
AcDbLine
  10
18.48
  20
0.361526
  30
0
  11
18.468
  21
0.35988
  31
0
  0
LINE
  5
4f8
  100
AcDbEntity
  8
1
  100
AcDbLine
  10
18.468
  20
0.35988
  30
0
  11
18.456
  21
0.358234
  31
0
  0
LINE
  5
4f9
  100
AcDbEntity
  8
1
  100
AcDbLine
  10
18.456
  20
0.358234
  30
0
  11
18.444
  21
0.356588
  31
0
  0
LINE
  5
4fa
  100
AcDbEntity
  8
1
  100
AcDbLine
  10
18.444
  20
0.356588
  30
0
  11
18.432
  21
0.354941
  31
0
  0
LINE
  5
4fb
  100
AcDbEntity
  8
1
  100
AcDbLine
  10
18.432
  20
0.354941
  30
0
  11
18.42
  21
0.353293
  31
0
  0
LINE
  5
4fc
  100
AcDbEntity
  8
1
  100
AcDbLine
  10
18.42
  20
0.353293
  30
0
  11
18.408
  21
0.351646
  31
0
  0
LINE
  5
4fd
  100
AcDbEntity
  8
1
  100
AcDbLine
  10
18.408
  20
0.351646
  30
0
  11
18.396
  21
0.349998
  31
0
  0
LINE
  5
4fe
  100
AcDbEntity
  8
1
  100
AcDbLine
  10
18.396
  20
0.349998
  30
0
  11
18.384
  21
0.348349
  31
0
  0
LINE
  5
4ff
  100
AcDbEntity
  8
1
  100
AcDbLine
  10
18.384
  20
0.348349
  30
0
  11
18.372
  21
0.3467
  31
0
  0
LINE
  5
500
  100
AcDbEntity
  8
1
  100
AcDbLine
  10
18.372
  20
0.3467
  30
0
  11
18.36
  21
0.345051
  31
0
  0
LINE
  5
501
  100
AcDbEntity
  8
1
  100
AcDbLine
  10
18.36
  20
0.345051
  30
0
  11
18.348
  21
0.343402
  31
0
  0
LINE
  5
502
  100
AcDbEntity
  8
1
  100
AcDbLine
  10
18.348
  20
0.343402
  30
0
  11
18.336
  21
0.341752
  31
0
  0
LINE
  5
503
  100
AcDbEntity
  8
1
  100
AcDbLine
  10
18.336
  20
0.341752
  30
0
  11
18.324
  21
0.340102
  31
0
  0
LINE
  5
504
  100
AcDbEntity
  8
1
  100
AcDbLine
  10
18.324
  20
0.340102
  30
0
  11
18.312
  21
0.338451
  31
0
  0
LINE
  5
505
  100
AcDbEntity
  8
1
  100
AcDbLine
  10
18.312
  20
0.338451
  30
0
  11
18.3
  21
0.3368
  31
0
  0
LINE
  5
506
  100
AcDbEntity
  8
1
  100
AcDbLine
  10
18.3
  20
0.3368
  30
0
  11
18.288
  21
0.335149
  31
0
  0
LINE
  5
507
  100
AcDbEntity
  8
1
  100
AcDbLine
  10
18.288
  20
0.335149
  30
0
  11
18.276
  21
0.333498
  31
0
  0
LINE
  5
508
  100
AcDbEntity
  8
1
  100
AcDbLine
  10
18.276
  20
0.333498
  30
0
  11
18.264
  21
0.331846
  31
0
  0
LINE
  5
509
  100
AcDbEntity
  8
1
  100
AcDbLine
  10
18.264
  20
0.331846
  30
0
  11
18.252
  21
0.330194
  31
0
  0
LINE
  5
50a
  100
AcDbEntity
  8
1
  100
AcDbLine
  10
18.252
  20
0.330194
  30
0
  11
18.24
  21
0.328542
  31
0
  0
LINE
  5
50b
  100
AcDbEntity
  8
1
  100
AcDbLine
  10
18.24
  20
0.328542
  30
0
  11
18.228
  21
0.326889
  31
0
  0
LINE
  5
50c
  100
AcDbEntity
  8
1
  100
AcDbLine
  10
18.228
  20
0.326889
  30
0
  11
18.216
  21
0.325236
  31
0
  0
LINE
  5
50d
  100
AcDbEntity
  8
1
  100
AcDbLine
  10
18.216
  20
0.325236
  30
0
  11
18.204
  21
0.323583
  31
0
  0
LINE
  5
50e
  100
AcDbEntity
  8
1
  100
AcDbLine
  10
18.204
  20
0.323583
  30
0
  11
18.192
  21
0.32193
  31
0
  0
LINE
  5
50f
  100
AcDbEntity
  8
1
  100
AcDbLine
  10
18.192
  20
0.32193
  30
0
  11
18.18
  21
0.320276
  31
0
  0
LINE
  5
510
  100
AcDbEntity
  8
1
  100
AcDbLine
  10
18.18
  20
0.320276
  30
0
  11
18.168
  21
0.318622
  31
0
  0
LINE
  5
511
  100
AcDbEntity
  8
1
  100
AcDbLine
  10
18.168
  20
0.318622
  30
0
  11
18.156
  21
0.316968
  31
0
  0
LINE
  5
512
  100
AcDbEntity
  8
1
  100
AcDbLine
  10
18.156
  20
0.316968
  30
0
  11
18.144
  21
0.315314
  31
0
  0
LINE
  5
513
  100
AcDbEntity
  8
1
  100
AcDbLine
  10
18.144
  20
0.315314
  30
0
  11
18.132
  21
0.313659
  31
0
  0
LINE
  5
514
  100
AcDbEntity
  8
1
  100
AcDbLine
  10
18.132
  20
0.313659
  30
0
  11
18.12
  21
0.312004
  31
0
  0
LINE
  5
515
  100
AcDbEntity
  8
1
  100
AcDbLine
  10
18.12
  20
0.312004
  30
0
  11
18.108
  21
0.310349
  31
0
  0
LINE
  5
516
  100
AcDbEntity
  8
1
  100
AcDbLine
  10
18.108
  20
0.310349
  30
0
  11
18.096
  21
0.308693
  31
0
  0
LINE
  5
517
  100
AcDbEntity
  8
1
  100
AcDbLine
  10
18.096
  20
0.308693
  30
0
  11
18.084
  21
0.307038
  31
0
  0
LINE
  5
518
  100
AcDbEntity
  8
1
  100
AcDbLine
  10
18.084
  20
0.307038
  30
0
  11
18.072
  21
0.305382
  31
0
  0
LINE
  5
519
  100
AcDbEntity
  8
1
  100
AcDbLine
  10
18.072
  20
0.305382
  30
0
  11
18.06
  21
0.303726
  31
0
  0
LINE
  5
51a
  100
AcDbEntity
  8
1
  100
AcDbLine
  10
18.06
  20
0.303726
  30
0
  11
18.048
  21
0.30207
  31
0
  0
LINE
  5
51b
  100
AcDbEntity
  8
1
  100
AcDbLine
  10
18.048
  20
0.30207
  30
0
  11
18.036
  21
0.300413
  31
0
  0
LINE
  5
51c
  100
AcDbEntity
  8
1
  100
AcDbLine
  10
18.036
  20
0.300413
  30
0
  11
18.024
  21
0.298756
  31
0
  0
LINE
  5
51d
  100
AcDbEntity
  8
1
  100
AcDbLine
  10
18.024
  20
0.298756
  30
0
  11
18.012
  21
0.297099
  31
0
  0
LINE
  5
51e
  100
AcDbEntity
  8
SK1
  100
AcDbLine
  10
0
  20
3
  30
0
  11
-15
  21
3
  31
0
  0
LINE
  5
51f
  100
AcDbEntity
  8
SK1
  100
AcDbLine
  10
-15
  20
3
  30
0
  11
-15.9
  21
2.1
  31
0
  0
LINE
  5
520
  100
AcDbEntity
  8
SK1
  100
AcDbLine
  10
-15.9
  20
2.1
  30
0
  11
-20.1
  21
2.1
  31
0
  0
LINE
  5
521
  100
AcDbEntity
  8
SK1
  100
AcDbLine
  10
-20.1
  20
2.1
  30
0
  11
-21
  21
3
  31
0
  0
LINE
  5
522
  100
AcDbEntity
  8
SK1
  100
AcDbLine
  10
-21
  20
3
  30
0
  11
-35.5
  21
3
  31
0
  0
LINE
  5
523
  100
AcDbEntity
  8
SK1
  100
AcDbLine
  10
-35.5
  20
3
  30
0
  11
-36
  21
2.5
  31
0
  0
LINE
  5
524
  100
AcDbEntity
  8
SK1
  100
AcDbLine
  10
0
  20
-3
  30
0
  11
-35.5
  21
-3
  31
0
  0
LINE
  5
525
  100
AcDbEntity
  8
SK1
  100
AcDbLine
  10
-35.5
  20
-3
  30
0
  11
-36
  21
-2.5
  31
0
  0
LINE
  5
526
  100
AcDbEntity
  8
SK1
  100
AcDbLine
  10
0
  20
3
  30
0
  11
0
  21
-3
  31
0
  0
LINE
  5
527
  100
AcDbEntity
  8
SK1
  100
AcDbLine
  10
0
  20
3
  30
0
  11
0
  21
-3
  31
0
  0
LINE
  5
528
  100
AcDbEntity
  8
SK1
  100
AcDbLine
  10
-35.5
  20
3
  30
0
  11
-35.5
  21
-3
  31
0
  0
LINE
  5
529
  100
AcDbEntity
  8
SK1
  100
AcDbLine
  10
-36
  20
2.5
  30
0
  11
-36
  21
-2.5
  31
0
  0
LINE
  5
572
  100
AcDbEntity
  8
NOCUT
  100
AcDbLine
  10
18
  20
0
  30
0
  11
18
  21
3
  31
0
  0
LINE
  5
573
  100
AcDbEntity
  8
NOCUT
  100
AcDbLine
  10
18
  20
3
  30
0
  11
0
  21
3
  31
0
  0
LINE
  5
574
  100
AcDbEntity
  8
NOCUT
  100
AcDbLine
  10
0
  20
3
  30
0
  11
-15
  21
3
  31
0
  0
LINE
  5
575
  100
AcDbEntity
  8
NOCUT
  100
AcDbLine
  10
-15
  20
3
  30
0
  11
-15.9
  21
2.1
  31
0
  0
LINE
  5
576
  100
AcDbEntity
  8
NOCUT
  100
AcDbLine
  10
-15.9
  20
2.1
  30
0
  11
-20.1
  21
2.1
  31
0
  0
LINE
  5
577
  100
AcDbEntity
  8
NOCUT
  100
AcDbLine
  10
-20.1
  20
2.1
  30
0
  11
-21
  21
3
  31
0
  0
LINE
  5
578
  100
AcDbEntity
  8
NOCUT
  100
AcDbLine
  10
-21
  20
3
  30
0
  11
-35.5
  21
3
  31
0
  0
LINE
  5
579
  100
AcDbEntity
  8
NOCUT
  100
AcDbLine
  10
-35.5
  20
3
  30
0
  11
-36
  21
2.5
  31
0
  0
LINE
  5
57a
  100
AcDbEntity
  8
NOCUT
  100
AcDbLine
  10
-36
  20
2.5
  30
0
  11
-36
  21
0
  31
0
  0
LINE
  5
57b
  100
AcDbEntity
  8
NOCUT
  100
AcDbLine
  10
-36
  20
0
  30
0
  11
18
  21
0
  31
0
  0
LINE
  5
57c
  100
AcDbEntity
  8
CUT
  100
AcDbLine
  10
21
  20
0
  30
0
  11
18
  21
3
  31
0
  0
LINE
  5
57d
  100
AcDbEntity
  8
CUT
  100
AcDbLine
  10
18
  20
3
  30
0
  11
18
  21
0
  31
0
  0
LINE
  5
57e
  100
AcDbEntity
  8
CUT
  100
AcDbLine
  10
18
  20
0
  30
0
  11
21
  21
0
  31
0
  0
LINE
  5
57f
  100
AcDbEntity
  8
4
  100
AcDbLine
  10
-36
  20
0
  30
0
  11
21
  21
0
  31
0
  0
LINE
  5
580
  100
AcDbEntity
  8
INFTOTAL
  100
AcDbLine
  10
-53.3
  20
49.8
  30
0
  11
63.3
  21
49.8
  31
0
  0
LINE
  5
581
  100
AcDbEntity
  8
INFTOTAL
  100
AcDbLine
  10
63.3
  20
49.8
  30
0
  11
63.3
  21
-17.725711
  31
0
  0
LINE
  5
582
  100
AcDbEntity
  8
INFTOTAL
  100
AcDbLine
  10
63.3
  20
-17.725711
  30
0
  11
-53.3
  21
-17.725711
  31
0
  0
LINE
  5
583
  100
AcDbEntity
  8
INFTOTAL
  100
AcDbLine
  10
-53.3
  20
-17.725711
  30
0
  11
-53.3
  21
49.8
  31
0
  0
ENDSEC
  0
SECTION
  2
OBJECTS
  0
DICTIONARY
  5
584
  330
0
100
AcDbDictionary
281
    1
  3
ACAD_GROUP
  350
585
  0
DICTIONARY
  5
585
102
{ACAD_REACTORS
  330
584
102
}
  330
584
100
AcDbDictionary
281
    1
  0
ENDSEC
  0
EOF
