  0
SECTION
  2
HEADER
  9
$ACADVER
  1
AC1015
  9
$DWGCODEPAGE
  3
ansi_1252
  9
$HANDSEED
  5
106AB90
  9
$INSUNITS
  70
4
  0
ENDSEC
  0
SECTION
  2
TABLES
  0
TABLE
  2
VPORT
  5
2
  330
0
  100
AcDbSymbolTable
  70
    0
  0
ENDTAB
  0
TABLE
  2
LTYPE
  5
3
  330
0
  100
AcDbSymbolTable
  70
    4
  0
LTYPE
  5
4
  330
3
  100
AcDbSymbolTableRecord
  100
AcDbLinetypeTableRecord
  2
ByBlock
  70
    0
  3

  72
65
  73
    0
  40
0
  0
LTYPE
  5
5
  330
3
  100
AcDbSymbolTableRecord
  100
AcDbLinetypeTableRecord
  2
ByLayer
  70
    0
  3

  72
65
  73
    0
  40
0
  0
LTYPE
  5
6
  330
3
  100
AcDbSymbolTableRecord
  100
AcDbLinetypeTableRecord
  2
CONTINUOUS
  70
    0
  3
Solid Line
  72
65
  73
    0
  40
0
  0
LTYPE
  5
7
  330
3
  100
AcDbSymbolTableRecord
  100
AcDbLinetypeTableRecord
  2
DASH
  70
    0
  3
Hidden
  72
65
  73
2
  40
2.5
  49
1.5
  74
0
  49
-1
  74
0
  0
LTYPE
  5
8
  330
3
  100
AcDbSymbolTableRecord
  100
AcDbLinetypeTableRecord
  2
LONGDASHDASH
  70
    0
  3
__ . __
  72
65
  73
    4
  40
7
  49
4
  74
    0
  49
-1
  74
    0
  49
1
  74
    0
  49
-1
  74
    0
  0
ENDTAB
  0
TABLE
  2
LAYER
  5
9
  330
0
  100
AcDbSymbolTable
  70
    40
  0
LAYER
  5
a
  330
9
  100
AcDbSymbolTableRecord
  100
AcDbLayerTableRecord
  2
0
  70
    0
  62
    0
  6
CONTINUOUS
  390
0
  0
LAYER
  5
b
  330
9
  100
AcDbSymbolTableRecord
  100
AcDbLayerTableRecord
  2
DEFPOINT
  70
    0
  62
    0
  6
CONTINUOUS
  390
0
  0
LAYER
  5
c
  330
9
  100
AcDbSymbolTableRecord
  100
AcDbLayerTableRecord
  2
1
  70
    0
  62
    4
  6
CONTINUOUS
  370
50
  390
0
  0
LAYER
  5
d
  330
9
  100
AcDbSymbolTableRecord
  100
AcDbLayerTableRecord
  2
2
  70
    0
  62
    7
  6
CONTINUOUS
  370
25
  390
0
  0
LAYER
  5
e
  330
9
  100
AcDbSymbolTableRecord
  100
AcDbLayerTableRecord
  2
3
  70
    0
  62
    1
  6
DASH
  370
35
  390
0
  0
LAYER
  5
f
  330
9
  100
AcDbSymbolTableRecord
  100
AcDbLayerTableRecord
  2
4
  70
    0
  62
    2
  6
LONGDASHDASH
  370
25
  390
0
  0
LAYER
  5
10
  330
9
  100
AcDbSymbolTableRecord
  100
AcDbLayerTableRecord
  2
6
  70
    0
  62
    5
  6
CONTINUOUS
  390
0
  0
LAYER
  5
11
  330
9
  100
AcDbSymbolTableRecord
  100
AcDbLayerTableRecord
  2
7
  70
    0
  62
    5
  6
CONTINUOUS
  370
25
  390
0
  0
LAYER
  5
12
  330
9
  100
AcDbSymbolTableRecord
  100
AcDbLayerTableRecord
  2
11
  70
    0
  62
    4
  6
CONTINUOUS
  370
25
  390
0
  0
LAYER
  5
13
  330
9
  100
AcDbSymbolTableRecord
  100
AcDbLayerTableRecord
  2
SK1
  70
    0
  62
    4
  6
CONTINUOUS
  370
50
  390
0
  0
LAYER
  5
14
  330
9
  100
AcDbSymbolTableRecord
  100
AcDbLayerTableRecord
  2
SK2
  70
    0
  62
    7
  6
CONTINUOUS
  370
25
  390
0
  0
LAYER
  5
15
  330
9
  100
AcDbSymbolTableRecord
  100
AcDbLayerTableRecord
  2
SK3
  70
    0
  62
    1
  6
DASH
  370
35
  390
0
  0
LAYER
  5
16
  330
9
  100
AcDbSymbolTableRecord
  100
AcDbLayerTableRecord
  2
SK4
  70
    0
  62
    2
  6
LONGDASHDASH
  370
25
  390
0
  0
LAYER
  5
17
  330
9
  100
AcDbSymbolTableRecord
  100
AcDbLayerTableRecord
  2
SK6
  70
    0
  62
    5
  6
CONTINUOUS
  390
0
  0
LAYER
  5
18
  330
9
  100
AcDbSymbolTableRecord
  100
AcDbLayerTableRecord
  2
SK7
  70
    0
  62
    5
  6
CONTINUOUS
  370
25
  390
0
  0
LAYER
  5
19
  330
9
  100
AcDbSymbolTableRecord
  100
AcDbLayerTableRecord
  2
SK11
  70
    0
  62
    4
  6
CONTINUOUS
  370
25
  390
0
  0
LAYER
  5
1a
  330
9
  100
AcDbSymbolTableRecord
  100
AcDbLayerTableRecord
  2
SKVIEW1
  70
    0
  62
    4
  6
CONTINUOUS
  370
50
  390
0
  0
LAYER
  5
1b
  330
9
  100
AcDbSymbolTableRecord
  100
AcDbLayerTableRecord
  2
SKVIEW2
  70
    0
  62
    7
  6
CONTINUOUS
  370
25
  390
0
  0
LAYER
  5
1c
  330
9
  100
AcDbSymbolTableRecord
  100
AcDbLayerTableRecord
  2
SKVIEW3
  70
    0
  62
    1
  6
DASH
  370
35
  390
0
  0
LAYER
  5
1d
  330
9
  100
AcDbSymbolTableRecord
  100
AcDbLayerTableRecord
  2
SKVIEW4
  70
    0
  62
    2
  6
LONGDASHDASH
  370
25
  390
0
  0
LAYER
  5
1e
  330
9
  100
AcDbSymbolTableRecord
  100
AcDbLayerTableRecord
  2
SKVIEW6
  70
    0
  62
    5
  6
CONTINUOUS
  390
0
  0
LAYER
  5
1f
  330
9
  100
AcDbSymbolTableRecord
  100
AcDbLayerTableRecord
  2
SKVIEW7
  70
    0
  62
    5
  6
CONTINUOUS
  370
25
  390
0
  0
LAYER
  5
20
  330
9
  100
AcDbSymbolTableRecord
  100
AcDbLayerTableRecord
  2
SKVIEW11
  70
    0
  62
    4
  6
CONTINUOUS
  370
25
  390
0
  0
LAYER
  5
21
  330
9
  100
AcDbSymbolTableRecord
  100
AcDbLayerTableRecord
  2
NOCUT
  70
    0
  62
    7
  6
CONTINUOUS
  370
25
  390
0
  0
LAYER
  5
22
  330
9
  100
AcDbSymbolTableRecord
  100
AcDbLayerTableRecord
  2
CUT
  70
    0
  62
    1
  6
CONTINUOUS
  370
25
  390
0
  0
LAYER
  5
23
  330
9
  100
AcDbSymbolTableRecord
  100
AcDbLayerTableRecord
  2
FRAME50
  70
    0
  62
    7
  6
CONTINUOUS
  390
0
  0
LAYER
  5
24
  330
9
  100
AcDbSymbolTableRecord
  100
AcDbLayerTableRecord
  2
53
  70
    0
  62
    5
  6
CONTINUOUS
  390
0
  0
LAYER
  5
25
  330
9
  100
AcDbSymbolTableRecord
  100
AcDbLayerTableRecord
  2
INFTEXT
  70
    0
  62
    5
  6
CONTINUOUS
  390
0
  0
LAYER
  5
26
  330
9
  100
AcDbSymbolTableRecord
  100
AcDbLayerTableRecord
  2
INFTOTAL
  70
    0
  62
    9
  6
CONTINUOUS
  370
18
  390
0
  0
ENDTAB
  0
TABLE
  2
STYLE
  5
27
  330
0
  100
AcDbSymbolTable
  70
    1
  0
STYLE
  5
28
  330
27
  100
AcDbSymbolTableRecord
  100
AcDbTextStyleTableRecord
  2
Monospac821 BT
  70
    0
  40
    3.5
  41
1
  50
0
  71
0
  42
3
  3

  4

  1001
ACAD
  1000
Monospac821 BT
  1071
256
  0
ENDTAB
  0
TABLE
  2
VIEW
  5
29
  330
0
  100
AcDbSymbolTable
  70
    0
  0
ENDTAB
  0
TABLE
  2
UCS
  5
2a
  330
0
  100
AcDbSymbolTable
  70
    0
  0
ENDTAB
  0
TABLE
  2
APPID
  5
2b
  330
0
  100
AcDbSymbolTable
  70
    1
  0
APPID
  5
2c
  330
2b
  100
AcDbSymbolTableRecord
  100
AcDbRegAppTableRecord
  2
ACAD
  70
    0
  0
ENDTAB
  0
TABLE
  2
DIMSTYLE
  5
2d
  330
0
  100
AcDbSymbolTable
  70
    1
  100
AcDbDimStyleTable
  0
DIMSTYLE
  105
2e
  330
2d
  100
AcDbSymbolTableRecord
  100
AcDbDimStyleTableRecord
  2
STANDARD
  70
    0
  41
    3
  42
0.5
  44
1
  73
0
  77
1
  78
1
  140
3.5
  141
2.5
  143
0.03937
  147
0.8
  172
1
  174
1
  178
0
  179
1
  271
2
  279
1
  284
1
  340
28
  0
ENDTAB
  0
TABLE
  2
BLOCK_RECORD
  5
2f
  330
0
  100
AcDbSymbolTable
  70
    2
  0
BLOCK_RECORD
  5
30
  330
2f
  100
AcDbSymbolTableRecord
  100
AcDbBlockTableRecord
  2
*Model_Space
  0
BLOCK_RECORD
  5
31
  330
2f
  100
AcDbSymbolTableRecord
  100
AcDbBlockTableRecord
  2
*Paper_Space
  0
BLOCK_RECORD
  5
59a
  330
2f
  100
AcDbSymbolTableRecord
  100
AcDbBlockTableRecord
  2
*D599
  340
0
  0
BLOCK_RECORD
  5
5a8
  330
2f
  100
AcDbSymbolTableRecord
  100
AcDbBlockTableRecord
  2
*D5a7
  340
0
  0
BLOCK_RECORD
  5
5b6
  330
2f
  100
AcDbSymbolTableRecord
  100
AcDbBlockTableRecord
  2
*D5b5
  340
0
  0
BLOCK_RECORD
  5
5c4
  330
2f
  100
AcDbSymbolTableRecord
  100
AcDbBlockTableRecord
  2
*D5c3
  340
0
  0
BLOCK_RECORD
  5
5d4
  330
2f
  100
AcDbSymbolTableRecord
  100
AcDbBlockTableRecord
  2
*D5d3
  340
0
  0
ENDTAB
  0
ENDSEC
  0
SECTION
  2
BLOCKS
  0
BLOCK
  5
32
  330
30
  100
AcDbEntity
  8
0
  100
AcDbBlockBegin
  2
*Model_Space
  70
    0
  10
0
  20
0
  30
0
  3
*Model_Space
  1

  0
ENDBLK
  5
33
  330
30
  100
AcDbEntity
  8
0
  100
AcDbBlockEnd
  0
BLOCK
  5
34
  330
31
  100
AcDbEntity
  8
0
  100
AcDbBlockBegin
  2
*Paper_Space
  70
    0
  10
0
  20
0
  30
0
  3
*Paper_Space
  1

  0
ENDBLK
  5
35
  330
31
  100
AcDbEntity
  8
0
  100
AcDbBlockEnd
  0
BLOCK
  5
598
  330
59a
  100
AcDbEntity
  8
SK2
  100
AcDbBlockBegin
  2
*D599
  70
1
  10
0
  20
0
  30
0
  3
*D599
  1

  0
LINE
  5
59b
  330
59a
  100
AcDbEntity
  8
SK2
  100
AcDbLine
  10
-28
  20
1.5
  30
0
  11
-28
  21
44.5
  31
0
  0
LINE
  5
59c
  330
59a
  100
AcDbEntity
  8
SK2
  100
AcDbLine
  10
26
  20
0
  30
0
  11
26
  21
44.5
  31
0
  0
LINE
  5
59d
  330
59a
  100
AcDbEntity
  8
SK2
  100
AcDbLine
  10
-28
  20
42.5
  30
0
  11
26
  21
42.5
  31
0
  0
SOLID
  5
59e
  330
59a
  100
AcDbEntity
  8
SK2
  100
AcDbTrace
  10
-28
  20
42.5
  30
0
  11
-25.521388
  21
42.826315
  31
0
  12
-25.521388
  22
42.173685
  32
0
  13
-25.521388
  23
42.173685
  33
0
  0
SOLID
  5
59f
  330
59a
  100
AcDbEntity
  8
SK2
  100
AcDbTrace
  10
26
  20
42.5
  30
0
  11
23.521388
  21
42.173685
  31
0
  12
23.521388
  22
42.826315
  32
0
  13
23.521388
  23
42.826315
  33
0
  0
MTEXT
  5
5a0
  330
59a
  100
AcDbEntity
  8
SK2
  100
AcDbMText
  10
-1
  20
42.5
  30
0
  11
1
  21
0
  31
0
  40
2
  41
0
  71
8
  72
1
  1
54+2
  0
POINT
  5
5a1
  330
59a
  100
AcDbEntity
  8
SK2
  62
0
  100
AcDbPoint
  10
-28
  20
1.5
  30
0
  0
POINT
  5
5a2
  330
59a
  100
AcDbEntity
  8
SK2
  62
0
  100
AcDbPoint
  10
26
  20
0
  30
0
  0
POINT
  5
5a3
  330
59a
  100
AcDbEntity
  8
SK2
  62
0
  100
AcDbPoint
  10
26
  20
42.5
  30
0
  0
ENDBLK
  5
5a4
  330
59a
  100
AcDbEntity
  8
SK2
  100
AcDbBlockEnd
  0
BLOCK
  5
5a6
  330
5a8
  100
AcDbEntity
  8
SK2
  100
AcDbBlockBegin
  2
*D5a7
  70
1
  10
0
  20
0
  30
0
  3
*D5a7
  1

  0
LINE
  5
5a9
  330
5a8
  100
AcDbEntity
  8
SK2
  100
AcDbLine
  10
-27.5
  20
-2
  30
0
  11
-40
  21
-2
  31
0
  0
LINE
  5
5aa
  330
5a8
  100
AcDbEntity
  8
SK2
  100
AcDbLine
  10
-27.5
  20
2
  30
0
  11
-40
  21
2
  31
0
  0
LINE
  5
5ab
  330
5a8
  100
AcDbEntity
  8
SK2
  100
AcDbLine
  10
-38
  20
-11.582278
  30
0
  11
-38
  21
2
  31
0
  0
SOLID
  5
5ac
  330
5a8
  100
AcDbEntity
  8
SK2
  100
AcDbTrace
  10
-38
  20
-2
  30
0
  11
-38.326315
  21
0.478612
  31
0
  12
-37.673685
  22
0.478612
  32
0
  13
-37.673685
  23
0.478612
  33
0
  0
SOLID
  5
5ad
  330
5a8
  100
AcDbEntity
  8
SK2
  100
AcDbTrace
  10
-38
  20
2
  30
0
  11
-37.673685
  21
-0.478612
  31
0
  12
-38.326315
  22
-0.478612
  32
0
  13
-38.326315
  23
-0.478612
  33
0
  0
MTEXT
  5
5ae
  330
5a8
  100
AcDbEntity
  8
SK2
  100
AcDbMText
  10
-38
  20
-8.439854
  30
0
  11
0
  21
1
  31
0
  40
2
  41
0
  71
8
  72
1
  1
%%c4h6
  0
POINT
  5
5af
  330
5a8
  100
AcDbEntity
  8
SK2
  62
0
  100
AcDbPoint
  10
-27.5
  20
-2
  30
0
  0
POINT
  5
5b0
  330
5a8
  100
AcDbEntity
  8
SK2
  62
0
  100
AcDbPoint
  10
-27.5
  20
2
  30
0
  0
POINT
  5
5b1
  330
5a8
  100
AcDbEntity
  8
SK2
  62
0
  100
AcDbPoint
  10
-38
  20
2
  30
0
  0
ENDBLK
  5
5b2
  330
5a8
  100
AcDbEntity
  8
SK2
  100
AcDbBlockEnd
  0
BLOCK
  5
5b4
  330
5b6
  100
AcDbEntity
  8
2
  100
AcDbBlockBegin
  2
*D5b5
  70
1
  10
0
  20
0
  30
0
  3
*D5b5
  1

  0
LINE
  5
5b7
  330
5b6
  100
AcDbEntity
  8
2
  100
AcDbLine
  10
26
  20
0
  30
0
  11
26
  21
17
  31
0
  0
LINE
  5
5b8
  330
5b6
  100
AcDbEntity
  8
2
  100
AcDbLine
  10
24
  20
2
  30
0
  11
24
  21
17
  31
0
  0
LINE
  5
5b9
  330
5b6
  100
AcDbEntity
  8
2
  100
AcDbLine
  10
26
  20
15
  30
0
  11
23.924051
  21
15
  31
0
  0
SOLID
  5
5ba
  330
5b6
  100
AcDbEntity
  8
2
  100
AcDbTrace
  10
26
  20
15
  30
0
  11
28.478612
  21
15.326315
  31
0
  12
28.478612
  22
14.673685
  32
0
  13
28.478612
  23
14.673685
  33
0
  0
SOLID
  5
5bb
  330
5b6
  100
AcDbEntity
  8
2
  100
AcDbTrace
  10
24
  20
15
  30
0
  11
21.521388
  21
14.673685
  31
0
  12
21.521388
  22
15.326315
  32
0
  13
21.521388
  23
15.326315
  33
0
  0
MTEXT
  5
5bc
  330
5b6
  100
AcDbEntity
  8
2
  100
AcDbMText
  10
25
  20
15
  30
0
  11
1
  21
-0
  31
0
  40
2
  41
0
  71
8
  72
1
  1
2
  0
POINT
  5
5bd
  330
5b6
  100
AcDbEntity
  8
2
  62
0
  100
AcDbPoint
  10
26
  20
0
  30
0
  0
POINT
  5
5be
  330
5b6
  100
AcDbEntity
  8
2
  62
0
  100
AcDbPoint
  10
24
  20
2
  30
0
  0
POINT
  5
5bf
  330
5b6
  100
AcDbEntity
  8
2
  62
0
  100
AcDbPoint
  10
23.924051
  20
15
  30
0
  0
ENDBLK
  5
5c0
  330
5b6
  100
AcDbEntity
  8
2
  100
AcDbBlockEnd
  0
BLOCK
  5
5c2
  330
5c4
  100
AcDbEntity
  8
2
  100
AcDbBlockBegin
  2
*D5c3
  70
1
  10
0
  20
0
  30
0
  3
*D5c3
  1

  0
LINE
  5
5c5
  330
5c4
  100
AcDbEntity
  8
2
  100
AcDbLine
  10
27.242571
  20
-1.242571
  30
0
  11
38.425711
  21
-12.425711
  31
0
  0
LINE
  5
5c6
  330
5c4
  100
AcDbEntity
  8
2
  100
AcDbLine
  10
27.242571
  20
1.242571
  30
0
  11
38.425711
  21
12.425711
  31
0
  0
ARC
  5
5c7
  330
5c4
  100
AcDbEntity
  8
2
  100
AcDbCircle
  10
26
  20
0
  30
0
  40
15.572609
  100
AcDbArc
  50
315
  51
45
  0
SOLID
  5
5c8
  330
5c4
  100
AcDbEntity
  8
2
  100
AcDbTrace
  10
37.011498
  20
-11.011498
  30
0
  11
38.369467
  21
-8.91247
  31
0
  12
38.866464
  22
-9.335461
  32
0
  13
38.866464
  23
-9.335461
  33
0
  0
SOLID
  5
5c9
  330
5c4
  100
AcDbEntity
  8
2
  100
AcDbTrace
  10
37.011498
  20
11.011498
  30
0
  11
38.866464
  21
9.335461
  31
0
  12
38.369467
  22
8.91247
  32
0
  13
38.369467
  23
8.91247
  33
0
  0
MTEXT
  5
5ca
  330
5c4
  100
AcDbEntity
  8
2
  100
AcDbMText
  10
41.572609
  20
0
  30
0
  11
0
  21
-1
  31
0
  40
2
  41
0
  71
8
  72
1
  1
90%%d
  0
POINT
  5
5cb
  330
5c4
  100
AcDbEntity
  8
2
  62
0
  100
AcDbPoint
  10
40.810432
  20
-4.812201
  30
0
  0
POINT
  5
5cc
  330
5c4
  100
AcDbEntity
  8
2
  62
0
  100
AcDbPoint
  10
26
  20
0
  30
0
  0
POINT
  5
5cd
  330
5c4
  100
AcDbEntity
  8
2
  62
0
  100
AcDbPoint
  10
27.242571
  20
-1.242571
  30
0
  0
POINT
  5
5ce
  330
5c4
  100
AcDbEntity
  8
2
  62
0
  100
AcDbPoint
  10
26
  20
0
  30
0
  0
POINT
  5
5cf
  330
5c4
  100
AcDbEntity
  8
2
  62
0
  100
AcDbPoint
  10
27.242571
  20
1.242571
  30
0
  0
ENDBLK
  5
5d0
  330
5c4
  100
AcDbEntity
  8
2
  100
AcDbBlockEnd
  0
BLOCK
  5
5d2
  330
5d4
  100
AcDbEntity
  8
2
  100
AcDbBlockBegin
  2
*D5d3
  70
1
  10
0
  20
0
  30
0
  3
*D5d3
  1

  0
LINE
  5
5d5
  330
5d4
  100
AcDbEntity
  8
2
  100
AcDbLine
  10
24
  20
-2
  30
0
  11
63
  21
-2
  31
0
  0
LINE
  5
5d6
  330
5d4
  100
AcDbEntity
  8
2
  100
AcDbLine
  10
24
  20
2
  30
0
  11
63
  21
2
  31
0
  0
LINE
  5
5d7
  330
5d4
  100
AcDbEntity
  8
2
  100
AcDbLine
  10
61
  20
-7.025316
  30
0
  11
61
  21
2
  31
0
  0
SOLID
  5
5d8
  330
5d4
  100
AcDbEntity
  8
2
  100
AcDbTrace
  10
61
  20
-2
  30
0
  11
61.326315
  21
-4.478612
  31
0
  12
60.673685
  22
-4.478612
  32
0
  13
60.673685
  23
-4.478612
  33
0
  0
SOLID
  5
5d9
  330
5d4
  100
AcDbEntity
  8
2
  100
AcDbTrace
  10
61
  20
2
  30
0
  11
60.673685
  21
4.478612
  31
0
  12
61.326315
  22
4.478612
  32
0
  13
61.326315
  23
4.478612
  33
0
  0
MTEXT
  5
5da
  330
5d4
  100
AcDbEntity
  8
2
  100
AcDbMText
  10
61
  20
0
  30
0
  11
0
  21
1
  31
0
  40
2
  41
0
  71
9
  72
1
  1
%%c4h10
  0
POINT
  5
5db
  330
5d4
  100
AcDbEntity
  8
2
  62
0
  100
AcDbPoint
  10
24
  20
-2
  30
0
  0
POINT
  5
5dc
  330
5d4
  100
AcDbEntity
  8
2
  62
0
  100
AcDbPoint
  10
24
  20
2
  30
0
  0
POINT
  5
5dd
  330
5d4
  100
AcDbEntity
  8
2
  62
0
  100
AcDbPoint
  10
61
  20
2
  30
0
  0
ENDBLK
  5
5de
  330
5d4
  100
AcDbEntity
  8
2
  100
AcDbBlockEnd
  0
ENDSEC
  0
SECTION
  2
ENTITIES
  0
DIMENSION
  5
5a5
  100
AcDbEntity
  8
SK2
  100
AcDbDimension
  2
*D599
  10
26
  20
42.5
  30
0
  11
-1
  21
42.5
  31
0
  70
160
  1
<>+2
  71
5
  3
STANDARD
  42
54
  100
AcDbAlignedDimension
  13
-28
  23
1.5
  33
0
  14
26
  24
0
  34
0
  50
0
  100
AcDbRotatedDimension
  0
DIMENSION
  5
5b3
  100
AcDbEntity
  8
SK2
  100
AcDbDimension
  2
*D5a7
  10
-38
  20
2
  30
0
  11
-38
  21
-8.439854
  31
0
  70
160
  1
%%c<>h6
  71
5
  3
STANDARD
  42
4
  100
AcDbAlignedDimension
  13
-27.5
  23
-2
  33
0
  14
-27.5
  24
2
  34
0
  50
-90
  100
AcDbRotatedDimension
  0
DIMENSION
  5
5c1
  100
AcDbEntity
  8
2
  100
AcDbDimension
  2
*D5b5
  10
23.924051
  20
15
  30
0
  11
25
  21
15
  31
0
  70
160
  1
<>
  71
5
  3
STANDARD
  42
2
  100
AcDbAlignedDimension
  13
26
  23
0
  33
0
  14
24
  24
2
  34
0
  50
0
  100
AcDbRotatedDimension
  0
DIMENSION
  5
5d1
  100
AcDbEntity
  8
2
  100
AcDbDimension
  2
*D5c3
  10
27.242571
  20
1.242571
  30
0
  11
41.572609
  21
0
  31
0
  70
162
  1
<>
  71
5
  53
-90
  3
STANDARD
  100
AcDb2LineAngularDimension
  13
27.242571
  23
-1.242571
  33
0
  14
26
  24
0
  34
0
  15
26
  25
0
  35
0
  16
40.810432
  26
-4.812201
  36
0
  0
DIMENSION
  5
5df
  100
AcDbEntity
  8
2
  100
AcDbDimension
  2
*D5d3
  10
61
  20
2
  30
0
  11
61
  21
0
  31
0
  70
160
  1
%%c<>h10
  71
5
  3
STANDARD
  42
4
  100
AcDbAlignedDimension
  13
24
  23
-2
  33
0
  14
24
  24
2
  34
0
  50
-90
  100
AcDbRotatedDimension
  0
LINE
  5
36
  100
AcDbEntity
  8
1
  100
AcDbLine
  10
26
  20
0
  30
0
  11
24
  21
2
  31
0
  0
LINE
  5
37
  100
AcDbEntity
  8
1
  100
AcDbLine
  10
24
  20
2
  30
0
  11
0
  21
2
  31
0
  0
LINE
  5
38
  100
AcDbEntity
  8
1
  100
AcDbLine
  10
0
  20
2
  30
0
  11
0
  21
-2
  31
0
  0
LINE
  5
39
  100
AcDbEntity
  8
1
  100
AcDbLine
  10
0
  20
-2
  30
0
  11
24
  21
-2
  31
0
  0
LINE
  5
3a
  100
AcDbEntity
  8
1
  100
AcDbLine
  10
24
  20
-2
  30
0
  11
26
  21
0
  31
0
  0
LINE
  5
3b
  100
AcDbEntity
  8
1
  100
AcDbLine
  10
0
  20
2
  30
0
  11
0
  21
-2
  31
0
  0
LINE
  5
3c
  100
AcDbEntity
  8
1
  100
AcDbLine
  10
0
  20
-2
  30
0
  11
0
  21
2
  31
0
  0
LINE
  5
3d
  100
AcDbEntity
  8
1
  100
AcDbLine
  10
24.008
  20
0.198066
  30
0
  11
24.016
  21
0.199171
  31
0
  0
LINE
  5
3e
  100
AcDbEntity
  8
1
  100
AcDbLine
  10
24.016
  20
0.199171
  30
0
  11
24.024
  21
0.200275
  31
0
  0
LINE
  5
3f
  100
AcDbEntity
  8
1
  100
AcDbLine
  10
24.024
  20
0.200275
  30
0
  11
24.032
  21
0.20138
  31
0
  0
LINE
  5
40
  100
AcDbEntity
  8
1
  100
AcDbLine
  10
24.032
  20
0.20138
  30
0
  11
24.04
  21
0.202484
  31
0
  0
LINE
  5
41
  100
AcDbEntity
  8
1
  100
AcDbLine
  10
24.04
  20
0.202484
  30
0
  11
24.048
  21
0.203588
  31
0
  0
LINE
  5
42
  100
AcDbEntity
  8
1
  100
AcDbLine
  10
24.048
  20
0.203588
  30
0
  11
24.056
  21
0.204692
  31
0
  0
LINE
  5
43
  100
AcDbEntity
  8
1
  100
AcDbLine
  10
24.056
  20
0.204692
  30
0
  11
24.064
  21
0.205796
  31
0
  0
LINE
  5
44
  100
AcDbEntity
  8
1
  100
AcDbLine
  10
24.064
  20
0.205796
  30
0
  11
24.072
  21
0.206899
  31
0
  0
LINE
  5
45
  100
AcDbEntity
  8
1
  100
AcDbLine
  10
24.072
  20
0.206899
  30
0
  11
24.08
  21
0.208003
  31
0
  0
LINE
  5
46
  100
AcDbEntity
  8
1
  100
AcDbLine
  10
24.08
  20
0.208003
  30
0
  11
24.088
  21
0.209106
  31
0
  0
LINE
  5
47
  100
AcDbEntity
  8
1
  100
AcDbLine
  10
24.088
  20
0.209106
  30
0
  11
24.096
  21
0.210209
  31
0
  0
LINE
  5
48
  100
AcDbEntity
  8
1
  100
AcDbLine
  10
24.096
  20
0.210209
  30
0
  11
24.104
  21
0.211312
  31
0
  0
LINE
  5
49
  100
AcDbEntity
  8
1
  100
AcDbLine
  10
24.104
  20
0.211312
  30
0
  11
24.112
  21
0.212415
  31
0
  0
LINE
  5
4a
  100
AcDbEntity
  8
1
  100
AcDbLine
  10
24.112
  20
0.212415
  30
0
  11
24.12
  21
0.213517
  31
0
  0
LINE
  5
4b
  100
AcDbEntity
  8
1
  100
AcDbLine
  10
24.12
  20
0.213517
  30
0
  11
24.128
  21
0.21462
  31
0
  0
LINE
  5
4c
  100
AcDbEntity
  8
1
  100
AcDbLine
  10
24.128
  20
0.21462
  30
0
  11
24.136
  21
0.215722
  31
0
  0
LINE
  5
4d
  100
AcDbEntity
  8
1
  100
AcDbLine
  10
24.136
  20
0.215722
  30
0
  11
24.144
  21
0.216824
  31
0
  0
LINE
  5
4e
  100
AcDbEntity
  8
1
  100
AcDbLine
  10
24.144
  20
0.216824
  30
0
  11
24.152
  21
0.217926
  31
0
  0
LINE
  5
4f
  100
AcDbEntity
  8
1
  100
AcDbLine
  10
24.152
  20
0.217926
  30
0
  11
24.16
  21
0.219028
  31
0
  0
LINE
  5
50
  100
AcDbEntity
  8
1
  100
AcDbLine
  10
24.16
  20
0.219028
  30
0
  11
24.168
  21
0.220129
  31
0
  0
LINE
  5
51
  100
AcDbEntity
  8
1
  100
AcDbLine
  10
24.168
  20
0.220129
  30
0
  11
24.176
  21
0.221231
  31
0
  0
LINE
  5
52
  100
AcDbEntity
  8
1
  100
AcDbLine
  10
24.176
  20
0.221231
  30
0
  11
24.184
  21
0.222332
  31
0
  0
LINE
  5
53
  100
AcDbEntity
  8
1
  100
AcDbLine
  10
24.184
  20
0.222332
  30
0
  11
24.192
  21
0.223433
  31
0
  0
LINE
  5
54
  100
AcDbEntity
  8
1
  100
AcDbLine
  10
24.192
  20
0.223433
  30
0
  11
24.2
  21
0.224534
  31
0
  0
LINE
  5
55
  100
AcDbEntity
  8
1
  100
AcDbLine
  10
24.2
  20
0.224534
  30
0
  11
24.208
  21
0.225634
  31
0
  0
LINE
  5
56
  100
AcDbEntity
  8
1
  100
AcDbLine
  10
24.208
  20
0.225634
  30
0
  11
24.216
  21
0.226735
  31
0
  0
LINE
  5
57
  100
AcDbEntity
  8
1
  100
AcDbLine
  10
24.216
  20
0.226735
  30
0
  11
24.224
  21
0.227835
  31
0
  0
LINE
  5
58
  100
AcDbEntity
  8
1
  100
AcDbLine
  10
24.224
  20
0.227835
  30
0
  11
24.232
  21
0.228934
  31
0
  0
LINE
  5
59
  100
AcDbEntity
  8
1
  100
AcDbLine
  10
24.232
  20
0.228934
  30
0
  11
24.24
  21
0.230034
  31
0
  0
LINE
  5
5a
  100
AcDbEntity
  8
1
  100
AcDbLine
  10
24.24
  20
0.230034
  30
0
  11
24.248
  21
0.231134
  31
0
  0
LINE
  5
5b
  100
AcDbEntity
  8
1
  100
AcDbLine
  10
24.248
  20
0.231134
  30
0
  11
24.256
  21
0.232233
  31
0
  0
LINE
  5
5c
  100
AcDbEntity
  8
1
  100
AcDbLine
  10
24.256
  20
0.232233
  30
0
  11
24.264
  21
0.233332
  31
0
  0
LINE
  5
5d
  100
AcDbEntity
  8
1
  100
AcDbLine
  10
24.264
  20
0.233332
  30
0
  11
24.272
  21
0.23443
  31
0
  0
LINE
  5
5e
  100
AcDbEntity
  8
1
  100
AcDbLine
  10
24.272
  20
0.23443
  30
0
  11
24.28
  21
0.235529
  31
0
  0
LINE
  5
5f
  100
AcDbEntity
  8
1
  100
AcDbLine
  10
24.28
  20
0.235529
  30
0
  11
24.288
  21
0.236627
  31
0
  0
LINE
  5
60
  100
AcDbEntity
  8
1
  100
AcDbLine
  10
24.288
  20
0.236627
  30
0
  11
24.296
  21
0.237725
  31
0
  0
LINE
  5
61
  100
AcDbEntity
  8
1
  100
AcDbLine
  10
24.296
  20
0.237725
  30
0
  11
24.304
  21
0.238823
  31
0
  0
LINE
  5
62
  100
AcDbEntity
  8
1
  100
AcDbLine
  10
24.304
  20
0.238823
  30
0
  11
24.312
  21
0.23992
  31
0
  0
LINE
  5
63
  100
AcDbEntity
  8
1
  100
AcDbLine
  10
24.312
  20
0.23992
  30
0
  11
24.32
  21
0.241017
  31
0
  0
LINE
  5
64
  100
AcDbEntity
  8
1
  100
AcDbLine
  10
24.32
  20
0.241017
  30
0
  11
24.328
  21
0.242114
  31
0
  0
LINE
  5
65
  100
AcDbEntity
  8
1
  100
AcDbLine
  10
24.328
  20
0.242114
  30
0
  11
24.336
  21
0.243211
  31
0
  0
LINE
  5
66
  100
AcDbEntity
  8
1
  100
AcDbLine
  10
24.336
  20
0.243211
  30
0
  11
24.344
  21
0.244307
  31
0
  0
LINE
  5
67
  100
AcDbEntity
  8
1
  100
AcDbLine
  10
24.344
  20
0.244307
  30
0
  11
24.352
  21
0.245403
  31
0
  0
LINE
  5
68
  100
AcDbEntity
  8
1
  100
AcDbLine
  10
24.352
  20
0.245403
  30
0
  11
24.36
  21
0.246499
  31
0
  0
LINE
  5
69
  100
AcDbEntity
  8
1
  100
AcDbLine
  10
24.36
  20
0.246499
  30
0
  11
24.368
  21
0.247594
  31
0
  0
LINE
  5
6a
  100
AcDbEntity
  8
1
  100
AcDbLine
  10
24.368
  20
0.247594
  30
0
  11
24.376
  21
0.248689
  31
0
  0
LINE
  5
6b
  100
AcDbEntity
  8
1
  100
AcDbLine
  10
24.376
  20
0.248689
  30
0
  11
24.384
  21
0.249784
  31
0
  0
LINE
  5
6c
  100
AcDbEntity
  8
1
  100
AcDbLine
  10
24.384
  20
0.249784
  30
0
  11
24.392
  21
0.250878
  31
0
  0
LINE
  5
6d
  100
AcDbEntity
  8
1
  100
AcDbLine
  10
24.392
  20
0.250878
  30
0
  11
24.4
  21
0.251972
  31
0
  0
LINE
  5
6e
  100
AcDbEntity
  8
1
  100
AcDbLine
  10
24.4
  20
0.251972
  30
0
  11
24.408
  21
0.253066
  31
0
  0
LINE
  5
6f
  100
AcDbEntity
  8
1
  100
AcDbLine
  10
24.408
  20
0.253066
  30
0
  11
24.416
  21
0.254159
  31
0
  0
LINE
  5
70
  100
AcDbEntity
  8
1
  100
AcDbLine
  10
24.416
  20
0.254159
  30
0
  11
24.424
  21
0.255252
  31
0
  0
LINE
  5
71
  100
AcDbEntity
  8
1
  100
AcDbLine
  10
24.424
  20
0.255252
  30
0
  11
24.432
  21
0.256344
  31
0
  0
LINE
  5
72
  100
AcDbEntity
  8
1
  100
AcDbLine
  10
24.432
  20
0.256344
  30
0
  11
24.44
  21
0.257437
  31
0
  0
LINE
  5
73
  100
AcDbEntity
  8
1
  100
AcDbLine
  10
24.44
  20
0.257437
  30
0
  11
24.448
  21
0.258528
  31
0
  0
LINE
  5
74
  100
AcDbEntity
  8
1
  100
AcDbLine
  10
24.448
  20
0.258528
  30
0
  11
24.456
  21
0.25962
  31
0
  0
LINE
  5
75
  100
AcDbEntity
  8
1
  100
AcDbLine
  10
24.456
  20
0.25962
  30
0
  11
24.464
  21
0.260711
  31
0
  0
LINE
  5
76
  100
AcDbEntity
  8
1
  100
AcDbLine
  10
24.464
  20
0.260711
  30
0
  11
24.472
  21
0.261801
  31
0
  0
LINE
  5
77
  100
AcDbEntity
  8
1
  100
AcDbLine
  10
24.472
  20
0.261801
  30
0
  11
24.48
  21
0.262891
  31
0
  0
LINE
  5
78
  100
AcDbEntity
  8
1
  100
AcDbLine
  10
24.48
  20
0.262891
  30
0
  11
24.488
  21
0.263981
  31
0
  0
LINE
  5
79
  100
AcDbEntity
  8
1
  100
AcDbLine
  10
24.488
  20
0.263981
  30
0
  11
24.496
  21
0.26507
  31
0
  0
LINE
  5
7a
  100
AcDbEntity
  8
1
  100
AcDbLine
  10
24.496
  20
0.26507
  30
0
  11
24.504
  21
0.266159
  31
0
  0
LINE
  5
7b
  100
AcDbEntity
  8
1
  100
AcDbLine
  10
24.504
  20
0.266159
  30
0
  11
24.512
  21
0.267248
  31
0
  0
LINE
  5
7c
  100
AcDbEntity
  8
1
  100
AcDbLine
  10
24.512
  20
0.267248
  30
0
  11
24.52
  21
0.268335
  31
0
  0
LINE
  5
7d
  100
AcDbEntity
  8
1
  100
AcDbLine
  10
24.52
  20
0.268335
  30
0
  11
24.528
  21
0.269423
  31
0
  0
LINE
  5
7e
  100
AcDbEntity
  8
1
  100
AcDbLine
  10
24.528
  20
0.269423
  30
0
  11
24.536
  21
0.27051
  31
0
  0
LINE
  5
7f
  100
AcDbEntity
  8
1
  100
AcDbLine
  10
24.536
  20
0.27051
  30
0
  11
24.544
  21
0.271596
  31
0
  0
LINE
  5
80
  100
AcDbEntity
  8
1
  100
AcDbLine
  10
24.544
  20
0.271596
  30
0
  11
24.552
  21
0.272682
  31
0
  0
LINE
  5
81
  100
AcDbEntity
  8
1
  100
AcDbLine
  10
24.552
  20
0.272682
  30
0
  11
24.56
  21
0.273767
  31
0
  0
LINE
  5
82
  100
AcDbEntity
  8
1
  100
AcDbLine
  10
24.56
  20
0.273767
  30
0
  11
24.568
  21
0.274852
  31
0
  0
LINE
  5
83
  100
AcDbEntity
  8
1
  100
AcDbLine
  10
24.568
  20
0.274852
  30
0
  11
24.576
  21
0.275936
  31
0
  0
LINE
  5
84
  100
AcDbEntity
  8
1
  100
AcDbLine
  10
24.576
  20
0.275936
  30
0
  11
24.584
  21
0.27702
  31
0
  0
LINE
  5
85
  100
AcDbEntity
  8
1
  100
AcDbLine
  10
24.584
  20
0.27702
  30
0
  11
24.592
  21
0.278103
  31
0
  0
LINE
  5
86
  100
AcDbEntity
  8
1
  100
AcDbLine
  10
24.592
  20
0.278103
  30
0
  11
24.6
  21
0.279185
  31
0
  0
LINE
  5
87
  100
AcDbEntity
  8
1
  100
AcDbLine
  10
24.6
  20
0.279185
  30
0
  11
24.608
  21
0.280267
  31
0
  0
LINE
  5
88
  100
AcDbEntity
  8
1
  100
AcDbLine
  10
24.608
  20
0.280267
  30
0
  11
24.616
  21
0.281348
  31
0
  0
LINE
  5
89
  100
AcDbEntity
  8
1
  100
AcDbLine
  10
24.616
  20
0.281348
  30
0
  11
24.624
  21
0.282428
  31
0
  0
LINE
  5
8a
  100
AcDbEntity
  8
1
  100
AcDbLine
  10
24.624
  20
0.282428
  30
0
  11
24.632
  21
0.283508
  31
0
  0
LINE
  5
8b
  100
AcDbEntity
  8
1
  100
AcDbLine
  10
24.632
  20
0.283508
  30
0
  11
24.64
  21
0.284587
  31
0
  0
LINE
  5
8c
  100
AcDbEntity
  8
1
  100
AcDbLine
  10
24.64
  20
0.284587
  30
0
  11
24.648
  21
0.285666
  31
0
  0
LINE
  5
8d
  100
AcDbEntity
  8
1
  100
AcDbLine
  10
24.648
  20
0.285666
  30
0
  11
24.656
  21
0.286743
  31
0
  0
LINE
  5
8e
  100
AcDbEntity
  8
1
  100
AcDbLine
  10
24.656
  20
0.286743
  30
0
  11
24.664
  21
0.28782
  31
0
  0
LINE
  5
8f
  100
AcDbEntity
  8
1
  100
AcDbLine
  10
24.664
  20
0.28782
  30
0
  11
24.672
  21
0.288896
  31
0
  0
LINE
  5
90
  100
AcDbEntity
  8
1
  100
AcDbLine
  10
24.672
  20
0.288896
  30
0
  11
24.68
  21
0.289972
  31
0
  0
LINE
  5
91
  100
AcDbEntity
  8
1
  100
AcDbLine
  10
24.68
  20
0.289972
  30
0
  11
24.688
  21
0.291046
  31
0
  0
LINE
  5
92
  100
AcDbEntity
  8
1
  100
AcDbLine
  10
24.688
  20
0.291046
  30
0
  11
24.696
  21
0.29212
  31
0
  0
LINE
  5
93
  100
AcDbEntity
  8
1
  100
AcDbLine
  10
24.696
  20
0.29212
  30
0
  11
24.704
  21
0.293193
  31
0
  0
LINE
  5
94
  100
AcDbEntity
  8
1
  100
AcDbLine
  10
24.704
  20
0.293193
  30
0
  11
24.712
  21
0.294265
  31
0
  0
LINE
  5
95
  100
AcDbEntity
  8
1
  100
AcDbLine
  10
24.712
  20
0.294265
  30
0
  11
24.72
  21
0.295336
  31
0
  0
LINE
  5
96
  100
AcDbEntity
  8
1
  100
AcDbLine
  10
24.72
  20
0.295336
  30
0
  11
24.728
  21
0.296406
  31
0
  0
LINE
  5
97
  100
AcDbEntity
  8
1
  100
AcDbLine
  10
24.728
  20
0.296406
  30
0
  11
24.736
  21
0.297475
  31
0
  0
LINE
  5
98
  100
AcDbEntity
  8
1
  100
AcDbLine
  10
24.736
  20
0.297475
  30
0
  11
24.744
  21
0.298544
  31
0
  0
LINE
  5
99
  100
AcDbEntity
  8
1
  100
AcDbLine
  10
24.744
  20
0.298544
  30
0
  11
24.752
  21
0.299611
  31
0
  0
LINE
  5
9a
  100
AcDbEntity
  8
1
  100
AcDbLine
  10
24.752
  20
0.299611
  30
0
  11
24.76
  21
0.300677
  31
0
  0
LINE
  5
9b
  100
AcDbEntity
  8
1
  100
AcDbLine
  10
24.76
  20
0.300677
  30
0
  11
24.768
  21
0.301743
  31
0
  0
LINE
  5
9c
  100
AcDbEntity
  8
1
  100
AcDbLine
  10
24.768
  20
0.301743
  30
0
  11
24.776
  21
0.302807
  31
0
  0
LINE
  5
9d
  100
AcDbEntity
  8
1
  100
AcDbLine
  10
24.776
  20
0.302807
  30
0
  11
24.784
  21
0.30387
  31
0
  0
LINE
  5
9e
  100
AcDbEntity
  8
1
  100
AcDbLine
  10
24.784
  20
0.30387
  30
0
  11
24.792
  21
0.304932
  31
0
  0
LINE
  5
9f
  100
AcDbEntity
  8
1
  100
AcDbLine
  10
24.792
  20
0.304932
  30
0
  11
24.8
  21
0.305992
  31
0
  0
LINE
  5
a0
  100
AcDbEntity
  8
1
  100
AcDbLine
  10
24.8
  20
0.305992
  30
0
  11
24.808
  21
0.307052
  31
0
  0
LINE
  5
a1
  100
AcDbEntity
  8
1
  100
AcDbLine
  10
24.808
  20
0.307052
  30
0
  11
24.816
  21
0.30811
  31
0
  0
LINE
  5
a2
  100
AcDbEntity
  8
1
  100
AcDbLine
  10
24.816
  20
0.30811
  30
0
  11
24.824
  21
0.309167
  31
0
  0
LINE
  5
a3
  100
AcDbEntity
  8
1
  100
AcDbLine
  10
24.824
  20
0.309167
  30
0
  11
24.832
  21
0.310223
  31
0
  0
LINE
  5
a4
  100
AcDbEntity
  8
1
  100
AcDbLine
  10
24.832
  20
0.310223
  30
0
  11
24.84
  21
0.311277
  31
0
  0
LINE
  5
a5
  100
AcDbEntity
  8
1
  100
AcDbLine
  10
24.84
  20
0.311277
  30
0
  11
24.848
  21
0.31233
  31
0
  0
LINE
  5
a6
  100
AcDbEntity
  8
1
  100
AcDbLine
  10
24.848
  20
0.31233
  30
0
  11
24.856
  21
0.313381
  31
0
  0
LINE
  5
a7
  100
AcDbEntity
  8
1
  100
AcDbLine
  10
24.856
  20
0.313381
  30
0
  11
24.864
  21
0.314431
  31
0
  0
LINE
  5
a8
  100
AcDbEntity
  8
1
  100
AcDbLine
  10
24.864
  20
0.314431
  30
0
  11
24.872
  21
0.31548
  31
0
  0
LINE
  5
a9
  100
AcDbEntity
  8
1
  100
AcDbLine
  10
24.872
  20
0.31548
  30
0
  11
24.88
  21
0.316526
  31
0
  0
LINE
  5
aa
  100
AcDbEntity
  8
1
  100
AcDbLine
  10
24.88
  20
0.316526
  30
0
  11
24.888
  21
0.317572
  31
0
  0
LINE
  5
ab
  100
AcDbEntity
  8
1
  100
AcDbLine
  10
24.888
  20
0.317572
  30
0
  11
24.896
  21
0.318615
  31
0
  0
LINE
  5
ac
  100
AcDbEntity
  8
1
  100
AcDbLine
  10
24.896
  20
0.318615
  30
0
  11
24.904
  21
0.319657
  31
0
  0
LINE
  5
ad
  100
AcDbEntity
  8
1
  100
AcDbLine
  10
24.904
  20
0.319657
  30
0
  11
24.912
  21
0.320697
  31
0
  0
LINE
  5
ae
  100
AcDbEntity
  8
1
  100
AcDbLine
  10
24.912
  20
0.320697
  30
0
  11
24.92
  21
0.321735
  31
0
  0
LINE
  5
af
  100
AcDbEntity
  8
1
  100
AcDbLine
  10
24.92
  20
0.321735
  30
0
  11
24.928
  21
0.322771
  31
0
  0
LINE
  5
b0
  100
AcDbEntity
  8
1
  100
AcDbLine
  10
24.928
  20
0.322771
  30
0
  11
24.936
  21
0.323806
  31
0
  0
LINE
  5
b1
  100
AcDbEntity
  8
1
  100
AcDbLine
  10
24.936
  20
0.323806
  30
0
  11
24.944
  21
0.324838
  31
0
  0
LINE
  5
b2
  100
AcDbEntity
  8
1
  100
AcDbLine
  10
24.944
  20
0.324838
  30
0
  11
24.952
  21
0.325868
  31
0
  0
LINE
  5
b3
  100
AcDbEntity
  8
1
  100
AcDbLine
  10
24.952
  20
0.325868
  30
0
  11
24.96
  21
0.326896
  31
0
  0
LINE
  5
b4
  100
AcDbEntity
  8
1
  100
AcDbLine
  10
24.96
  20
0.326896
  30
0
  11
24.968
  21
0.327922
  31
0
  0
LINE
  5
b5
  100
AcDbEntity
  8
1
  100
AcDbLine
  10
24.968
  20
0.327922
  30
0
  11
24.976
  21
0.328945
  31
0
  0
LINE
  5
b6
  100
AcDbEntity
  8
1
  100
AcDbLine
  10
24.976
  20
0.328945
  30
0
  11
24.984
  21
0.329966
  31
0
  0
LINE
  5
b7
  100
AcDbEntity
  8
1
  100
AcDbLine
  10
24.984
  20
0.329966
  30
0
  11
24.992
  21
0.330985
  31
0
  0
LINE
  5
b8
  100
AcDbEntity
  8
1
  100
AcDbLine
  10
24.992
  20
0.330985
  30
0
  11
25
  21
0.332001
  31
0
  0
LINE
  5
b9
  100
AcDbEntity
  8
1
  100
AcDbLine
  10
25
  20
0.332001
  30
0
  11
25.008
  21
0.333014
  31
0
  0
LINE
  5
ba
  100
AcDbEntity
  8
1
  100
AcDbLine
  10
25.008
  20
0.333014
  30
0
  11
25.016
  21
0.334024
  31
0
  0
LINE
  5
bb
  100
AcDbEntity
  8
1
  100
AcDbLine
  10
25.016
  20
0.334024
  30
0
  11
25.024
  21
0.335032
  31
0
  0
LINE
  5
bc
  100
AcDbEntity
  8
1
  100
AcDbLine
  10
25.024
  20
0.335032
  30
0
  11
25.032
  21
0.336037
  31
0
  0
LINE
  5
bd
  100
AcDbEntity
  8
1
  100
AcDbLine
  10
25.736
  20
0.054584
  30
0
  11
25.744
  21
0.046536
  31
0
  0
LINE
  5
be
  100
AcDbEntity
  8
1
  100
AcDbLine
  10
25.744
  20
0.046536
  30
0
  11
25.752
  21
0.03795
  31
0
  0
LINE
  5
bf
  100
AcDbEntity
  8
1
  100
AcDbLine
  10
25.752
  20
0.03795
  30
0
  11
25.76
  21
0.028669
  31
0
  0
LINE
  5
c0
  100
AcDbEntity
  8
1
  100
AcDbLine
  10
25.76
  20
0.028669
  30
0
  11
25.768
  21
0.018418
  31
0
  0
LINE
  5
c1
  100
AcDbEntity
  8
1
  100
AcDbLine
  10
25.768
  20
0.018418
  30
0
  11
25.776
  21
0.006847
  31
0
  0
LINE
  5
c2
  100
AcDbEntity
  8
1
  100
AcDbLine
  10
25.776
  20
0.006847
  30
0
  11
25.784
  21
-0.00684
  31
0
  0
LINE
  5
c3
  100
AcDbEntity
  8
1
  100
AcDbLine
  10
25.784
  20
-0.00684
  30
0
  11
25.792
  21
-0.024653
  31
0
  0
LINE
  5
c4
  100
AcDbEntity
  8
1
  100
AcDbLine
  10
25.792
  20
-0.024653
  30
0
  11
25.8
  21
-0.067413
  31
0
  0
LINE
  5
c5
  100
AcDbEntity
  8
1
  100
AcDbLine
  10
25.8
  20
-0.067413
  30
0
  11
25.792
  21
-0.112032
  31
0
  0
LINE
  5
c6
  100
AcDbEntity
  8
1
  100
AcDbLine
  10
25.792
  20
-0.112032
  30
0
  11
25.784
  21
-0.131743
  31
0
  0
LINE
  5
c7
  100
AcDbEntity
  8
1
  100
AcDbLine
  10
25.784
  20
-0.131743
  30
0
  11
25.776
  21
-0.147386
  31
0
  0
LINE
  5
c8
  100
AcDbEntity
  8
1
  100
AcDbLine
  10
25.776
  20
-0.147386
  30
0
  11
25.768
  21
-0.161008
  31
0
  0
LINE
  5
c9
  100
AcDbEntity
  8
1
  100
AcDbLine
  10
25.768
  20
-0.161008
  30
0
  11
25.76
  21
-0.173395
  31
0
  0
LINE
  5
ca
  100
AcDbEntity
  8
1
  100
AcDbLine
  10
25.76
  20
-0.173395
  30
0
  11
25.752
  21
-0.184879
  31
0
  0
LINE
  5
cb
  100
AcDbEntity
  8
1
  100
AcDbLine
  10
25.752
  20
-0.184879
  30
0
  11
25.744
  21
-0.195735
  31
0
  0
LINE
  5
cc
  100
AcDbEntity
  8
1
  100
AcDbLine
  10
25.744
  20
-0.195735
  30
0
  11
25.736
  21
-0.206115
  31
0
  0
LINE
  5
cd
  100
AcDbEntity
  8
1
  100
AcDbLine
  10
25.736
  20
-0.206115
  30
0
  11
25.728
  21
-0.21612
  31
0
  0
LINE
  5
ce
  100
AcDbEntity
  8
1
  100
AcDbLine
  10
25.728
  20
-0.21612
  30
0
  11
25.72
  21
-0.22577
  31
0
  0
LINE
  5
cf
  100
AcDbEntity
  8
1
  100
AcDbLine
  10
25.72
  20
-0.22577
  30
0
  11
25.712
  21
-0.235134
  31
0
  0
LINE
  5
d0
  100
AcDbEntity
  8
1
  100
AcDbLine
  10
25.712
  20
-0.235134
  30
0
  11
25.704
  21
-0.244293
  31
0
  0
LINE
  5
d1
  100
AcDbEntity
  8
1
  100
AcDbLine
  10
25.704
  20
-0.244293
  30
0
  11
25.696
  21
-0.253241
  31
0
  0
LINE
  5
d2
  100
AcDbEntity
  8
1
  100
AcDbLine
  10
25.696
  20
-0.253241
  30
0
  11
25.688
  21
-0.261985
  31
0
  0
LINE
  5
d3
  100
AcDbEntity
  8
1
  100
AcDbLine
  10
25.688
  20
-0.261985
  30
0
  11
25.68
  21
-0.270603
  31
0
  0
LINE
  5
d4
  100
AcDbEntity
  8
1
  100
AcDbLine
  10
25.68
  20
-0.270603
  30
0
  11
25.672
  21
-0.279054
  31
0
  0
LINE
  5
d5
  100
AcDbEntity
  8
1
  100
AcDbLine
  10
25.672
  20
-0.279054
  30
0
  11
25.664
  21
-0.28737
  31
0
  0
LINE
  5
d6
  100
AcDbEntity
  8
1
  100
AcDbLine
  10
25.664
  20
-0.28737
  30
0
  11
25.656
  21
-0.295601
  31
0
  0
LINE
  5
d7
  100
AcDbEntity
  8
1
  100
AcDbLine
  10
25.656
  20
-0.295601
  30
0
  11
25.648
  21
-0.303667
  31
0
  0
LINE
  5
d8
  100
AcDbEntity
  8
1
  100
AcDbLine
  10
25.648
  20
-0.303667
  30
0
  11
25.64
  21
-0.311689
  31
0
  0
LINE
  5
d9
  100
AcDbEntity
  8
1
  100
AcDbLine
  10
25.64
  20
-0.311689
  30
0
  11
25.632
  21
-0.319654
  31
0
  0
LINE
  5
da
  100
AcDbEntity
  8
1
  100
AcDbLine
  10
25.632
  20
-0.319654
  30
0
  11
25.624
  21
-0.327609
  31
0
  0
LINE
  5
db
  100
AcDbEntity
  8
1
  100
AcDbLine
  10
25.624
  20
-0.327609
  30
0
  11
25.616
  21
-0.335553
  31
0
  0
LINE
  5
dc
  100
AcDbEntity
  8
1
  100
AcDbLine
  10
25.616
  20
-0.335553
  30
0
  11
25.608
  21
-0.343487
  31
0
  0
LINE
  5
dd
  100
AcDbEntity
  8
1
  100
AcDbLine
  10
25.608
  20
-0.343487
  30
0
  11
25.6
  21
-0.351411
  31
0
  0
LINE
  5
de
  100
AcDbEntity
  8
1
  100
AcDbLine
  10
25.6
  20
-0.351411
  30
0
  11
25.592
  21
-0.359328
  31
0
  0
LINE
  5
df
  100
AcDbEntity
  8
1
  100
AcDbLine
  10
25.592
  20
-0.359328
  30
0
  11
25.584
  21
-0.367236
  31
0
  0
LINE
  5
e0
  100
AcDbEntity
  8
1
  100
AcDbLine
  10
25.584
  20
-0.367236
  30
0
  11
25.576
  21
-0.375136
  31
0
  0
LINE
  5
e1
  100
AcDbEntity
  8
1
  100
AcDbLine
  10
25.576
  20
-0.375136
  30
0
  11
25.568
  21
-0.383029
  31
0
  0
LINE
  5
e2
  100
AcDbEntity
  8
1
  100
AcDbLine
  10
25.568
  20
-0.383029
  30
0
  11
25.56
  21
-0.390916
  31
0
  0
LINE
  5
e3
  100
AcDbEntity
  8
1
  100
AcDbLine
  10
25.56
  20
-0.390916
  30
0
  11
25.552
  21
-0.398796
  31
0
  0
LINE
  5
e4
  100
AcDbEntity
  8
1
  100
AcDbLine
  10
25.552
  20
-0.398796
  30
0
  11
25.544
  21
-0.40667
  31
0
  0
LINE
  5
e5
  100
AcDbEntity
  8
1
  100
AcDbLine
  10
25.544
  20
-0.40667
  30
0
  11
25.536
  21
-0.414538
  31
0
  0
LINE
  5
e6
  100
AcDbEntity
  8
1
  100
AcDbLine
  10
25.536
  20
-0.414538
  30
0
  11
25.528
  21
-0.422401
  31
0
  0
LINE
  5
e7
  100
AcDbEntity
  8
1
  100
AcDbLine
  10
25.528
  20
-0.422401
  30
0
  11
25.52
  21
-0.430259
  31
0
  0
LINE
  5
e8
  100
AcDbEntity
  8
1
  100
AcDbLine
  10
25.52
  20
-0.430259
  30
0
  11
25.512
  21
-0.438111
  31
0
  0
LINE
  5
e9
  100
AcDbEntity
  8
1
  100
AcDbLine
  10
25.512
  20
-0.438111
  30
0
  11
25.504
  21
-0.44596
  31
0
  0
LINE
  5
ea
  100
AcDbEntity
  8
1
  100
AcDbLine
  10
25.504
  20
-0.44596
  30
0
  11
25.496
  21
-0.453804
  31
0
  0
LINE
  5
eb
  100
AcDbEntity
  8
1
  100
AcDbLine
  10
25.496
  20
-0.453804
  30
0
  11
25.488
  21
-0.461643
  31
0
  0
LINE
  5
ec
  100
AcDbEntity
  8
1
  100
AcDbLine
  10
25.488
  20
-0.461643
  30
0
  11
25.48
  21
-0.469479
  31
0
  0
LINE
  5
ed
  100
AcDbEntity
  8
1
  100
AcDbLine
  10
25.48
  20
-0.469479
  30
0
  11
25.472
  21
-0.477311
  31
0
  0
LINE
  5
ee
  100
AcDbEntity
  8
1
  100
AcDbLine
  10
25.472
  20
-0.477311
  30
0
  11
25.464
  21
-0.485139
  31
0
  0
LINE
  5
ef
  100
AcDbEntity
  8
1
  100
AcDbLine
  10
25.464
  20
-0.485139
  30
0
  11
25.456
  21
-0.492964
  31
0
  0
LINE
  5
f0
  100
AcDbEntity
  8
1
  100
AcDbLine
  10
25.456
  20
-0.492964
  30
0
  11
25.448
  21
-0.500785
  31
0
  0
LINE
  5
f1
  100
AcDbEntity
  8
1
  100
AcDbLine
  10
25.448
  20
-0.500785
  30
0
  11
25.44
  21
-0.508603
  31
0
  0
LINE
  5
f2
  100
AcDbEntity
  8
1
  100
AcDbLine
  10
25.44
  20
-0.508603
  30
0
  11
25.432
  21
-0.516419
  31
0
  0
LINE
  5
f3
  100
AcDbEntity
  8
1
  100
AcDbLine
  10
25.432
  20
-0.516419
  30
0
  11
25.424
  21
-0.524231
  31
0
  0
LINE
  5
f4
  100
AcDbEntity
  8
1
  100
AcDbLine
  10
25.424
  20
-0.524231
  30
0
  11
25.416
  21
-0.53204
  31
0
  0
LINE
  5
f5
  100
AcDbEntity
  8
1
  100
AcDbLine
  10
25.416
  20
-0.53204
  30
0
  11
25.408
  21
-0.539847
  31
0
  0
LINE
  5
f6
  100
AcDbEntity
  8
1
  100
AcDbLine
  10
25.408
  20
-0.539847
  30
0
  11
25.4
  21
-0.547652
  31
0
  0
LINE
  5
f7
  100
AcDbEntity
  8
1
  100
AcDbLine
  10
25.4
  20
-0.547652
  30
0
  11
25.392
  21
-0.555454
  31
0
  0
LINE
  5
f8
  100
AcDbEntity
  8
1
  100
AcDbLine
  10
25.392
  20
-0.555454
  30
0
  11
25.384
  21
-0.563253
  31
0
  0
LINE
  5
f9
  100
AcDbEntity
  8
1
  100
AcDbLine
  10
25.384
  20
-0.563253
  30
0
  11
25.376
  21
-0.571051
  31
0
  0
LINE
  5
fa
  100
AcDbEntity
  8
1
  100
AcDbLine
  10
25.376
  20
-0.571051
  30
0
  11
25.368
  21
-0.578846
  31
0
  0
LINE
  5
fb
  100
AcDbEntity
  8
1
  100
AcDbLine
  10
25.368
  20
-0.578846
  30
0
  11
25.36
  21
-0.586639
  31
0
  0
LINE
  5
fc
  100
AcDbEntity
  8
1
  100
AcDbLine
  10
25.36
  20
-0.586639
  30
0
  11
25.352
  21
-0.59443
  31
0
  0
LINE
  5
fd
  100
AcDbEntity
  8
1
  100
AcDbLine
  10
25.352
  20
-0.59443
  30
0
  11
25.344
  21
-0.602219
  31
0
  0
LINE
  5
fe
  100
AcDbEntity
  8
1
  100
AcDbLine
  10
25.344
  20
-0.602219
  30
0
  11
25.336
  21
-0.610006
  31
0
  0
LINE
  5
ff
  100
AcDbEntity
  8
1
  100
AcDbLine
  10
25.336
  20
-0.610006
  30
0
  11
25.328
  21
-0.617792
  31
0
  0
LINE
  5
100
  100
AcDbEntity
  8
1
  100
AcDbLine
  10
25.328
  20
-0.617792
  30
0
  11
25.32
  21
-0.625575
  31
0
  0
LINE
  5
101
  100
AcDbEntity
  8
1
  100
AcDbLine
  10
25.32
  20
-0.625575
  30
0
  11
25.312
  21
-0.633358
  31
0
  0
LINE
  5
102
  100
AcDbEntity
  8
1
  100
AcDbLine
  10
25.312
  20
-0.633358
  30
0
  11
25.304
  21
-0.641138
  31
0
  0
LINE
  5
103
  100
AcDbEntity
  8
1
  100
AcDbLine
  10
25.304
  20
-0.641138
  30
0
  11
25.296
  21
-0.648917
  31
0
  0
LINE
  5
104
  100
AcDbEntity
  8
1
  100
AcDbLine
  10
25.296
  20
-0.648917
  30
0
  11
25.288
  21
-0.656694
  31
0
  0
LINE
  5
105
  100
AcDbEntity
  8
1
  100
AcDbLine
  10
25.288
  20
-0.656694
  30
0
  11
25.28
  21
-0.66447
  31
0
  0
LINE
  5
106
  100
AcDbEntity
  8
1
  100
AcDbLine
  10
25.28
  20
-0.66447
  30
0
  11
25.272
  21
-0.672245
  31
0
  0
LINE
  5
107
  100
AcDbEntity
  8
1
  100
AcDbLine
  10
25.272
  20
-0.672245
  30
0
  11
25.264
  21
-0.680018
  31
0
  0
LINE
  5
108
  100
AcDbEntity
  8
1
  100
AcDbLine
  10
25.264
  20
-0.680018
  30
0
  11
25.256
  21
-0.68779
  31
0
  0
LINE
  5
109
  100
AcDbEntity
  8
1
  100
AcDbLine
  10
25.256
  20
-0.68779
  30
0
  11
25.248
  21
-0.695561
  31
0
  0
LINE
  5
10a
  100
AcDbEntity
  8
1
  100
AcDbLine
  10
25.248
  20
-0.695561
  30
0
  11
25.24
  21
-0.70333
  31
0
  0
LINE
  5
10b
  100
AcDbEntity
  8
1
  100
AcDbLine
  10
25.24
  20
-0.70333
  30
0
  11
25.232
  21
-0.711098
  31
0
  0
LINE
  5
10c
  100
AcDbEntity
  8
1
  100
AcDbLine
  10
25.232
  20
-0.711098
  30
0
  11
25.224
  21
-0.718865
  31
0
  0
LINE
  5
10d
  100
AcDbEntity
  8
1
  100
AcDbLine
  10
25.224
  20
-0.718865
  30
0
  11
25.216
  21
-0.726631
  31
0
  0
LINE
  5
10e
  100
AcDbEntity
  8
1
  100
AcDbLine
  10
25.216
  20
-0.726631
  30
0
  11
25.208
  21
-0.734396
  31
0
  0
LINE
  5
10f
  100
AcDbEntity
  8
1
  100
AcDbLine
  10
25.208
  20
-0.734396
  30
0
  11
25.2
  21
-0.74216
  31
0
  0
LINE
  5
110
  100
AcDbEntity
  8
1
  100
AcDbLine
  10
25.2
  20
-0.74216
  30
0
  11
25.192
  21
-0.749923
  31
0
  0
LINE
  5
111
  100
AcDbEntity
  8
1
  100
AcDbLine
  10
25.192
  20
-0.749923
  30
0
  11
25.184
  21
-0.757684
  31
0
  0
LINE
  5
112
  100
AcDbEntity
  8
1
  100
AcDbLine
  10
25.184
  20
-0.757684
  30
0
  11
25.176
  21
-0.765445
  31
0
  0
LINE
  5
113
  100
AcDbEntity
  8
1
  100
AcDbLine
  10
25.176
  20
-0.765445
  30
0
  11
25.168
  21
-0.773205
  31
0
  0
LINE
  5
114
  100
AcDbEntity
  8
1
  100
AcDbLine
  10
25.168
  20
-0.773205
  30
0
  11
25.16
  21
-0.780964
  31
0
  0
LINE
  5
115
  100
AcDbEntity
  8
1
  100
AcDbLine
  10
25.16
  20
-0.780964
  30
0
  11
25.152
  21
-0.788722
  31
0
  0
LINE
  5
116
  100
AcDbEntity
  8
1
  100
AcDbLine
  10
25.152
  20
-0.788722
  30
0
  11
25.144
  21
-0.79648
  31
0
  0
LINE
  5
117
  100
AcDbEntity
  8
1
  100
AcDbLine
  10
25.144
  20
-0.79648
  30
0
  11
25.136
  21
-0.804236
  31
0
  0
LINE
  5
118
  100
AcDbEntity
  8
1
  100
AcDbLine
  10
25.136
  20
-0.804236
  30
0
  11
25.128
  21
-0.811992
  31
0
  0
LINE
  5
119
  100
AcDbEntity
  8
1
  100
AcDbLine
  10
25.128
  20
-0.811992
  30
0
  11
25.12
  21
-0.819747
  31
0
  0
LINE
  5
11a
  100
AcDbEntity
  8
1
  100
AcDbLine
  10
25.12
  20
-0.819747
  30
0
  11
25.112
  21
-0.827501
  31
0
  0
LINE
  5
11b
  100
AcDbEntity
  8
1
  100
AcDbLine
  10
25.112
  20
-0.827501
  30
0
  11
25.104
  21
-0.835254
  31
0
  0
LINE
  5
11c
  100
AcDbEntity
  8
1
  100
AcDbLine
  10
25.104
  20
-0.835254
  30
0
  11
25.096
  21
-0.843007
  31
0
  0
LINE
  5
11d
  100
AcDbEntity
  8
1
  100
AcDbLine
  10
25.096
  20
-0.843007
  30
0
  11
25.088
  21
-0.850759
  31
0
  0
LINE
  5
11e
  100
AcDbEntity
  8
1
  100
AcDbLine
  10
25.088
  20
-0.850759
  30
0
  11
25.08
  21
-0.85851
  31
0
  0
LINE
  5
11f
  100
AcDbEntity
  8
1
  100
AcDbLine
  10
25.08
  20
-0.85851
  30
0
  11
25.072
  21
-0.866261
  31
0
  0
LINE
  5
120
  100
AcDbEntity
  8
1
  100
AcDbLine
  10
25.072
  20
-0.866261
  30
0
  11
25.064
  21
-0.874011
  31
0
  0
LINE
  5
121
  100
AcDbEntity
  8
1
  100
AcDbLine
  10
25.064
  20
-0.874011
  30
0
  11
25.056
  21
-0.88176
  31
0
  0
LINE
  5
122
  100
AcDbEntity
  8
1
  100
AcDbLine
  10
25.056
  20
-0.88176
  30
0
  11
25.048
  21
-0.889509
  31
0
  0
LINE
  5
123
  100
AcDbEntity
  8
1
  100
AcDbLine
  10
25.048
  20
-0.889509
  30
0
  11
25.04
  21
-0.897257
  31
0
  0
LINE
  5
124
  100
AcDbEntity
  8
1
  100
AcDbLine
  10
25.04
  20
-0.897257
  30
0
  11
25.032
  21
-0.905005
  31
0
  0
LINE
  5
125
  100
AcDbEntity
  8
1
  100
AcDbLine
  10
25.032
  20
-0.905005
  30
0
  11
25.024
  21
-0.912751
  31
0
  0
LINE
  5
126
  100
AcDbEntity
  8
1
  100
AcDbLine
  10
25.024
  20
-0.912751
  30
0
  11
25.016
  21
-0.920498
  31
0
  0
LINE
  5
127
  100
AcDbEntity
  8
1
  100
AcDbLine
  10
25.016
  20
-0.920498
  30
0
  11
25.008
  21
-0.928244
  31
0
  0
LINE
  5
128
  100
AcDbEntity
  8
1
  100
AcDbLine
  10
25.008
  20
-0.928244
  30
0
  11
25
  21
-0.935989
  31
0
  0
LINE
  5
129
  100
AcDbEntity
  8
1
  100
AcDbLine
  10
25
  20
-0.935989
  30
0
  11
24.992
  21
-0.943734
  31
0
  0
LINE
  5
12a
  100
AcDbEntity
  8
1
  100
AcDbLine
  10
24.992
  20
-0.943734
  30
0
  11
24.984
  21
-0.951478
  31
0
  0
LINE
  5
12b
  100
AcDbEntity
  8
1
  100
AcDbLine
  10
24.984
  20
-0.951478
  30
0
  11
24.976
  21
-0.959222
  31
0
  0
LINE
  5
12c
  100
AcDbEntity
  8
1
  100
AcDbLine
  10
24.976
  20
-0.959222
  30
0
  11
24.968
  21
-0.966965
  31
0
  0
LINE
  5
12d
  100
AcDbEntity
  8
1
  100
AcDbLine
  10
24.968
  20
-0.966965
  30
0
  11
24.96
  21
-0.974708
  31
0
  0
LINE
  5
12e
  100
AcDbEntity
  8
1
  100
AcDbLine
  10
24.96
  20
-0.974708
  30
0
  11
24.952
  21
-0.982451
  31
0
  0
LINE
  5
12f
  100
AcDbEntity
  8
1
  100
AcDbLine
  10
24.952
  20
-0.982451
  30
0
  11
24.944
  21
-0.990193
  31
0
  0
LINE
  5
130
  100
AcDbEntity
  8
1
  100
AcDbLine
  10
24.944
  20
-0.990193
  30
0
  11
24.936
  21
-0.997934
  31
0
  0
LINE
  5
131
  100
AcDbEntity
  8
1
  100
AcDbLine
  10
24.936
  20
-0.997934
  30
0
  11
24.928
  21
-1.005675
  31
0
  0
LINE
  5
132
  100
AcDbEntity
  8
1
  100
AcDbLine
  10
24.928
  20
-1.005675
  30
0
  11
24.92
  21
-1.013416
  31
0
  0
LINE
  5
133
  100
AcDbEntity
  8
1
  100
AcDbLine
  10
24.92
  20
-1.013416
  30
0
  11
24.912
  21
-1.021156
  31
0
  0
LINE
  5
134
  100
AcDbEntity
  8
1
  100
AcDbLine
  10
24.912
  20
-1.021156
  30
0
  11
24.904
  21
-1.028896
  31
0
  0
LINE
  5
135
  100
AcDbEntity
  8
1
  100
AcDbLine
  10
24.904
  20
-1.028896
  30
0
  11
24.896
  21
-1.036636
  31
0
  0
LINE
  5
136
  100
AcDbEntity
  8
1
  100
AcDbLine
  10
24.896
  20
-1.036636
  30
0
  11
24.888
  21
-1.044375
  31
0
  0
LINE
  5
137
  100
AcDbEntity
  8
1
  100
AcDbLine
  10
24.888
  20
-1.044375
  30
0
  11
24.88
  21
-1.052113
  31
0
  0
LINE
  5
138
  100
AcDbEntity
  8
1
  100
AcDbLine
  10
24.88
  20
-1.052113
  30
0
  11
24.872
  21
-1.059852
  31
0
  0
LINE
  5
139
  100
AcDbEntity
  8
1
  100
AcDbLine
  10
24.872
  20
-1.059852
  30
0
  11
24.864
  21
-1.06759
  31
0
  0
LINE
  5
13a
  100
AcDbEntity
  8
1
  100
AcDbLine
  10
24.864
  20
-1.06759
  30
0
  11
24.856
  21
-1.075327
  31
0
  0
LINE
  5
13b
  100
AcDbEntity
  8
1
  100
AcDbLine
  10
24.856
  20
-1.075327
  30
0
  11
24.848
  21
-1.083065
  31
0
  0
LINE
  5
13c
  100
AcDbEntity
  8
1
  100
AcDbLine
  10
24.848
  20
-1.083065
  30
0
  11
24.84
  21
-1.090802
  31
0
  0
LINE
  5
13d
  100
AcDbEntity
  8
1
  100
AcDbLine
  10
24.84
  20
-1.090802
  30
0
  11
24.832
  21
-1.098538
  31
0
  0
LINE
  5
13e
  100
AcDbEntity
  8
1
  100
AcDbLine
  10
24.832
  20
-1.098538
  30
0
  11
24.824
  21
-1.106275
  31
0
  0
LINE
  5
13f
  100
AcDbEntity
  8
1
  100
AcDbLine
  10
24.824
  20
-1.106275
  30
0
  11
24.816
  21
-1.114011
  31
0
  0
LINE
  5
140
  100
AcDbEntity
  8
1
  100
AcDbLine
  10
24.816
  20
-1.114011
  30
0
  11
24.808
  21
-1.121746
  31
0
  0
LINE
  5
141
  100
AcDbEntity
  8
1
  100
AcDbLine
  10
24.808
  20
-1.121746
  30
0
  11
24.8
  21
-1.129482
  31
0
  0
LINE
  5
142
  100
AcDbEntity
  8
1
  100
AcDbLine
  10
24.8
  20
-1.129482
  30
0
  11
24.792
  21
-1.137217
  31
0
  0
LINE
  5
143
  100
AcDbEntity
  8
1
  100
AcDbLine
  10
24.792
  20
-1.137217
  30
0
  11
24.784
  21
-1.144952
  31
0
  0
LINE
  5
144
  100
AcDbEntity
  8
1
  100
AcDbLine
  10
24.784
  20
-1.144952
  30
0
  11
24.776
  21
-1.152686
  31
0
  0
LINE
  5
145
  100
AcDbEntity
  8
1
  100
AcDbLine
  10
24.776
  20
-1.152686
  30
0
  11
24.768
  21
-1.16042
  31
0
  0
LINE
  5
146
  100
AcDbEntity
  8
1
  100
AcDbLine
  10
24.768
  20
-1.16042
  30
0
  11
24.76
  21
-1.168154
  31
0
  0
LINE
  5
147
  100
AcDbEntity
  8
1
  100
AcDbLine
  10
24.76
  20
-1.168154
  30
0
  11
24.752
  21
-1.175888
  31
0
  0
LINE
  5
148
  100
AcDbEntity
  8
1
  100
AcDbLine
  10
24.752
  20
-1.175888
  30
0
  11
24.744
  21
-1.183621
  31
0
  0
LINE
  5
149
  100
AcDbEntity
  8
1
  100
AcDbLine
  10
24.744
  20
-1.183621
  30
0
  11
24.736
  21
-1.191354
  31
0
  0
LINE
  5
14a
  100
AcDbEntity
  8
1
  100
AcDbLine
  10
24.736
  20
-1.191354
  30
0
  11
24.728
  21
-1.199087
  31
0
  0
LINE
  5
14b
  100
AcDbEntity
  8
1
  100
AcDbLine
  10
24.728
  20
-1.199087
  30
0
  11
24.72
  21
-1.20682
  31
0
  0
LINE
  5
14c
  100
AcDbEntity
  8
1
  100
AcDbLine
  10
24.72
  20
-1.20682
  30
0
  11
24.712
  21
-1.214552
  31
0
  0
LINE
  5
14d
  100
AcDbEntity
  8
1
  100
AcDbLine
  10
24.712
  20
-1.214552
  30
0
  11
24.704
  21
-1.222285
  31
0
  0
LINE
  5
14e
  100
AcDbEntity
  8
1
  100
AcDbLine
  10
24.704
  20
-1.222285
  30
0
  11
24.696
  21
-1.230017
  31
0
  0
LINE
  5
14f
  100
AcDbEntity
  8
1
  100
AcDbLine
  10
24.696
  20
-1.230017
  30
0
  11
24.688
  21
-1.237748
  31
0
  0
LINE
  5
150
  100
AcDbEntity
  8
1
  100
AcDbLine
  10
24.688
  20
-1.237748
  30
0
  11
24.68
  21
-1.24548
  31
0
  0
LINE
  5
151
  100
AcDbEntity
  8
1
  100
AcDbLine
  10
24.68
  20
-1.24548
  30
0
  11
24.672
  21
-1.253211
  31
0
  0
LINE
  5
152
  100
AcDbEntity
  8
1
  100
AcDbLine
  10
24.672
  20
-1.253211
  30
0
  11
24.664
  21
-1.260942
  31
0
  0
LINE
  5
153
  100
AcDbEntity
  8
1
  100
AcDbLine
  10
24.664
  20
-1.260942
  30
0
  11
24.656
  21
-1.268673
  31
0
  0
LINE
  5
154
  100
AcDbEntity
  8
1
  100
AcDbLine
  10
24.656
  20
-1.268673
  30
0
  11
24.648
  21
-1.276403
  31
0
  0
LINE
  5
155
  100
AcDbEntity
  8
1
  100
AcDbLine
  10
24.648
  20
-1.276403
  30
0
  11
24.64
  21
-1.284134
  31
0
  0
LINE
  5
156
  100
AcDbEntity
  8
1
  100
AcDbLine
  10
24.64
  20
-1.284134
  30
0
  11
24.632
  21
-1.291864
  31
0
  0
LINE
  5
157
  100
AcDbEntity
  8
1
  100
AcDbLine
  10
24.632
  20
-1.291864
  30
0
  11
24.624
  21
-1.299594
  31
0
  0
LINE
  5
158
  100
AcDbEntity
  8
1
  100
AcDbLine
  10
24.624
  20
-1.299594
  30
0
  11
24.616
  21
-1.307324
  31
0
  0
LINE
  5
159
  100
AcDbEntity
  8
1
  100
AcDbLine
  10
24.616
  20
-1.307324
  30
0
  11
24.608
  21
-1.315053
  31
0
  0
LINE
  5
15a
  100
AcDbEntity
  8
1
  100
AcDbLine
  10
24.608
  20
-1.315053
  30
0
  11
24.6
  21
-1.322783
  31
0
  0
LINE
  5
15b
  100
AcDbEntity
  8
1
  100
AcDbLine
  10
24.6
  20
-1.322783
  30
0
  11
24.592
  21
-1.330512
  31
0
  0
LINE
  5
15c
  100
AcDbEntity
  8
1
  100
AcDbLine
  10
24.592
  20
-1.330512
  30
0
  11
24.584
  21
-1.338241
  31
0
  0
LINE
  5
15d
  100
AcDbEntity
  8
1
  100
AcDbLine
  10
24.584
  20
-1.338241
  30
0
  11
24.576
  21
-1.34597
  31
0
  0
LINE
  5
15e
  100
AcDbEntity
  8
1
  100
AcDbLine
  10
24.576
  20
-1.34597
  30
0
  11
24.568
  21
-1.353699
  31
0
  0
LINE
  5
15f
  100
AcDbEntity
  8
1
  100
AcDbLine
  10
24.568
  20
-1.353699
  30
0
  11
24.56
  21
-1.361427
  31
0
  0
LINE
  5
160
  100
AcDbEntity
  8
1
  100
AcDbLine
  10
24.56
  20
-1.361427
  30
0
  11
24.552
  21
-1.369155
  31
0
  0
LINE
  5
161
  100
AcDbEntity
  8
1
  100
AcDbLine
  10
24.552
  20
-1.369155
  30
0
  11
24.544
  21
-1.376883
  31
0
  0
LINE
  5
162
  100
AcDbEntity
  8
1
  100
AcDbLine
  10
24.544
  20
-1.376883
  30
0
  11
24.536
  21
-1.384611
  31
0
  0
LINE
  5
163
  100
AcDbEntity
  8
1
  100
AcDbLine
  10
24.536
  20
-1.384611
  30
0
  11
24.528
  21
-1.392339
  31
0
  0
LINE
  5
164
  100
AcDbEntity
  8
1
  100
AcDbLine
  10
24.528
  20
-1.392339
  30
0
  11
24.52
  21
-1.400067
  31
0
  0
LINE
  5
165
  100
AcDbEntity
  8
1
  100
AcDbLine
  10
24.52
  20
-1.400067
  30
0
  11
24.512
  21
-1.407794
  31
0
  0
LINE
  5
166
  100
AcDbEntity
  8
1
  100
AcDbLine
  10
24.512
  20
-1.407794
  30
0
  11
24.504
  21
-1.415522
  31
0
  0
LINE
  5
167
  100
AcDbEntity
  8
1
  100
AcDbLine
  10
24.504
  20
-1.415522
  30
0
  11
24.496
  21
-1.423249
  31
0
  0
LINE
  5
168
  100
AcDbEntity
  8
1
  100
AcDbLine
  10
24.496
  20
-1.423249
  30
0
  11
24.488
  21
-1.430976
  31
0
  0
LINE
  5
169
  100
AcDbEntity
  8
1
  100
AcDbLine
  10
24.488
  20
-1.430976
  30
0
  11
24.48
  21
-1.438703
  31
0
  0
LINE
  5
16a
  100
AcDbEntity
  8
1
  100
AcDbLine
  10
24.48
  20
-1.438703
  30
0
  11
24.472
  21
-1.44643
  31
0
  0
LINE
  5
16b
  100
AcDbEntity
  8
1
  100
AcDbLine
  10
24.472
  20
-1.44643
  30
0
  11
24.464
  21
-1.454156
  31
0
  0
LINE
  5
16c
  100
AcDbEntity
  8
1
  100
AcDbLine
  10
24.464
  20
-1.454156
  30
0
  11
24.456
  21
-1.461883
  31
0
  0
LINE
  5
16d
  100
AcDbEntity
  8
1
  100
AcDbLine
  10
24.456
  20
-1.461883
  30
0
  11
24.448
  21
-1.469609
  31
0
  0
LINE
  5
16e
  100
AcDbEntity
  8
1
  100
AcDbLine
  10
24.448
  20
-1.469609
  30
0
  11
24.44
  21
-1.477335
  31
0
  0
LINE
  5
16f
  100
AcDbEntity
  8
1
  100
AcDbLine
  10
24.44
  20
-1.477335
  30
0
  11
24.432
  21
-1.485061
  31
0
  0
LINE
  5
170
  100
AcDbEntity
  8
1
  100
AcDbLine
  10
24.432
  20
-1.485061
  30
0
  11
24.424
  21
-1.492787
  31
0
  0
LINE
  5
171
  100
AcDbEntity
  8
1
  100
AcDbLine
  10
24.424
  20
-1.492787
  30
0
  11
24.416
  21
-1.500513
  31
0
  0
LINE
  5
172
  100
AcDbEntity
  8
1
  100
AcDbLine
  10
24.416
  20
-1.500513
  30
0
  11
24.408
  21
-1.508239
  31
0
  0
LINE
  5
173
  100
AcDbEntity
  8
1
  100
AcDbLine
  10
24.408
  20
-1.508239
  30
0
  11
24.4
  21
-1.515964
  31
0
  0
LINE
  5
174
  100
AcDbEntity
  8
1
  100
AcDbLine
  10
24.4
  20
-1.515964
  30
0
  11
24.392
  21
-1.52369
  31
0
  0
LINE
  5
175
  100
AcDbEntity
  8
1
  100
AcDbLine
  10
24.392
  20
-1.52369
  30
0
  11
24.384
  21
-1.531415
  31
0
  0
LINE
  5
176
  100
AcDbEntity
  8
1
  100
AcDbLine
  10
24.384
  20
-1.531415
  30
0
  11
24.376
  21
-1.53914
  31
0
  0
LINE
  5
177
  100
AcDbEntity
  8
1
  100
AcDbLine
  10
24.376
  20
-1.53914
  30
0
  11
24.368
  21
-1.546865
  31
0
  0
LINE
  5
178
  100
AcDbEntity
  8
1
  100
AcDbLine
  10
24.368
  20
-1.546865
  30
0
  11
24.36
  21
-1.55459
  31
0
  0
LINE
  5
179
  100
AcDbEntity
  8
1
  100
AcDbLine
  10
24.36
  20
-1.55459
  30
0
  11
24.352
  21
-1.562315
  31
0
  0
LINE
  5
17a
  100
AcDbEntity
  8
1
  100
AcDbLine
  10
24.352
  20
-1.562315
  30
0
  11
24.344
  21
-1.57004
  31
0
  0
LINE
  5
17b
  100
AcDbEntity
  8
1
  100
AcDbLine
  10
24.344
  20
-1.57004
  30
0
  11
24.336
  21
-1.577764
  31
0
  0
LINE
  5
17c
  100
AcDbEntity
  8
1
  100
AcDbLine
  10
24.336
  20
-1.577764
  30
0
  11
24.328
  21
-1.585489
  31
0
  0
LINE
  5
17d
  100
AcDbEntity
  8
1
  100
AcDbLine
  10
24.328
  20
-1.585489
  30
0
  11
24.32
  21
-1.593213
  31
0
  0
LINE
  5
17e
  100
AcDbEntity
  8
1
  100
AcDbLine
  10
24.32
  20
-1.593213
  30
0
  11
24.312
  21
-1.600937
  31
0
  0
LINE
  5
17f
  100
AcDbEntity
  8
1
  100
AcDbLine
  10
24.312
  20
-1.600937
  30
0
  11
24.304
  21
-1.608662
  31
0
  0
LINE
  5
180
  100
AcDbEntity
  8
1
  100
AcDbLine
  10
24.304
  20
-1.608662
  30
0
  11
24.296
  21
-1.616386
  31
0
  0
LINE
  5
181
  100
AcDbEntity
  8
1
  100
AcDbLine
  10
24.296
  20
-1.616386
  30
0
  11
24.288
  21
-1.62411
  31
0
  0
LINE
  5
182
  100
AcDbEntity
  8
1
  100
AcDbLine
  10
24.288
  20
-1.62411
  30
0
  11
24.28
  21
-1.631833
  31
0
  0
LINE
  5
183
  100
AcDbEntity
  8
1
  100
AcDbLine
  10
24.28
  20
-1.631833
  30
0
  11
24.272
  21
-1.639557
  31
0
  0
LINE
  5
184
  100
AcDbEntity
  8
1
  100
AcDbLine
  10
24.272
  20
-1.639557
  30
0
  11
24.264
  21
-1.647281
  31
0
  0
LINE
  5
185
  100
AcDbEntity
  8
1
  100
AcDbLine
  10
24.264
  20
-1.647281
  30
0
  11
24.256
  21
-1.655004
  31
0
  0
LINE
  5
186
  100
AcDbEntity
  8
1
  100
AcDbLine
  10
24.256
  20
-1.655004
  30
0
  11
24.248
  21
-1.662728
  31
0
  0
LINE
  5
187
  100
AcDbEntity
  8
1
  100
AcDbLine
  10
24.248
  20
-1.662728
  30
0
  11
24.24
  21
-1.670451
  31
0
  0
LINE
  5
188
  100
AcDbEntity
  8
1
  100
AcDbLine
  10
24.24
  20
-1.670451
  30
0
  11
24.232
  21
-1.678174
  31
0
  0
LINE
  5
189
  100
AcDbEntity
  8
1
  100
AcDbLine
  10
24.232
  20
-1.678174
  30
0
  11
24.224
  21
-1.685898
  31
0
  0
LINE
  5
18a
  100
AcDbEntity
  8
1
  100
AcDbLine
  10
24.224
  20
-1.685898
  30
0
  11
24.216
  21
-1.693621
  31
0
  0
LINE
  5
18b
  100
AcDbEntity
  8
1
  100
AcDbLine
  10
24.216
  20
-1.693621
  30
0
  11
24.208
  21
-1.701344
  31
0
  0
LINE
  5
18c
  100
AcDbEntity
  8
1
  100
AcDbLine
  10
24.208
  20
-1.701344
  30
0
  11
24.2
  21
-1.709066
  31
0
  0
LINE
  5
18d
  100
AcDbEntity
  8
1
  100
AcDbLine
  10
24.2
  20
-1.709066
  30
0
  11
24.192
  21
-1.716789
  31
0
  0
LINE
  5
18e
  100
AcDbEntity
  8
1
  100
AcDbLine
  10
24.192
  20
-1.716789
  30
0
  11
24.184
  21
-1.724512
  31
0
  0
LINE
  5
18f
  100
AcDbEntity
  8
1
  100
AcDbLine
  10
24.184
  20
-1.724512
  30
0
  11
24.176
  21
-1.732235
  31
0
  0
LINE
  5
190
  100
AcDbEntity
  8
1
  100
AcDbLine
  10
24.176
  20
-1.732235
  30
0
  11
24.168
  21
-1.739957
  31
0
  0
LINE
  5
191
  100
AcDbEntity
  8
1
  100
AcDbLine
  10
24.168
  20
-1.739957
  30
0
  11
24.16
  21
-1.74768
  31
0
  0
LINE
  5
192
  100
AcDbEntity
  8
1
  100
AcDbLine
  10
24.16
  20
-1.74768
  30
0
  11
24.152
  21
-1.755402
  31
0
  0
LINE
  5
193
  100
AcDbEntity
  8
1
  100
AcDbLine
  10
24.152
  20
-1.755402
  30
0
  11
24.144
  21
-1.763124
  31
0
  0
LINE
  5
194
  100
AcDbEntity
  8
1
  100
AcDbLine
  10
24.144
  20
-1.763124
  30
0
  11
24.136
  21
-1.770847
  31
0
  0
LINE
  5
195
  100
AcDbEntity
  8
1
  100
AcDbLine
  10
24.136
  20
-1.770847
  30
0
  11
24.128
  21
-1.778569
  31
0
  0
LINE
  5
196
  100
AcDbEntity
  8
1
  100
AcDbLine
  10
24.128
  20
-1.778569
  30
0
  11
24.12
  21
-1.786291
  31
0
  0
LINE
  5
197
  100
AcDbEntity
  8
1
  100
AcDbLine
  10
24.12
  20
-1.786291
  30
0
  11
24.112
  21
-1.794013
  31
0
  0
LINE
  5
198
  100
AcDbEntity
  8
1
  100
AcDbLine
  10
24.112
  20
-1.794013
  30
0
  11
24.104
  21
-1.801735
  31
0
  0
LINE
  5
199
  100
AcDbEntity
  8
1
  100
AcDbLine
  10
24.104
  20
-1.801735
  30
0
  11
24.096
  21
-1.809457
  31
0
  0
LINE
  5
19a
  100
AcDbEntity
  8
1
  100
AcDbLine
  10
24.096
  20
-1.809457
  30
0
  11
24.088
  21
-1.817178
  31
0
  0
LINE
  5
19b
  100
AcDbEntity
  8
1
  100
AcDbLine
  10
24.088
  20
-1.817178
  30
0
  11
24.08
  21
-1.8249
  31
0
  0
LINE
  5
19c
  100
AcDbEntity
  8
1
  100
AcDbLine
  10
24.08
  20
-1.8249
  30
0
  11
24.072
  21
-1.832622
  31
0
  0
LINE
  5
19d
  100
AcDbEntity
  8
1
  100
AcDbLine
  10
24.072
  20
-1.832622
  30
0
  11
24.064
  21
-1.840343
  31
0
  0
LINE
  5
19e
  100
AcDbEntity
  8
1
  100
AcDbLine
  10
24.064
  20
-1.840343
  30
0
  11
24.056
  21
-1.848065
  31
0
  0
LINE
  5
19f
  100
AcDbEntity
  8
1
  100
AcDbLine
  10
24.056
  20
-1.848065
  30
0
  11
24.048
  21
-1.855786
  31
0
  0
LINE
  5
1a0
  100
AcDbEntity
  8
1
  100
AcDbLine
  10
24.048
  20
-1.855786
  30
0
  11
24.04
  21
-1.863507
  31
0
  0
LINE
  5
1a1
  100
AcDbEntity
  8
1
  100
AcDbLine
  10
24.04
  20
-1.863507
  30
0
  11
24.032
  21
-1.871229
  31
0
  0
LINE
  5
1a2
  100
AcDbEntity
  8
1
  100
AcDbLine
  10
24.032
  20
-1.871229
  30
0
  11
24.024
  21
-1.87895
  31
0
  0
LINE
  5
1a3
  100
AcDbEntity
  8
1
  100
AcDbLine
  10
24.024
  20
-1.87895
  30
0
  11
24.016
  21
-1.886671
  31
0
  0
LINE
  5
1a4
  100
AcDbEntity
  8
1
  100
AcDbLine
  10
24.016
  20
-1.886671
  30
0
  11
24.008
  21
-1.894392
  31
0
  0
LINE
  5
1a5
  100
AcDbEntity
  8
1
  100
AcDbLine
  10
24.008
  20
-1.894392
  30
0
  11
23.992
  21
-1.901887
  31
0
  0
LINE
  5
1a6
  100
AcDbEntity
  8
1
  100
AcDbLine
  10
23.992
  20
-1.901887
  30
0
  11
23.984
  21
-1.901207
  31
0
  0
LINE
  5
1a7
  100
AcDbEntity
  8
1
  100
AcDbLine
  10
23.984
  20
-1.901207
  30
0
  11
23.976
  21
-1.900069
  31
0
  0
LINE
  5
1a8
  100
AcDbEntity
  8
1
  100
AcDbLine
  10
23.976
  20
-1.900069
  30
0
  11
23.968
  21
-1.898466
  31
0
  0
LINE
  5
1a9
  100
AcDbEntity
  8
1
  100
AcDbLine
  10
23.968
  20
-1.898466
  30
0
  11
23.96
  21
-1.896391
  31
0
  0
LINE
  5
1aa
  100
AcDbEntity
  8
1
  100
AcDbLine
  10
23.96
  20
-1.896391
  30
0
  11
23.952
  21
-1.89383
  31
0
  0
LINE
  5
1ab
  100
AcDbEntity
  8
1
  100
AcDbLine
  10
23.952
  20
-1.89383
  30
0
  11
23.944
  21
-1.890771
  31
0
  0
LINE
  5
1ac
  100
AcDbEntity
  8
1
  100
AcDbLine
  10
23.944
  20
-1.890771
  30
0
  11
23.936
  21
-1.887198
  31
0
  0
LINE
  5
1ad
  100
AcDbEntity
  8
1
  100
AcDbLine
  10
23.936
  20
-1.887198
  30
0
  11
23.928
  21
-1.883091
  31
0
  0
LINE
  5
1ae
  100
AcDbEntity
  8
1
  100
AcDbLine
  10
23.928
  20
-1.883091
  30
0
  11
23.92
  21
-1.878431
  31
0
  0
LINE
  5
1af
  100
AcDbEntity
  8
1
  100
AcDbLine
  10
23.92
  20
-1.878431
  30
0
  11
23.912
  21
-1.873196
  31
0
  0
LINE
  5
1b0
  100
AcDbEntity
  8
1
  100
AcDbLine
  10
23.912
  20
-1.873196
  30
0
  11
23.904
  21
-1.867361
  31
0
  0
LINE
  5
1b1
  100
AcDbEntity
  8
1
  100
AcDbLine
  10
23.904
  20
-1.867361
  30
0
  11
23.896
  21
-1.860901
  31
0
  0
LINE
  5
1b2
  100
AcDbEntity
  8
1
  100
AcDbLine
  10
23.896
  20
-1.860901
  30
0
  11
23.888
  21
-1.85379
  31
0
  0
LINE
  5
1b3
  100
AcDbEntity
  8
1
  100
AcDbLine
  10
23.888
  20
-1.85379
  30
0
  11
23.88
  21
-1.845998
  31
0
  0
LINE
  5
1b4
  100
AcDbEntity
  8
1
  100
AcDbLine
  10
23.88
  20
-1.845998
  30
0
  11
23.872
  21
-1.837499
  31
0
  0
LINE
  5
1b5
  100
AcDbEntity
  8
1
  100
AcDbLine
  10
23.872
  20
-1.837499
  30
0
  11
23.864
  21
-1.828261
  31
0
  0
LINE
  5
1b6
  100
AcDbEntity
  8
1
  100
AcDbLine
  10
23.864
  20
-1.828261
  30
0
  11
23.856
  21
-1.818255
  31
0
  0
LINE
  5
1b7
  100
AcDbEntity
  8
1
  100
AcDbLine
  10
23.856
  20
-1.818255
  30
0
  11
23.848
  21
-1.807451
  31
0
  0
LINE
  5
1b8
  100
AcDbEntity
  8
1
  100
AcDbLine
  10
23.848
  20
-1.807451
  30
0
  11
23.84
  21
-1.795818
  31
0
  0
LINE
  5
1b9
  100
AcDbEntity
  8
1
  100
AcDbLine
  10
23.84
  20
-1.795818
  30
0
  11
23.832
  21
-1.783328
  31
0
  0
LINE
  5
1ba
  100
AcDbEntity
  8
1
  100
AcDbLine
  10
23.832
  20
-1.783328
  30
0
  11
23.824
  21
-1.76995
  31
0
  0
LINE
  5
1bb
  100
AcDbEntity
  8
1
  100
AcDbLine
  10
23.824
  20
-1.76995
  30
0
  11
23.816
  21
-1.755657
  31
0
  0
LINE
  5
1bc
  100
AcDbEntity
  8
1
  100
AcDbLine
  10
23.816
  20
-1.755657
  30
0
  11
23.808
  21
-1.740421
  31
0
  0
LINE
  5
1bd
  100
AcDbEntity
  8
1
  100
AcDbLine
  10
23.808
  20
-1.740421
  30
0
  11
23.8
  21
-1.724216
  31
0
  0
LINE
  5
1be
  100
AcDbEntity
  8
1
  100
AcDbLine
  10
23.8
  20
-1.724216
  30
0
  11
23.792
  21
-1.70702
  31
0
  0
LINE
  5
1bf
  100
AcDbEntity
  8
1
  100
AcDbLine
  10
23.792
  20
-1.70702
  30
0
  11
23.784
  21
-1.688808
  31
0
  0
LINE
  5
1c0
  100
AcDbEntity
  8
1
  100
AcDbLine
  10
23.784
  20
-1.688808
  30
0
  11
23.776
  21
-1.669563
  31
0
  0
LINE
  5
1c1
  100
AcDbEntity
  8
1
  100
AcDbLine
  10
23.776
  20
-1.669563
  30
0
  11
23.768
  21
-1.649266
  31
0
  0
LINE
  5
1c2
  100
AcDbEntity
  8
1
  100
AcDbLine
  10
23.768
  20
-1.649266
  30
0
  11
23.76
  21
-1.627903
  31
0
  0
LINE
  5
1c3
  100
AcDbEntity
  8
1
  100
AcDbLine
  10
23.76
  20
-1.627903
  30
0
  11
23.752
  21
-1.605461
  31
0
  0
LINE
  5
1c4
  100
AcDbEntity
  8
1
  100
AcDbLine
  10
23.752
  20
-1.605461
  30
0
  11
23.744
  21
-1.581933
  31
0
  0
LINE
  5
1c5
  100
AcDbEntity
  8
1
  100
AcDbLine
  10
23.744
  20
-1.581933
  30
0
  11
23.736
  21
-1.557313
  31
0
  0
LINE
  5
1c6
  100
AcDbEntity
  8
1
  100
AcDbLine
  10
23.736
  20
-1.557313
  30
0
  11
23.728
  21
-1.5316
  31
0
  0
LINE
  5
1c7
  100
AcDbEntity
  8
1
  100
AcDbLine
  10
23.728
  20
-1.5316
  30
0
  11
23.72
  21
-1.504795
  31
0
  0
LINE
  5
1c8
  100
AcDbEntity
  8
1
  100
AcDbLine
  10
23.72
  20
-1.504795
  30
0
  11
23.712
  21
-1.476904
  31
0
  0
LINE
  5
1c9
  100
AcDbEntity
  8
1
  100
AcDbLine
  10
23.712
  20
-1.476904
  30
0
  11
23.704
  21
-1.447936
  31
0
  0
LINE
  5
1ca
  100
AcDbEntity
  8
1
  100
AcDbLine
  10
23.704
  20
-1.447936
  30
0
  11
23.696
  21
-1.417906
  31
0
  0
LINE
  5
1cb
  100
AcDbEntity
  8
1
  100
AcDbLine
  10
23.696
  20
-1.417906
  30
0
  11
23.688
  21
-1.38683
  31
0
  0
LINE
  5
1cc
  100
AcDbEntity
  8
1
  100
AcDbLine
  10
23.688
  20
-1.38683
  30
0
  11
23.68
  21
-1.354731
  31
0
  0
LINE
  5
1cd
  100
AcDbEntity
  8
1
  100
AcDbLine
  10
23.68
  20
-1.354731
  30
0
  11
23.672
  21
-1.321635
  31
0
  0
LINE
  5
1ce
  100
AcDbEntity
  8
1
  100
AcDbLine
  10
23.672
  20
-1.321635
  30
0
  11
23.664
  21
-1.28757
  31
0
  0
LINE
  5
1cf
  100
AcDbEntity
  8
1
  100
AcDbLine
  10
23.664
  20
-1.28757
  30
0
  11
23.656
  21
-1.252572
  31
0
  0
LINE
  5
1d0
  100
AcDbEntity
  8
1
  100
AcDbLine
  10
23.656
  20
-1.252572
  30
0
  11
23.648
  21
-1.216677
  31
0
  0
LINE
  5
1d1
  100
AcDbEntity
  8
1
  100
AcDbLine
  10
23.648
  20
-1.216677
  30
0
  11
23.64
  21
-1.179928
  31
0
  0
LINE
  5
1d2
  100
AcDbEntity
  8
1
  100
AcDbLine
  10
23.64
  20
-1.179928
  30
0
  11
23.632
  21
-1.142369
  31
0
  0
LINE
  5
1d3
  100
AcDbEntity
  8
1
  100
AcDbLine
  10
23.632
  20
-1.142369
  30
0
  11
23.624
  21
-1.10405
  31
0
  0
LINE
  5
1d4
  100
AcDbEntity
  8
1
  100
AcDbLine
  10
23.624
  20
-1.10405
  30
0
  11
23.616
  21
-1.065021
  31
0
  0
LINE
  5
1d5
  100
AcDbEntity
  8
1
  100
AcDbLine
  10
23.616
  20
-1.065021
  30
0
  11
23.608
  21
-1.02534
  31
0
  0
LINE
  5
1d6
  100
AcDbEntity
  8
1
  100
AcDbLine
  10
23.608
  20
-1.02534
  30
0
  11
23.6
  21
-0.985063
  31
0
  0
LINE
  5
1d7
  100
AcDbEntity
  8
1
  100
AcDbLine
  10
23.6
  20
-0.985063
  30
0
  11
23.6
  21
-0.94167
  31
0
  0
LINE
  5
1d8
  100
AcDbEntity
  8
1
  100
AcDbLine
  10
23.6
  20
-0.94167
  30
0
  11
23.608
  21
-0.91439
  31
0
  0
LINE
  5
1d9
  100
AcDbEntity
  8
1
  100
AcDbLine
  10
23.608
  20
-0.91439
  30
0
  11
23.616
  21
-0.886919
  31
0
  0
LINE
  5
1da
  100
AcDbEntity
  8
1
  100
AcDbLine
  10
23.616
  20
-0.886919
  30
0
  11
23.624
  21
-0.859294
  31
0
  0
LINE
  5
1db
  100
AcDbEntity
  8
1
  100
AcDbLine
  10
23.624
  20
-0.859294
  30
0
  11
23.632
  21
-0.831549
  31
0
  0
LINE
  5
1dc
  100
AcDbEntity
  8
1
  100
AcDbLine
  10
23.632
  20
-0.831549
  30
0
  11
23.64
  21
-0.80372
  31
0
  0
LINE
  5
1dd
  100
AcDbEntity
  8
1
  100
AcDbLine
  10
23.64
  20
-0.80372
  30
0
  11
23.648
  21
-0.775844
  31
0
  0
LINE
  5
1de
  100
AcDbEntity
  8
1
  100
AcDbLine
  10
23.648
  20
-0.775844
  30
0
  11
23.656
  21
-0.747957
  31
0
  0
LINE
  5
1df
  100
AcDbEntity
  8
1
  100
AcDbLine
  10
23.656
  20
-0.747957
  30
0
  11
23.664
  21
-0.720098
  31
0
  0
LINE
  5
1e0
  100
AcDbEntity
  8
1
  100
AcDbLine
  10
23.664
  20
-0.720098
  30
0
  11
23.672
  21
-0.692302
  31
0
  0
LINE
  5
1e1
  100
AcDbEntity
  8
1
  100
AcDbLine
  10
23.672
  20
-0.692302
  30
0
  11
23.68
  21
-0.664609
  31
0
  0
LINE
  5
1e2
  100
AcDbEntity
  8
1
  100
AcDbLine
  10
23.68
  20
-0.664609
  30
0
  11
23.688
  21
-0.637054
  31
0
  0
LINE
  5
1e3
  100
AcDbEntity
  8
1
  100
AcDbLine
  10
23.688
  20
-0.637054
  30
0
  11
23.696
  21
-0.609677
  31
0
  0
LINE
  5
1e4
  100
AcDbEntity
  8
1
  100
AcDbLine
  10
23.696
  20
-0.609677
  30
0
  11
23.704
  21
-0.582514
  31
0
  0
LINE
  5
1e5
  100
AcDbEntity
  8
1
  100
AcDbLine
  10
23.704
  20
-0.582514
  30
0
  11
23.712
  21
-0.555602
  31
0
  0
LINE
  5
1e6
  100
AcDbEntity
  8
1
  100
AcDbLine
  10
23.712
  20
-0.555602
  30
0
  11
23.72
  21
-0.528978
  31
0
  0
LINE
  5
1e7
  100
AcDbEntity
  8
1
  100
AcDbLine
  10
23.72
  20
-0.528978
  30
0
  11
23.728
  21
-0.502679
  31
0
  0
LINE
  5
1e8
  100
AcDbEntity
  8
1
  100
AcDbLine
  10
23.728
  20
-0.502679
  30
0
  11
23.736
  21
-0.476738
  31
0
  0
LINE
  5
1e9
  100
AcDbEntity
  8
1
  100
AcDbLine
  10
23.736
  20
-0.476738
  30
0
  11
23.744
  21
-0.451192
  31
0
  0
LINE
  5
1ea
  100
AcDbEntity
  8
1
  100
AcDbLine
  10
23.744
  20
-0.451192
  30
0
  11
23.752
  21
-0.426076
  31
0
  0
LINE
  5
1eb
  100
AcDbEntity
  8
1
  100
AcDbLine
  10
23.752
  20
-0.426076
  30
0
  11
23.76
  21
-0.401421
  31
0
  0
LINE
  5
1ec
  100
AcDbEntity
  8
1
  100
AcDbLine
  10
23.76
  20
-0.401421
  30
0
  11
23.768
  21
-0.377261
  31
0
  0
LINE
  5
1ed
  100
AcDbEntity
  8
1
  100
AcDbLine
  10
23.768
  20
-0.377261
  30
0
  11
23.776
  21
-0.353628
  31
0
  0
LINE
  5
1ee
  100
AcDbEntity
  8
1
  100
AcDbLine
  10
23.776
  20
-0.353628
  30
0
  11
23.784
  21
-0.330551
  31
0
  0
LINE
  5
1ef
  100
AcDbEntity
  8
1
  100
AcDbLine
  10
23.784
  20
-0.330551
  30
0
  11
23.792
  21
-0.308062
  31
0
  0
LINE
  5
1f0
  100
AcDbEntity
  8
1
  100
AcDbLine
  10
23.792
  20
-0.308062
  30
0
  11
23.8
  21
-0.286189
  31
0
  0
LINE
  5
1f1
  100
AcDbEntity
  8
1
  100
AcDbLine
  10
23.8
  20
-0.286189
  30
0
  11
23.808
  21
-0.264958
  31
0
  0
LINE
  5
1f2
  100
AcDbEntity
  8
1
  100
AcDbLine
  10
23.808
  20
-0.264958
  30
0
  11
23.816
  21
-0.244397
  31
0
  0
LINE
  5
1f3
  100
AcDbEntity
  8
1
  100
AcDbLine
  10
23.816
  20
-0.244397
  30
0
  11
23.824
  21
-0.224532
  31
0
  0
LINE
  5
1f4
  100
AcDbEntity
  8
1
  100
AcDbLine
  10
23.824
  20
-0.224532
  30
0
  11
23.832
  21
-0.205385
  31
0
  0
LINE
  5
1f5
  100
AcDbEntity
  8
1
  100
AcDbLine
  10
23.832
  20
-0.205385
  30
0
  11
23.84
  21
-0.186981
  31
0
  0
LINE
  5
1f6
  100
AcDbEntity
  8
1
  100
AcDbLine
  10
23.84
  20
-0.186981
  30
0
  11
23.848
  21
-0.16934
  31
0
  0
LINE
  5
1f7
  100
AcDbEntity
  8
1
  100
AcDbLine
  10
23.848
  20
-0.16934
  30
0
  11
23.856
  21
-0.152484
  31
0
  0
LINE
  5
1f8
  100
AcDbEntity
  8
1
  100
AcDbLine
  10
23.856
  20
-0.152484
  30
0
  11
23.864
  21
-0.136433
  31
0
  0
LINE
  5
1f9
  100
AcDbEntity
  8
1
  100
AcDbLine
  10
23.864
  20
-0.136433
  30
0
  11
23.872
  21
-0.121204
  31
0
  0
LINE
  5
1fa
  100
AcDbEntity
  8
1
  100
AcDbLine
  10
23.872
  20
-0.121204
  30
0
  11
23.88
  21
-0.106814
  31
0
  0
LINE
  5
1fb
  100
AcDbEntity
  8
1
  100
AcDbLine
  10
23.88
  20
-0.106814
  30
0
  11
23.888
  21
-0.093281
  31
0
  0
LINE
  5
1fc
  100
AcDbEntity
  8
1
  100
AcDbLine
  10
23.888
  20
-0.093281
  30
0
  11
23.896
  21
-0.080618
  31
0
  0
LINE
  5
1fd
  100
AcDbEntity
  8
1
  100
AcDbLine
  10
23.896
  20
-0.080618
  30
0
  11
23.904
  21
-0.068839
  31
0
  0
LINE
  5
1fe
  100
AcDbEntity
  8
1
  100
AcDbLine
  10
23.904
  20
-0.068839
  30
0
  11
23.912
  21
-0.057957
  31
0
  0
LINE
  5
1ff
  100
AcDbEntity
  8
1
  100
AcDbLine
  10
23.912
  20
-0.057957
  30
0
  11
23.92
  21
-0.047983
  31
0
  0
LINE
  5
200
  100
AcDbEntity
  8
1
  100
AcDbLine
  10
23.92
  20
-0.047983
  30
0
  11
23.928
  21
-0.038929
  31
0
  0
LINE
  5
201
  100
AcDbEntity
  8
1
  100
AcDbLine
  10
23.928
  20
-0.038929
  30
0
  11
23.936
  21
-0.030802
  31
0
  0
LINE
  5
202
  100
AcDbEntity
  8
1
  100
AcDbLine
  10
23.936
  20
-0.030802
  30
0
  11
23.944
  21
-0.023612
  31
0
  0
LINE
  5
203
  100
AcDbEntity
  8
1
  100
AcDbLine
  10
23.944
  20
-0.023612
  30
0
  11
23.952
  21
-0.017367
  31
0
  0
LINE
  5
204
  100
AcDbEntity
  8
1
  100
AcDbLine
  10
23.952
  20
-0.017367
  30
0
  11
23.96
  21
-0.012071
  31
0
  0
LINE
  5
205
  100
AcDbEntity
  8
1
  100
AcDbLine
  10
23.96
  20
-0.012071
  30
0
  11
23.968
  21
-0.007731
  31
0
  0
LINE
  5
206
  100
AcDbEntity
  8
1
  100
AcDbLine
  10
23.968
  20
-0.007731
  30
0
  11
23.976
  21
-0.004351
  31
0
  0
LINE
  5
207
  100
AcDbEntity
  8
1
  100
AcDbLine
  10
23.976
  20
-0.004351
  30
0
  11
23.984
  21
-0.001935
  31
0
  0
LINE
  5
208
  100
AcDbEntity
  8
1
  100
AcDbLine
  10
23.984
  20
-0.001935
  30
0
  11
23.992
  21
-0.000484
  31
0
  0
LINE
  5
209
  100
AcDbEntity
  8
1
  100
AcDbLine
  10
23.992
  20
-0.000484
  30
0
  11
24.008
  21
0.001124
  31
0
  0
LINE
  5
20a
  100
AcDbEntity
  8
1
  100
AcDbLine
  10
24.008
  20
0.001124
  30
0
  11
24.016
  21
0.002249
  31
0
  0
LINE
  5
20b
  100
AcDbEntity
  8
1
  100
AcDbLine
  10
24.016
  20
0.002249
  30
0
  11
24.024
  21
0.003373
  31
0
  0
LINE
  5
20c
  100
AcDbEntity
  8
1
  100
AcDbLine
  10
24.024
  20
0.003373
  30
0
  11
24.032
  21
0.004498
  31
0
  0
LINE
  5
20d
  100
AcDbEntity
  8
1
  100
AcDbLine
  10
24.032
  20
0.004498
  30
0
  11
24.04
  21
0.005623
  31
0
  0
LINE
  5
20e
  100
AcDbEntity
  8
1
  100
AcDbLine
  10
24.04
  20
0.005623
  30
0
  11
24.048
  21
0.006748
  31
0
  0
LINE
  5
20f
  100
AcDbEntity
  8
1
  100
AcDbLine
  10
24.048
  20
0.006748
  30
0
  11
24.056
  21
0.007873
  31
0
  0
LINE
  5
210
  100
AcDbEntity
  8
1
  100
AcDbLine
  10
24.056
  20
0.007873
  30
0
  11
24.064
  21
0.008998
  31
0
  0
LINE
  5
211
  100
AcDbEntity
  8
1
  100
AcDbLine
  10
24.064
  20
0.008998
  30
0
  11
24.072
  21
0.010123
  31
0
  0
LINE
  5
212
  100
AcDbEntity
  8
1
  100
AcDbLine
  10
24.072
  20
0.010123
  30
0
  11
24.08
  21
0.011248
  31
0
  0
LINE
  5
213
  100
AcDbEntity
  8
1
  100
AcDbLine
  10
24.08
  20
0.011248
  30
0
  11
24.088
  21
0.012373
  31
0
  0
LINE
  5
214
  100
AcDbEntity
  8
1
  100
AcDbLine
  10
24.088
  20
0.012373
  30
0
  11
24.096
  21
0.013499
  31
0
  0
LINE
  5
215
  100
AcDbEntity
  8
1
  100
AcDbLine
  10
24.096
  20
0.013499
  30
0
  11
24.104
  21
0.014624
  31
0
  0
LINE
  5
216
  100
AcDbEntity
  8
1
  100
AcDbLine
  10
24.104
  20
0.014624
  30
0
  11
24.112
  21
0.01575
  31
0
  0
LINE
  5
217
  100
AcDbEntity
  8
1
  100
AcDbLine
  10
24.112
  20
0.01575
  30
0
  11
24.12
  21
0.016876
  31
0
  0
LINE
  5
218
  100
AcDbEntity
  8
1
  100
AcDbLine
  10
24.12
  20
0.016876
  30
0
  11
24.128
  21
0.018001
  31
0
  0
LINE
  5
219
  100
AcDbEntity
  8
1
  100
AcDbLine
  10
24.128
  20
0.018001
  30
0
  11
24.136
  21
0.019127
  31
0
  0
LINE
  5
21a
  100
AcDbEntity
  8
1
  100
AcDbLine
  10
24.136
  20
0.019127
  30
0
  11
24.144
  21
0.020253
  31
0
  0
LINE
  5
21b
  100
AcDbEntity
  8
1
  100
AcDbLine
  10
24.144
  20
0.020253
  30
0
  11
24.152
  21
0.02138
  31
0
  0
LINE
  5
21c
  100
AcDbEntity
  8
1
  100
AcDbLine
  10
24.152
  20
0.02138
  30
0
  11
24.16
  21
0.022506
  31
0
  0
LINE
  5
21d
  100
AcDbEntity
  8
1
  100
AcDbLine
  10
24.16
  20
0.022506
  30
0
  11
24.168
  21
0.023632
  31
0
  0
LINE
  5
21e
  100
AcDbEntity
  8
1
  100
AcDbLine
  10
24.168
  20
0.023632
  30
0
  11
24.176
  21
0.024759
  31
0
  0
LINE
  5
21f
  100
AcDbEntity
  8
1
  100
AcDbLine
  10
24.176
  20
0.024759
  30
0
  11
24.184
  21
0.025885
  31
0
  0
LINE
  5
220
  100
AcDbEntity
  8
1
  100
AcDbLine
  10
24.184
  20
0.025885
  30
0
  11
24.192
  21
0.027012
  31
0
  0
LINE
  5
221
  100
AcDbEntity
  8
1
  100
AcDbLine
  10
24.192
  20
0.027012
  30
0
  11
24.2
  21
0.028139
  31
0
  0
LINE
  5
222
  100
AcDbEntity
  8
1
  100
AcDbLine
  10
24.2
  20
0.028139
  30
0
  11
24.208
  21
0.029266
  31
0
  0
LINE
  5
223
  100
AcDbEntity
  8
1
  100
AcDbLine
  10
24.208
  20
0.029266
  30
0
  11
24.216
  21
0.030393
  31
0
  0
LINE
  5
224
  100
AcDbEntity
  8
1
  100
AcDbLine
  10
24.216
  20
0.030393
  30
0
  11
24.224
  21
0.03152
  31
0
  0
LINE
  5
225
  100
AcDbEntity
  8
1
  100
AcDbLine
  10
24.224
  20
0.03152
  30
0
  11
24.232
  21
0.032648
  31
0
  0
LINE
  5
226
  100
AcDbEntity
  8
1
  100
AcDbLine
  10
24.232
  20
0.032648
  30
0
  11
24.24
  21
0.033775
  31
0
  0
LINE
  5
227
  100
AcDbEntity
  8
1
  100
AcDbLine
  10
24.24
  20
0.033775
  30
0
  11
24.248
  21
0.034903
  31
0
  0
LINE
  5
228
  100
AcDbEntity
  8
1
  100
AcDbLine
  10
24.248
  20
0.034903
  30
0
  11
24.256
  21
0.036031
  31
0
  0
LINE
  5
229
  100
AcDbEntity
  8
1
  100
AcDbLine
  10
24.256
  20
0.036031
  30
0
  11
24.264
  21
0.037159
  31
0
  0
LINE
  5
22a
  100
AcDbEntity
  8
1
  100
AcDbLine
  10
24.264
  20
0.037159
  30
0
  11
24.272
  21
0.038287
  31
0
  0
LINE
  5
22b
  100
AcDbEntity
  8
1
  100
AcDbLine
  10
24.272
  20
0.038287
  30
0
  11
24.28
  21
0.039415
  31
0
  0
LINE
  5
22c
  100
AcDbEntity
  8
1
  100
AcDbLine
  10
24.28
  20
0.039415
  30
0
  11
24.288
  21
0.040543
  31
0
  0
LINE
  5
22d
  100
AcDbEntity
  8
1
  100
AcDbLine
  10
24.288
  20
0.040543
  30
0
  11
24.296
  21
0.041672
  31
0
  0
LINE
  5
22e
  100
AcDbEntity
  8
1
  100
AcDbLine
  10
24.296
  20
0.041672
  30
0
  11
24.304
  21
0.0428
  31
0
  0
LINE
  5
22f
  100
AcDbEntity
  8
1
  100
AcDbLine
  10
24.304
  20
0.0428
  30
0
  11
24.312
  21
0.043929
  31
0
  0
LINE
  5
230
  100
AcDbEntity
  8
1
  100
AcDbLine
  10
24.312
  20
0.043929
  30
0
  11
24.32
  21
0.045058
  31
0
  0
LINE
  5
231
  100
AcDbEntity
  8
1
  100
AcDbLine
  10
24.32
  20
0.045058
  30
0
  11
24.328
  21
0.046187
  31
0
  0
LINE
  5
232
  100
AcDbEntity
  8
1
  100
AcDbLine
  10
24.328
  20
0.046187
  30
0
  11
24.336
  21
0.047316
  31
0
  0
LINE
  5
233
  100
AcDbEntity
  8
1
  100
AcDbLine
  10
24.336
  20
0.047316
  30
0
  11
24.344
  21
0.048446
  31
0
  0
LINE
  5
234
  100
AcDbEntity
  8
1
  100
AcDbLine
  10
24.344
  20
0.048446
  30
0
  11
24.352
  21
0.049575
  31
0
  0
LINE
  5
235
  100
AcDbEntity
  8
1
  100
AcDbLine
  10
24.352
  20
0.049575
  30
0
  11
24.36
  21
0.050705
  31
0
  0
LINE
  5
236
  100
AcDbEntity
  8
1
  100
AcDbLine
  10
24.36
  20
0.050705
  30
0
  11
24.368
  21
0.051835
  31
0
  0
LINE
  5
237
  100
AcDbEntity
  8
1
  100
AcDbLine
  10
24.368
  20
0.051835
  30
0
  11
24.376
  21
0.052965
  31
0
  0
LINE
  5
238
  100
AcDbEntity
  8
1
  100
AcDbLine
  10
24.376
  20
0.052965
  30
0
  11
24.384
  21
0.054095
  31
0
  0
LINE
  5
239
  100
AcDbEntity
  8
1
  100
AcDbLine
  10
24.384
  20
0.054095
  30
0
  11
24.392
  21
0.055225
  31
0
  0
LINE
  5
23a
  100
AcDbEntity
  8
1
  100
AcDbLine
  10
24.392
  20
0.055225
  30
0
  11
24.4
  21
0.056356
  31
0
  0
LINE
  5
23b
  100
AcDbEntity
  8
1
  100
AcDbLine
  10
24.4
  20
0.056356
  30
0
  11
24.408
  21
0.057487
  31
0
  0
LINE
  5
23c
  100
AcDbEntity
  8
1
  100
AcDbLine
  10
24.408
  20
0.057487
  30
0
  11
24.416
  21
0.058617
  31
0
  0
LINE
  5
23d
  100
AcDbEntity
  8
1
  100
AcDbLine
  10
24.416
  20
0.058617
  30
0
  11
24.424
  21
0.059749
  31
0
  0
LINE
  5
23e
  100
AcDbEntity
  8
1
  100
AcDbLine
  10
24.424
  20
0.059749
  30
0
  11
24.432
  21
0.06088
  31
0
  0
LINE
  5
23f
  100
AcDbEntity
  8
1
  100
AcDbLine
  10
24.432
  20
0.06088
  30
0
  11
24.44
  21
0.062011
  31
0
  0
LINE
  5
240
  100
AcDbEntity
  8
1
  100
AcDbLine
  10
24.44
  20
0.062011
  30
0
  11
24.448
  21
0.063143
  31
0
  0
LINE
  5
241
  100
AcDbEntity
  8
1
  100
AcDbLine
  10
24.448
  20
0.063143
  30
0
  11
24.456
  21
0.064275
  31
0
  0
LINE
  5
242
  100
AcDbEntity
  8
1
  100
AcDbLine
  10
24.456
  20
0.064275
  30
0
  11
24.464
  21
0.065407
  31
0
  0
LINE
  5
243
  100
AcDbEntity
  8
1
  100
AcDbLine
  10
24.464
  20
0.065407
  30
0
  11
24.472
  21
0.066539
  31
0
  0
LINE
  5
244
  100
AcDbEntity
  8
1
  100
AcDbLine
  10
24.472
  20
0.066539
  30
0
  11
24.48
  21
0.067671
  31
0
  0
LINE
  5
245
  100
AcDbEntity
  8
1
  100
AcDbLine
  10
24.48
  20
0.067671
  30
0
  11
24.488
  21
0.068804
  31
0
  0
LINE
  5
246
  100
AcDbEntity
  8
1
  100
AcDbLine
  10
24.488
  20
0.068804
  30
0
  11
24.496
  21
0.069937
  31
0
  0
LINE
  5
247
  100
AcDbEntity
  8
1
  100
AcDbLine
  10
24.496
  20
0.069937
  30
0
  11
24.504
  21
0.07107
  31
0
  0
LINE
  5
248
  100
AcDbEntity
  8
1
  100
AcDbLine
  10
24.504
  20
0.07107
  30
0
  11
24.512
  21
0.072203
  31
0
  0
LINE
  5
249
  100
AcDbEntity
  8
1
  100
AcDbLine
  10
24.512
  20
0.072203
  30
0
  11
24.52
  21
0.073337
  31
0
  0
LINE
  5
24a
  100
AcDbEntity
  8
1
  100
AcDbLine
  10
24.52
  20
0.073337
  30
0
  11
24.528
  21
0.07447
  31
0
  0
LINE
  5
24b
  100
AcDbEntity
  8
1
  100
AcDbLine
  10
24.528
  20
0.07447
  30
0
  11
24.536
  21
0.075604
  31
0
  0
LINE
  5
24c
  100
AcDbEntity
  8
1
  100
AcDbLine
  10
24.536
  20
0.075604
  30
0
  11
24.544
  21
0.076739
  31
0
  0
LINE
  5
24d
  100
AcDbEntity
  8
1
  100
AcDbLine
  10
24.544
  20
0.076739
  30
0
  11
24.552
  21
0.077873
  31
0
  0
LINE
  5
24e
  100
AcDbEntity
  8
1
  100
AcDbLine
  10
24.552
  20
0.077873
  30
0
  11
24.56
  21
0.079008
  31
0
  0
LINE
  5
24f
  100
AcDbEntity
  8
1
  100
AcDbLine
  10
24.56
  20
0.079008
  30
0
  11
24.568
  21
0.080143
  31
0
  0
LINE
  5
250
  100
AcDbEntity
  8
1
  100
AcDbLine
  10
24.568
  20
0.080143
  30
0
  11
24.576
  21
0.081278
  31
0
  0
LINE
  5
251
  100
AcDbEntity
  8
1
  100
AcDbLine
  10
24.576
  20
0.081278
  30
0
  11
24.584
  21
0.082413
  31
0
  0
LINE
  5
252
  100
AcDbEntity
  8
1
  100
AcDbLine
  10
24.584
  20
0.082413
  30
0
  11
24.592
  21
0.083549
  31
0
  0
LINE
  5
253
  100
AcDbEntity
  8
1
  100
AcDbLine
  10
24.592
  20
0.083549
  30
0
  11
24.6
  21
0.084685
  31
0
  0
LINE
  5
254
  100
AcDbEntity
  8
1
  100
AcDbLine
  10
24.6
  20
0.084685
  30
0
  11
24.608
  21
0.085821
  31
0
  0
LINE
  5
255
  100
AcDbEntity
  8
1
  100
AcDbLine
  10
24.608
  20
0.085821
  30
0
  11
24.616
  21
0.086957
  31
0
  0
LINE
  5
256
  100
AcDbEntity
  8
1
  100
AcDbLine
  10
24.616
  20
0.086957
  30
0
  11
24.624
  21
0.088094
  31
0
  0
LINE
  5
257
  100
AcDbEntity
  8
1
  100
AcDbLine
  10
24.624
  20
0.088094
  30
0
  11
24.632
  21
0.089231
  31
0
  0
LINE
  5
258
  100
AcDbEntity
  8
1
  100
AcDbLine
  10
24.632
  20
0.089231
  30
0
  11
24.64
  21
0.090369
  31
0
  0
LINE
  5
259
  100
AcDbEntity
  8
1
  100
AcDbLine
  10
24.64
  20
0.090369
  30
0
  11
24.648
  21
0.091506
  31
0
  0
LINE
  5
25a
  100
AcDbEntity
  8
1
  100
AcDbLine
  10
24.648
  20
0.091506
  30
0
  11
24.656
  21
0.092644
  31
0
  0
LINE
  5
25b
  100
AcDbEntity
  8
1
  100
AcDbLine
  10
24.656
  20
0.092644
  30
0
  11
24.664
  21
0.093782
  31
0
  0
LINE
  5
25c
  100
AcDbEntity
  8
1
  100
AcDbLine
  10
24.664
  20
0.093782
  30
0
  11
24.672
  21
0.094921
  31
0
  0
LINE
  5
25d
  100
AcDbEntity
  8
1
  100
AcDbLine
  10
24.672
  20
0.094921
  30
0
  11
24.68
  21
0.09606
  31
0
  0
LINE
  5
25e
  100
AcDbEntity
  8
1
  100
AcDbLine
  10
24.68
  20
0.09606
  30
0
  11
24.688
  21
0.097199
  31
0
  0
LINE
  5
25f
  100
AcDbEntity
  8
1
  100
AcDbLine
  10
24.688
  20
0.097199
  30
0
  11
24.696
  21
0.098338
  31
0
  0
LINE
  5
260
  100
AcDbEntity
  8
1
  100
AcDbLine
  10
24.696
  20
0.098338
  30
0
  11
24.704
  21
0.099478
  31
0
  0
LINE
  5
261
  100
AcDbEntity
  8
1
  100
AcDbLine
  10
24.704
  20
0.099478
  30
0
  11
24.712
  21
0.100618
  31
0
  0
LINE
  5
262
  100
AcDbEntity
  8
1
  100
AcDbLine
  10
24.712
  20
0.100618
  30
0
  11
24.72
  21
0.101759
  31
0
  0
LINE
  5
263
  100
AcDbEntity
  8
1
  100
AcDbLine
  10
24.72
  20
0.101759
  30
0
  11
24.728
  21
0.1029
  31
0
  0
LINE
  5
264
  100
AcDbEntity
  8
1
  100
AcDbLine
  10
24.728
  20
0.1029
  30
0
  11
24.736
  21
0.104041
  31
0
  0
LINE
  5
265
  100
AcDbEntity
  8
1
  100
AcDbLine
  10
24.736
  20
0.104041
  30
0
  11
24.744
  21
0.105182
  31
0
  0
LINE
  5
266
  100
AcDbEntity
  8
1
  100
AcDbLine
  10
24.744
  20
0.105182
  30
0
  11
24.752
  21
0.106324
  31
0
  0
LINE
  5
267
  100
AcDbEntity
  8
1
  100
AcDbLine
  10
24.752
  20
0.106324
  30
0
  11
24.76
  21
0.107467
  31
0
  0
LINE
  5
268
  100
AcDbEntity
  8
1
  100
AcDbLine
  10
24.76
  20
0.107467
  30
0
  11
24.768
  21
0.108609
  31
0
  0
LINE
  5
269
  100
AcDbEntity
  8
1
  100
AcDbLine
  10
24.768
  20
0.108609
  30
0
  11
24.776
  21
0.109753
  31
0
  0
LINE
  5
26a
  100
AcDbEntity
  8
1
  100
AcDbLine
  10
24.776
  20
0.109753
  30
0
  11
24.784
  21
0.110896
  31
0
  0
LINE
  5
26b
  100
AcDbEntity
  8
1
  100
AcDbLine
  10
24.784
  20
0.110896
  30
0
  11
24.792
  21
0.11204
  31
0
  0
LINE
  5
26c
  100
AcDbEntity
  8
1
  100
AcDbLine
  10
24.792
  20
0.11204
  30
0
  11
24.8
  21
0.113185
  31
0
  0
LINE
  5
26d
  100
AcDbEntity
  8
1
  100
AcDbLine
  10
24.8
  20
0.113185
  30
0
  11
24.808
  21
0.114329
  31
0
  0
LINE
  5
26e
  100
AcDbEntity
  8
1
  100
AcDbLine
  10
24.808
  20
0.114329
  30
0
  11
24.816
  21
0.115475
  31
0
  0
LINE
  5
26f
  100
AcDbEntity
  8
1
  100
AcDbLine
  10
24.816
  20
0.115475
  30
0
  11
24.824
  21
0.11662
  31
0
  0
LINE
  5
270
  100
AcDbEntity
  8
1
  100
AcDbLine
  10
24.824
  20
0.11662
  30
0
  11
24.832
  21
0.117767
  31
0
  0
LINE
  5
271
  100
AcDbEntity
  8
1
  100
AcDbLine
  10
24.832
  20
0.117767
  30
0
  11
24.84
  21
0.118913
  31
0
  0
LINE
  5
272
  100
AcDbEntity
  8
1
  100
AcDbLine
  10
24.84
  20
0.118913
  30
0
  11
24.848
  21
0.12006
  31
0
  0
LINE
  5
273
  100
AcDbEntity
  8
1
  100
AcDbLine
  10
24.848
  20
0.12006
  30
0
  11
24.856
  21
0.121208
  31
0
  0
LINE
  5
274
  100
AcDbEntity
  8
1
  100
AcDbLine
  10
24.856
  20
0.121208
  30
0
  11
24.864
  21
0.122356
  31
0
  0
LINE
  5
275
  100
AcDbEntity
  8
1
  100
AcDbLine
  10
24.864
  20
0.122356
  30
0
  11
24.872
  21
0.123505
  31
0
  0
LINE
  5
276
  100
AcDbEntity
  8
1
  100
AcDbLine
  10
24.872
  20
0.123505
  30
0
  11
24.88
  21
0.124654
  31
0
  0
LINE
  5
277
  100
AcDbEntity
  8
1
  100
AcDbLine
  10
24.88
  20
0.124654
  30
0
  11
24.888
  21
0.125804
  31
0
  0
LINE
  5
278
  100
AcDbEntity
  8
1
  100
AcDbLine
  10
24.888
  20
0.125804
  30
0
  11
24.896
  21
0.126954
  31
0
  0
LINE
  5
279
  100
AcDbEntity
  8
1
  100
AcDbLine
  10
24.896
  20
0.126954
  30
0
  11
24.904
  21
0.128105
  31
0
  0
LINE
  5
27a
  100
AcDbEntity
  8
1
  100
AcDbLine
  10
24.904
  20
0.128105
  30
0
  11
24.912
  21
0.129256
  31
0
  0
LINE
  5
27b
  100
AcDbEntity
  8
1
  100
AcDbLine
  10
24.912
  20
0.129256
  30
0
  11
24.92
  21
0.130408
  31
0
  0
LINE
  5
27c
  100
AcDbEntity
  8
1
  100
AcDbLine
  10
24.92
  20
0.130408
  30
0
  11
24.928
  21
0.131561
  31
0
  0
LINE
  5
27d
  100
AcDbEntity
  8
1
  100
AcDbLine
  10
24.928
  20
0.131561
  30
0
  11
24.936
  21
0.132714
  31
0
  0
LINE
  5
27e
  100
AcDbEntity
  8
1
  100
AcDbLine
  10
24.936
  20
0.132714
  30
0
  11
24.944
  21
0.133868
  31
0
  0
LINE
  5
27f
  100
AcDbEntity
  8
1
  100
AcDbLine
  10
24.944
  20
0.133868
  30
0
  11
24.952
  21
0.135022
  31
0
  0
LINE
  5
280
  100
AcDbEntity
  8
1
  100
AcDbLine
  10
24.952
  20
0.135022
  30
0
  11
24.96
  21
0.136178
  31
0
  0
LINE
  5
281
  100
AcDbEntity
  8
1
  100
AcDbLine
  10
24.96
  20
0.136178
  30
0
  11
24.968
  21
0.137334
  31
0
  0
LINE
  5
282
  100
AcDbEntity
  8
1
  100
AcDbLine
  10
24.968
  20
0.137334
  30
0
  11
24.976
  21
0.13849
  31
0
  0
LINE
  5
283
  100
AcDbEntity
  8
1
  100
AcDbLine
  10
24.976
  20
0.13849
  30
0
  11
24.984
  21
0.139647
  31
0
  0
LINE
  5
284
  100
AcDbEntity
  8
1
  100
AcDbLine
  10
24.984
  20
0.139647
  30
0
  11
24.992
  21
0.140805
  31
0
  0
LINE
  5
285
  100
AcDbEntity
  8
1
  100
AcDbLine
  10
24.992
  20
0.140805
  30
0
  11
25
  21
0.141964
  31
0
  0
LINE
  5
286
  100
AcDbEntity
  8
1
  100
AcDbLine
  10
25
  20
0.141964
  30
0
  11
25.008
  21
0.143124
  31
0
  0
LINE
  5
287
  100
AcDbEntity
  8
1
  100
AcDbLine
  10
25.008
  20
0.143124
  30
0
  11
25.016
  21
0.144284
  31
0
  0
LINE
  5
288
  100
AcDbEntity
  8
1
  100
AcDbLine
  10
25.016
  20
0.144284
  30
0
  11
25.024
  21
0.145445
  31
0
  0
LINE
  5
289
  100
AcDbEntity
  8
1
  100
AcDbLine
  10
25.024
  20
0.145445
  30
0
  11
25.032
  21
0.146607
  31
0
  0
LINE
  5
28a
  100
AcDbEntity
  8
1
  100
AcDbLine
  10
25.032
  20
0.146607
  30
0
  11
25.04
  21
0.14777
  31
0
  0
LINE
  5
28b
  100
AcDbEntity
  8
1
  100
AcDbLine
  10
25.04
  20
0.14777
  30
0
  11
25.048
  21
0.148934
  31
0
  0
LINE
  5
28c
  100
AcDbEntity
  8
1
  100
AcDbLine
  10
25.048
  20
0.148934
  30
0
  11
25.056
  21
0.150099
  31
0
  0
LINE
  5
28d
  100
AcDbEntity
  8
1
  100
AcDbLine
  10
25.056
  20
0.150099
  30
0
  11
25.064
  21
0.151265
  31
0
  0
LINE
  5
28e
  100
AcDbEntity
  8
1
  100
AcDbLine
  10
25.064
  20
0.151265
  30
0
  11
25.072
  21
0.152431
  31
0
  0
LINE
  5
28f
  100
AcDbEntity
  8
1
  100
AcDbLine
  10
25.072
  20
0.152431
  30
0
  11
25.08
  21
0.153599
  31
0
  0
LINE
  5
290
  100
AcDbEntity
  8
1
  100
AcDbLine
  10
25.08
  20
0.153599
  30
0
  11
25.088
  21
0.154768
  31
0
  0
LINE
  5
291
  100
AcDbEntity
  8
1
  100
AcDbLine
  10
25.088
  20
0.154768
  30
0
  11
25.096
  21
0.155937
  31
0
  0
LINE
  5
292
  100
AcDbEntity
  8
1
  100
AcDbLine
  10
25.096
  20
0.155937
  30
0
  11
25.104
  21
0.157108
  31
0
  0
LINE
  5
293
  100
AcDbEntity
  8
1
  100
AcDbLine
  10
25.104
  20
0.157108
  30
0
  11
25.112
  21
0.15828
  31
0
  0
LINE
  5
294
  100
AcDbEntity
  8
1
  100
AcDbLine
  10
25.112
  20
0.15828
  30
0
  11
25.12
  21
0.159453
  31
0
  0
LINE
  5
295
  100
AcDbEntity
  8
1
  100
AcDbLine
  10
25.12
  20
0.159453
  30
0
  11
25.128
  21
0.160627
  31
0
  0
LINE
  5
296
  100
AcDbEntity
  8
1
  100
AcDbLine
  10
25.128
  20
0.160627
  30
0
  11
25.136
  21
0.161803
  31
0
  0
LINE
  5
297
  100
AcDbEntity
  8
1
  100
AcDbLine
  10
25.136
  20
0.161803
  30
0
  11
25.144
  21
0.162979
  31
0
  0
LINE
  5
298
  100
AcDbEntity
  8
1
  100
AcDbLine
  10
25.144
  20
0.162979
  30
0
  11
25.152
  21
0.164157
  31
0
  0
LINE
  5
299
  100
AcDbEntity
  8
1
  100
AcDbLine
  10
25.152
  20
0.164157
  30
0
  11
25.16
  21
0.165337
  31
0
  0
LINE
  5
29a
  100
AcDbEntity
  8
1
  100
AcDbLine
  10
25.16
  20
0.165337
  30
0
  11
25.168
  21
0.166518
  31
0
  0
LINE
  5
29b
  100
AcDbEntity
  8
1
  100
AcDbLine
  10
25.168
  20
0.166518
  30
0
  11
25.176
  21
0.1677
  31
0
  0
LINE
  5
29c
  100
AcDbEntity
  8
1
  100
AcDbLine
  10
25.176
  20
0.1677
  30
0
  11
25.184
  21
0.168883
  31
0
  0
LINE
  5
29d
  100
AcDbEntity
  8
1
  100
AcDbLine
  10
25.184
  20
0.168883
  30
0
  11
25.192
  21
0.170069
  31
0
  0
LINE
  5
29e
  100
AcDbEntity
  8
1
  100
AcDbLine
  10
25.192
  20
0.170069
  30
0
  11
25.2
  21
0.171255
  31
0
  0
LINE
  5
29f
  100
AcDbEntity
  8
1
  100
AcDbLine
  10
25.2
  20
0.171255
  30
0
  11
25.208
  21
0.172444
  31
0
  0
LINE
  5
2a0
  100
AcDbEntity
  8
1
  100
AcDbLine
  10
25.208
  20
0.172444
  30
0
  11
25.216
  21
0.173634
  31
0
  0
LINE
  5
2a1
  100
AcDbEntity
  8
1
  100
AcDbLine
  10
25.216
  20
0.173634
  30
0
  11
25.224
  21
0.174826
  31
0
  0
LINE
  5
2a2
  100
AcDbEntity
  8
1
  100
AcDbLine
  10
25.224
  20
0.174826
  30
0
  11
25.232
  21
0.176019
  31
0
  0
LINE
  5
2a3
  100
AcDbEntity
  8
1
  100
AcDbLine
  10
25.232
  20
0.176019
  30
0
  11
25.24
  21
0.177215
  31
0
  0
LINE
  5
2a4
  100
AcDbEntity
  8
1
  100
AcDbLine
  10
25.24
  20
0.177215
  30
0
  11
25.248
  21
0.178412
  31
0
  0
LINE
  5
2a5
  100
AcDbEntity
  8
1
  100
AcDbLine
  10
25.248
  20
0.178412
  30
0
  11
25.256
  21
0.179612
  31
0
  0
LINE
  5
2a6
  100
AcDbEntity
  8
1
  100
AcDbLine
  10
25.256
  20
0.179612
  30
0
  11
25.264
  21
0.180814
  31
0
  0
LINE
  5
2a7
  100
AcDbEntity
  8
1
  100
AcDbLine
  10
25.264
  20
0.180814
  30
0
  11
25.272
  21
0.182017
  31
0
  0
LINE
  5
2a8
  100
AcDbEntity
  8
1
  100
AcDbLine
  10
25.272
  20
0.182017
  30
0
  11
25.28
  21
0.183224
  31
0
  0
LINE
  5
2a9
  100
AcDbEntity
  8
1
  100
AcDbLine
  10
25.28
  20
0.183224
  30
0
  11
25.288
  21
0.184432
  31
0
  0
LINE
  5
2aa
  100
AcDbEntity
  8
1
  100
AcDbLine
  10
25.288
  20
0.184432
  30
0
  11
25.296
  21
0.185643
  31
0
  0
LINE
  5
2ab
  100
AcDbEntity
  8
1
  100
AcDbLine
  10
25.296
  20
0.185643
  30
0
  11
25.304
  21
0.186856
  31
0
  0
LINE
  5
2ac
  100
AcDbEntity
  8
1
  100
AcDbLine
  10
25.304
  20
0.186856
  30
0
  11
25.312
  21
0.188072
  31
0
  0
LINE
  5
2ad
  100
AcDbEntity
  8
1
  100
AcDbLine
  10
25.312
  20
0.188072
  30
0
  11
25.32
  21
0.189291
  31
0
  0
LINE
  5
2ae
  100
AcDbEntity
  8
1
  100
AcDbLine
  10
25.32
  20
0.189291
  30
0
  11
25.328
  21
0.190513
  31
0
  0
LINE
  5
2af
  100
AcDbEntity
  8
1
  100
AcDbLine
  10
25.328
  20
0.190513
  30
0
  11
25.336
  21
0.191738
  31
0
  0
LINE
  5
2b0
  100
AcDbEntity
  8
1
  100
AcDbLine
  10
25.336
  20
0.191738
  30
0
  11
25.344
  21
0.192966
  31
0
  0
LINE
  5
2b1
  100
AcDbEntity
  8
1
  100
AcDbLine
  10
25.344
  20
0.192966
  30
0
  11
25.352
  21
0.194155
  31
0
  0
LINE
  5
2b2
  100
AcDbEntity
  8
1
  100
AcDbLine
  10
25.352
  20
0.194155
  30
0
  11
25.36
  21
0.19523
  31
0
  0
LINE
  5
2b3
  100
AcDbEntity
  8
1
  100
AcDbLine
  10
25.36
  20
0.19523
  30
0
  11
25.368
  21
0.196086
  31
0
  0
LINE
  5
2b4
  100
AcDbEntity
  8
1
  100
AcDbLine
  10
25.368
  20
0.196086
  30
0
  11
25.376
  21
0.196811
  31
0
  0
LINE
  5
2b5
  100
AcDbEntity
  8
1
  100
AcDbLine
  10
25.376
  20
0.196811
  30
0
  11
25.384
  21
0.197278
  31
0
  0
LINE
  5
2b6
  100
AcDbEntity
  8
1
  100
AcDbLine
  10
25.384
  20
0.197278
  30
0
  11
25.392
  21
0.19758
  31
0
  0
LINE
  5
2b7
  100
AcDbEntity
  8
1
  100
AcDbLine
  10
25.392
  20
0.19758
  30
0
  11
25.4
  21
0.197751
  31
0
  0
LINE
  5
2b8
  100
AcDbEntity
  8
1
  100
AcDbLine
  10
25.4
  20
0.197751
  30
0
  11
25.408
  21
0.197645
  31
0
  0
LINE
  5
2b9
  100
AcDbEntity
  8
1
  100
AcDbLine
  10
25.408
  20
0.197645
  30
0
  11
25.416
  21
0.197431
  31
0
  0
LINE
  5
2ba
  100
AcDbEntity
  8
1
  100
AcDbLine
  10
25.416
  20
0.197431
  30
0
  11
25.424
  21
0.197027
  31
0
  0
LINE
  5
2bb
  100
AcDbEntity
  8
1
  100
AcDbLine
  10
25.424
  20
0.197027
  30
0
  11
25.432
  21
0.196427
  31
0
  0
LINE
  5
2bc
  100
AcDbEntity
  8
1
  100
AcDbLine
  10
25.432
  20
0.196427
  30
0
  11
25.44
  21
0.195727
  31
0
  0
LINE
  5
2bd
  100
AcDbEntity
  8
1
  100
AcDbLine
  10
25.44
  20
0.195727
  30
0
  11
25.448
  21
0.194768
  31
0
  0
LINE
  5
2be
  100
AcDbEntity
  8
1
  100
AcDbLine
  10
25.448
  20
0.194768
  30
0
  11
25.456
  21
0.193701
  31
0
  0
LINE
  5
2bf
  100
AcDbEntity
  8
1
  100
AcDbLine
  10
25.456
  20
0.193701
  30
0
  11
25.464
  21
0.192471
  31
0
  0
LINE
  5
2c0
  100
AcDbEntity
  8
1
  100
AcDbLine
  10
25.464
  20
0.192471
  30
0
  11
25.472
  21
0.191047
  31
0
  0
LINE
  5
2c1
  100
AcDbEntity
  8
1
  100
AcDbLine
  10
25.472
  20
0.191047
  30
0
  11
25.48
  21
0.189537
  31
0
  0
LINE
  5
2c2
  100
AcDbEntity
  8
1
  100
AcDbLine
  10
25.48
  20
0.189537
  30
0
  11
25.488
  21
0.187776
  31
0
  0
LINE
  5
2c3
  100
AcDbEntity
  8
1
  100
AcDbLine
  10
25.488
  20
0.187776
  30
0
  11
25.496
  21
0.185922
  31
0
  0
LINE
  5
2c4
  100
AcDbEntity
  8
1
  100
AcDbLine
  10
25.496
  20
0.185922
  30
0
  11
25.504
  21
0.183901
  31
0
  0
LINE
  5
2c5
  100
AcDbEntity
  8
1
  100
AcDbLine
  10
25.504
  20
0.183901
  30
0
  11
25.512
  21
0.181708
  31
0
  0
LINE
  5
2c6
  100
AcDbEntity
  8
1
  100
AcDbLine
  10
25.512
  20
0.181708
  30
0
  11
25.52
  21
0.17943
  31
0
  0
LINE
  5
2c7
  100
AcDbEntity
  8
1
  100
AcDbLine
  10
25.52
  20
0.17943
  30
0
  11
25.528
  21
0.176905
  31
0
  0
LINE
  5
2c8
  100
AcDbEntity
  8
1
  100
AcDbLine
  10
25.528
  20
0.176905
  30
0
  11
25.536
  21
0.174304
  31
0
  0
LINE
  5
2c9
  100
AcDbEntity
  8
1
  100
AcDbLine
  10
25.536
  20
0.174304
  30
0
  11
25.544
  21
0.171517
  31
0
  0
LINE
  5
2ca
  100
AcDbEntity
  8
1
  100
AcDbLine
  10
25.544
  20
0.171517
  30
0
  11
25.552
  21
0.168588
  31
0
  0
LINE
  5
2cb
  100
AcDbEntity
  8
1
  100
AcDbLine
  10
25.552
  20
0.168588
  30
0
  11
25.56
  21
0.165547
  31
0
  0
LINE
  5
2cc
  100
AcDbEntity
  8
1
  100
AcDbLine
  10
25.56
  20
0.165547
  30
0
  11
25.568
  21
0.162291
  31
0
  0
LINE
  5
2cd
  100
AcDbEntity
  8
1
  100
AcDbLine
  10
25.568
  20
0.162291
  30
0
  11
25.576
  21
0.158961
  31
0
  0
LINE
  5
2ce
  100
AcDbEntity
  8
1
  100
AcDbLine
  10
25.576
  20
0.158961
  30
0
  11
25.584
  21
0.155412
  31
0
  0
LINE
  5
2cf
  100
AcDbEntity
  8
1
  100
AcDbLine
  10
25.584
  20
0.155412
  30
0
  11
25.592
  21
0.151751
  31
0
  0
LINE
  5
2d0
  100
AcDbEntity
  8
1
  100
AcDbLine
  10
25.592
  20
0.151751
  30
0
  11
25.6
  21
0.147944
  31
0
  0
LINE
  5
2d1
  100
AcDbEntity
  8
1
  100
AcDbLine
  10
25.6
  20
0.147944
  30
0
  11
25.608
  21
0.143946
  31
0
  0
LINE
  5
2d2
  100
AcDbEntity
  8
1
  100
AcDbLine
  10
25.608
  20
0.143946
  30
0
  11
25.616
  21
0.139865
  31
0
  0
LINE
  5
2d3
  100
AcDbEntity
  8
1
  100
AcDbLine
  10
25.616
  20
0.139865
  30
0
  11
25.624
  21
0.135532
  31
0
  0
LINE
  5
2d4
  100
AcDbEntity
  8
1
  100
AcDbLine
  10
25.624
  20
0.135532
  30
0
  11
25.632
  21
0.131096
  31
0
  0
LINE
  5
2d5
  100
AcDbEntity
  8
1
  100
AcDbLine
  10
25.632
  20
0.131096
  30
0
  11
25.64
  21
0.126488
  31
0
  0
LINE
  5
2d6
  100
AcDbEntity
  8
1
  100
AcDbLine
  10
25.64
  20
0.126488
  30
0
  11
25.648
  21
0.121678
  31
0
  0
LINE
  5
2d7
  100
AcDbEntity
  8
1
  100
AcDbLine
  10
25.648
  20
0.121678
  30
0
  11
25.656
  21
0.116762
  31
0
  0
LINE
  5
2d8
  100
AcDbEntity
  8
1
  100
AcDbLine
  10
25.656
  20
0.116762
  30
0
  11
25.664
  21
0.111571
  31
0
  0
LINE
  5
2d9
  100
AcDbEntity
  8
1
  100
AcDbLine
  10
25.664
  20
0.111571
  30
0
  11
25.672
  21
0.106235
  31
0
  0
LINE
  5
2da
  100
AcDbEntity
  8
1
  100
AcDbLine
  10
25.672
  20
0.106235
  30
0
  11
25.68
  21
0.100719
  31
0
  0
LINE
  5
2db
  100
AcDbEntity
  8
1
  100
AcDbLine
  10
25.68
  20
0.100719
  30
0
  11
25.688
  21
0.094918
  31
0
  0
LINE
  5
2dc
  100
AcDbEntity
  8
1
  100
AcDbLine
  10
25.688
  20
0.094918
  30
0
  11
25.696
  21
0.088947
  31
0
  0
LINE
  5
2dd
  100
AcDbEntity
  8
1
  100
AcDbLine
  10
25.696
  20
0.088947
  30
0
  11
25.704
  21
0.08271
  31
0
  0
LINE
  5
2de
  100
AcDbEntity
  8
1
  100
AcDbLine
  10
25.704
  20
0.08271
  30
0
  11
25.712
  21
0.076156
  31
0
  0
LINE
  5
2df
  100
AcDbEntity
  8
1
  100
AcDbLine
  10
25.712
  20
0.076156
  30
0
  11
25.72
  21
0.069349
  31
0
  0
LINE
  5
2e0
  100
AcDbEntity
  8
1
  100
AcDbLine
  10
25.72
  20
0.069349
  30
0
  11
25.728
  21
0.062201
  31
0
  0
LINE
  5
2e1
  100
AcDbEntity
  8
1
  100
AcDbLine
  10
25.728
  20
0.062201
  30
0
  11
25.736
  21
0.054584
  31
0
  0
LINE
  5
2e2
  100
AcDbEntity
  8
1
  100
AcDbLine
  10
25.8
  20
0.129729
  30
0
  11
25.792
  21
0.175036
  31
0
  0
LINE
  5
2e3
  100
AcDbEntity
  8
1
  100
AcDbLine
  10
25.792
  20
0.175036
  30
0
  11
25.784
  21
0.191122
  31
0
  0
LINE
  5
2e4
  100
AcDbEntity
  8
1
  100
AcDbLine
  10
25.784
  20
0.191122
  30
0
  11
25.776
  21
0.202655
  31
0
  0
LINE
  5
2e5
  100
AcDbEntity
  8
1
  100
AcDbLine
  10
25.780002
  20
0.219998
  30
0
  11
25.784
  21
0.215892
  31
0
  0
LINE
  5
2e6
  100
AcDbEntity
  8
1
  100
AcDbLine
  10
25.784
  20
0.215892
  30
0
  11
25.792
  21
0.206534
  31
0
  0
LINE
  5
2e7
  100
AcDbEntity
  8
1
  100
AcDbLine
  10
25.792
  20
0.206534
  30
0
  11
25.8
  21
0.188296
  31
0
  0
LINE
  5
2e8
  100
AcDbEntity
  8
1
  100
AcDbLine
  10
25.8
  20
0.188296
  30
0
  11
25.792
  21
0.175251
  31
0
  0
LINE
  5
2e9
  100
AcDbEntity
  8
1
  100
AcDbLine
  10
25.792
  20
0.175251
  30
0
  11
25.784
  21
0.171172
  31
0
  0
LINE
  5
2ea
  100
AcDbEntity
  8
1
  100
AcDbLine
  10
25.784
  20
0.171172
  30
0
  11
25.776
  21
0.168681
  31
0
  0
LINE
  5
2eb
  100
AcDbEntity
  8
1
  100
AcDbLine
  10
25.776
  20
0.168681
  30
0
  11
25.768
  21
0.167034
  31
0
  0
LINE
  5
2ec
  100
AcDbEntity
  8
1
  100
AcDbLine
  10
25.768
  20
0.167034
  30
0
  11
25.76
  21
0.165934
  31
0
  0
LINE
  5
2ed
  100
AcDbEntity
  8
1
  100
AcDbLine
  10
25.76
  20
0.165934
  30
0
  11
25.752
  21
0.165299
  31
0
  0
LINE
  5
2ee
  100
AcDbEntity
  8
1
  100
AcDbLine
  10
25.752
  20
0.165299
  30
0
  11
25.744
  21
0.164996
  31
0
  0
LINE
  5
2ef
  100
AcDbEntity
  8
1
  100
AcDbLine
  10
25.744
  20
0.164996
  30
0
  11
25.736
  21
0.164963
  31
0
  0
LINE
  5
2f0
  100
AcDbEntity
  8
1
  100
AcDbLine
  10
25.736
  20
0.164963
  30
0
  11
25.728
  21
0.165155
  31
0
  0
LINE
  5
2f1
  100
AcDbEntity
  8
1
  100
AcDbLine
  10
25.728
  20
0.165155
  30
0
  11
25.72
  21
0.165614
  31
0
  0
LINE
  5
2f2
  100
AcDbEntity
  8
1
  100
AcDbLine
  10
25.72
  20
0.165614
  30
0
  11
25.712
  21
0.166302
  31
0
  0
LINE
  5
2f3
  100
AcDbEntity
  8
1
  100
AcDbLine
  10
25.712
  20
0.166302
  30
0
  11
25.704
  21
0.167143
  31
0
  0
LINE
  5
2f4
  100
AcDbEntity
  8
1
  100
AcDbLine
  10
25.704
  20
0.167143
  30
0
  11
25.696
  21
0.168181
  31
0
  0
LINE
  5
2f5
  100
AcDbEntity
  8
1
  100
AcDbLine
  10
25.696
  20
0.168181
  30
0
  11
25.688
  21
0.169434
  31
0
  0
LINE
  5
2f6
  100
AcDbEntity
  8
1
  100
AcDbLine
  10
25.688
  20
0.169434
  30
0
  11
25.68
  21
0.170804
  31
0
  0
LINE
  5
2f7
  100
AcDbEntity
  8
1
  100
AcDbLine
  10
25.68
  20
0.170804
  30
0
  11
25.672
  21
0.172374
  31
0
  0
LINE
  5
2f8
  100
AcDbEntity
  8
1
  100
AcDbLine
  10
25.672
  20
0.172374
  30
0
  11
25.664
  21
0.17411
  31
0
  0
LINE
  5
2f9
  100
AcDbEntity
  8
1
  100
AcDbLine
  10
25.664
  20
0.17411
  30
0
  11
25.656
  21
0.175943
  31
0
  0
LINE
  5
2fa
  100
AcDbEntity
  8
1
  100
AcDbLine
  10
25.656
  20
0.175943
  30
0
  11
25.648
  21
0.178017
  31
0
  0
LINE
  5
2fb
  100
AcDbEntity
  8
1
  100
AcDbLine
  10
25.648
  20
0.178017
  30
0
  11
25.64
  21
0.180139
  31
0
  0
LINE
  5
2fc
  100
AcDbEntity
  8
1
  100
AcDbLine
  10
25.64
  20
0.180139
  30
0
  11
25.632
  21
0.182332
  31
0
  0
LINE
  5
2fd
  100
AcDbEntity
  8
1
  100
AcDbLine
  10
25.632
  20
0.182332
  30
0
  11
25.624
  21
0.184522
  31
0
  0
LINE
  5
2fe
  100
AcDbEntity
  8
1
  100
AcDbLine
  10
25.624
  20
0.184522
  30
0
  11
25.616
  21
0.18671
  31
0
  0
LINE
  5
2ff
  100
AcDbEntity
  8
1
  100
AcDbLine
  10
25.616
  20
0.18671
  30
0
  11
25.608
  21
0.188894
  31
0
  0
LINE
  5
300
  100
AcDbEntity
  8
1
  100
AcDbLine
  10
25.608
  20
0.188894
  30
0
  11
25.6
  21
0.191076
  31
0
  0
LINE
  5
301
  100
AcDbEntity
  8
1
  100
AcDbLine
  10
25.6
  20
0.191076
  30
0
  11
25.592
  21
0.193256
  31
0
  0
LINE
  5
302
  100
AcDbEntity
  8
1
  100
AcDbLine
  10
25.592
  20
0.193256
  30
0
  11
25.584
  21
0.195433
  31
0
  0
LINE
  5
303
  100
AcDbEntity
  8
1
  100
AcDbLine
  10
25.584
  20
0.195433
  30
0
  11
25.576
  21
0.197608
  31
0
  0
LINE
  5
304
  100
AcDbEntity
  8
1
  100
AcDbLine
  10
25.576
  20
0.197608
  30
0
  11
25.568
  21
0.199781
  31
0
  0
LINE
  5
305
  100
AcDbEntity
  8
1
  100
AcDbLine
  10
25.568
  20
0.199781
  30
0
  11
25.56
  21
0.201953
  31
0
  0
LINE
  5
306
  100
AcDbEntity
  8
1
  100
AcDbLine
  10
25.56
  20
0.201953
  30
0
  11
25.552
  21
0.204122
  31
0
  0
LINE
  5
307
  100
AcDbEntity
  8
1
  100
AcDbLine
  10
25.552
  20
0.204122
  30
0
  11
25.544
  21
0.20629
  31
0
  0
LINE
  5
308
  100
AcDbEntity
  8
1
  100
AcDbLine
  10
25.544
  20
0.20629
  30
0
  11
25.536
  21
0.208457
  31
0
  0
LINE
  5
309
  100
AcDbEntity
  8
1
  100
AcDbLine
  10
25.536
  20
0.208457
  30
0
  11
25.528
  21
0.210622
  31
0
  0
LINE
  5
30a
  100
AcDbEntity
  8
1
  100
AcDbLine
  10
25.528
  20
0.210622
  30
0
  11
25.52
  21
0.212785
  31
0
  0
LINE
  5
30b
  100
AcDbEntity
  8
1
  100
AcDbLine
  10
25.52
  20
0.212785
  30
0
  11
25.512
  21
0.214947
  31
0
  0
LINE
  5
30c
  100
AcDbEntity
  8
1
  100
AcDbLine
  10
25.512
  20
0.214947
  30
0
  11
25.504
  21
0.217108
  31
0
  0
LINE
  5
30d
  100
AcDbEntity
  8
1
  100
AcDbLine
  10
25.504
  20
0.217108
  30
0
  11
25.496
  21
0.219268
  31
0
  0
LINE
  5
30e
  100
AcDbEntity
  8
1
  100
AcDbLine
  10
25.496
  20
0.219268
  30
0
  11
25.488
  21
0.221426
  31
0
  0
LINE
  5
30f
  100
AcDbEntity
  8
1
  100
AcDbLine
  10
25.488
  20
0.221426
  30
0
  11
25.48
  21
0.223584
  31
0
  0
LINE
  5
310
  100
AcDbEntity
  8
1
  100
AcDbLine
  10
25.48
  20
0.223584
  30
0
  11
25.472
  21
0.22574
  31
0
  0
LINE
  5
311
  100
AcDbEntity
  8
1
  100
AcDbLine
  10
25.472
  20
0.22574
  30
0
  11
25.464
  21
0.227895
  31
0
  0
LINE
  5
312
  100
AcDbEntity
  8
1
  100
AcDbLine
  10
25.464
  20
0.227895
  30
0
  11
25.456
  21
0.23005
  31
0
  0
LINE
  5
313
  100
AcDbEntity
  8
1
  100
AcDbLine
  10
25.456
  20
0.23005
  30
0
  11
25.448
  21
0.232203
  31
0
  0
LINE
  5
314
  100
AcDbEntity
  8
1
  100
AcDbLine
  10
25.448
  20
0.232203
  30
0
  11
25.44
  21
0.234356
  31
0
  0
LINE
  5
315
  100
AcDbEntity
  8
1
  100
AcDbLine
  10
25.44
  20
0.234356
  30
0
  11
25.432
  21
0.236508
  31
0
  0
LINE
  5
316
  100
AcDbEntity
  8
1
  100
AcDbLine
  10
25.432
  20
0.236508
  30
0
  11
25.424
  21
0.238659
  31
0
  0
LINE
  5
317
  100
AcDbEntity
  8
1
  100
AcDbLine
  10
25.424
  20
0.238659
  30
0
  11
25.416
  21
0.240809
  31
0
  0
LINE
  5
318
  100
AcDbEntity
  8
1
  100
AcDbLine
  10
25.416
  20
0.240809
  30
0
  11
25.408
  21
0.242958
  31
0
  0
LINE
  5
319
  100
AcDbEntity
  8
1
  100
AcDbLine
  10
25.408
  20
0.242958
  30
0
  11
25.4
  21
0.245107
  31
0
  0
LINE
  5
31a
  100
AcDbEntity
  8
1
  100
AcDbLine
  10
25.4
  20
0.245107
  30
0
  11
25.392
  21
0.247255
  31
0
  0
LINE
  5
31b
  100
AcDbEntity
  8
1
  100
AcDbLine
  10
25.392
  20
0.247255
  30
0
  11
25.384
  21
0.249403
  31
0
  0
LINE
  5
31c
  100
AcDbEntity
  8
1
  100
AcDbLine
  10
25.384
  20
0.249403
  30
0
  11
25.376
  21
0.25155
  31
0
  0
LINE
  5
31d
  100
AcDbEntity
  8
1
  100
AcDbLine
  10
25.376
  20
0.25155
  30
0
  11
25.368
  21
0.253696
  31
0
  0
LINE
  5
31e
  100
AcDbEntity
  8
1
  100
AcDbLine
  10
25.368
  20
0.253696
  30
0
  11
25.36
  21
0.255842
  31
0
  0
LINE
  5
31f
  100
AcDbEntity
  8
1
  100
AcDbLine
  10
25.36
  20
0.255842
  30
0
  11
25.352
  21
0.257987
  31
0
  0
LINE
  5
320
  100
AcDbEntity
  8
1
  100
AcDbLine
  10
25.352
  20
0.257987
  30
0
  11
25.344
  21
0.260131
  31
0
  0
LINE
  5
321
  100
AcDbEntity
  8
1
  100
AcDbLine
  10
25.344
  20
0.260131
  30
0
  11
25.336
  21
0.262275
  31
0
  0
LINE
  5
322
  100
AcDbEntity
  8
1
  100
AcDbLine
  10
25.336
  20
0.262275
  30
0
  11
25.328
  21
0.264419
  31
0
  0
LINE
  5
323
  100
AcDbEntity
  8
1
  100
AcDbLine
  10
25.328
  20
0.264419
  30
0
  11
25.32
  21
0.266562
  31
0
  0
LINE
  5
324
  100
AcDbEntity
  8
1
  100
AcDbLine
  10
25.32
  20
0.266562
  30
0
  11
25.312
  21
0.268705
  31
0
  0
LINE
  5
325
  100
AcDbEntity
  8
1
  100
AcDbLine
  10
25.312
  20
0.268705
  30
0
  11
25.304
  21
0.270847
  31
0
  0
LINE
  5
326
  100
AcDbEntity
  8
1
  100
AcDbLine
  10
25.304
  20
0.270847
  30
0
  11
25.296
  21
0.272989
  31
0
  0
LINE
  5
327
  100
AcDbEntity
  8
1
  100
AcDbLine
  10
25.296
  20
0.272989
  30
0
  11
25.288
  21
0.27513
  31
0
  0
LINE
  5
328
  100
AcDbEntity
  8
1
  100
AcDbLine
  10
25.288
  20
0.27513
  30
0
  11
25.28
  21
0.277271
  31
0
  0
LINE
  5
329
  100
AcDbEntity
  8
1
  100
AcDbLine
  10
25.28
  20
0.277271
  30
0
  11
25.272
  21
0.279412
  31
0
  0
LINE
  5
32a
  100
AcDbEntity
  8
1
  100
AcDbLine
  10
25.272
  20
0.279412
  30
0
  11
25.264
  21
0.281552
  31
0
  0
LINE
  5
32b
  100
AcDbEntity
  8
1
  100
AcDbLine
  10
25.264
  20
0.281552
  30
0
  11
25.256
  21
0.283692
  31
0
  0
LINE
  5
32c
  100
AcDbEntity
  8
1
  100
AcDbLine
  10
25.256
  20
0.283692
  30
0
  11
25.248
  21
0.285831
  31
0
  0
LINE
  5
32d
  100
AcDbEntity
  8
1
  100
AcDbLine
  10
25.248
  20
0.285831
  30
0
  11
25.24
  21
0.28797
  31
0
  0
LINE
  5
32e
  100
AcDbEntity
  8
1
  100
AcDbLine
  10
25.24
  20
0.28797
  30
0
  11
25.232
  21
0.290109
  31
0
  0
LINE
  5
32f
  100
AcDbEntity
  8
1
  100
AcDbLine
  10
25.232
  20
0.290109
  30
0
  11
25.224
  21
0.292248
  31
0
  0
LINE
  5
330
  100
AcDbEntity
  8
1
  100
AcDbLine
  10
25.224
  20
0.292248
  30
0
  11
25.216
  21
0.294386
  31
0
  0
LINE
  5
331
  100
AcDbEntity
  8
1
  100
AcDbLine
  10
25.216
  20
0.294386
  30
0
  11
25.208
  21
0.296524
  31
0
  0
LINE
  5
332
  100
AcDbEntity
  8
1
  100
AcDbLine
  10
25.208
  20
0.296524
  30
0
  11
25.2
  21
0.298662
  31
0
  0
LINE
  5
333
  100
AcDbEntity
  8
1
  100
AcDbLine
  10
25.2
  20
0.298662
  30
0
  11
25.192
  21
0.300799
  31
0
  0
LINE
  5
334
  100
AcDbEntity
  8
1
  100
AcDbLine
  10
25.192
  20
0.300799
  30
0
  11
25.184
  21
0.302936
  31
0
  0
LINE
  5
335
  100
AcDbEntity
  8
1
  100
AcDbLine
  10
25.184
  20
0.302936
  30
0
  11
25.176
  21
0.305073
  31
0
  0
LINE
  5
336
  100
AcDbEntity
  8
1
  100
AcDbLine
  10
25.176
  20
0.305073
  30
0
  11
25.168
  21
0.307209
  31
0
  0
LINE
  5
337
  100
AcDbEntity
  8
1
  100
AcDbLine
  10
25.168
  20
0.307209
  30
0
  11
25.16
  21
0.309346
  31
0
  0
LINE
  5
338
  100
AcDbEntity
  8
1
  100
AcDbLine
  10
25.16
  20
0.309346
  30
0
  11
25.152
  21
0.311482
  31
0
  0
LINE
  5
339
  100
AcDbEntity
  8
1
  100
AcDbLine
  10
25.152
  20
0.311482
  30
0
  11
25.144
  21
0.313618
  31
0
  0
LINE
  5
33a
  100
AcDbEntity
  8
1
  100
AcDbLine
  10
25.144
  20
0.313618
  30
0
  11
25.136
  21
0.315753
  31
0
  0
LINE
  5
33b
  100
AcDbEntity
  8
1
  100
AcDbLine
  10
25.136
  20
0.315753
  30
0
  11
25.128
  21
0.317889
  31
0
  0
LINE
  5
33c
  100
AcDbEntity
  8
1
  100
AcDbLine
  10
25.128
  20
0.317889
  30
0
  11
25.12
  21
0.320024
  31
0
  0
LINE
  5
33d
  100
AcDbEntity
  8
1
  100
AcDbLine
  10
25.12
  20
0.320024
  30
0
  11
25.112
  21
0.322159
  31
0
  0
LINE
  5
33e
  100
AcDbEntity
  8
1
  100
AcDbLine
  10
25.112
  20
0.322159
  30
0
  11
25.104
  21
0.324293
  31
0
  0
LINE
  5
33f
  100
AcDbEntity
  8
1
  100
AcDbLine
  10
25.104
  20
0.324293
  30
0
  11
25.096
  21
0.326428
  31
0
  0
LINE
  5
340
  100
AcDbEntity
  8
1
  100
AcDbLine
  10
25.096
  20
0.326428
  30
0
  11
25.088
  21
0.328562
  31
0
  0
LINE
  5
341
  100
AcDbEntity
  8
1
  100
AcDbLine
  10
25.088
  20
0.328562
  30
0
  11
25.08
  21
0.330697
  31
0
  0
LINE
  5
342
  100
AcDbEntity
  8
1
  100
AcDbLine
  10
25.08
  20
0.330697
  30
0
  11
25.072
  21
0.332831
  31
0
  0
LINE
  5
343
  100
AcDbEntity
  8
1
  100
AcDbLine
  10
25.072
  20
0.332831
  30
0
  11
25.064
  21
0.334964
  31
0
  0
LINE
  5
344
  100
AcDbEntity
  8
1
  100
AcDbLine
  10
25.064
  20
0.334964
  30
0
  11
25.056
  21
0.337098
  31
0
  0
LINE
  5
345
  100
AcDbEntity
  8
1
  100
AcDbLine
  10
25.056
  20
0.337098
  30
0
  11
25.048
  21
0.339232
  31
0
  0
LINE
  5
346
  100
AcDbEntity
  8
1
  100
AcDbLine
  10
25.048
  20
0.339232
  30
0
  11
25.04
  21
0.341365
  31
0
  0
LINE
  5
347
  100
AcDbEntity
  8
1
  100
AcDbLine
  10
25.04
  20
0.341365
  30
0
  11
25.032
  21
0.343498
  31
0
  0
LINE
  5
348
  100
AcDbEntity
  8
1
  100
AcDbLine
  10
25.032
  20
0.343498
  30
0
  11
25.024
  21
0.345631
  31
0
  0
LINE
  5
349
  100
AcDbEntity
  8
1
  100
AcDbLine
  10
25.024
  20
0.345631
  30
0
  11
25.016
  21
0.347764
  31
0
  0
LINE
  5
34a
  100
AcDbEntity
  8
1
  100
AcDbLine
  10
25.016
  20
0.347764
  30
0
  11
25.008
  21
0.349896
  31
0
  0
LINE
  5
34b
  100
AcDbEntity
  8
1
  100
AcDbLine
  10
25.008
  20
0.349896
  30
0
  11
25
  21
0.352029
  31
0
  0
LINE
  5
34c
  100
AcDbEntity
  8
1
  100
AcDbLine
  10
25
  20
0.352029
  30
0
  11
24.992
  21
0.354161
  31
0
  0
LINE
  5
34d
  100
AcDbEntity
  8
1
  100
AcDbLine
  10
24.992
  20
0.354161
  30
0
  11
24.984
  21
0.356294
  31
0
  0
LINE
  5
34e
  100
AcDbEntity
  8
1
  100
AcDbLine
  10
24.984
  20
0.356294
  30
0
  11
24.976
  21
0.358426
  31
0
  0
LINE
  5
34f
  100
AcDbEntity
  8
1
  100
AcDbLine
  10
24.976
  20
0.358426
  30
0
  11
24.968
  21
0.360558
  31
0
  0
LINE
  5
350
  100
AcDbEntity
  8
1
  100
AcDbLine
  10
24.968
  20
0.360558
  30
0
  11
24.96
  21
0.36269
  31
0
  0
LINE
  5
351
  100
AcDbEntity
  8
1
  100
AcDbLine
  10
24.96
  20
0.36269
  30
0
  11
24.952
  21
0.364821
  31
0
  0
LINE
  5
352
  100
AcDbEntity
  8
1
  100
AcDbLine
  10
24.952
  20
0.364821
  30
0
  11
24.944
  21
0.366953
  31
0
  0
LINE
  5
353
  100
AcDbEntity
  8
1
  100
AcDbLine
  10
24.944
  20
0.366953
  30
0
  11
24.936
  21
0.369084
  31
0
  0
LINE
  5
354
  100
AcDbEntity
  8
1
  100
AcDbLine
  10
24.936
  20
0.369084
  30
0
  11
24.928
  21
0.371216
  31
0
  0
LINE
  5
355
  100
AcDbEntity
  8
1
  100
AcDbLine
  10
24.928
  20
0.371216
  30
0
  11
24.92
  21
0.373347
  31
0
  0
LINE
  5
356
  100
AcDbEntity
  8
1
  100
AcDbLine
  10
24.92
  20
0.373347
  30
0
  11
24.912
  21
0.375478
  31
0
  0
LINE
  5
357
  100
AcDbEntity
  8
1
  100
AcDbLine
  10
24.912
  20
0.375478
  30
0
  11
24.904
  21
0.377609
  31
0
  0
LINE
  5
358
  100
AcDbEntity
  8
1
  100
AcDbLine
  10
24.904
  20
0.377609
  30
0
  11
24.896
  21
0.37974
  31
0
  0
LINE
  5
359
  100
AcDbEntity
  8
1
  100
AcDbLine
  10
24.896
  20
0.37974
  30
0
  11
24.888
  21
0.381871
  31
0
  0
LINE
  5
35a
  100
AcDbEntity
  8
1
  100
AcDbLine
  10
24.888
  20
0.381871
  30
0
  11
24.88
  21
0.384002
  31
0
  0
LINE
  5
35b
  100
AcDbEntity
  8
1
  100
AcDbLine
  10
24.88
  20
0.384002
  30
0
  11
24.872
  21
0.386132
  31
0
  0
LINE
  5
35c
  100
AcDbEntity
  8
1
  100
AcDbLine
  10
24.872
  20
0.386132
  30
0
  11
24.864
  21
0.388263
  31
0
  0
LINE
  5
35d
  100
AcDbEntity
  8
1
  100
AcDbLine
  10
24.864
  20
0.388263
  30
0
  11
24.856
  21
0.390393
  31
0
  0
LINE
  5
35e
  100
AcDbEntity
  8
1
  100
AcDbLine
  10
24.856
  20
0.390393
  30
0
  11
24.848
  21
0.392524
  31
0
  0
LINE
  5
35f
  100
AcDbEntity
  8
1
  100
AcDbLine
  10
24.848
  20
0.392524
  30
0
  11
24.84
  21
0.394654
  31
0
  0
LINE
  5
360
  100
AcDbEntity
  8
1
  100
AcDbLine
  10
24.84
  20
0.394654
  30
0
  11
24.832
  21
0.396784
  31
0
  0
LINE
  5
361
  100
AcDbEntity
  8
1
  100
AcDbLine
  10
24.832
  20
0.396784
  30
0
  11
24.824
  21
0.398914
  31
0
  0
LINE
  5
362
  100
AcDbEntity
  8
1
  100
AcDbLine
  10
24.824
  20
0.398914
  30
0
  11
24.816
  21
0.401044
  31
0
  0
LINE
  5
363
  100
AcDbEntity
  8
1
  100
AcDbLine
  10
24.816
  20
0.401044
  30
0
  11
24.808
  21
0.403174
  31
0
  0
LINE
  5
364
  100
AcDbEntity
  8
1
  100
AcDbLine
  10
24.808
  20
0.403174
  30
0
  11
24.8
  21
0.405304
  31
0
  0
LINE
  5
365
  100
AcDbEntity
  8
1
  100
AcDbLine
  10
24.8
  20
0.405304
  30
0
  11
24.792
  21
0.407433
  31
0
  0
LINE
  5
366
  100
AcDbEntity
  8
1
  100
AcDbLine
  10
24.792
  20
0.407433
  30
0
  11
24.784
  21
0.409563
  31
0
  0
LINE
  5
367
  100
AcDbEntity
  8
1
  100
AcDbLine
  10
24.784
  20
0.409563
  30
0
  11
24.776
  21
0.411693
  31
0
  0
LINE
  5
368
  100
AcDbEntity
  8
1
  100
AcDbLine
  10
24.776
  20
0.411693
  30
0
  11
24.768
  21
0.413822
  31
0
  0
LINE
  5
369
  100
AcDbEntity
  8
1
  100
AcDbLine
  10
24.768
  20
0.413822
  30
0
  11
24.76
  21
0.415952
  31
0
  0
LINE
  5
36a
  100
AcDbEntity
  8
1
  100
AcDbLine
  10
24.76
  20
0.415952
  30
0
  11
24.752
  21
0.418081
  31
0
  0
LINE
  5
36b
  100
AcDbEntity
  8
1
  100
AcDbLine
  10
24.752
  20
0.418081
  30
0
  11
24.744
  21
0.42021
  31
0
  0
LINE
  5
36c
  100
AcDbEntity
  8
1
  100
AcDbLine
  10
24.744
  20
0.42021
  30
0
  11
24.736
  21
0.422339
  31
0
  0
LINE
  5
36d
  100
AcDbEntity
  8
1
  100
AcDbLine
  10
24.736
  20
0.422339
  30
0
  11
24.728
  21
0.424468
  31
0
  0
LINE
  5
36e
  100
AcDbEntity
  8
1
  100
AcDbLine
  10
24.728
  20
0.424468
  30
0
  11
24.72
  21
0.426597
  31
0
  0
LINE
  5
36f
  100
AcDbEntity
  8
1
  100
AcDbLine
  10
24.72
  20
0.426597
  30
0
  11
24.712
  21
0.428726
  31
0
  0
LINE
  5
370
  100
AcDbEntity
  8
1
  100
AcDbLine
  10
24.712
  20
0.428726
  30
0
  11
24.704
  21
0.430855
  31
0
  0
LINE
  5
371
  100
AcDbEntity
  8
1
  100
AcDbLine
  10
24.704
  20
0.430855
  30
0
  11
24.696
  21
0.432984
  31
0
  0
LINE
  5
372
  100
AcDbEntity
  8
1
  100
AcDbLine
  10
24.696
  20
0.432984
  30
0
  11
24.688
  21
0.435113
  31
0
  0
LINE
  5
373
  100
AcDbEntity
  8
1
  100
AcDbLine
  10
24.688
  20
0.435113
  30
0
  11
24.68
  21
0.437242
  31
0
  0
LINE
  5
374
  100
AcDbEntity
  8
1
  100
AcDbLine
  10
24.68
  20
0.437242
  30
0
  11
24.672
  21
0.43937
  31
0
  0
LINE
  5
375
  100
AcDbEntity
  8
1
  100
AcDbLine
  10
24.672
  20
0.43937
  30
0
  11
24.664
  21
0.441499
  31
0
  0
LINE
  5
376
  100
AcDbEntity
  8
1
  100
AcDbLine
  10
24.664
  20
0.441499
  30
0
  11
24.656
  21
0.443628
  31
0
  0
LINE
  5
377
  100
AcDbEntity
  8
1
  100
AcDbLine
  10
24.656
  20
0.443628
  30
0
  11
24.648
  21
0.445756
  31
0
  0
LINE
  5
378
  100
AcDbEntity
  8
1
  100
AcDbLine
  10
24.648
  20
0.445756
  30
0
  11
24.64
  21
0.447884
  31
0
  0
LINE
  5
379
  100
AcDbEntity
  8
1
  100
AcDbLine
  10
24.64
  20
0.447884
  30
0
  11
24.632
  21
0.450013
  31
0
  0
LINE
  5
37a
  100
AcDbEntity
  8
1
  100
AcDbLine
  10
24.632
  20
0.450013
  30
0
  11
24.624
  21
0.452141
  31
0
  0
LINE
  5
37b
  100
AcDbEntity
  8
1
  100
AcDbLine
  10
24.624
  20
0.452141
  30
0
  11
24.616
  21
0.454269
  31
0
  0
LINE
  5
37c
  100
AcDbEntity
  8
1
  100
AcDbLine
  10
24.616
  20
0.454269
  30
0
  11
24.608
  21
0.456398
  31
0
  0
LINE
  5
37d
  100
AcDbEntity
  8
1
  100
AcDbLine
  10
24.608
  20
0.456398
  30
0
  11
24.6
  21
0.458526
  31
0
  0
LINE
  5
37e
  100
AcDbEntity
  8
1
  100
AcDbLine
  10
24.6
  20
0.458526
  30
0
  11
24.592
  21
0.460654
  31
0
  0
LINE
  5
37f
  100
AcDbEntity
  8
1
  100
AcDbLine
  10
24.592
  20
0.460654
  30
0
  11
24.584
  21
0.462782
  31
0
  0
LINE
  5
380
  100
AcDbEntity
  8
1
  100
AcDbLine
  10
24.584
  20
0.462782
  30
0
  11
24.576
  21
0.46491
  31
0
  0
LINE
  5
381
  100
AcDbEntity
  8
1
  100
AcDbLine
  10
24.576
  20
0.46491
  30
0
  11
24.568
  21
0.467038
  31
0
  0
LINE
  5
382
  100
AcDbEntity
  8
1
  100
AcDbLine
  10
24.568
  20
0.467038
  30
0
  11
24.56
  21
0.469166
  31
0
  0
LINE
  5
383
  100
AcDbEntity
  8
1
  100
AcDbLine
  10
24.56
  20
0.469166
  30
0
  11
24.552
  21
0.471294
  31
0
  0
LINE
  5
384
  100
AcDbEntity
  8
1
  100
AcDbLine
  10
24.552
  20
0.471294
  30
0
  11
24.544
  21
0.473421
  31
0
  0
LINE
  5
385
  100
AcDbEntity
  8
1
  100
AcDbLine
  10
24.544
  20
0.473421
  30
0
  11
24.536
  21
0.475549
  31
0
  0
LINE
  5
386
  100
AcDbEntity
  8
1
  100
AcDbLine
  10
24.536
  20
0.475549
  30
0
  11
24.528
  21
0.477677
  31
0
  0
LINE
  5
387
  100
AcDbEntity
  8
1
  100
AcDbLine
  10
24.528
  20
0.477677
  30
0
  11
24.52
  21
0.479805
  31
0
  0
LINE
  5
388
  100
AcDbEntity
  8
1
  100
AcDbLine
  10
24.52
  20
0.479805
  30
0
  11
24.512
  21
0.481932
  31
0
  0
LINE
  5
389
  100
AcDbEntity
  8
1
  100
AcDbLine
  10
24.512
  20
0.481932
  30
0
  11
24.504
  21
0.48406
  31
0
  0
LINE
  5
38a
  100
AcDbEntity
  8
1
  100
AcDbLine
  10
24.504
  20
0.48406
  30
0
  11
24.496
  21
0.486187
  31
0
  0
LINE
  5
38b
  100
AcDbEntity
  8
1
  100
AcDbLine
  10
24.496
  20
0.486187
  30
0
  11
24.488
  21
0.488315
  31
0
  0
LINE
  5
38c
  100
AcDbEntity
  8
1
  100
AcDbLine
  10
24.488
  20
0.488315
  30
0
  11
24.48
  21
0.490442
  31
0
  0
LINE
  5
38d
  100
AcDbEntity
  8
1
  100
AcDbLine
  10
24.48
  20
0.490442
  30
0
  11
24.472
  21
0.49257
  31
0
  0
LINE
  5
38e
  100
AcDbEntity
  8
1
  100
AcDbLine
  10
24.472
  20
0.49257
  30
0
  11
24.464
  21
0.494697
  31
0
  0
LINE
  5
38f
  100
AcDbEntity
  8
1
  100
AcDbLine
  10
24.464
  20
0.494697
  30
0
  11
24.456
  21
0.496824
  31
0
  0
LINE
  5
390
  100
AcDbEntity
  8
1
  100
AcDbLine
  10
24.456
  20
0.496824
  30
0
  11
24.448
  21
0.498952
  31
0
  0
LINE
  5
391
  100
AcDbEntity
  8
1
  100
AcDbLine
  10
24.448
  20
0.498952
  30
0
  11
24.44
  21
0.501079
  31
0
  0
LINE
  5
392
  100
AcDbEntity
  8
1
  100
AcDbLine
  10
24.44
  20
0.501079
  30
0
  11
24.432
  21
0.503206
  31
0
  0
LINE
  5
393
  100
AcDbEntity
  8
1
  100
AcDbLine
  10
24.432
  20
0.503206
  30
0
  11
24.424
  21
0.505333
  31
0
  0
LINE
  5
394
  100
AcDbEntity
  8
1
  100
AcDbLine
  10
24.424
  20
0.505333
  30
0
  11
24.416
  21
0.507461
  31
0
  0
LINE
  5
395
  100
AcDbEntity
  8
1
  100
AcDbLine
  10
24.416
  20
0.507461
  30
0
  11
24.408
  21
0.509588
  31
0
  0
LINE
  5
396
  100
AcDbEntity
  8
1
  100
AcDbLine
  10
24.408
  20
0.509588
  30
0
  11
24.4
  21
0.511715
  31
0
  0
LINE
  5
397
  100
AcDbEntity
  8
1
  100
AcDbLine
  10
24.4
  20
0.511715
  30
0
  11
24.392
  21
0.513842
  31
0
  0
LINE
  5
398
  100
AcDbEntity
  8
1
  100
AcDbLine
  10
24.392
  20
0.513842
  30
0
  11
24.384
  21
0.515969
  31
0
  0
LINE
  5
399
  100
AcDbEntity
  8
1
  100
AcDbLine
  10
24.384
  20
0.515969
  30
0
  11
24.376
  21
0.518096
  31
0
  0
LINE
  5
39a
  100
AcDbEntity
  8
1
  100
AcDbLine
  10
24.376
  20
0.518096
  30
0
  11
24.368
  21
0.520223
  31
0
  0
LINE
  5
39b
  100
AcDbEntity
  8
1
  100
AcDbLine
  10
24.368
  20
0.520223
  30
0
  11
24.36
  21
0.52235
  31
0
  0
LINE
  5
39c
  100
AcDbEntity
  8
1
  100
AcDbLine
  10
24.36
  20
0.52235
  30
0
  11
24.352
  21
0.524477
  31
0
  0
LINE
  5
39d
  100
AcDbEntity
  8
1
  100
AcDbLine
  10
24.352
  20
0.524477
  30
0
  11
24.344
  21
0.526604
  31
0
  0
LINE
  5
39e
  100
AcDbEntity
  8
1
  100
AcDbLine
  10
24.344
  20
0.526604
  30
0
  11
24.336
  21
0.52873
  31
0
  0
LINE
  5
39f
  100
AcDbEntity
  8
1
  100
AcDbLine
  10
24.336
  20
0.52873
  30
0
  11
24.328
  21
0.530857
  31
0
  0
LINE
  5
3a0
  100
AcDbEntity
  8
1
  100
AcDbLine
  10
24.328
  20
0.530857
  30
0
  11
24.32
  21
0.532984
  31
0
  0
LINE
  5
3a1
  100
AcDbEntity
  8
1
  100
AcDbLine
  10
24.32
  20
0.532984
  30
0
  11
24.312
  21
0.535111
  31
0
  0
LINE
  5
3a2
  100
AcDbEntity
  8
1
  100
AcDbLine
  10
24.312
  20
0.535111
  30
0
  11
24.304
  21
0.537237
  31
0
  0
LINE
  5
3a3
  100
AcDbEntity
  8
1
  100
AcDbLine
  10
24.304
  20
0.537237
  30
0
  11
24.296
  21
0.539364
  31
0
  0
LINE
  5
3a4
  100
AcDbEntity
  8
1
  100
AcDbLine
  10
24.296
  20
0.539364
  30
0
  11
24.288
  21
0.541491
  31
0
  0
LINE
  5
3a5
  100
AcDbEntity
  8
1
  100
AcDbLine
  10
24.288
  20
0.541491
  30
0
  11
24.28
  21
0.543617
  31
0
  0
LINE
  5
3a6
  100
AcDbEntity
  8
1
  100
AcDbLine
  10
24.28
  20
0.543617
  30
0
  11
24.272
  21
0.545744
  31
0
  0
LINE
  5
3a7
  100
AcDbEntity
  8
1
  100
AcDbLine
  10
24.272
  20
0.545744
  30
0
  11
24.264
  21
0.54787
  31
0
  0
LINE
  5
3a8
  100
AcDbEntity
  8
1
  100
AcDbLine
  10
24.264
  20
0.54787
  30
0
  11
24.256
  21
0.549997
  31
0
  0
LINE
  5
3a9
  100
AcDbEntity
  8
1
  100
AcDbLine
  10
24.256
  20
0.549997
  30
0
  11
24.248
  21
0.552124
  31
0
  0
LINE
  5
3aa
  100
AcDbEntity
  8
1
  100
AcDbLine
  10
24.248
  20
0.552124
  30
0
  11
24.24
  21
0.55425
  31
0
  0
LINE
  5
3ab
  100
AcDbEntity
  8
1
  100
AcDbLine
  10
24.24
  20
0.55425
  30
0
  11
24.232
  21
0.556376
  31
0
  0
LINE
  5
3ac
  100
AcDbEntity
  8
1
  100
AcDbLine
  10
24.232
  20
0.556376
  30
0
  11
24.224
  21
0.558503
  31
0
  0
LINE
  5
3ad
  100
AcDbEntity
  8
1
  100
AcDbLine
  10
24.224
  20
0.558503
  30
0
  11
24.216
  21
0.560629
  31
0
  0
LINE
  5
3ae
  100
AcDbEntity
  8
1
  100
AcDbLine
  10
24.216
  20
0.560629
  30
0
  11
24.208
  21
0.562756
  31
0
  0
LINE
  5
3af
  100
AcDbEntity
  8
1
  100
AcDbLine
  10
24.208
  20
0.562756
  30
0
  11
24.2
  21
0.564882
  31
0
  0
LINE
  5
3b0
  100
AcDbEntity
  8
1
  100
AcDbLine
  10
24.2
  20
0.564882
  30
0
  11
24.192
  21
0.567008
  31
0
  0
LINE
  5
3b1
  100
AcDbEntity
  8
1
  100
AcDbLine
  10
24.192
  20
0.567008
  30
0
  11
24.184
  21
0.569135
  31
0
  0
LINE
  5
3b2
  100
AcDbEntity
  8
1
  100
AcDbLine
  10
24.184
  20
0.569135
  30
0
  11
24.176
  21
0.571261
  31
0
  0
LINE
  5
3b3
  100
AcDbEntity
  8
1
  100
AcDbLine
  10
24.176
  20
0.571261
  30
0
  11
24.168
  21
0.573387
  31
0
  0
LINE
  5
3b4
  100
AcDbEntity
  8
1
  100
AcDbLine
  10
24.168
  20
0.573387
  30
0
  11
24.16
  21
0.575514
  31
0
  0
LINE
  5
3b5
  100
AcDbEntity
  8
1
  100
AcDbLine
  10
24.16
  20
0.575514
  30
0
  11
24.152
  21
0.57764
  31
0
  0
LINE
  5
3b6
  100
AcDbEntity
  8
1
  100
AcDbLine
  10
24.152
  20
0.57764
  30
0
  11
24.144
  21
0.579766
  31
0
  0
LINE
  5
3b7
  100
AcDbEntity
  8
1
  100
AcDbLine
  10
24.144
  20
0.579766
  30
0
  11
24.136
  21
0.581892
  31
0
  0
LINE
  5
3b8
  100
AcDbEntity
  8
1
  100
AcDbLine
  10
24.136
  20
0.581892
  30
0
  11
24.128
  21
0.584018
  31
0
  0
LINE
  5
3b9
  100
AcDbEntity
  8
1
  100
AcDbLine
  10
24.128
  20
0.584018
  30
0
  11
24.12
  21
0.586144
  31
0
  0
LINE
  5
3ba
  100
AcDbEntity
  8
1
  100
AcDbLine
  10
24.12
  20
0.586144
  30
0
  11
24.112
  21
0.588271
  31
0
  0
LINE
  5
3bb
  100
AcDbEntity
  8
1
  100
AcDbLine
  10
24.112
  20
0.588271
  30
0
  11
24.104
  21
0.590397
  31
0
  0
LINE
  5
3bc
  100
AcDbEntity
  8
1
  100
AcDbLine
  10
24.104
  20
0.590397
  30
0
  11
24.096
  21
0.592523
  31
0
  0
LINE
  5
3bd
  100
AcDbEntity
  8
1
  100
AcDbLine
  10
24.096
  20
0.592523
  30
0
  11
24.088
  21
0.594649
  31
0
  0
LINE
  5
3be
  100
AcDbEntity
  8
1
  100
AcDbLine
  10
24.088
  20
0.594649
  30
0
  11
24.08
  21
0.596775
  31
0
  0
LINE
  5
3bf
  100
AcDbEntity
  8
1
  100
AcDbLine
  10
24.08
  20
0.596775
  30
0
  11
24.072
  21
0.598901
  31
0
  0
LINE
  5
3c0
  100
AcDbEntity
  8
1
  100
AcDbLine
  10
24.072
  20
0.598901
  30
0
  11
24.064
  21
0.601027
  31
0
  0
LINE
  5
3c1
  100
AcDbEntity
  8
1
  100
AcDbLine
  10
24.064
  20
0.601027
  30
0
  11
24.056
  21
0.603153
  31
0
  0
LINE
  5
3c2
  100
AcDbEntity
  8
1
  100
AcDbLine
  10
24.056
  20
0.603153
  30
0
  11
24.048
  21
0.605279
  31
0
  0
LINE
  5
3c3
  100
AcDbEntity
  8
1
  100
AcDbLine
  10
24.048
  20
0.605279
  30
0
  11
24.04
  21
0.607405
  31
0
  0
LINE
  5
3c4
  100
AcDbEntity
  8
1
  100
AcDbLine
  10
24.04
  20
0.607405
  30
0
  11
24.032
  21
0.609531
  31
0
  0
LINE
  5
3c5
  100
AcDbEntity
  8
1
  100
AcDbLine
  10
24.032
  20
0.609531
  30
0
  11
24.024
  21
0.611656
  31
0
  0
LINE
  5
3c6
  100
AcDbEntity
  8
1
  100
AcDbLine
  10
24.024
  20
0.611656
  30
0
  11
24.016
  21
0.613782
  31
0
  0
LINE
  5
3c7
  100
AcDbEntity
  8
1
  100
AcDbLine
  10
24.016
  20
0.613782
  30
0
  11
24.008
  21
0.615908
  31
0
  0
LINE
  5
3c8
  100
AcDbEntity
  8
1
  100
AcDbLine
  10
24.008
  20
0.615908
  30
0
  11
23.992
  21
0.61873
  31
0
  0
LINE
  5
3c9
  100
AcDbEntity
  8
1
  100
AcDbLine
  10
23.992
  20
0.61873
  30
0
  11
23.984
  21
0.620817
  31
0
  0
LINE
  5
3ca
  100
AcDbEntity
  8
1
  100
AcDbLine
  10
23.984
  20
0.620817
  30
0
  11
23.976
  21
0.624291
  31
0
  0
LINE
  5
3cb
  100
AcDbEntity
  8
1
  100
AcDbLine
  10
23.976
  20
0.624291
  30
0
  11
23.968
  21
0.629147
  31
0
  0
LINE
  5
3cc
  100
AcDbEntity
  8
1
  100
AcDbLine
  10
23.968
  20
0.629147
  30
0
  11
23.96
  21
0.635376
  31
0
  0
LINE
  5
3cd
  100
AcDbEntity
  8
1
  100
AcDbLine
  10
23.96
  20
0.635376
  30
0
  11
23.952
  21
0.642967
  31
0
  0
LINE
  5
3ce
  100
AcDbEntity
  8
1
  100
AcDbLine
  10
23.952
  20
0.642967
  30
0
  11
23.944
  21
0.651907
  31
0
  0
LINE
  5
3cf
  100
AcDbEntity
  8
1
  100
AcDbLine
  10
23.944
  20
0.651907
  30
0
  11
23.936
  21
0.662181
  31
0
  0
LINE
  5
3d0
  100
AcDbEntity
  8
1
  100
AcDbLine
  10
23.936
  20
0.662181
  30
0
  11
23.928
  21
0.673771
  31
0
  0
LINE
  5
3d1
  100
AcDbEntity
  8
1
  100
AcDbLine
  10
23.928
  20
0.673771
  30
0
  11
23.92
  21
0.686656
  31
0
  0
LINE
  5
3d2
  100
AcDbEntity
  8
1
  100
AcDbLine
  10
23.92
  20
0.686656
  30
0
  11
23.912
  21
0.700812
  31
0
  0
LINE
  5
3d3
  100
AcDbEntity
  8
1
  100
AcDbLine
  10
23.912
  20
0.700812
  30
0
  11
23.904
  21
0.716214
  31
0
  0
LINE
  5
3d4
  100
AcDbEntity
  8
1
  100
AcDbLine
  10
23.904
  20
0.716214
  30
0
  11
23.896
  21
0.732835
  31
0
  0
LINE
  5
3d5
  100
AcDbEntity
  8
1
  100
AcDbLine
  10
23.896
  20
0.732835
  30
0
  11
23.888
  21
0.750643
  31
0
  0
LINE
  5
3d6
  100
AcDbEntity
  8
1
  100
AcDbLine
  10
23.888
  20
0.750643
  30
0
  11
23.88
  21
0.769604
  31
0
  0
LINE
  5
3d7
  100
AcDbEntity
  8
1
  100
AcDbLine
  10
23.88
  20
0.769604
  30
0
  11
23.872
  21
0.789683
  31
0
  0
LINE
  5
3d8
  100
AcDbEntity
  8
1
  100
AcDbLine
  10
23.872
  20
0.789683
  30
0
  11
23.864
  21
0.810841
  31
0
  0
LINE
  5
3d9
  100
AcDbEntity
  8
1
  100
AcDbLine
  10
23.864
  20
0.810841
  30
0
  11
23.856
  21
0.833036
  31
0
  0
LINE
  5
3da
  100
AcDbEntity
  8
1
  100
AcDbLine
  10
23.856
  20
0.833036
  30
0
  11
23.848
  21
0.856225
  31
0
  0
LINE
  5
3db
  100
AcDbEntity
  8
1
  100
AcDbLine
  10
23.848
  20
0.856225
  30
0
  11
23.84
  21
0.880362
  31
0
  0
LINE
  5
3dc
  100
AcDbEntity
  8
1
  100
AcDbLine
  10
23.84
  20
0.880362
  30
0
  11
23.832
  21
0.905396
  31
0
  0
LINE
  5
3dd
  100
AcDbEntity
  8
1
  100
AcDbLine
  10
23.832
  20
0.905396
  30
0
  11
23.824
  21
0.931277
  31
0
  0
LINE
  5
3de
  100
AcDbEntity
  8
1
  100
AcDbLine
  10
23.824
  20
0.931277
  30
0
  11
23.816
  21
0.957951
  31
0
  0
LINE
  5
3df
  100
AcDbEntity
  8
1
  100
AcDbLine
  10
23.816
  20
0.957951
  30
0
  11
23.808
  21
0.985361
  31
0
  0
LINE
  5
3e0
  100
AcDbEntity
  8
1
  100
AcDbLine
  10
23.808
  20
0.985361
  30
0
  11
23.8
  21
1.013449
  31
0
  0
LINE
  5
3e1
  100
AcDbEntity
  8
1
  100
AcDbLine
  10
23.8
  20
1.013449
  30
0
  11
23.792
  21
1.042154
  31
0
  0
LINE
  5
3e2
  100
AcDbEntity
  8
1
  100
AcDbLine
  10
23.792
  20
1.042154
  30
0
  11
23.784
  21
1.071413
  31
0
  0
LINE
  5
3e3
  100
AcDbEntity
  8
1
  100
AcDbLine
  10
23.784
  20
1.071413
  30
0
  11
23.776
  21
1.101163
  31
0
  0
LINE
  5
3e4
  100
AcDbEntity
  8
1
  100
AcDbLine
  10
23.776
  20
1.101163
  30
0
  11
23.768
  21
1.131336
  31
0
  0
LINE
  5
3e5
  100
AcDbEntity
  8
1
  100
AcDbLine
  10
23.768
  20
1.131336
  30
0
  11
23.76
  21
1.161866
  31
0
  0
LINE
  5
3e6
  100
AcDbEntity
  8
1
  100
AcDbLine
  10
23.76
  20
1.161866
  30
0
  11
23.752
  21
1.192684
  31
0
  0
LINE
  5
3e7
  100
AcDbEntity
  8
1
  100
AcDbLine
  10
23.752
  20
1.192684
  30
0
  11
23.744
  21
1.223719
  31
0
  0
LINE
  5
3e8
  100
AcDbEntity
  8
1
  100
AcDbLine
  10
23.744
  20
1.223719
  30
0
  11
23.736
  21
1.2549
  31
0
  0
LINE
  5
3e9
  100
AcDbEntity
  8
1
  100
AcDbLine
  10
23.736
  20
1.2549
  30
0
  11
23.728
  21
1.286158
  31
0
  0
LINE
  5
3ea
  100
AcDbEntity
  8
1
  100
AcDbLine
  10
23.728
  20
1.286158
  30
0
  11
23.72
  21
1.317419
  31
0
  0
LINE
  5
3eb
  100
AcDbEntity
  8
1
  100
AcDbLine
  10
23.72
  20
1.317419
  30
0
  11
23.712
  21
1.348613
  31
0
  0
LINE
  5
3ec
  100
AcDbEntity
  8
1
  100
AcDbLine
  10
23.712
  20
1.348613
  30
0
  11
23.704
  21
1.379667
  31
0
  0
LINE
  5
3ed
  100
AcDbEntity
  8
1
  100
AcDbLine
  10
23.704
  20
1.379667
  30
0
  11
23.696
  21
1.410512
  31
0
  0
LINE
  5
3ee
  100
AcDbEntity
  8
1
  100
AcDbLine
  10
23.696
  20
1.410512
  30
0
  11
23.688
  21
1.441077
  31
0
  0
LINE
  5
3ef
  100
AcDbEntity
  8
1
  100
AcDbLine
  10
23.688
  20
1.441077
  30
0
  11
23.68
  21
1.471293
  31
0
  0
LINE
  5
3f0
  100
AcDbEntity
  8
1
  100
AcDbLine
  10
23.68
  20
1.471293
  30
0
  11
23.672
  21
1.501093
  31
0
  0
LINE
  5
3f1
  100
AcDbEntity
  8
1
  100
AcDbLine
  10
23.672
  20
1.501093
  30
0
  11
23.664
  21
1.530413
  31
0
  0
LINE
  5
3f2
  100
AcDbEntity
  8
1
  100
AcDbLine
  10
23.664
  20
1.530413
  30
0
  11
23.656
  21
1.559187
  31
0
  0
LINE
  5
3f3
  100
AcDbEntity
  8
1
  100
AcDbLine
  10
23.656
  20
1.559187
  30
0
  11
23.648
  21
1.587355
  31
0
  0
LINE
  5
3f4
  100
AcDbEntity
  8
1
  100
AcDbLine
  10
23.648
  20
1.587355
  30
0
  11
23.64
  21
1.614859
  31
0
  0
LINE
  5
3f5
  100
AcDbEntity
  8
1
  100
AcDbLine
  10
23.64
  20
1.614859
  30
0
  11
23.632
  21
1.641643
  31
0
  0
LINE
  5
3f6
  100
AcDbEntity
  8
1
  100
AcDbLine
  10
23.632
  20
1.641643
  30
0
  11
23.624
  21
1.667655
  31
0
  0
LINE
  5
3f7
  100
AcDbEntity
  8
1
  100
AcDbLine
  10
23.624
  20
1.667655
  30
0
  11
23.616
  21
1.692847
  31
0
  0
LINE
  5
3f8
  100
AcDbEntity
  8
1
  100
AcDbLine
  10
23.616
  20
1.692847
  30
0
  11
23.608
  21
1.717172
  31
0
  0
LINE
  5
3f9
  100
AcDbEntity
  8
1
  100
AcDbLine
  10
23.608
  20
1.717172
  30
0
  11
23.6
  21
1.740589
  31
0
  0
LINE
  5
3fa
  100
AcDbEntity
  8
1
  100
AcDbLine
  10
23.6
  20
1.740589
  30
0
  11
23.6
  21
1.764442
  31
0
  0
LINE
  5
3fb
  100
AcDbEntity
  8
1
  100
AcDbLine
  10
23.6
  20
1.764442
  30
0
  11
23.608
  21
1.778733
  31
0
  0
LINE
  5
3fc
  100
AcDbEntity
  8
1
  100
AcDbLine
  10
23.608
  20
1.778733
  30
0
  11
23.616
  21
1.792589
  31
0
  0
LINE
  5
3fd
  100
AcDbEntity
  8
1
  100
AcDbLine
  10
23.616
  20
1.792589
  30
0
  11
23.624
  21
1.805994
  31
0
  0
LINE
  5
3fe
  100
AcDbEntity
  8
1
  100
AcDbLine
  10
23.624
  20
1.805994
  30
0
  11
23.632
  21
1.818935
  31
0
  0
LINE
  5
3ff
  100
AcDbEntity
  8
1
  100
AcDbLine
  10
23.632
  20
1.818935
  30
0
  11
23.64
  21
1.831402
  31
0
  0
LINE
  5
400
  100
AcDbEntity
  8
1
  100
AcDbLine
  10
23.64
  20
1.831402
  30
0
  11
23.648
  21
1.843384
  31
0
  0
LINE
  5
401
  100
AcDbEntity
  8
1
  100
AcDbLine
  10
23.648
  20
1.843384
  30
0
  11
23.656
  21
1.854875
  31
0
  0
LINE
  5
402
  100
AcDbEntity
  8
1
  100
AcDbLine
  10
23.656
  20
1.854875
  30
0
  11
23.664
  21
1.865867
  31
0
  0
LINE
  5
403
  100
AcDbEntity
  8
1
  100
AcDbLine
  10
23.664
  20
1.865867
  30
0
  11
23.672
  21
1.876358
  31
0
  0
LINE
  5
404
  100
AcDbEntity
  8
1
  100
AcDbLine
  10
23.672
  20
1.876358
  30
0
  11
23.68
  21
1.886344
  31
0
  0
LINE
  5
405
  100
AcDbEntity
  8
1
  100
AcDbLine
  10
23.68
  20
1.886344
  30
0
  11
23.688
  21
1.895827
  31
0
  0
LINE
  5
406
  100
AcDbEntity
  8
1
  100
AcDbLine
  10
23.688
  20
1.895827
  30
0
  11
23.696
  21
1.904808
  31
0
  0
LINE
  5
407
  100
AcDbEntity
  8
1
  100
AcDbLine
  10
23.696
  20
1.904808
  30
0
  11
23.704
  21
1.91329
  31
0
  0
LINE
  5
408
  100
AcDbEntity
  8
1
  100
AcDbLine
  10
23.704
  20
1.91329
  30
0
  11
23.712
  21
1.921277
  31
0
  0
LINE
  5
409
  100
AcDbEntity
  8
1
  100
AcDbLine
  10
23.712
  20
1.921277
  30
0
  11
23.72
  21
1.928777
  31
0
  0
LINE
  5
40a
  100
AcDbEntity
  8
1
  100
AcDbLine
  10
23.72
  20
1.928777
  30
0
  11
23.728
  21
1.935798
  31
0
  0
LINE
  5
40b
  100
AcDbEntity
  8
1
  100
AcDbLine
  10
23.728
  20
1.935798
  30
0
  11
23.736
  21
1.942349
  31
0
  0
LINE
  5
40c
  100
AcDbEntity
  8
1
  100
AcDbLine
  10
23.736
  20
1.942349
  30
0
  11
23.744
  21
1.948442
  31
0
  0
LINE
  5
40d
  100
AcDbEntity
  8
1
  100
AcDbLine
  10
23.744
  20
1.948442
  30
0
  11
23.752
  21
1.954088
  31
0
  0
LINE
  5
40e
  100
AcDbEntity
  8
1
  100
AcDbLine
  10
23.752
  20
1.954088
  30
0
  11
23.76
  21
1.959301
  31
0
  0
LINE
  5
40f
  100
AcDbEntity
  8
1
  100
AcDbLine
  10
23.76
  20
1.959301
  30
0
  11
23.768
  21
1.964096
  31
0
  0
LINE
  5
410
  100
AcDbEntity
  8
1
  100
AcDbLine
  10
23.768
  20
1.964096
  30
0
  11
23.776
  21
1.968489
  31
0
  0
LINE
  5
411
  100
AcDbEntity
  8
1
  100
AcDbLine
  10
23.776
  20
1.968489
  30
0
  11
23.784
  21
1.972495
  31
0
  0
LINE
  5
412
  100
AcDbEntity
  8
1
  100
AcDbLine
  10
23.784
  20
1.972495
  30
0
  11
23.792
  21
1.976132
  31
0
  0
LINE
  5
413
  100
AcDbEntity
  8
1
  100
AcDbLine
  10
23.792
  20
1.976132
  30
0
  11
23.8
  21
1.979418
  31
0
  0
LINE
  5
414
  100
AcDbEntity
  8
1
  100
AcDbLine
  10
23.8
  20
1.979418
  30
0
  11
23.808
  21
1.982372
  31
0
  0
LINE
  5
415
  100
AcDbEntity
  8
1
  100
AcDbLine
  10
23.808
  20
1.982372
  30
0
  11
23.816
  21
1.985011
  31
0
  0
LINE
  5
416
  100
AcDbEntity
  8
1
  100
AcDbLine
  10
23.816
  20
1.985011
  30
0
  11
23.824
  21
1.987356
  31
0
  0
LINE
  5
417
  100
AcDbEntity
  8
1
  100
AcDbLine
  10
23.824
  20
1.987356
  30
0
  11
23.832
  21
1.989426
  31
0
  0
LINE
  5
418
  100
AcDbEntity
  8
1
  100
AcDbLine
  10
23.832
  20
1.989426
  30
0
  11
23.84
  21
1.99124
  31
0
  0
LINE
  5
419
  100
AcDbEntity
  8
1
  100
AcDbLine
  10
23.84
  20
1.99124
  30
0
  11
23.848
  21
1.992818
  31
0
  0
LINE
  5
41a
  100
AcDbEntity
  8
1
  100
AcDbLine
  10
23.848
  20
1.992818
  30
0
  11
23.856
  21
1.994179
  31
0
  0
LINE
  5
41b
  100
AcDbEntity
  8
1
  100
AcDbLine
  10
23.856
  20
1.994179
  30
0
  11
23.864
  21
1.995341
  31
0
  0
LINE
  5
41c
  100
AcDbEntity
  8
1
  100
AcDbLine
  10
23.864
  20
1.995341
  30
0
  11
23.872
  21
1.996324
  31
0
  0
LINE
  5
41d
  100
AcDbEntity
  8
1
  100
AcDbLine
  10
23.872
  20
1.996324
  30
0
  11
23.88
  21
1.997146
  31
0
  0
LINE
  5
41e
  100
AcDbEntity
  8
1
  100
AcDbLine
  10
23.88
  20
1.997146
  30
0
  11
23.888
  21
1.997823
  31
0
  0
LINE
  5
41f
  100
AcDbEntity
  8
1
  100
AcDbLine
  10
23.888
  20
1.997823
  30
0
  11
23.896
  21
1.998375
  31
0
  0
LINE
  5
420
  100
AcDbEntity
  8
1
  100
AcDbLine
  10
23.896
  20
1.998375
  30
0
  11
23.904
  21
1.998815
  31
0
  0
LINE
  5
421
  100
AcDbEntity
  8
1
  100
AcDbLine
  10
23.904
  20
1.998815
  30
0
  11
23.912
  21
1.99916
  31
0
  0
LINE
  5
422
  100
AcDbEntity
  8
1
  100
AcDbLine
  10
23.912
  20
1.99916
  30
0
  11
23.92
  21
1.999424
  31
0
  0
LINE
  5
423
  100
AcDbEntity
  8
1
  100
AcDbLine
  10
23.92
  20
1.999424
  30
0
  11
23.928
  21
1.999621
  31
0
  0
LINE
  5
424
  100
AcDbEntity
  8
1
  100
AcDbLine
  10
23.928
  20
1.999621
  30
0
  11
23.936
  21
1.999763
  31
0
  0
LINE
  5
425
  100
AcDbEntity
  8
1
  100
AcDbLine
  10
23.936
  20
1.999763
  30
0
  11
23.944
  21
1.999861
  31
0
  0
LINE
  5
426
  100
AcDbEntity
  8
1
  100
AcDbLine
  10
23.944
  20
1.999861
  30
0
  11
23.952
  21
1.999925
  31
0
  0
LINE
  5
427
  100
AcDbEntity
  8
1
  100
AcDbLine
  10
23.952
  20
1.999925
  30
0
  11
23.96
  21
1.999964
  31
0
  0
LINE
  5
428
  100
AcDbEntity
  8
1
  100
AcDbLine
  10
23.96
  20
1.999964
  30
0
  11
23.968
  21
1.999985
  31
0
  0
LINE
  5
429
  100
AcDbEntity
  8
1
  100
AcDbLine
  10
23.968
  20
1.999985
  30
0
  11
23.976
  21
1.999995
  31
0
  0
LINE
  5
42a
  100
AcDbEntity
  8
1
  100
AcDbLine
  10
23.976
  20
1.999995
  30
0
  11
23.984
  21
1.999999
  31
0
  0
LINE
  5
42b
  100
AcDbEntity
  8
1
  100
AcDbLine
  10
23.984
  20
1.999999
  30
0
  11
23.992
  21
2
  31
0
  0
LINE
  5
42c
  100
AcDbEntity
  8
1
  100
AcDbLine
  10
23.992
  20
2
  30
0
  11
23.996813
  21
2
  31
0
  0
LINE
  5
42d
  100
AcDbEntity
  8
1
  100
AcDbLine
  10
24
  20
2
  30
0
  11
24
  21
-2
  31
0
  0
LINE
  5
42e
  100
AcDbEntity
  8
1
  100
AcDbLine
  10
23.996813
  20
-2
  30
0
  11
24.008
  21
-1.992
  31
0
  0
LINE
  5
42f
  100
AcDbEntity
  8
1
  100
AcDbLine
  10
24.008
  20
-1.992
  30
0
  11
24.016
  21
-1.983999
  31
0
  0
LINE
  5
430
  100
AcDbEntity
  8
1
  100
AcDbLine
  10
24.016
  20
-1.983999
  30
0
  11
24.024
  21
-1.975997
  31
0
  0
LINE
  5
431
  100
AcDbEntity
  8
1
  100
AcDbLine
  10
24.024
  20
-1.975997
  30
0
  11
24.032
  21
-1.967995
  31
0
  0
LINE
  5
432
  100
AcDbEntity
  8
1
  100
AcDbLine
  10
24.032
  20
-1.967995
  30
0
  11
24.04
  21
-1.959992
  31
0
  0
LINE
  5
433
  100
AcDbEntity
  8
1
  100
AcDbLine
  10
24.04
  20
-1.959992
  30
0
  11
24.048
  21
-1.951988
  31
0
  0
LINE
  5
434
  100
AcDbEntity
  8
1
  100
AcDbLine
  10
24.048
  20
-1.951988
  30
0
  11
24.056
  21
-1.943984
  31
0
  0
LINE
  5
435
  100
AcDbEntity
  8
1
  100
AcDbLine
  10
24.056
  20
-1.943984
  30
0
  11
24.064
  21
-1.935979
  31
0
  0
LINE
  5
436
  100
AcDbEntity
  8
1
  100
AcDbLine
  10
24.064
  20
-1.935979
  30
0
  11
24.072
  21
-1.927973
  31
0
  0
LINE
  5
437
  100
AcDbEntity
  8
1
  100
AcDbLine
  10
24.072
  20
-1.927973
  30
0
  11
24.08
  21
-1.919967
  31
0
  0
LINE
  5
438
  100
AcDbEntity
  8
1
  100
AcDbLine
  10
24.08
  20
-1.919967
  30
0
  11
24.088
  21
-1.91196
  31
0
  0
LINE
  5
439
  100
AcDbEntity
  8
1
  100
AcDbLine
  10
24.088
  20
-1.91196
  30
0
  11
24.096
  21
-1.903952
  31
0
  0
LINE
  5
43a
  100
AcDbEntity
  8
1
  100
AcDbLine
  10
24.096
  20
-1.903952
  30
0
  11
24.104
  21
-1.895944
  31
0
  0
LINE
  5
43b
  100
AcDbEntity
  8
1
  100
AcDbLine
  10
24.104
  20
-1.895944
  30
0
  11
24.112
  21
-1.887934
  31
0
  0
LINE
  5
43c
  100
AcDbEntity
  8
1
  100
AcDbLine
  10
24.112
  20
-1.887934
  30
0
  11
24.12
  21
-1.879924
  31
0
  0
LINE
  5
43d
  100
AcDbEntity
  8
1
  100
AcDbLine
  10
24.12
  20
-1.879924
  30
0
  11
24.128
  21
-1.871913
  31
0
  0
LINE
  5
43e
  100
AcDbEntity
  8
1
  100
AcDbLine
  10
24.128
  20
-1.871913
  30
0
  11
24.136
  21
-1.863902
  31
0
  0
LINE
  5
43f
  100
AcDbEntity
  8
1
  100
AcDbLine
  10
24.136
  20
-1.863902
  30
0
  11
24.144
  21
-1.855889
  31
0
  0
LINE
  5
440
  100
AcDbEntity
  8
1
  100
AcDbLine
  10
24.144
  20
-1.855889
  30
0
  11
24.152
  21
-1.847876
  31
0
  0
LINE
  5
441
  100
AcDbEntity
  8
1
  100
AcDbLine
  10
24.152
  20
-1.847876
  30
0
  11
24.16
  21
-1.839862
  31
0
  0
LINE
  5
442
  100
AcDbEntity
  8
1
  100
AcDbLine
  10
24.16
  20
-1.839862
  30
0
  11
24.168
  21
-1.831848
  31
0
  0
LINE
  5
443
  100
AcDbEntity
  8
1
  100
AcDbLine
  10
24.168
  20
-1.831848
  30
0
  11
24.176
  21
-1.823832
  31
0
  0
LINE
  5
444
  100
AcDbEntity
  8
1
  100
AcDbLine
  10
24.176
  20
-1.823832
  30
0
  11
24.184
  21
-1.815816
  31
0
  0
LINE
  5
445
  100
AcDbEntity
  8
1
  100
AcDbLine
  10
24.184
  20
-1.815816
  30
0
  11
24.192
  21
-1.807798
  31
0
  0
LINE
  5
446
  100
AcDbEntity
  8
1
  100
AcDbLine
  10
24.192
  20
-1.807798
  30
0
  11
24.2
  21
-1.79978
  31
0
  0
LINE
  5
447
  100
AcDbEntity
  8
1
  100
AcDbLine
  10
24.2
  20
-1.79978
  30
0
  11
24.208
  21
-1.791761
  31
0
  0
LINE
  5
448
  100
AcDbEntity
  8
1
  100
AcDbLine
  10
24.208
  20
-1.791761
  30
0
  11
24.216
  21
-1.783741
  31
0
  0
LINE
  5
449
  100
AcDbEntity
  8
1
  100
AcDbLine
  10
24.216
  20
-1.783741
  30
0
  11
24.224
  21
-1.77572
  31
0
  0
LINE
  5
44a
  100
AcDbEntity
  8
1
  100
AcDbLine
  10
24.224
  20
-1.77572
  30
0
  11
24.232
  21
-1.767699
  31
0
  0
LINE
  5
44b
  100
AcDbEntity
  8
1
  100
AcDbLine
  10
24.232
  20
-1.767699
  30
0
  11
24.24
  21
-1.759676
  31
0
  0
LINE
  5
44c
  100
AcDbEntity
  8
1
  100
AcDbLine
  10
24.24
  20
-1.759676
  30
0
  11
24.248
  21
-1.751652
  31
0
  0
LINE
  5
44d
  100
AcDbEntity
  8
1
  100
AcDbLine
  10
24.248
  20
-1.751652
  30
0
  11
24.256
  21
-1.743628
  31
0
  0
LINE
  5
44e
  100
AcDbEntity
  8
1
  100
AcDbLine
  10
24.256
  20
-1.743628
  30
0
  11
24.264
  21
-1.735602
  31
0
  0
LINE
  5
44f
  100
AcDbEntity
  8
1
  100
AcDbLine
  10
24.264
  20
-1.735602
  30
0
  11
24.272
  21
-1.727576
  31
0
  0
LINE
  5
450
  100
AcDbEntity
  8
1
  100
AcDbLine
  10
24.272
  20
-1.727576
  30
0
  11
24.28
  21
-1.719548
  31
0
  0
LINE
  5
451
  100
AcDbEntity
  8
1
  100
AcDbLine
  10
24.28
  20
-1.719548
  30
0
  11
24.288
  21
-1.71152
  31
0
  0
LINE
  5
452
  100
AcDbEntity
  8
1
  100
AcDbLine
  10
24.288
  20
-1.71152
  30
0
  11
24.296
  21
-1.70349
  31
0
  0
LINE
  5
453
  100
AcDbEntity
  8
1
  100
AcDbLine
  10
24.296
  20
-1.70349
  30
0
  11
24.304
  21
-1.69546
  31
0
  0
LINE
  5
454
  100
AcDbEntity
  8
1
  100
AcDbLine
  10
24.304
  20
-1.69546
  30
0
  11
24.312
  21
-1.687428
  31
0
  0
LINE
  5
455
  100
AcDbEntity
  8
1
  100
AcDbLine
  10
24.312
  20
-1.687428
  30
0
  11
24.32
  21
-1.679396
  31
0
  0
LINE
  5
456
  100
AcDbEntity
  8
1
  100
AcDbLine
  10
24.32
  20
-1.679396
  30
0
  11
24.328
  21
-1.671362
  31
0
  0
LINE
  5
457
  100
AcDbEntity
  8
1
  100
AcDbLine
  10
24.328
  20
-1.671362
  30
0
  11
24.336
  21
-1.663327
  31
0
  0
LINE
  5
458
  100
AcDbEntity
  8
1
  100
AcDbLine
  10
24.336
  20
-1.663327
  30
0
  11
24.344
  21
-1.655291
  31
0
  0
LINE
  5
459
  100
AcDbEntity
  8
1
  100
AcDbLine
  10
24.344
  20
-1.655291
  30
0
  11
24.352
  21
-1.647254
  31
0
  0
LINE
  5
45a
  100
AcDbEntity
  8
1
  100
AcDbLine
  10
24.352
  20
-1.647254
  30
0
  11
24.36
  21
-1.639216
  31
0
  0
LINE
  5
45b
  100
AcDbEntity
  8
1
  100
AcDbLine
  10
24.36
  20
-1.639216
  30
0
  11
24.368
  21
-1.631177
  31
0
  0
LINE
  5
45c
  100
AcDbEntity
  8
1
  100
AcDbLine
  10
24.368
  20
-1.631177
  30
0
  11
24.376
  21
-1.623136
  31
0
  0
LINE
  5
45d
  100
AcDbEntity
  8
1
  100
AcDbLine
  10
24.376
  20
-1.623136
  30
0
  11
24.384
  21
-1.615094
  31
0
  0
LINE
  5
45e
  100
AcDbEntity
  8
1
  100
AcDbLine
  10
24.384
  20
-1.615094
  30
0
  11
24.392
  21
-1.607051
  31
0
  0
LINE
  5
45f
  100
AcDbEntity
  8
1
  100
AcDbLine
  10
24.392
  20
-1.607051
  30
0
  11
24.4
  21
-1.599007
  31
0
  0
LINE
  5
460
  100
AcDbEntity
  8
1
  100
AcDbLine
  10
24.4
  20
-1.599007
  30
0
  11
24.408
  21
-1.590962
  31
0
  0
LINE
  5
461
  100
AcDbEntity
  8
1
  100
AcDbLine
  10
24.408
  20
-1.590962
  30
0
  11
24.416
  21
-1.582915
  31
0
  0
LINE
  5
462
  100
AcDbEntity
  8
1
  100
AcDbLine
  10
24.416
  20
-1.582915
  30
0
  11
24.424
  21
-1.574867
  31
0
  0
LINE
  5
463
  100
AcDbEntity
  8
1
  100
AcDbLine
  10
24.424
  20
-1.574867
  30
0
  11
24.432
  21
-1.566818
  31
0
  0
LINE
  5
464
  100
AcDbEntity
  8
1
  100
AcDbLine
  10
24.432
  20
-1.566818
  30
0
  11
24.44
  21
-1.558767
  31
0
  0
LINE
  5
465
  100
AcDbEntity
  8
1
  100
AcDbLine
  10
24.44
  20
-1.558767
  30
0
  11
24.448
  21
-1.550715
  31
0
  0
LINE
  5
466
  100
AcDbEntity
  8
1
  100
AcDbLine
  10
24.448
  20
-1.550715
  30
0
  11
24.456
  21
-1.542662
  31
0
  0
LINE
  5
467
  100
AcDbEntity
  8
1
  100
AcDbLine
  10
24.456
  20
-1.542662
  30
0
  11
24.464
  21
-1.534607
  31
0
  0
LINE
  5
468
  100
AcDbEntity
  8
1
  100
AcDbLine
  10
24.464
  20
-1.534607
  30
0
  11
24.472
  21
-1.526551
  31
0
  0
LINE
  5
469
  100
AcDbEntity
  8
1
  100
AcDbLine
  10
24.472
  20
-1.526551
  30
0
  11
24.48
  21
-1.518493
  31
0
  0
LINE
  5
46a
  100
AcDbEntity
  8
1
  100
AcDbLine
  10
24.48
  20
-1.518493
  30
0
  11
24.488
  21
-1.510434
  31
0
  0
LINE
  5
46b
  100
AcDbEntity
  8
1
  100
AcDbLine
  10
24.488
  20
-1.510434
  30
0
  11
24.496
  21
-1.502373
  31
0
  0
LINE
  5
46c
  100
AcDbEntity
  8
1
  100
AcDbLine
  10
24.496
  20
-1.502373
  30
0
  11
24.504
  21
-1.494311
  31
0
  0
LINE
  5
46d
  100
AcDbEntity
  8
1
  100
AcDbLine
  10
24.504
  20
-1.494311
  30
0
  11
24.512
  21
-1.486247
  31
0
  0
LINE
  5
46e
  100
AcDbEntity
  8
1
  100
AcDbLine
  10
24.512
  20
-1.486247
  30
0
  11
24.52
  21
-1.478182
  31
0
  0
LINE
  5
46f
  100
AcDbEntity
  8
1
  100
AcDbLine
  10
24.52
  20
-1.478182
  30
0
  11
24.528
  21
-1.470115
  31
0
  0
LINE
  5
470
  100
AcDbEntity
  8
1
  100
AcDbLine
  10
24.528
  20
-1.470115
  30
0
  11
24.536
  21
-1.462047
  31
0
  0
LINE
  5
471
  100
AcDbEntity
  8
1
  100
AcDbLine
  10
24.536
  20
-1.462047
  30
0
  11
24.544
  21
-1.453976
  31
0
  0
LINE
  5
472
  100
AcDbEntity
  8
1
  100
AcDbLine
  10
24.544
  20
-1.453976
  30
0
  11
24.552
  21
-1.445904
  31
0
  0
LINE
  5
473
  100
AcDbEntity
  8
1
  100
AcDbLine
  10
24.552
  20
-1.445904
  30
0
  11
24.56
  21
-1.437831
  31
0
  0
LINE
  5
474
  100
AcDbEntity
  8
1
  100
AcDbLine
  10
24.56
  20
-1.437831
  30
0
  11
24.568
  21
-1.429756
  31
0
  0
LINE
  5
475
  100
AcDbEntity
  8
1
  100
AcDbLine
  10
24.568
  20
-1.429756
  30
0
  11
24.576
  21
-1.421679
  31
0
  0
LINE
  5
476
  100
AcDbEntity
  8
1
  100
AcDbLine
  10
24.576
  20
-1.421679
  30
0
  11
24.584
  21
-1.4136
  31
0
  0
LINE
  5
477
  100
AcDbEntity
  8
1
  100
AcDbLine
  10
24.584
  20
-1.4136
  30
0
  11
24.592
  21
-1.405519
  31
0
  0
LINE
  5
478
  100
AcDbEntity
  8
1
  100
AcDbLine
  10
24.592
  20
-1.405519
  30
0
  11
24.6
  21
-1.397436
  31
0
  0
LINE
  5
479
  100
AcDbEntity
  8
1
  100
AcDbLine
  10
24.6
  20
-1.397436
  30
0
  11
24.608
  21
-1.389352
  31
0
  0
LINE
  5
47a
  100
AcDbEntity
  8
1
  100
AcDbLine
  10
24.608
  20
-1.389352
  30
0
  11
24.616
  21
-1.381266
  31
0
  0
LINE
  5
47b
  100
AcDbEntity
  8
1
  100
AcDbLine
  10
24.616
  20
-1.381266
  30
0
  11
24.624
  21
-1.373177
  31
0
  0
LINE
  5
47c
  100
AcDbEntity
  8
1
  100
AcDbLine
  10
24.624
  20
-1.373177
  30
0
  11
24.632
  21
-1.365087
  31
0
  0
LINE
  5
47d
  100
AcDbEntity
  8
1
  100
AcDbLine
  10
24.632
  20
-1.365087
  30
0
  11
24.64
  21
-1.356994
  31
0
  0
LINE
  5
47e
  100
AcDbEntity
  8
1
  100
AcDbLine
  10
24.64
  20
-1.356994
  30
0
  11
24.648
  21
-1.3489
  31
0
  0
LINE
  5
47f
  100
AcDbEntity
  8
1
  100
AcDbLine
  10
24.648
  20
-1.3489
  30
0
  11
24.656
  21
-1.340803
  31
0
  0
LINE
  5
480
  100
AcDbEntity
  8
1
  100
AcDbLine
  10
24.656
  20
-1.340803
  30
0
  11
24.664
  21
-1.332704
  31
0
  0
LINE
  5
481
  100
AcDbEntity
  8
1
  100
AcDbLine
  10
24.664
  20
-1.332704
  30
0
  11
24.672
  21
-1.324603
  31
0
  0
LINE
  5
482
  100
AcDbEntity
  8
1
  100
AcDbLine
  10
24.672
  20
-1.324603
  30
0
  11
24.68
  21
-1.3165
  31
0
  0
LINE
  5
483
  100
AcDbEntity
  8
1
  100
AcDbLine
  10
24.68
  20
-1.3165
  30
0
  11
24.688
  21
-1.308395
  31
0
  0
LINE
  5
484
  100
AcDbEntity
  8
1
  100
AcDbLine
  10
24.688
  20
-1.308395
  30
0
  11
24.696
  21
-1.300287
  31
0
  0
LINE
  5
485
  100
AcDbEntity
  8
1
  100
AcDbLine
  10
24.696
  20
-1.300287
  30
0
  11
24.704
  21
-1.292176
  31
0
  0
LINE
  5
486
  100
AcDbEntity
  8
1
  100
AcDbLine
  10
24.704
  20
-1.292176
  30
0
  11
24.712
  21
-1.284064
  31
0
  0
LINE
  5
487
  100
AcDbEntity
  8
1
  100
AcDbLine
  10
24.712
  20
-1.284064
  30
0
  11
24.72
  21
-1.275949
  31
0
  0
LINE
  5
488
  100
AcDbEntity
  8
1
  100
AcDbLine
  10
24.72
  20
-1.275949
  30
0
  11
24.728
  21
-1.267831
  31
0
  0
LINE
  5
489
  100
AcDbEntity
  8
1
  100
AcDbLine
  10
24.728
  20
-1.267831
  30
0
  11
24.736
  21
-1.259711
  31
0
  0
LINE
  5
48a
  100
AcDbEntity
  8
1
  100
AcDbLine
  10
24.736
  20
-1.259711
  30
0
  11
24.744
  21
-1.251588
  31
0
  0
LINE
  5
48b
  100
AcDbEntity
  8
1
  100
AcDbLine
  10
24.744
  20
-1.251588
  30
0
  11
24.752
  21
-1.243463
  31
0
  0
LINE
  5
48c
  100
AcDbEntity
  8
1
  100
AcDbLine
  10
24.752
  20
-1.243463
  30
0
  11
24.76
  21
-1.235334
  31
0
  0
LINE
  5
48d
  100
AcDbEntity
  8
1
  100
AcDbLine
  10
24.76
  20
-1.235334
  30
0
  11
24.768
  21
-1.227203
  31
0
  0
LINE
  5
48e
  100
AcDbEntity
  8
1
  100
AcDbLine
  10
24.768
  20
-1.227203
  30
0
  11
24.776
  21
-1.219069
  31
0
  0
LINE
  5
48f
  100
AcDbEntity
  8
1
  100
AcDbLine
  10
24.776
  20
-1.219069
  30
0
  11
24.784
  21
-1.210933
  31
0
  0
LINE
  5
490
  100
AcDbEntity
  8
1
  100
AcDbLine
  10
24.784
  20
-1.210933
  30
0
  11
24.792
  21
-1.202793
  31
0
  0
LINE
  5
491
  100
AcDbEntity
  8
1
  100
AcDbLine
  10
24.792
  20
-1.202793
  30
0
  11
24.8
  21
-1.19465
  31
0
  0
LINE
  5
492
  100
AcDbEntity
  8
1
  100
AcDbLine
  10
24.8
  20
-1.19465
  30
0
  11
24.808
  21
-1.186504
  31
0
  0
LINE
  5
493
  100
AcDbEntity
  8
1
  100
AcDbLine
  10
24.808
  20
-1.186504
  30
0
  11
24.816
  21
-1.178355
  31
0
  0
LINE
  5
494
  100
AcDbEntity
  8
1
  100
AcDbLine
  10
24.816
  20
-1.178355
  30
0
  11
24.824
  21
-1.170203
  31
0
  0
LINE
  5
495
  100
AcDbEntity
  8
1
  100
AcDbLine
  10
24.824
  20
-1.170203
  30
0
  11
24.832
  21
-1.162048
  31
0
  0
LINE
  5
496
  100
AcDbEntity
  8
1
  100
AcDbLine
  10
24.832
  20
-1.162048
  30
0
  11
24.84
  21
-1.153889
  31
0
  0
LINE
  5
497
  100
AcDbEntity
  8
1
  100
AcDbLine
  10
24.84
  20
-1.153889
  30
0
  11
24.848
  21
-1.145727
  31
0
  0
LINE
  5
498
  100
AcDbEntity
  8
1
  100
AcDbLine
  10
24.848
  20
-1.145727
  30
0
  11
24.856
  21
-1.137561
  31
0
  0
LINE
  5
499
  100
AcDbEntity
  8
1
  100
AcDbLine
  10
24.856
  20
-1.137561
  30
0
  11
24.864
  21
-1.129391
  31
0
  0
LINE
  5
49a
  100
AcDbEntity
  8
1
  100
AcDbLine
  10
24.864
  20
-1.129391
  30
0
  11
24.872
  21
-1.121218
  31
0
  0
LINE
  5
49b
  100
AcDbEntity
  8
1
  100
AcDbLine
  10
24.872
  20
-1.121218
  30
0
  11
24.88
  21
-1.113042
  31
0
  0
LINE
  5
49c
  100
AcDbEntity
  8
1
  100
AcDbLine
  10
24.88
  20
-1.113042
  30
0
  11
24.888
  21
-1.104861
  31
0
  0
LINE
  5
49d
  100
AcDbEntity
  8
1
  100
AcDbLine
  10
24.888
  20
-1.104861
  30
0
  11
24.896
  21
-1.096676
  31
0
  0
LINE
  5
49e
  100
AcDbEntity
  8
1
  100
AcDbLine
  10
24.896
  20
-1.096676
  30
0
  11
24.904
  21
-1.088488
  31
0
  0
LINE
  5
49f
  100
AcDbEntity
  8
1
  100
AcDbLine
  10
24.904
  20
-1.088488
  30
0
  11
24.912
  21
-1.080295
  31
0
  0
LINE
  5
4a0
  100
AcDbEntity
  8
1
  100
AcDbLine
  10
24.912
  20
-1.080295
  30
0
  11
24.92
  21
-1.072098
  31
0
  0
LINE
  5
4a1
  100
AcDbEntity
  8
1
  100
AcDbLine
  10
24.92
  20
-1.072098
  30
0
  11
24.928
  21
-1.063897
  31
0
  0
LINE
  5
4a2
  100
AcDbEntity
  8
1
  100
AcDbLine
  10
24.928
  20
-1.063897
  30
0
  11
24.936
  21
-1.055691
  31
0
  0
LINE
  5
4a3
  100
AcDbEntity
  8
1
  100
AcDbLine
  10
24.936
  20
-1.055691
  30
0
  11
24.944
  21
-1.04748
  31
0
  0
LINE
  5
4a4
  100
AcDbEntity
  8
1
  100
AcDbLine
  10
24.944
  20
-1.04748
  30
0
  11
24.952
  21
-1.039266
  31
0
  0
LINE
  5
4a5
  100
AcDbEntity
  8
1
  100
AcDbLine
  10
24.952
  20
-1.039266
  30
0
  11
24.96
  21
-1.031046
  31
0
  0
LINE
  5
4a6
  100
AcDbEntity
  8
1
  100
AcDbLine
  10
24.96
  20
-1.031046
  30
0
  11
24.968
  21
-1.022821
  31
0
  0
LINE
  5
4a7
  100
AcDbEntity
  8
1
  100
AcDbLine
  10
24.968
  20
-1.022821
  30
0
  11
24.976
  21
-1.014592
  31
0
  0
LINE
  5
4a8
  100
AcDbEntity
  8
1
  100
AcDbLine
  10
24.976
  20
-1.014592
  30
0
  11
24.984
  21
-1.006357
  31
0
  0
LINE
  5
4a9
  100
AcDbEntity
  8
1
  100
AcDbLine
  10
24.984
  20
-1.006357
  30
0
  11
24.992
  21
-0.998117
  31
0
  0
LINE
  5
4aa
  100
AcDbEntity
  8
1
  100
AcDbLine
  10
24.992
  20
-0.998117
  30
0
  11
25
  21
-0.989872
  31
0
  0
LINE
  5
4ab
  100
AcDbEntity
  8
1
  100
AcDbLine
  10
25
  20
-0.989872
  30
0
  11
25.008
  21
-0.981621
  31
0
  0
LINE
  5
4ac
  100
AcDbEntity
  8
1
  100
AcDbLine
  10
25.008
  20
-0.981621
  30
0
  11
25.016
  21
-0.973364
  31
0
  0
LINE
  5
4ad
  100
AcDbEntity
  8
1
  100
AcDbLine
  10
25.016
  20
-0.973364
  30
0
  11
25.024
  21
-0.965102
  31
0
  0
LINE
  5
4ae
  100
AcDbEntity
  8
1
  100
AcDbLine
  10
25.024
  20
-0.965102
  30
0
  11
25.032
  21
-0.956833
  31
0
  0
LINE
  5
4af
  100
AcDbEntity
  8
1
  100
AcDbLine
  10
25.032
  20
-0.956833
  30
0
  11
25.04
  21
-0.948559
  31
0
  0
LINE
  5
4b0
  100
AcDbEntity
  8
1
  100
AcDbLine
  10
25.04
  20
-0.948559
  30
0
  11
25.048
  21
-0.940278
  31
0
  0
LINE
  5
4b1
  100
AcDbEntity
  8
1
  100
AcDbLine
  10
25.048
  20
-0.940278
  30
0
  11
25.056
  21
-0.931991
  31
0
  0
LINE
  5
4b2
  100
AcDbEntity
  8
1
  100
AcDbLine
  10
25.056
  20
-0.931991
  30
0
  11
25.064
  21
-0.923696
  31
0
  0
LINE
  5
4b3
  100
AcDbEntity
  8
1
  100
AcDbLine
  10
25.064
  20
-0.923696
  30
0
  11
25.072
  21
-0.915395
  31
0
  0
LINE
  5
4b4
  100
AcDbEntity
  8
1
  100
AcDbLine
  10
25.072
  20
-0.915395
  30
0
  11
25.08
  21
-0.907087
  31
0
  0
LINE
  5
4b5
  100
AcDbEntity
  8
1
  100
AcDbLine
  10
25.08
  20
-0.907087
  30
0
  11
25.088
  21
-0.898772
  31
0
  0
LINE
  5
4b6
  100
AcDbEntity
  8
1
  100
AcDbLine
  10
25.088
  20
-0.898772
  30
0
  11
25.096
  21
-0.890449
  31
0
  0
LINE
  5
4b7
  100
AcDbEntity
  8
1
  100
AcDbLine
  10
25.096
  20
-0.890449
  30
0
  11
25.104
  21
-0.882119
  31
0
  0
LINE
  5
4b8
  100
AcDbEntity
  8
1
  100
AcDbLine
  10
25.104
  20
-0.882119
  30
0
  11
25.112
  21
-0.87378
  31
0
  0
LINE
  5
4b9
  100
AcDbEntity
  8
1
  100
AcDbLine
  10
25.112
  20
-0.87378
  30
0
  11
25.12
  21
-0.865433
  31
0
  0
LINE
  5
4ba
  100
AcDbEntity
  8
1
  100
AcDbLine
  10
25.12
  20
-0.865433
  30
0
  11
25.128
  21
-0.857078
  31
0
  0
LINE
  5
4bb
  100
AcDbEntity
  8
1
  100
AcDbLine
  10
25.128
  20
-0.857078
  30
0
  11
25.136
  21
-0.848714
  31
0
  0
LINE
  5
4bc
  100
AcDbEntity
  8
1
  100
AcDbLine
  10
25.136
  20
-0.848714
  30
0
  11
25.144
  21
-0.840341
  31
0
  0
LINE
  5
4bd
  100
AcDbEntity
  8
1
  100
AcDbLine
  10
25.144
  20
-0.840341
  30
0
  11
25.152
  21
-0.831959
  31
0
  0
LINE
  5
4be
  100
AcDbEntity
  8
1
  100
AcDbLine
  10
25.152
  20
-0.831959
  30
0
  11
25.16
  21
-0.823568
  31
0
  0
LINE
  5
4bf
  100
AcDbEntity
  8
1
  100
AcDbLine
  10
25.16
  20
-0.823568
  30
0
  11
25.168
  21
-0.815166
  31
0
  0
LINE
  5
4c0
  100
AcDbEntity
  8
1
  100
AcDbLine
  10
25.168
  20
-0.815166
  30
0
  11
25.176
  21
-0.806754
  31
0
  0
LINE
  5
4c1
  100
AcDbEntity
  8
1
  100
AcDbLine
  10
25.176
  20
-0.806754
  30
0
  11
25.184
  21
-0.798332
  31
0
  0
LINE
  5
4c2
  100
AcDbEntity
  8
1
  100
AcDbLine
  10
25.184
  20
-0.798332
  30
0
  11
25.192
  21
-0.789899
  31
0
  0
LINE
  5
4c3
  100
AcDbEntity
  8
1
  100
AcDbLine
  10
25.192
  20
-0.789899
  30
0
  11
25.2
  21
-0.781455
  31
0
  0
LINE
  5
4c4
  100
AcDbEntity
  8
1
  100
AcDbLine
  10
25.2
  20
-0.781455
  30
0
  11
25.208
  21
-0.772999
  31
0
  0
LINE
  5
4c5
  100
AcDbEntity
  8
1
  100
AcDbLine
  10
25.208
  20
-0.772999
  30
0
  11
25.216
  21
-0.764531
  31
0
  0
LINE
  5
4c6
  100
AcDbEntity
  8
1
  100
AcDbLine
  10
25.216
  20
-0.764531
  30
0
  11
25.224
  21
-0.75605
  31
0
  0
LINE
  5
4c7
  100
AcDbEntity
  8
1
  100
AcDbLine
  10
25.224
  20
-0.75605
  30
0
  11
25.232
  21
-0.747557
  31
0
  0
LINE
  5
4c8
  100
AcDbEntity
  8
1
  100
AcDbLine
  10
25.232
  20
-0.747557
  30
0
  11
25.24
  21
-0.73905
  31
0
  0
LINE
  5
4c9
  100
AcDbEntity
  8
1
  100
AcDbLine
  10
25.24
  20
-0.73905
  30
0
  11
25.248
  21
-0.730529
  31
0
  0
LINE
  5
4ca
  100
AcDbEntity
  8
1
  100
AcDbLine
  10
25.248
  20
-0.730529
  30
0
  11
25.256
  21
-0.721994
  31
0
  0
LINE
  5
4cb
  100
AcDbEntity
  8
1
  100
AcDbLine
  10
25.256
  20
-0.721994
  30
0
  11
25.264
  21
-0.713444
  31
0
  0
LINE
  5
4cc
  100
AcDbEntity
  8
1
  100
AcDbLine
  10
25.264
  20
-0.713444
  30
0
  11
25.272
  21
-0.704878
  31
0
  0
LINE
  5
4cd
  100
AcDbEntity
  8
1
  100
AcDbLine
  10
25.272
  20
-0.704878
  30
0
  11
25.28
  21
-0.696297
  31
0
  0
LINE
  5
4ce
  100
AcDbEntity
  8
1
  100
AcDbLine
  10
25.28
  20
-0.696297
  30
0
  11
25.288
  21
-0.687698
  31
0
  0
LINE
  5
4cf
  100
AcDbEntity
  8
1
  100
AcDbLine
  10
25.288
  20
-0.687698
  30
0
  11
25.296
  21
-0.679082
  31
0
  0
LINE
  5
4d0
  100
AcDbEntity
  8
1
  100
AcDbLine
  10
25.296
  20
-0.679082
  30
0
  11
25.304
  21
-0.670448
  31
0
  0
LINE
  5
4d1
  100
AcDbEntity
  8
1
  100
AcDbLine
  10
25.304
  20
-0.670448
  30
0
  11
25.312
  21
-0.661795
  31
0
  0
LINE
  5
4d2
  100
AcDbEntity
  8
1
  100
AcDbLine
  10
25.312
  20
-0.661795
  30
0
  11
25.32
  21
-0.653122
  31
0
  0
LINE
  5
4d3
  100
AcDbEntity
  8
1
  100
AcDbLine
  10
25.32
  20
-0.653122
  30
0
  11
25.328
  21
-0.644429
  31
0
  0
LINE
  5
4d4
  100
AcDbEntity
  8
1
  100
AcDbLine
  10
25.328
  20
-0.644429
  30
0
  11
25.336
  21
-0.635714
  31
0
  0
LINE
  5
4d5
  100
AcDbEntity
  8
1
  100
AcDbLine
  10
25.336
  20
-0.635714
  30
0
  11
25.344
  21
-0.626977
  31
0
  0
LINE
  5
4d6
  100
AcDbEntity
  8
1
  100
AcDbLine
  10
25.344
  20
-0.626977
  30
0
  11
25.352
  21
-0.61823
  31
0
  0
LINE
  5
4d7
  100
AcDbEntity
  8
1
  100
AcDbLine
  10
25.352
  20
-0.61823
  30
0
  11
25.36
  21
-0.609496
  31
0
  0
LINE
  5
4d8
  100
AcDbEntity
  8
1
  100
AcDbLine
  10
25.36
  20
-0.609496
  30
0
  11
25.368
  21
-0.600811
  31
0
  0
LINE
  5
4d9
  100
AcDbEntity
  8
1
  100
AcDbLine
  10
25.368
  20
-0.600811
  30
0
  11
25.376
  21
-0.59215
  31
0
  0
LINE
  5
4da
  100
AcDbEntity
  8
1
  100
AcDbLine
  10
25.376
  20
-0.59215
  30
0
  11
25.384
  21
-0.583556
  31
0
  0
LINE
  5
4db
  100
AcDbEntity
  8
1
  100
AcDbLine
  10
25.384
  20
-0.583556
  30
0
  11
25.392
  21
-0.575001
  31
0
  0
LINE
  5
4dc
  100
AcDbEntity
  8
1
  100
AcDbLine
  10
25.392
  20
-0.575001
  30
0
  11
25.4
  21
-0.566476
  31
0
  0
LINE
  5
4dd
  100
AcDbEntity
  8
1
  100
AcDbLine
  10
25.4
  20
-0.566476
  30
0
  11
25.408
  21
-0.558033
  31
0
  0
LINE
  5
4de
  100
AcDbEntity
  8
1
  100
AcDbLine
  10
25.408
  20
-0.558033
  30
0
  11
25.416
  21
-0.549615
  31
0
  0
LINE
  5
4df
  100
AcDbEntity
  8
1
  100
AcDbLine
  10
25.416
  20
-0.549615
  30
0
  11
25.424
  21
-0.541254
  31
0
  0
LINE
  5
4e0
  100
AcDbEntity
  8
1
  100
AcDbLine
  10
25.424
  20
-0.541254
  30
0
  11
25.432
  21
-0.532955
  31
0
  0
LINE
  5
4e1
  100
AcDbEntity
  8
1
  100
AcDbLine
  10
25.432
  20
-0.532955
  30
0
  11
25.44
  21
-0.524682
  31
0
  0
LINE
  5
4e2
  100
AcDbEntity
  8
1
  100
AcDbLine
  10
25.44
  20
-0.524682
  30
0
  11
25.448
  21
-0.516497
  31
0
  0
LINE
  5
4e3
  100
AcDbEntity
  8
1
  100
AcDbLine
  10
25.448
  20
-0.516497
  30
0
  11
25.456
  21
-0.508346
  31
0
  0
LINE
  5
4e4
  100
AcDbEntity
  8
1
  100
AcDbLine
  10
25.456
  20
-0.508346
  30
0
  11
25.464
  21
-0.500251
  31
0
  0
LINE
  5
4e5
  100
AcDbEntity
  8
1
  100
AcDbLine
  10
25.464
  20
-0.500251
  30
0
  11
25.472
  21
-0.492225
  31
0
  0
LINE
  5
4e6
  100
AcDbEntity
  8
1
  100
AcDbLine
  10
25.472
  20
-0.492225
  30
0
  11
25.48
  21
-0.484227
  31
0
  0
LINE
  5
4e7
  100
AcDbEntity
  8
1
  100
AcDbLine
  10
25.48
  20
-0.484227
  30
0
  11
25.488
  21
-0.476323
  31
0
  0
LINE
  5
4e8
  100
AcDbEntity
  8
1
  100
AcDbLine
  10
25.488
  20
-0.476323
  30
0
  11
25.496
  21
-0.468454
  31
0
  0
LINE
  5
4e9
  100
AcDbEntity
  8
1
  100
AcDbLine
  10
25.496
  20
-0.468454
  30
0
  11
25.504
  21
-0.460648
  31
0
  0
LINE
  5
4ea
  100
AcDbEntity
  8
1
  100
AcDbLine
  10
25.504
  20
-0.460648
  30
0
  11
25.512
  21
-0.452908
  31
0
  0
LINE
  5
4eb
  100
AcDbEntity
  8
1
  100
AcDbLine
  10
25.512
  20
-0.452908
  30
0
  11
25.52
  21
-0.445202
  31
0
  0
LINE
  5
4ec
  100
AcDbEntity
  8
1
  100
AcDbLine
  10
25.52
  20
-0.445202
  30
0
  11
25.528
  21
-0.437594
  31
0
  0
LINE
  5
4ed
  100
AcDbEntity
  8
1
  100
AcDbLine
  10
25.528
  20
-0.437594
  30
0
  11
25.536
  21
-0.430016
  31
0
  0
LINE
  5
4ee
  100
AcDbEntity
  8
1
  100
AcDbLine
  10
25.536
  20
-0.430016
  30
0
  11
25.544
  21
-0.422514
  31
0
  0
LINE
  5
4ef
  100
AcDbEntity
  8
1
  100
AcDbLine
  10
25.544
  20
-0.422514
  30
0
  11
25.552
  21
-0.415069
  31
0
  0
LINE
  5
4f0
  100
AcDbEntity
  8
1
  100
AcDbLine
  10
25.552
  20
-0.415069
  30
0
  11
25.56
  21
-0.407669
  31
0
  0
LINE
  5
4f1
  100
AcDbEntity
  8
1
  100
AcDbLine
  10
25.56
  20
-0.407669
  30
0
  11
25.568
  21
-0.400357
  31
0
  0
LINE
  5
4f2
  100
AcDbEntity
  8
1
  100
AcDbLine
  10
25.568
  20
-0.400357
  30
0
  11
25.576
  21
-0.393074
  31
0
  0
LINE
  5
4f3
  100
AcDbEntity
  8
1
  100
AcDbLine
  10
25.576
  20
-0.393074
  30
0
  11
25.584
  21
-0.38588
  31
0
  0
LINE
  5
4f4
  100
AcDbEntity
  8
1
  100
AcDbLine
  10
25.584
  20
-0.38588
  30
0
  11
25.592
  21
-0.378729
  31
0
  0
LINE
  5
4f5
  100
AcDbEntity
  8
1
  100
AcDbLine
  10
25.592
  20
-0.378729
  30
0
  11
25.6
  21
-0.371635
  31
0
  0
LINE
  5
4f6
  100
AcDbEntity
  8
1
  100
AcDbLine
  10
25.6
  20
-0.371635
  30
0
  11
25.608
  21
-0.364614
  31
0
  0
LINE
  5
4f7
  100
AcDbEntity
  8
1
  100
AcDbLine
  10
25.608
  20
-0.364614
  30
0
  11
25.616
  21
-0.357622
  31
0
  0
LINE
  5
4f8
  100
AcDbEntity
  8
1
  100
AcDbLine
  10
25.616
  20
-0.357622
  30
0
  11
25.624
  21
-0.350724
  31
0
  0
LINE
  5
4f9
  100
AcDbEntity
  8
1
  100
AcDbLine
  10
25.624
  20
-0.350724
  30
0
  11
25.632
  21
-0.343857
  31
0
  0
LINE
  5
4fa
  100
AcDbEntity
  8
1
  100
AcDbLine
  10
25.632
  20
-0.343857
  30
0
  11
25.64
  21
-0.337047
  31
0
  0
LINE
  5
4fb
  100
AcDbEntity
  8
1
  100
AcDbLine
  10
25.64
  20
-0.337047
  30
0
  11
25.648
  21
-0.330301
  31
0
  0
LINE
  5
4fc
  100
AcDbEntity
  8
1
  100
AcDbLine
  10
25.648
  20
-0.330301
  30
0
  11
25.656
  21
-0.323578
  31
0
  0
LINE
  5
4fd
  100
AcDbEntity
  8
1
  100
AcDbLine
  10
25.656
  20
-0.323578
  30
0
  11
25.664
  21
-0.316935
  31
0
  0
LINE
  5
4fe
  100
AcDbEntity
  8
1
  100
AcDbLine
  10
25.664
  20
-0.316935
  30
0
  11
25.672
  21
-0.310319
  31
0
  0
LINE
  5
4ff
  100
AcDbEntity
  8
1
  100
AcDbLine
  10
25.672
  20
-0.310319
  30
0
  11
25.68
  21
-0.303736
  31
0
  0
LINE
  5
500
  100
AcDbEntity
  8
1
  100
AcDbLine
  10
25.68
  20
-0.303736
  30
0
  11
25.688
  21
-0.297211
  31
0
  0
LINE
  5
501
  100
AcDbEntity
  8
1
  100
AcDbLine
  10
25.688
  20
-0.297211
  30
0
  11
25.696
  21
-0.290697
  31
0
  0
LINE
  5
502
  100
AcDbEntity
  8
1
  100
AcDbLine
  10
25.696
  20
-0.290697
  30
0
  11
25.704
  21
-0.28421
  31
0
  0
LINE
  5
503
  100
AcDbEntity
  8
1
  100
AcDbLine
  10
25.704
  20
-0.28421
  30
0
  11
25.712
  21
-0.277749
  31
0
  0
LINE
  5
504
  100
AcDbEntity
  8
1
  100
AcDbLine
  10
25.712
  20
-0.277749
  30
0
  11
25.72
  21
-0.271276
  31
0
  0
LINE
  5
505
  100
AcDbEntity
  8
1
  100
AcDbLine
  10
25.72
  20
-0.271276
  30
0
  11
25.728
  21
-0.264792
  31
0
  0
LINE
  5
506
  100
AcDbEntity
  8
1
  100
AcDbLine
  10
25.728
  20
-0.264792
  30
0
  11
25.736
  21
-0.258295
  31
0
  0
LINE
  5
507
  100
AcDbEntity
  8
1
  100
AcDbLine
  10
25.736
  20
-0.258295
  30
0
  11
25.744
  21
-0.251735
  31
0
  0
LINE
  5
508
  100
AcDbEntity
  8
1
  100
AcDbLine
  10
25.744
  20
-0.251735
  30
0
  11
25.752
  21
-0.245079
  31
0
  0
LINE
  5
509
  100
AcDbEntity
  8
1
  100
AcDbLine
  10
25.752
  20
-0.245079
  30
0
  11
25.76
  21
-0.238281
  31
0
  0
LINE
  5
50a
  100
AcDbEntity
  8
1
  100
AcDbLine
  10
25.76
  20
-0.238281
  30
0
  11
25.768
  21
-0.231268
  31
0
  0
LINE
  5
50b
  100
AcDbEntity
  8
1
  100
AcDbLine
  10
25.768
  20
-0.231268
  30
0
  11
25.776
  21
-0.223895
  31
0
  0
LINE
  5
50c
  100
AcDbEntity
  8
1
  100
AcDbLine
  10
25.776
  20
-0.223895
  30
0
  11
25.780002
  21
-0.219998
  31
0
  0
LINE
  5
50d
  100
AcDbEntity
  8
1
  100
AcDbLine
  10
25.794915
  20
-0.205085
  30
0
  11
25.792
  21
-0.195394
  31
0
  0
LINE
  5
50e
  100
AcDbEntity
  8
1
  100
AcDbLine
  10
25.792
  20
-0.195394
  30
0
  11
25.784
  21
-0.187417
  31
0
  0
LINE
  5
50f
  100
AcDbEntity
  8
1
  100
AcDbLine
  10
25.784
  20
-0.187417
  30
0
  11
25.776
  21
-0.183162
  31
0
  0
LINE
  5
510
  100
AcDbEntity
  8
1
  100
AcDbLine
  10
25.032
  20
-0.892674
  30
0
  11
25.024
  21
-0.901408
  31
0
  0
LINE
  5
511
  100
AcDbEntity
  8
1
  100
AcDbLine
  10
25.024
  20
-0.901408
  30
0
  11
25.016
  21
-0.91013
  31
0
  0
LINE
  5
512
  100
AcDbEntity
  8
1
  100
AcDbLine
  10
25.016
  20
-0.91013
  30
0
  11
25.008
  21
-0.918837
  31
0
  0
LINE
  5
513
  100
AcDbEntity
  8
1
  100
AcDbLine
  10
25.008
  20
-0.918837
  30
0
  11
25
  21
-0.927532
  31
0
  0
LINE
  5
514
  100
AcDbEntity
  8
1
  100
AcDbLine
  10
25
  20
-0.927532
  30
0
  11
24.992
  21
-0.936215
  31
0
  0
LINE
  5
515
  100
AcDbEntity
  8
1
  100
AcDbLine
  10
24.992
  20
-0.936215
  30
0
  11
24.984
  21
-0.944885
  31
0
  0
LINE
  5
516
  100
AcDbEntity
  8
1
  100
AcDbLine
  10
24.984
  20
-0.944885
  30
0
  11
24.976
  21
-0.953543
  31
0
  0
LINE
  5
517
  100
AcDbEntity
  8
1
  100
AcDbLine
  10
24.976
  20
-0.953543
  30
0
  11
24.968
  21
-0.96219
  31
0
  0
LINE
  5
518
  100
AcDbEntity
  8
1
  100
AcDbLine
  10
24.968
  20
-0.96219
  30
0
  11
24.96
  21
-0.970825
  31
0
  0
LINE
  5
519
  100
AcDbEntity
  8
1
  100
AcDbLine
  10
24.96
  20
-0.970825
  30
0
  11
24.952
  21
-0.979449
  31
0
  0
LINE
  5
51a
  100
AcDbEntity
  8
1
  100
AcDbLine
  10
24.952
  20
-0.979449
  30
0
  11
24.944
  21
-0.988062
  31
0
  0
LINE
  5
51b
  100
AcDbEntity
  8
1
  100
AcDbLine
  10
24.944
  20
-0.988062
  30
0
  11
24.936
  21
-0.996665
  31
0
  0
LINE
  5
51c
  100
AcDbEntity
  8
1
  100
AcDbLine
  10
24.936
  20
-0.996665
  30
0
  11
24.928
  21
-1.005257
  31
0
  0
LINE
  5
51d
  100
AcDbEntity
  8
1
  100
AcDbLine
  10
24.928
  20
-1.005257
  30
0
  11
24.92
  21
-1.01384
  31
0
  0
LINE
  5
51e
  100
AcDbEntity
  8
1
  100
AcDbLine
  10
24.92
  20
-1.01384
  30
0
  11
24.912
  21
-1.022412
  31
0
  0
LINE
  5
51f
  100
AcDbEntity
  8
1
  100
AcDbLine
  10
24.912
  20
-1.022412
  30
0
  11
24.904
  21
-1.030974
  31
0
  0
LINE
  5
520
  100
AcDbEntity
  8
1
  100
AcDbLine
  10
24.904
  20
-1.030974
  30
0
  11
24.896
  21
-1.039527
  31
0
  0
LINE
  5
521
  100
AcDbEntity
  8
1
  100
AcDbLine
  10
24.896
  20
-1.039527
  30
0
  11
24.888
  21
-1.048071
  31
0
  0
LINE
  5
522
  100
AcDbEntity
  8
1
  100
AcDbLine
  10
24.888
  20
-1.048071
  30
0
  11
24.88
  21
-1.056606
  31
0
  0
LINE
  5
523
  100
AcDbEntity
  8
1
  100
AcDbLine
  10
24.88
  20
-1.056606
  30
0
  11
24.872
  21
-1.065132
  31
0
  0
LINE
  5
524
  100
AcDbEntity
  8
1
  100
AcDbLine
  10
24.872
  20
-1.065132
  30
0
  11
24.864
  21
-1.07365
  31
0
  0
LINE
  5
525
  100
AcDbEntity
  8
1
  100
AcDbLine
  10
24.864
  20
-1.07365
  30
0
  11
24.856
  21
-1.082158
  31
0
  0
LINE
  5
526
  100
AcDbEntity
  8
1
  100
AcDbLine
  10
24.856
  20
-1.082158
  30
0
  11
24.848
  21
-1.090659
  31
0
  0
LINE
  5
527
  100
AcDbEntity
  8
1
  100
AcDbLine
  10
24.848
  20
-1.090659
  30
0
  11
24.84
  21
-1.099151
  31
0
  0
LINE
  5
528
  100
AcDbEntity
  8
1
  100
AcDbLine
  10
24.84
  20
-1.099151
  30
0
  11
24.832
  21
-1.107636
  31
0
  0
LINE
  5
529
  100
AcDbEntity
  8
1
  100
AcDbLine
  10
24.832
  20
-1.107636
  30
0
  11
24.824
  21
-1.116113
  31
0
  0
LINE
  5
52a
  100
AcDbEntity
  8
1
  100
AcDbLine
  10
24.824
  20
-1.116113
  30
0
  11
24.816
  21
-1.124582
  31
0
  0
LINE
  5
52b
  100
AcDbEntity
  8
1
  100
AcDbLine
  10
24.816
  20
-1.124582
  30
0
  11
24.808
  21
-1.133044
  31
0
  0
LINE
  5
52c
  100
AcDbEntity
  8
1
  100
AcDbLine
  10
24.808
  20
-1.133044
  30
0
  11
24.8
  21
-1.141498
  31
0
  0
LINE
  5
52d
  100
AcDbEntity
  8
1
  100
AcDbLine
  10
24.8
  20
-1.141498
  30
0
  11
24.792
  21
-1.149945
  31
0
  0
LINE
  5
52e
  100
AcDbEntity
  8
1
  100
AcDbLine
  10
24.792
  20
-1.149945
  30
0
  11
24.784
  21
-1.158385
  31
0
  0
LINE
  5
52f
  100
AcDbEntity
  8
1
  100
AcDbLine
  10
24.784
  20
-1.158385
  30
0
  11
24.776
  21
-1.166819
  31
0
  0
LINE
  5
530
  100
AcDbEntity
  8
1
  100
AcDbLine
  10
24.776
  20
-1.166819
  30
0
  11
24.768
  21
-1.175245
  31
0
  0
LINE
  5
531
  100
AcDbEntity
  8
1
  100
AcDbLine
  10
24.768
  20
-1.175245
  30
0
  11
24.76
  21
-1.183665
  31
0
  0
LINE
  5
532
  100
AcDbEntity
  8
1
  100
AcDbLine
  10
24.76
  20
-1.183665
  30
0
  11
24.752
  21
-1.192079
  31
0
  0
LINE
  5
533
  100
AcDbEntity
  8
1
  100
AcDbLine
  10
24.752
  20
-1.192079
  30
0
  11
24.744
  21
-1.200486
  31
0
  0
LINE
  5
534
  100
AcDbEntity
  8
1
  100
AcDbLine
  10
24.744
  20
-1.200486
  30
0
  11
24.736
  21
-1.208887
  31
0
  0
LINE
  5
535
  100
AcDbEntity
  8
1
  100
AcDbLine
  10
24.736
  20
-1.208887
  30
0
  11
24.728
  21
-1.217282
  31
0
  0
LINE
  5
536
  100
AcDbEntity
  8
1
  100
AcDbLine
  10
24.728
  20
-1.217282
  30
0
  11
24.72
  21
-1.225671
  31
0
  0
LINE
  5
537
  100
AcDbEntity
  8
1
  100
AcDbLine
  10
24.72
  20
-1.225671
  30
0
  11
24.712
  21
-1.234054
  31
0
  0
LINE
  5
538
  100
AcDbEntity
  8
1
  100
AcDbLine
  10
24.712
  20
-1.234054
  30
0
  11
24.704
  21
-1.242431
  31
0
  0
LINE
  5
539
  100
AcDbEntity
  8
1
  100
AcDbLine
  10
24.704
  20
-1.242431
  30
0
  11
24.696
  21
-1.250803
  31
0
  0
LINE
  5
53a
  100
AcDbEntity
  8
1
  100
AcDbLine
  10
24.696
  20
-1.250803
  30
0
  11
24.688
  21
-1.259169
  31
0
  0
LINE
  5
53b
  100
AcDbEntity
  8
1
  100
AcDbLine
  10
24.688
  20
-1.259169
  30
0
  11
24.68
  21
-1.267529
  31
0
  0
LINE
  5
53c
  100
AcDbEntity
  8
1
  100
AcDbLine
  10
24.68
  20
-1.267529
  30
0
  11
24.672
  21
-1.275884
  31
0
  0
LINE
  5
53d
  100
AcDbEntity
  8
1
  100
AcDbLine
  10
24.672
  20
-1.275884
  30
0
  11
24.664
  21
-1.284234
  31
0
  0
LINE
  5
53e
  100
AcDbEntity
  8
1
  100
AcDbLine
  10
24.664
  20
-1.284234
  30
0
  11
24.656
  21
-1.292579
  31
0
  0
LINE
  5
53f
  100
AcDbEntity
  8
1
  100
AcDbLine
  10
24.656
  20
-1.292579
  30
0
  11
24.648
  21
-1.300919
  31
0
  0
LINE
  5
540
  100
AcDbEntity
  8
1
  100
AcDbLine
  10
24.648
  20
-1.300919
  30
0
  11
24.64
  21
-1.309254
  31
0
  0
LINE
  5
541
  100
AcDbEntity
  8
1
  100
AcDbLine
  10
24.64
  20
-1.309254
  30
0
  11
24.632
  21
-1.317584
  31
0
  0
LINE
  5
542
  100
AcDbEntity
  8
1
  100
AcDbLine
  10
24.632
  20
-1.317584
  30
0
  11
24.624
  21
-1.325909
  31
0
  0
LINE
  5
543
  100
AcDbEntity
  8
1
  100
AcDbLine
  10
24.624
  20
-1.325909
  30
0
  11
24.616
  21
-1.334229
  31
0
  0
LINE
  5
544
  100
AcDbEntity
  8
1
  100
AcDbLine
  10
24.616
  20
-1.334229
  30
0
  11
24.608
  21
-1.342545
  31
0
  0
LINE
  5
545
  100
AcDbEntity
  8
1
  100
AcDbLine
  10
24.608
  20
-1.342545
  30
0
  11
24.6
  21
-1.350856
  31
0
  0
LINE
  5
546
  100
AcDbEntity
  8
1
  100
AcDbLine
  10
24.6
  20
-1.350856
  30
0
  11
24.592
  21
-1.359163
  31
0
  0
LINE
  5
547
  100
AcDbEntity
  8
1
  100
AcDbLine
  10
24.592
  20
-1.359163
  30
0
  11
24.584
  21
-1.367465
  31
0
  0
LINE
  5
548
  100
AcDbEntity
  8
1
  100
AcDbLine
  10
24.584
  20
-1.367465
  30
0
  11
24.576
  21
-1.375764
  31
0
  0
LINE
  5
549
  100
AcDbEntity
  8
1
  100
AcDbLine
  10
24.576
  20
-1.375764
  30
0
  11
24.568
  21
-1.384057
  31
0
  0
LINE
  5
54a
  100
AcDbEntity
  8
1
  100
AcDbLine
  10
24.568
  20
-1.384057
  30
0
  11
24.56
  21
-1.392347
  31
0
  0
LINE
  5
54b
  100
AcDbEntity
  8
1
  100
AcDbLine
  10
24.56
  20
-1.392347
  30
0
  11
24.552
  21
-1.400633
  31
0
  0
LINE
  5
54c
  100
AcDbEntity
  8
1
  100
AcDbLine
  10
24.552
  20
-1.400633
  30
0
  11
24.544
  21
-1.408914
  31
0
  0
LINE
  5
54d
  100
AcDbEntity
  8
1
  100
AcDbLine
  10
24.544
  20
-1.408914
  30
0
  11
24.536
  21
-1.417192
  31
0
  0
LINE
  5
54e
  100
AcDbEntity
  8
1
  100
AcDbLine
  10
24.536
  20
-1.417192
  30
0
  11
24.528
  21
-1.425465
  31
0
  0
LINE
  5
54f
  100
AcDbEntity
  8
1
  100
AcDbLine
  10
24.528
  20
-1.425465
  30
0
  11
24.52
  21
-1.433735
  31
0
  0
LINE
  5
550
  100
AcDbEntity
  8
1
  100
AcDbLine
  10
24.52
  20
-1.433735
  30
0
  11
24.512
  21
-1.442001
  31
0
  0
LINE
  5
551
  100
AcDbEntity
  8
1
  100
AcDbLine
  10
24.512
  20
-1.442001
  30
0
  11
24.504
  21
-1.450263
  31
0
  0
LINE
  5
552
  100
AcDbEntity
  8
1
  100
AcDbLine
  10
24.504
  20
-1.450263
  30
0
  11
24.496
  21
-1.458522
  31
0
  0
LINE
  5
553
  100
AcDbEntity
  8
1
  100
AcDbLine
  10
24.496
  20
-1.458522
  30
0
  11
24.488
  21
-1.466777
  31
0
  0
LINE
  5
554
  100
AcDbEntity
  8
1
  100
AcDbLine
  10
24.488
  20
-1.466777
  30
0
  11
24.48
  21
-1.475029
  31
0
  0
LINE
  5
555
  100
AcDbEntity
  8
1
  100
AcDbLine
  10
24.48
  20
-1.475029
  30
0
  11
24.472
  21
-1.483277
  31
0
  0
LINE
  5
556
  100
AcDbEntity
  8
1
  100
AcDbLine
  10
24.472
  20
-1.483277
  30
0
  11
24.464
  21
-1.491522
  31
0
  0
LINE
  5
557
  100
AcDbEntity
  8
1
  100
AcDbLine
  10
24.464
  20
-1.491522
  30
0
  11
24.456
  21
-1.499763
  31
0
  0
LINE
  5
558
  100
AcDbEntity
  8
1
  100
AcDbLine
  10
24.456
  20
-1.499763
  30
0
  11
24.448
  21
-1.508001
  31
0
  0
LINE
  5
559
  100
AcDbEntity
  8
1
  100
AcDbLine
  10
24.448
  20
-1.508001
  30
0
  11
24.44
  21
-1.516235
  31
0
  0
LINE
  5
55a
  100
AcDbEntity
  8
1
  100
AcDbLine
  10
24.44
  20
-1.516235
  30
0
  11
24.432
  21
-1.524467
  31
0
  0
LINE
  5
55b
  100
AcDbEntity
  8
1
  100
AcDbLine
  10
24.432
  20
-1.524467
  30
0
  11
24.424
  21
-1.532695
  31
0
  0
LINE
  5
55c
  100
AcDbEntity
  8
1
  100
AcDbLine
  10
24.424
  20
-1.532695
  30
0
  11
24.416
  21
-1.54092
  31
0
  0
LINE
  5
55d
  100
AcDbEntity
  8
1
  100
AcDbLine
  10
24.416
  20
-1.54092
  30
0
  11
24.408
  21
-1.549143
  31
0
  0
LINE
  5
55e
  100
AcDbEntity
  8
1
  100
AcDbLine
  10
24.408
  20
-1.549143
  30
0
  11
24.4
  21
-1.557362
  31
0
  0
LINE
  5
55f
  100
AcDbEntity
  8
1
  100
AcDbLine
  10
24.4
  20
-1.557362
  30
0
  11
24.392
  21
-1.565578
  31
0
  0
LINE
  5
560
  100
AcDbEntity
  8
1
  100
AcDbLine
  10
24.392
  20
-1.565578
  30
0
  11
24.384
  21
-1.573791
  31
0
  0
LINE
  5
561
  100
AcDbEntity
  8
1
  100
AcDbLine
  10
24.384
  20
-1.573791
  30
0
  11
24.376
  21
-1.582001
  31
0
  0
LINE
  5
562
  100
AcDbEntity
  8
1
  100
AcDbLine
  10
24.376
  20
-1.582001
  30
0
  11
24.368
  21
-1.590209
  31
0
  0
LINE
  5
563
  100
AcDbEntity
  8
1
  100
AcDbLine
  10
24.368
  20
-1.590209
  30
0
  11
24.36
  21
-1.598413
  31
0
  0
LINE
  5
564
  100
AcDbEntity
  8
1
  100
AcDbLine
  10
24.36
  20
-1.598413
  30
0
  11
24.352
  21
-1.606615
  31
0
  0
LINE
  5
565
  100
AcDbEntity
  8
1
  100
AcDbLine
  10
24.352
  20
-1.606615
  30
0
  11
24.344
  21
-1.614814
  31
0
  0
LINE
  5
566
  100
AcDbEntity
  8
1
  100
AcDbLine
  10
24.344
  20
-1.614814
  30
0
  11
24.336
  21
-1.623011
  31
0
  0
LINE
  5
567
  100
AcDbEntity
  8
1
  100
AcDbLine
  10
24.336
  20
-1.623011
  30
0
  11
24.328
  21
-1.631205
  31
0
  0
LINE
  5
568
  100
AcDbEntity
  8
1
  100
AcDbLine
  10
24.328
  20
-1.631205
  30
0
  11
24.32
  21
-1.639396
  31
0
  0
LINE
  5
569
  100
AcDbEntity
  8
1
  100
AcDbLine
  10
24.32
  20
-1.639396
  30
0
  11
24.312
  21
-1.647585
  31
0
  0
LINE
  5
56a
  100
AcDbEntity
  8
1
  100
AcDbLine
  10
24.312
  20
-1.647585
  30
0
  11
24.304
  21
-1.655771
  31
0
  0
LINE
  5
56b
  100
AcDbEntity
  8
1
  100
AcDbLine
  10
24.304
  20
-1.655771
  30
0
  11
24.296
  21
-1.663954
  31
0
  0
LINE
  5
56c
  100
AcDbEntity
  8
1
  100
AcDbLine
  10
24.296
  20
-1.663954
  30
0
  11
24.288
  21
-1.672136
  31
0
  0
LINE
  5
56d
  100
AcDbEntity
  8
1
  100
AcDbLine
  10
24.288
  20
-1.672136
  30
0
  11
24.28
  21
-1.680314
  31
0
  0
LINE
  5
56e
  100
AcDbEntity
  8
1
  100
AcDbLine
  10
24.28
  20
-1.680314
  30
0
  11
24.272
  21
-1.688491
  31
0
  0
LINE
  5
56f
  100
AcDbEntity
  8
1
  100
AcDbLine
  10
24.272
  20
-1.688491
  30
0
  11
24.264
  21
-1.696665
  31
0
  0
LINE
  5
570
  100
AcDbEntity
  8
1
  100
AcDbLine
  10
24.264
  20
-1.696665
  30
0
  11
24.256
  21
-1.704836
  31
0
  0
LINE
  5
571
  100
AcDbEntity
  8
1
  100
AcDbLine
  10
24.256
  20
-1.704836
  30
0
  11
24.248
  21
-1.713006
  31
0
  0
LINE
  5
572
  100
AcDbEntity
  8
1
  100
AcDbLine
  10
24.248
  20
-1.713006
  30
0
  11
24.24
  21
-1.721173
  31
0
  0
LINE
  5
573
  100
AcDbEntity
  8
1
  100
AcDbLine
  10
24.24
  20
-1.721173
  30
0
  11
24.232
  21
-1.729338
  31
0
  0
LINE
  5
574
  100
AcDbEntity
  8
1
  100
AcDbLine
  10
24.232
  20
-1.729338
  30
0
  11
24.224
  21
-1.7375
  31
0
  0
LINE
  5
575
  100
AcDbEntity
  8
1
  100
AcDbLine
  10
24.224
  20
-1.7375
  30
0
  11
24.216
  21
-1.745661
  31
0
  0
LINE
  5
576
  100
AcDbEntity
  8
1
  100
AcDbLine
  10
24.216
  20
-1.745661
  30
0
  11
24.208
  21
-1.753819
  31
0
  0
LINE
  5
577
  100
AcDbEntity
  8
1
  100
AcDbLine
  10
24.208
  20
-1.753819
  30
0
  11
24.2
  21
-1.761976
  31
0
  0
LINE
  5
578
  100
AcDbEntity
  8
1
  100
AcDbLine
  10
24.2
  20
-1.761976
  30
0
  11
24.192
  21
-1.77013
  31
0
  0
LINE
  5
579
  100
AcDbEntity
  8
1
  100
AcDbLine
  10
24.192
  20
-1.77013
  30
0
  11
24.184
  21
-1.778282
  31
0
  0
LINE
  5
57a
  100
AcDbEntity
  8
1
  100
AcDbLine
  10
24.184
  20
-1.778282
  30
0
  11
24.176
  21
-1.786432
  31
0
  0
LINE
  5
57b
  100
AcDbEntity
  8
1
  100
AcDbLine
  10
24.176
  20
-1.786432
  30
0
  11
24.168
  21
-1.79458
  31
0
  0
LINE
  5
57c
  100
AcDbEntity
  8
1
  100
AcDbLine
  10
24.168
  20
-1.79458
  30
0
  11
24.16
  21
-1.802726
  31
0
  0
LINE
  5
57d
  100
AcDbEntity
  8
1
  100
AcDbLine
  10
24.16
  20
-1.802726
  30
0
  11
24.152
  21
-1.81087
  31
0
  0
LINE
  5
57e
  100
AcDbEntity
  8
1
  100
AcDbLine
  10
24.152
  20
-1.81087
  30
0
  11
24.144
  21
-1.819013
  31
0
  0
LINE
  5
57f
  100
AcDbEntity
  8
1
  100
AcDbLine
  10
24.144
  20
-1.819013
  30
0
  11
24.136
  21
-1.827153
  31
0
  0
LINE
  5
580
  100
AcDbEntity
  8
1
  100
AcDbLine
  10
24.136
  20
-1.827153
  30
0
  11
24.128
  21
-1.835291
  31
0
  0
LINE
  5
581
  100
AcDbEntity
  8
1
  100
AcDbLine
  10
24.128
  20
-1.835291
  30
0
  11
24.12
  21
-1.843428
  31
0
  0
LINE
  5
582
  100
AcDbEntity
  8
1
  100
AcDbLine
  10
24.12
  20
-1.843428
  30
0
  11
24.112
  21
-1.851563
  31
0
  0
LINE
  5
583
  100
AcDbEntity
  8
1
  100
AcDbLine
  10
24.112
  20
-1.851563
  30
0
  11
24.104
  21
-1.859696
  31
0
  0
LINE
  5
584
  100
AcDbEntity
  8
1
  100
AcDbLine
  10
24.104
  20
-1.859696
  30
0
  11
24.096
  21
-1.867827
  31
0
  0
LINE
  5
585
  100
AcDbEntity
  8
1
  100
AcDbLine
  10
24.096
  20
-1.867827
  30
0
  11
24.088
  21
-1.875956
  31
0
  0
LINE
  5
586
  100
AcDbEntity
  8
1
  100
AcDbLine
  10
24.088
  20
-1.875956
  30
0
  11
24.08
  21
-1.884084
  31
0
  0
LINE
  5
587
  100
AcDbEntity
  8
1
  100
AcDbLine
  10
24.08
  20
-1.884084
  30
0
  11
24.072
  21
-1.89221
  31
0
  0
LINE
  5
588
  100
AcDbEntity
  8
1
  100
AcDbLine
  10
24.072
  20
-1.89221
  30
0
  11
24.064
  21
-1.900334
  31
0
  0
LINE
  5
589
  100
AcDbEntity
  8
1
  100
AcDbLine
  10
24.064
  20
-1.900334
  30
0
  11
24.056
  21
-1.908457
  31
0
  0
LINE
  5
58a
  100
AcDbEntity
  8
1
  100
AcDbLine
  10
24.056
  20
-1.908457
  30
0
  11
24.048
  21
-1.916578
  31
0
  0
LINE
  5
58b
  100
AcDbEntity
  8
1
  100
AcDbLine
  10
24.048
  20
-1.916578
  30
0
  11
24.04
  21
-1.924697
  31
0
  0
LINE
  5
58c
  100
AcDbEntity
  8
1
  100
AcDbLine
  10
24.04
  20
-1.924697
  30
0
  11
24.032
  21
-1.932815
  31
0
  0
LINE
  5
58d
  100
AcDbEntity
  8
1
  100
AcDbLine
  10
24.032
  20
-1.932815
  30
0
  11
24.024
  21
-1.940931
  31
0
  0
LINE
  5
58e
  100
AcDbEntity
  8
1
  100
AcDbLine
  10
24.024
  20
-1.940931
  30
0
  11
24.016
  21
-1.949046
  31
0
  0
LINE
  5
58f
  100
AcDbEntity
  8
1
  100
AcDbLine
  10
24.016
  20
-1.949046
  30
0
  11
24.008
  21
-1.957159
  31
0
  0
LINE
  5
590
  100
AcDbEntity
  8
SK1
  100
AcDbLine
  10
0
  20
2
  30
0
  11
-27.5
  21
2
  31
0
  0
LINE
  5
591
  100
AcDbEntity
  8
SK1
  100
AcDbLine
  10
-27.5
  20
2
  30
0
  11
-28
  21
1.5
  31
0
  0
LINE
  5
592
  100
AcDbEntity
  8
SK1
  100
AcDbLine
  10
0
  20
-2
  30
0
  11
-27.5
  21
-2
  31
0
  0
LINE
  5
593
  100
AcDbEntity
  8
SK1
  100
AcDbLine
  10
-27.5
  20
-2
  30
0
  11
-28
  21
-1.5
  31
0
  0
LINE
  5
594
  100
AcDbEntity
  8
SK1
  100
AcDbLine
  10
0
  20
2
  30
0
  11
0
  21
-2
  31
0
  0
LINE
  5
595
  100
AcDbEntity
  8
SK1
  100
AcDbLine
  10
0
  20
2
  30
0
  11
0
  21
-2
  31
0
  0
LINE
  5
596
  100
AcDbEntity
  8
SK1
  100
AcDbLine
  10
-27.5
  20
2
  30
0
  11
-27.5
  21
-2
  31
0
  0
LINE
  5
597
  100
AcDbEntity
  8
SK1
  100
AcDbLine
  10
-28
  20
1.5
  30
0
  11
-28
  21
-1.5
  31
0
  0
LINE
  5
5e0
  100
AcDbEntity
  8
NOCUT
  100
AcDbLine
  10
24
  20
0
  30
0
  11
24
  21
2
  31
0
  0
LINE
  5
5e1
  100
AcDbEntity
  8
NOCUT
  100
AcDbLine
  10
24
  20
2
  30
0
  11
0
  21
2
  31
0
  0
LINE
  5
5e2
  100
AcDbEntity
  8
NOCUT
  100
AcDbLine
  10
0
  20
2
  30
0
  11
-27.5
  21
2
  31
0
  0
LINE
  5
5e3
  100
AcDbEntity
  8
NOCUT
  100
AcDbLine
  10
-27.5
  20
2
  30
0
  11
-28
  21
1.5
  31
0
  0
LINE
  5
5e4
  100
AcDbEntity
  8
NOCUT
  100
AcDbLine
  10
-28
  20
1.5
  30
0
  11
-28
  21
0
  31
0
  0
LINE
  5
5e5
  100
AcDbEntity
  8
NOCUT
  100
AcDbLine
  10
-28
  20
0
  30
0
  11
24
  21
0
  31
0
  0
LINE
  5
5e6
  100
AcDbEntity
  8
CUT
  100
AcDbLine
  10
26
  20
0
  30
0
  11
24
  21
2
  31
0
  0
LINE
  5
5e7
  100
AcDbEntity
  8
CUT
  100
AcDbLine
  10
24
  20
2
  30
0
  11
24
  21
0
  31
0
  0
LINE
  5
5e8
  100
AcDbEntity
  8
CUT
  100
AcDbLine
  10
24
  20
0
  30
0
  11
26
  21
0
  31
0
  0
LINE
  5
5e9
  100
AcDbEntity
  8
4
  100
AcDbLine
  10
-28
  20
0
  30
0
  11
26
  21
0
  31
0
  0
LINE
  5
5ea
  100
AcDbEntity
  8
INFTOTAL
  100
AcDbLine
  10
-45.15
  20
49.65
  30
0
  11
68.15
  21
49.65
  31
0
  0
LINE
  5
5eb
  100
AcDbEntity
  8
INFTOTAL
  100
AcDbLine
  10
68.15
  20
49.65
  30
0
  11
68.15
  21
-17.575711
  31
0
  0
LINE
  5
5ec
  100
AcDbEntity
  8
INFTOTAL
  100
AcDbLine
  10
68.15
  20
-17.575711
  30
0
  11
-45.15
  21
-17.575711
  31
0
  0
LINE
  5
5ed
  100
AcDbEntity
  8
INFTOTAL
  100
AcDbLine
  10
-45.15
  20
-17.575711
  30
0
  11
-45.15
  21
49.65
  31
0
  0
ENDSEC
  0
SECTION
  2
OBJECTS
  0
DICTIONARY
  5
5ee
  330
0
100
AcDbDictionary
281
    1
  3
ACAD_GROUP
  350
5ef
  0
DICTIONARY
  5
5ef
102
{ACAD_REACTORS
  330
5ee
102
}
  330
5ee
100
AcDbDictionary
281
    1
  0
ENDSEC
  0
EOF
