  0
SECTION
  2
HEADER
  9
$ACADVER
  1
AC1015
  9
$DWGCODEPAGE
  3
ansi_1252
  9
$HANDSEED
  5
106AB90
  9
$INSUNITS
  70
4
  0
ENDSEC
  0
SECTION
  2
TABLES
  0
TABLE
  2
VPORT
  5
2
  330
0
  100
AcDbSymbolTable
  70
    0
  0
ENDTAB
  0
TABLE
  2
LTYPE
  5
3
  330
0
  100
AcDbSymbolTable
  70
    4
  0
LTYPE
  5
4
  330
3
  100
AcDbSymbolTableRecord
  100
AcDbLinetypeTableRecord
  2
ByBlock
  70
    0
  3

  72
65
  73
    0
  40
0
  0
LTYPE
  5
5
  330
3
  100
AcDbSymbolTableRecord
  100
AcDbLinetypeTableRecord
  2
ByLayer
  70
    0
  3

  72
65
  73
    0
  40
0
  0
LTYPE
  5
6
  330
3
  100
AcDbSymbolTableRecord
  100
AcDbLinetypeTableRecord
  2
CONTINUOUS
  70
    0
  3
Solid Line
  72
65
  73
    0
  40
0
  0
LTYPE
  5
7
  330
3
  100
AcDbSymbolTableRecord
  100
AcDbLinetypeTableRecord
  2
DASH
  70
    0
  3
Hidden
  72
65
  73
2
  40
2.5
  49
1.5
  74
0
  49
-1
  74
0
  0
LTYPE
  5
8
  330
3
  100
AcDbSymbolTableRecord
  100
AcDbLinetypeTableRecord
  2
LONGDASHDASH
  70
    0
  3
__ . __
  72
65
  73
    4
  40
7
  49
4
  74
    0
  49
-1
  74
    0
  49
1
  74
    0
  49
-1
  74
    0
  0
ENDTAB
  0
TABLE
  2
LAYER
  5
9
  330
0
  100
AcDbSymbolTable
  70
    40
  0
LAYER
  5
a
  330
9
  100
AcDbSymbolTableRecord
  100
AcDbLayerTableRecord
  2
0
  70
    0
  62
    0
  6
CONTINUOUS
  390
0
  0
LAYER
  5
b
  330
9
  100
AcDbSymbolTableRecord
  100
AcDbLayerTableRecord
  2
DEFPOINT
  70
    0
  62
    0
  6
CONTINUOUS
  390
0
  0
LAYER
  5
c
  330
9
  100
AcDbSymbolTableRecord
  100
AcDbLayerTableRecord
  2
1
  70
    0
  62
    4
  6
CONTINUOUS
  370
50
  390
0
  0
LAYER
  5
d
  330
9
  100
AcDbSymbolTableRecord
  100
AcDbLayerTableRecord
  2
2
  70
    0
  62
    7
  6
CONTINUOUS
  370
25
  390
0
  0
LAYER
  5
e
  330
9
  100
AcDbSymbolTableRecord
  100
AcDbLayerTableRecord
  2
3
  70
    0
  62
    1
  6
DASH
  370
35
  390
0
  0
LAYER
  5
f
  330
9
  100
AcDbSymbolTableRecord
  100
AcDbLayerTableRecord
  2
4
  70
    0
  62
    2
  6
LONGDASHDASH
  370
25
  390
0
  0
LAYER
  5
10
  330
9
  100
AcDbSymbolTableRecord
  100
AcDbLayerTableRecord
  2
6
  70
    0
  62
    5
  6
CONTINUOUS
  390
0
  0
LAYER
  5
11
  330
9
  100
AcDbSymbolTableRecord
  100
AcDbLayerTableRecord
  2
7
  70
    0
  62
    5
  6
CONTINUOUS
  370
25
  390
0
  0
LAYER
  5
12
  330
9
  100
AcDbSymbolTableRecord
  100
AcDbLayerTableRecord
  2
11
  70
    0
  62
    4
  6
CONTINUOUS
  370
25
  390
0
  0
LAYER
  5
13
  330
9
  100
AcDbSymbolTableRecord
  100
AcDbLayerTableRecord
  2
SK1
  70
    0
  62
    4
  6
CONTINUOUS
  370
50
  390
0
  0
LAYER
  5
14
  330
9
  100
AcDbSymbolTableRecord
  100
AcDbLayerTableRecord
  2
SK2
  70
    0
  62
    7
  6
CONTINUOUS
  370
25
  390
0
  0
LAYER
  5
15
  330
9
  100
AcDbSymbolTableRecord
  100
AcDbLayerTableRecord
  2
SK3
  70
    0
  62
    1
  6
DASH
  370
35
  390
0
  0
LAYER
  5
16
  330
9
  100
AcDbSymbolTableRecord
  100
AcDbLayerTableRecord
  2
SK4
  70
    0
  62
    2
  6
LONGDASHDASH
  370
25
  390
0
  0
LAYER
  5
17
  330
9
  100
AcDbSymbolTableRecord
  100
AcDbLayerTableRecord
  2
SK6
  70
    0
  62
    5
  6
CONTINUOUS
  390
0
  0
LAYER
  5
18
  330
9
  100
AcDbSymbolTableRecord
  100
AcDbLayerTableRecord
  2
SK7
  70
    0
  62
    5
  6
CONTINUOUS
  370
25
  390
0
  0
LAYER
  5
19
  330
9
  100
AcDbSymbolTableRecord
  100
AcDbLayerTableRecord
  2
SK11
  70
    0
  62
    4
  6
CONTINUOUS
  370
25
  390
0
  0
LAYER
  5
1a
  330
9
  100
AcDbSymbolTableRecord
  100
AcDbLayerTableRecord
  2
SKVIEW1
  70
    0
  62
    4
  6
CONTINUOUS
  370
50
  390
0
  0
LAYER
  5
1b
  330
9
  100
AcDbSymbolTableRecord
  100
AcDbLayerTableRecord
  2
SKVIEW2
  70
    0
  62
    7
  6
CONTINUOUS
  370
25
  390
0
  0
LAYER
  5
1c
  330
9
  100
AcDbSymbolTableRecord
  100
AcDbLayerTableRecord
  2
SKVIEW3
  70
    0
  62
    1
  6
DASH
  370
35
  390
0
  0
LAYER
  5
1d
  330
9
  100
AcDbSymbolTableRecord
  100
AcDbLayerTableRecord
  2
SKVIEW4
  70
    0
  62
    2
  6
LONGDASHDASH
  370
25
  390
0
  0
LAYER
  5
1e
  330
9
  100
AcDbSymbolTableRecord
  100
AcDbLayerTableRecord
  2
SKVIEW6
  70
    0
  62
    5
  6
CONTINUOUS
  390
0
  0
LAYER
  5
1f
  330
9
  100
AcDbSymbolTableRecord
  100
AcDbLayerTableRecord
  2
SKVIEW7
  70
    0
  62
    5
  6
CONTINUOUS
  370
25
  390
0
  0
LAYER
  5
20
  330
9
  100
AcDbSymbolTableRecord
  100
AcDbLayerTableRecord
  2
SKVIEW11
  70
    0
  62
    4
  6
CONTINUOUS
  370
25
  390
0
  0
LAYER
  5
21
  330
9
  100
AcDbSymbolTableRecord
  100
AcDbLayerTableRecord
  2
NOCUT
  70
    0
  62
    7
  6
CONTINUOUS
  370
25
  390
0
  0
LAYER
  5
22
  330
9
  100
AcDbSymbolTableRecord
  100
AcDbLayerTableRecord
  2
CUT
  70
    0
  62
    1
  6
CONTINUOUS
  370
25
  390
0
  0
LAYER
  5
23
  330
9
  100
AcDbSymbolTableRecord
  100
AcDbLayerTableRecord
  2
FRAME50
  70
    0
  62
    7
  6
CONTINUOUS
  390
0
  0
LAYER
  5
24
  330
9
  100
AcDbSymbolTableRecord
  100
AcDbLayerTableRecord
  2
53
  70
    0
  62
    5
  6
CONTINUOUS
  390
0
  0
LAYER
  5
25
  330
9
  100
AcDbSymbolTableRecord
  100
AcDbLayerTableRecord
  2
INFTEXT
  70
    0
  62
    5
  6
CONTINUOUS
  390
0
  0
LAYER
  5
26
  330
9
  100
AcDbSymbolTableRecord
  100
AcDbLayerTableRecord
  2
INFTOTAL
  70
    0
  62
    9
  6
CONTINUOUS
  370
18
  390
0
  0
ENDTAB
  0
TABLE
  2
STYLE
  5
27
  330
0
  100
AcDbSymbolTable
  70
    1
  0
STYLE
  5
28
  330
27
  100
AcDbSymbolTableRecord
  100
AcDbTextStyleTableRecord
  2
Monospac821 BT
  70
    0
  40
    3.5
  41
1
  50
0
  71
0
  42
3
  3

  4

  1001
ACAD
  1000
Monospac821 BT
  1071
256
  0
ENDTAB
  0
TABLE
  2
VIEW
  5
29
  330
0
  100
AcDbSymbolTable
  70
    0
  0
ENDTAB
  0
TABLE
  2
UCS
  5
2a
  330
0
  100
AcDbSymbolTable
  70
    0
  0
ENDTAB
  0
TABLE
  2
APPID
  5
2b
  330
0
  100
AcDbSymbolTable
  70
    1
  0
APPID
  5
2c
  330
2b
  100
AcDbSymbolTableRecord
  100
AcDbRegAppTableRecord
  2
ACAD
  70
    0
  0
ENDTAB
  0
TABLE
  2
DIMSTYLE
  5
2d
  330
0
  100
AcDbSymbolTable
  70
    1
  100
AcDbDimStyleTable
  0
DIMSTYLE
  105
2e
  330
2d
  100
AcDbSymbolTableRecord
  100
AcDbDimStyleTableRecord
  2
STANDARD
  70
    0
  41
    3
  42
0.5
  44
1
  73
0
  77
1
  78
1
  140
3.5
  141
2.5
  143
0.03937
  147
0.8
  172
1
  174
1
  178
0
  179
1
  271
2
  279
1
  284
1
  340
28
  0
ENDTAB
  0
TABLE
  2
BLOCK_RECORD
  5
2f
  330
0
  100
AcDbSymbolTable
  70
    2
  0
BLOCK_RECORD
  5
30
  330
2f
  100
AcDbSymbolTableRecord
  100
AcDbBlockTableRecord
  2
*Model_Space
  0
BLOCK_RECORD
  5
31
  330
2f
  100
AcDbSymbolTableRecord
  100
AcDbBlockTableRecord
  2
*Paper_Space
  0
BLOCK_RECORD
  5
78b
  330
2f
  100
AcDbSymbolTableRecord
  100
AcDbBlockTableRecord
  2
*D78a
  340
0
  0
BLOCK_RECORD
  5
799
  330
2f
  100
AcDbSymbolTableRecord
  100
AcDbBlockTableRecord
  2
*D798
  340
0
  0
BLOCK_RECORD
  5
7a7
  330
2f
  100
AcDbSymbolTableRecord
  100
AcDbBlockTableRecord
  2
*D7a6
  340
0
  0
BLOCK_RECORD
  5
7b5
  330
2f
  100
AcDbSymbolTableRecord
  100
AcDbBlockTableRecord
  2
*D7b4
  340
0
  0
BLOCK_RECORD
  5
7c3
  330
2f
  100
AcDbSymbolTableRecord
  100
AcDbBlockTableRecord
  2
*D7c2
  340
0
  0
ENDTAB
  0
ENDSEC
  0
SECTION
  2
BLOCKS
  0
BLOCK
  5
32
  330
30
  100
AcDbEntity
  8
0
  100
AcDbBlockBegin
  2
*Model_Space
  70
    0
  10
0
  20
0
  30
0
  3
*Model_Space
  1

  0
ENDBLK
  5
33
  330
30
  100
AcDbEntity
  8
0
  100
AcDbBlockEnd
  0
BLOCK
  5
34
  330
31
  100
AcDbEntity
  8
0
  100
AcDbBlockBegin
  2
*Paper_Space
  70
    0
  10
0
  20
0
  30
0
  3
*Paper_Space
  1

  0
ENDBLK
  5
35
  330
31
  100
AcDbEntity
  8
0
  100
AcDbBlockEnd
  0
BLOCK
  5
789
  330
78b
  100
AcDbEntity
  8
SK2
  100
AcDbBlockBegin
  2
*D78a
  70
1
  10
0
  20
0
  30
0
  3
*D78a
  1

  0
LINE
  5
78c
  330
78b
  100
AcDbEntity
  8
SK2
  100
AcDbLine
  10
24.001
  20
0
  30
0
  11
24.001
  21
47.046578
  31
0
  0
LINE
  5
78d
  330
78b
  100
AcDbEntity
  8
SK2
  100
AcDbLine
  10
-59.999
  20
8.3
  30
0
  11
-59.999
  21
47.046578
  31
0
  0
LINE
  5
78e
  330
78b
  100
AcDbEntity
  8
SK2
  100
AcDbLine
  10
24.001
  20
45.046578
  30
0
  11
-59.999
  21
45.046578
  31
0
  0
SOLID
  5
78f
  330
78b
  100
AcDbEntity
  8
SK2
  100
AcDbTrace
  10
24.001
  20
45.046578
  30
0
  11
21.522388
  21
44.720263
  31
0
  12
21.522388
  22
45.372894
  32
0
  13
21.522388
  23
45.372894
  33
0
  0
SOLID
  5
790
  330
78b
  100
AcDbEntity
  8
SK2
  100
AcDbTrace
  10
-59.999
  20
45.046578
  30
0
  11
-57.520388
  21
45.372894
  31
0
  12
-57.520388
  22
44.720263
  32
0
  13
-57.520388
  23
44.720263
  33
0
  0
MTEXT
  5
791
  330
78b
  100
AcDbEntity
  8
SK2
  100
AcDbMText
  10
-17.999
  20
45.046578
  30
0
  11
1
  21
0
  31
0
  40
2
  41
0
  71
8
  72
1
  1
84+2
  0
POINT
  5
792
  330
78b
  100
AcDbEntity
  8
SK2
  62
0
  100
AcDbPoint
  10
24.001
  20
0
  30
0
  0
POINT
  5
793
  330
78b
  100
AcDbEntity
  8
SK2
  62
0
  100
AcDbPoint
  10
-59.999
  20
8.3
  30
0
  0
POINT
  5
794
  330
78b
  100
AcDbEntity
  8
SK2
  62
0
  100
AcDbPoint
  10
-59.999
  20
45.046578
  30
0
  0
ENDBLK
  5
795
  330
78b
  100
AcDbEntity
  8
SK2
  100
AcDbBlockEnd
  0
BLOCK
  5
797
  330
799
  100
AcDbEntity
  8
SK2
  100
AcDbBlockBegin
  2
*D798
  70
1
  10
0
  20
0
  30
0
  3
*D798
  1

  0
LINE
  5
79a
  330
799
  100
AcDbEntity
  8
SK2
  100
AcDbLine
  10
-59.299
  20
-9
  30
0
  11
-71.999
  21
-9
  31
0
  0
LINE
  5
79b
  330
799
  100
AcDbEntity
  8
SK2
  100
AcDbLine
  10
-59.299
  20
9
  30
0
  11
-71.999
  21
9
  31
0
  0
LINE
  5
79c
  330
799
  100
AcDbEntity
  8
SK2
  100
AcDbLine
  10
-69.999
  20
-9
  30
0
  11
-69.999
  21
9
  31
0
  0
SOLID
  5
79d
  330
799
  100
AcDbEntity
  8
SK2
  100
AcDbTrace
  10
-69.999
  20
-9
  30
0
  11
-70.325315
  21
-6.521388
  31
0
  12
-69.672685
  22
-6.521388
  32
0
  13
-69.672685
  23
-6.521388
  33
0
  0
SOLID
  5
79e
  330
799
  100
AcDbEntity
  8
SK2
  100
AcDbTrace
  10
-69.999
  20
9
  30
0
  11
-69.672685
  21
6.521388
  31
0
  12
-70.325315
  22
6.521388
  32
0
  13
-70.325315
  23
6.521388
  33
0
  0
MTEXT
  5
79f
  330
799
  100
AcDbEntity
  8
SK2
  100
AcDbMText
  10
-69.999
  20
0
  30
0
  11
0
  21
1
  31
0
  40
2
  41
0
  71
8
  72
1
  1
Ø18h6
  0
POINT
  5
7a0
  330
799
  100
AcDbEntity
  8
SK2
  62
0
  100
AcDbPoint
  10
-59.299
  20
-9
  30
0
  0
POINT
  5
7a1
  330
799
  100
AcDbEntity
  8
SK2
  62
0
  100
AcDbPoint
  10
-59.299
  20
9
  30
0
  0
POINT
  5
7a2
  330
799
  100
AcDbEntity
  8
SK2
  62
0
  100
AcDbPoint
  10
-69.999
  20
9
  30
0
  0
ENDBLK
  5
7a3
  330
799
  100
AcDbEntity
  8
SK2
  100
AcDbBlockEnd
  0
BLOCK
  5
7a5
  330
7a7
  100
AcDbEntity
  8
2
  100
AcDbBlockBegin
  2
*D7a6
  70
1
  10
0
  20
0
  30
0
  3
*D7a6
  1

  0
LINE
  5
7a8
  330
7a7
  100
AcDbEntity
  8
2
  100
AcDbLine
  10
24.001
  20
8.6
  30
0
  11
24.001
  21
13
  31
0
  0
LINE
  5
7a9
  330
7a7
  100
AcDbEntity
  8
2
  100
AcDbLine
  10
23.601
  20
9
  30
0
  11
23.601
  21
13
  31
0
  0
LINE
  5
7aa
  330
7a7
  100
AcDbEntity
  8
2
  100
AcDbLine
  10
40.948122
  20
11
  30
0
  11
23.601
  21
11
  31
0
  0
SOLID
  5
7ab
  330
7a7
  100
AcDbEntity
  8
2
  100
AcDbTrace
  10
24.001
  20
11
  30
0
  11
26.479612
  21
11.326315
  31
0
  12
26.479612
  22
10.673685
  32
0
  13
26.479612
  23
10.673685
  33
0
  0
SOLID
  5
7ac
  330
7a7
  100
AcDbEntity
  8
2
  100
AcDbTrace
  10
23.601
  20
11
  30
0
  11
21.122388
  21
10.673685
  31
0
  12
21.122388
  22
11.326315
  32
0
  13
21.122388
  23
11.326315
  33
0
  0
MTEXT
  5
7ad
  330
7a7
  100
AcDbEntity
  8
2
  100
AcDbMText
  10
27.866771
  20
11
  30
0
  11
1
  21
-0
  31
0
  40
2
  41
0
  71
7
  72
1
  1
0.4 x 45°
  0
POINT
  5
7ae
  330
7a7
  100
AcDbEntity
  8
2
  62
0
  100
AcDbPoint
  10
24.001
  20
8.6
  30
0
  0
POINT
  5
7af
  330
7a7
  100
AcDbEntity
  8
2
  62
0
  100
AcDbPoint
  10
23.601
  20
13
  30
0
  0
POINT
  5
7b0
  330
7a7
  100
AcDbEntity
  8
2
  62
0
  100
AcDbPoint
  10
23.601
  20
11
  30
0
  0
ENDBLK
  5
7b1
  330
7a7
  100
AcDbEntity
  8
2
  100
AcDbBlockEnd
  0
BLOCK
  5
7b3
  330
7b5
  100
AcDbEntity
  8
2
  100
AcDbBlockBegin
  2
*D7b4
  70
1
  10
0
  20
0
  30
0
  3
*D7b4
  1

  0
LINE
  5
7b6
  330
7b5
  100
AcDbEntity
  8
2
  100
AcDbLine
  10
23.601
  20
-9
  30
0
  11
36.001
  21
-9
  31
0
  0
LINE
  5
7b7
  330
7b5
  100
AcDbEntity
  8
2
  100
AcDbLine
  10
23.601
  20
9
  30
0
  11
36.001
  21
9
  31
0
  0
LINE
  5
7b8
  330
7b5
  100
AcDbEntity
  8
2
  100
AcDbLine
  10
34.001
  20
-18.971377
  30
0
  11
34.001
  21
9
  31
0
  0
SOLID
  5
7b9
  330
7b5
  100
AcDbEntity
  8
2
  100
AcDbTrace
  10
34.001
  20
-9
  30
0
  11
33.674685
  21
-6.521388
  31
0
  12
34.327315
  22
-6.521388
  32
0
  13
34.327315
  23
-6.521388
  33
0
  0
SOLID
  5
7ba
  330
7b5
  100
AcDbEntity
  8
2
  100
AcDbTrace
  10
34.001
  20
9
  30
0
  11
34.327315
  21
6.521388
  31
0
  12
33.674685
  22
6.521388
  32
0
  13
33.674685
  23
6.521388
  33
0
  0
MTEXT
  5
7bb
  330
7b5
  100
AcDbEntity
  8
2
  100
AcDbMText
  10
34.001
  20
-14.546829
  30
0
  11
0
  21
1
  31
0
  40
2
  41
0
  71
8
  72
1
  1
Ø18h10
  0
POINT
  5
7bc
  330
7b5
  100
AcDbEntity
  8
2
  62
0
  100
AcDbPoint
  10
23.601
  20
-9
  30
0
  0
POINT
  5
7bd
  330
7b5
  100
AcDbEntity
  8
2
  62
0
  100
AcDbPoint
  10
23.601
  20
9
  30
0
  0
POINT
  5
7be
  330
7b5
  100
AcDbEntity
  8
2
  62
0
  100
AcDbPoint
  10
34.001
  20
9
  30
0
  0
ENDBLK
  5
7bf
  330
7b5
  100
AcDbEntity
  8
2
  100
AcDbBlockEnd
  0
BLOCK
  5
7c1
  330
7c3
  100
AcDbEntity
  8
2
  100
AcDbBlockBegin
  2
*D7c2
  70
1
  10
0
  20
0
  30
0
  3
*D7c2
  1

  0
LINE
  5
7c4
  330
7c3
  100
AcDbEntity
  8
2
  100
AcDbLine
  10
24.001
  20
0
  30
0
  11
24.001
  21
22.550831
  31
0
  0
LINE
  5
7c5
  330
7c3
  100
AcDbEntity
  8
2
  100
AcDbLine
  10
0.001
  20
9
  30
0
  11
0.001
  21
22.550831
  31
0
  0
LINE
  5
7c6
  330
7c3
  100
AcDbEntity
  8
2
  100
AcDbLine
  10
24.001
  20
20.550831
  30
0
  11
0.001
  21
20.550831
  31
0
  0
SOLID
  5
7c7
  330
7c3
  100
AcDbEntity
  8
2
  100
AcDbTrace
  10
24.001
  20
20.550831
  30
0
  11
21.522388
  21
20.224515
  31
0
  12
21.522388
  22
20.877146
  32
0
  13
21.522388
  23
20.877146
  33
0
  0
SOLID
  5
7c8
  330
7c3
  100
AcDbEntity
  8
2
  100
AcDbTrace
  10
0.001
  20
20.550831
  30
0
  11
2.479612
  21
20.877146
  31
0
  12
2.479612
  22
20.224515
  32
0
  13
2.479612
  23
20.224515
  33
0
  0
MTEXT
  5
7c9
  330
7c3
  100
AcDbEntity
  8
2
  100
AcDbMText
  10
12.001
  20
20.550831
  30
0
  11
1
  21
-0
  31
0
  40
2
  41
0
  71
8
  72
1
  1
24
  0
POINT
  5
7ca
  330
7c3
  100
AcDbEntity
  8
2
  62
0
  100
AcDbPoint
  10
24.001
  20
0
  30
0
  0
POINT
  5
7cb
  330
7c3
  100
AcDbEntity
  8
2
  62
0
  100
AcDbPoint
  10
0.001
  20
9
  30
0
  0
POINT
  5
7cc
  330
7c3
  100
AcDbEntity
  8
2
  62
0
  100
AcDbPoint
  10
0.001
  20
20.550831
  30
0
  0
ENDBLK
  5
7cd
  330
7c3
  100
AcDbEntity
  8
2
  100
AcDbBlockEnd
  0
ENDSEC
  0
SECTION
  2
ENTITIES
  0
DIMENSION
  5
796
  100
AcDbEntity
  8
SK2
  100
AcDbDimension
  2
*D78a
  10
-59.999
  20
45.046578
  30
0
  11
-17.999
  21
45.046578
  31
0
  70
160
  1
<>+2
  71
5
  3
STANDARD
  42
84
  100
AcDbAlignedDimension
  13
24.001
  23
0
  33
0
  14
-59.999
  24
8.3
  34
0
  50
0
  100
AcDbRotatedDimension
  0
DIMENSION
  5
7a4
  100
AcDbEntity
  8
SK2
  100
AcDbDimension
  2
*D798
  10
-69.999
  20
9
  30
0
  11
-69.999
  21
0
  31
0
  70
160
  1
%%c<>h6
  71
5
  3
STANDARD
  42
18
  100
AcDbAlignedDimension
  13
-59.299
  23
-9
  33
0
  14
-59.299
  24
9
  34
0
  50
-90
  100
AcDbRotatedDimension
  0
DIMENSION
  5
7b2
  100
AcDbEntity
  8
2
  100
AcDbDimension
  2
*D7a6
  10
23.601
  20
11
  30
0
  11
27.866771
  21
11
  31
0
  70
160
  1
<>
  71
5
  3
STANDARD
  42
0.4
  100
AcDbAlignedDimension
  13
24.001
  23
8.6
  33
0
  14
23.601
  24
13
  34
0
  50
0
  100
AcDbRotatedDimension
  0
DIMENSION
  5
7c0
  100
AcDbEntity
  8
2
  100
AcDbDimension
  2
*D7b4
  10
34.001
  20
9
  30
0
  11
34.001
  21
-14.546829
  31
0
  70
160
  1
%%c<>h10
  71
5
  3
STANDARD
  42
18
  100
AcDbAlignedDimension
  13
23.601
  23
-9
  33
0
  14
23.601
  24
9
  34
0
  50
-90
  100
AcDbRotatedDimension
  0
DIMENSION
  5
7ce
  100
AcDbEntity
  8
2
  100
AcDbDimension
  2
*D7c2
  10
0.001
  20
20.550831
  30
0
  11
12.001
  21
20.550831
  31
0
  70
160
  1
<>
  71
5
  3
STANDARD
  42
24
  100
AcDbAlignedDimension
  13
24.001
  23
0
  33
0
  14
0.001
  24
9
  34
0
  50
0
  100
AcDbRotatedDimension
  0
LINE
  5
36
  100
AcDbEntity
  8
1
  100
AcDbLine
  10
24.001
  20
0
  30
0
  11
24.001
  21
8.6
  31
0
  0
LINE
  5
37
  100
AcDbEntity
  8
1
  100
AcDbLine
  10
24.001
  20
8.6
  30
0
  11
23.601
  21
9
  31
0
  0
LINE
  5
38
  100
AcDbEntity
  8
1
  100
AcDbLine
  10
23.601
  20
9
  30
0
  11
0.001
  21
9
  31
0
  0
LINE
  5
39
  100
AcDbEntity
  8
1
  100
AcDbLine
  10
0.001
  20
9
  30
0
  11
0
  21
9
  31
0
  0
LINE
  5
3a
  100
AcDbEntity
  8
1
  100
AcDbLine
  10
22.741
  20
-8.956791
  30
0
  11
22.741
  21
-8.246217
  31
0
  0
LINE
  5
3b
  100
AcDbEntity
  8
1
  100
AcDbLine
  10
22.489
  20
-8.937801
  30
0
  11
22.489
  21
-8.173947
  31
0
  0
LINE
  5
3c
  100
AcDbEntity
  8
1
  100
AcDbLine
  10
21.229
  20
-8.791511
  30
0
  11
21.229
  21
-7.766068
  31
0
  0
LINE
  5
3d
  100
AcDbEntity
  8
1
  100
AcDbLine
  10
20.977
  20
-8.752064
  30
0
  11
20.977
  21
-7.675406
  31
0
  0
LINE
  5
3e
  100
AcDbEntity
  8
1
  100
AcDbLine
  10
19.717
  20
-8.504714
  30
0
  11
19.717
  21
-7.178576
  31
0
  0
LINE
  5
3f
  100
AcDbEntity
  8
1
  100
AcDbLine
  10
19.465
  20
-8.445355
  30
0
  11
19.465
  21
-7.070774
  31
0
  0
LINE
  5
40
  100
AcDbEntity
  8
1
  100
AcDbLine
  10
18.205
  20
-8.100365
  30
0
  11
18.205
  21
-6.491862
  31
0
  0
LINE
  5
41
  100
AcDbEntity
  8
1
  100
AcDbLine
  10
17.953
  20
-8.021915
  30
0
  11
17.953
  21
-6.368411
  31
0
  0
LINE
  5
42
  100
AcDbEntity
  8
1
  100
AcDbLine
  10
16.693
  20
-7.584053
  30
0
  11
16.693
  21
-5.715417
  31
0
  0
LINE
  5
43
  100
AcDbEntity
  8
1
  100
AcDbLine
  10
16.441
  20
-7.487595
  30
0
  11
16.441
  21
-5.578023
  31
0
  0
LINE
  5
44
  100
AcDbEntity
  8
1
  100
AcDbLine
  10
15.181
  20
-6.962914
  30
0
  11
15.181
  21
-4.859974
  31
0
  0
LINE
  5
45
  100
AcDbEntity
  8
1
  100
AcDbLine
  10
14.929
  20
-6.849782
  30
0
  11
14.929
  21
-4.710535
  31
0
  0
LINE
  5
46
  100
AcDbEntity
  8
1
  100
AcDbLine
  10
13.669
  20
-6.245534
  30
0
  11
13.669
  21
-3.937356
  31
0
  0
LINE
  5
47
  100
AcDbEntity
  8
1
  100
AcDbLine
  10
13.417
  20
-6.117291
  30
0
  11
13.417
  21
-3.777939
  31
0
  0
LINE
  5
48
  100
AcDbEntity
  8
1
  100
AcDbLine
  10
12.241
  20
-5.488558
  30
0
  11
12.241
  21
-3.015797
  31
0
  0
LINE
  5
49
  100
AcDbEntity
  8
1
  100
AcDbLine
  10
11.989
  20
-5.34767
  30
0
  11
11.989
  21
-2.848977
  31
0
  0
LINE
  5
4a
  100
AcDbEntity
  8
1
  100
AcDbLine
  10
10.729
  20
-4.613504
  30
0
  11
10.729
  21
-1.999748
  31
0
  0
LINE
  5
4b
  100
AcDbEntity
  8
1
  100
AcDbLine
  10
10.477
  20
-4.461121
  30
0
  11
10.477
  21
-1.827333
  31
0
  0
LINE
  5
4c
  100
AcDbEntity
  8
1
  100
AcDbLine
  10
9.217
  20
-3.674682
  30
0
  11
9.217
  21
-0.956058
  31
0
  0
LINE
  5
4d
  100
AcDbEntity
  8
1
  100
AcDbLine
  10
8.965
  20
-3.512911
  30
0
  11
8.965
  21
-0.780432
  31
0
  0
LINE
  5
4e
  100
AcDbEntity
  8
1
  100
AcDbLine
  10
7.705
  20
-2.685068
  30
0
  11
7.705
  21
0.100846
  31
0
  0
LINE
  5
4f
  100
AcDbEntity
  8
1
  100
AcDbLine
  10
7.453
  20
-2.516146
  30
0
  11
7.453
  21
0.277257
  31
0
  0
LINE
  5
50
  100
AcDbEntity
  8
1
  100
AcDbLine
  10
6.193
  20
-1.658341
  30
0
  11
6.193
  21
1.156357
  31
0
  0
LINE
  5
51
  100
AcDbEntity
  8
1
  100
AcDbLine
  10
5.941
  20
-1.484602
  30
0
  11
5.941
  21
1.331113
  31
0
  0
LINE
  5
52
  100
AcDbEntity
  8
1
  100
AcDbLine
  10
4.681
  20
-0.608692
  30
0
  11
4.681
  21
2.195884
  31
0
  0
LINE
  5
53
  100
AcDbEntity
  8
1
  100
AcDbLine
  10
4.429
  20
-0.432538
  30
0
  11
4.429
  21
2.366571
  31
0
  0
LINE
  5
54
  100
AcDbEntity
  8
1
  100
AcDbLine
  10
3.169
  20
0.44937
  30
0
  11
3.169
  21
3.20506
  31
0
  0
LINE
  5
55
  100
AcDbEntity
  8
1
  100
AcDbLine
  10
2.917
  20
0.625504
  30
0
  11
2.917
  21
3.369318
  31
0
  0
LINE
  5
56
  100
AcDbEntity
  8
1
  100
AcDbLine
  10
1.741
  20
1.443195
  30
0
  11
1.741
  21
4.117723
  31
0
  0
LINE
  5
57
  100
AcDbEntity
  8
1
  100
AcDbLine
  10
1.489
  20
1.617076
  30
0
  11
1.489
  21
4.273823
  31
0
  0
LINE
  5
58
  100
AcDbEntity
  8
1
  100
AcDbLine
  10
0.229
  20
2.475826
  30
0
  11
0.229
  21
5.028501
  31
0
  0
LINE
  5
59
  100
AcDbEntity
  8
1
  100
AcDbLine
  10
23.497
  20
0.352814
  30
0
  11
23.497
  21
3.114561
  31
0
  0
LINE
  5
5a
  100
AcDbEntity
  8
1
  100
AcDbLine
  10
23.245
  20
0.529052
  30
0
  11
23.245
  21
3.279502
  31
0
  0
LINE
  5
5b
  100
AcDbEntity
  8
1
  100
AcDbLine
  10
21.985
  20
1.405838
  30
0
  11
21.985
  21
4.084045
  31
0
  0
LINE
  5
5c
  100
AcDbEntity
  8
1
  100
AcDbLine
  10
21.733
  20
1.579843
  30
0
  11
21.733
  21
4.240489
  31
0
  0
LINE
  5
5d
  100
AcDbEntity
  8
1
  100
AcDbLine
  10
20.473
  20
2.43943
  30
0
  11
20.473
  21
4.997079
  31
0
  0
LINE
  5
5e
  100
AcDbEntity
  8
1
  100
AcDbLine
  10
20.221
  20
2.608797
  30
0
  11
20.221
  21
5.142863
  31
0
  0
LINE
  5
5f
  100
AcDbEntity
  8
1
  100
AcDbLine
  10
18.961
  20
3.439304
  30
0
  11
18.961
  21
5.841043
  31
0
  0
LINE
  5
60
  100
AcDbEntity
  8
1
  100
AcDbLine
  10
18.709
  20
3.601692
  30
0
  11
18.709
  21
5.974154
  31
0
  0
LINE
  5
61
  100
AcDbEntity
  8
1
  100
AcDbLine
  10
17.449
  20
4.39164
  30
0
  11
17.449
  21
6.604272
  31
0
  0
LINE
  5
62
  100
AcDbEntity
  8
1
  100
AcDbLine
  10
17.197
  20
4.544805
  30
0
  11
17.197
  21
6.722869
  31
0
  0
LINE
  5
63
  100
AcDbEntity
  8
1
  100
AcDbLine
  10
15.937
  20
5.283275
  30
0
  11
15.937
  21
7.276216
  31
0
  0
LINE
  5
64
  100
AcDbEntity
  8
1
  100
AcDbLine
  10
15.685
  20
5.4251
  30
0
  11
15.685
  21
7.37866
  31
0
  0
LINE
  5
65
  100
AcDbEntity
  8
1
  100
AcDbLine
  10
14.425
  20
6.101884
  30
0
  11
14.425
  21
7.847589
  31
0
  0
LINE
  5
66
  100
AcDbEntity
  8
1
  100
AcDbLine
  10
14.173
  20
6.230408
  30
0
  11
14.173
  21
7.932464
  31
0
  0
LINE
  5
67
  100
AcDbEntity
  8
1
  100
AcDbLine
  10
12.997
  20
6.797751
  30
0
  11
12.997
  21
8.287737
  31
0
  0
LINE
  5
68
  100
AcDbEntity
  8
1
  100
AcDbLine
  10
12.745
  20
6.912079
  30
0
  11
12.745
  21
8.354938
  31
0
  0
LINE
  5
69
  100
AcDbEntity
  8
1
  100
AcDbLine
  10
11.485
  20
7.443025
  30
0
  11
11.485
  21
8.642295
  31
0
  0
LINE
  5
6a
  100
AcDbEntity
  8
1
  100
AcDbLine
  10
11.233
  20
7.540789
  30
0
  11
11.233
  21
8.689883
  31
0
  0
LINE
  5
6b
  100
AcDbEntity
  8
1
  100
AcDbLine
  10
9.973
  20
7.985421
  30
0
  11
9.973
  21
8.8774
  31
0
  0
LINE
  5
6c
  100
AcDbEntity
  8
1
  100
AcDbLine
  10
9.721
  20
8.06527
  30
0
  11
9.721
  21
8.904718
  31
0
  0
LINE
  5
6d
  100
AcDbEntity
  8
1
  100
AcDbLine
  10
8.461
  20
8.417442
  30
0
  11
8.461
  21
8.989801
  31
0
  0
LINE
  5
6e
  100
AcDbEntity
  8
1
  100
AcDbLine
  10
8.209
  20
8.478273
  30
0
  11
8.209
  21
8.996471
  31
0
  0
LINE
  5
6f
  100
AcDbEntity
  8
1
  100
AcDbLine
  10
6.949
  20
8.733118
  30
0
  11
6.949
  21
9
  31
0
  0
LINE
  5
70
  100
AcDbEntity
  8
1
  100
AcDbLine
  10
6.697
  20
8.774088
  30
0
  11
6.697
  21
9
  31
0
  0
LINE
  5
71
  100
AcDbEntity
  8
1
  100
AcDbLine
  10
5.437
  20
8.928084
  30
0
  11
5.437
  21
9
  31
0
  0
LINE
  5
72
  100
AcDbEntity
  8
1
  100
AcDbLine
  10
5.185
  20
8.948629
  30
0
  11
5.185
  21
9
  31
0
  0
LINE
  5
73
  100
AcDbEntity
  8
1
  100
AcDbLine
  10
3.925
  20
8.999646
  30
0
  11
3.925
  21
9
  31
0
  0
LINE
  5
74
  100
AcDbEntity
  8
1
  100
AcDbLine
  10
6.949
  20
-9
  30
0
  11
6.949
  21
-8.977945
  31
0
  0
LINE
  5
75
  100
AcDbEntity
  8
1
  100
AcDbLine
  10
6.697
  20
-9
  30
0
  11
6.697
  21
-8.963874
  31
0
  0
LINE
  5
76
  100
AcDbEntity
  8
1
  100
AcDbLine
  10
5.437
  20
-9
  30
0
  11
5.437
  21
-8.841995
  31
0
  0
LINE
  5
77
  100
AcDbEntity
  8
1
  100
AcDbLine
  10
5.185
  20
-9
  30
0
  11
5.185
  21
-8.807379
  31
0
  0
LINE
  5
78
  100
AcDbEntity
  8
1
  100
AcDbLine
  10
3.925
  20
-9
  30
0
  11
3.925
  21
-8.583832
  31
0
  0
LINE
  5
79
  100
AcDbEntity
  8
1
  100
AcDbLine
  10
3.673
  20
-8.999481
  30
0
  11
3.673
  21
-8.529149
  31
0
  0
LINE
  5
7a
  100
AcDbEntity
  8
1
  100
AcDbLine
  10
2.497
  20
-8.953009
  30
0
  11
2.497
  21
-8.230987
  31
0
  0
LINE
  5
7b
  100
AcDbEntity
  8
1
  100
AcDbLine
  10
2.245
  20
-8.933282
  30
0
  11
2.245
  21
-8.158041
  31
0
  0
LINE
  5
7c
  100
AcDbEntity
  8
1
  100
AcDbLine
  10
0.985
  20
-8.783337
  30
0
  11
0.985
  21
-7.746879
  31
0
  0
LINE
  5
7d
  100
AcDbEntity
  8
1
  100
AcDbLine
  10
0.733
  20
-8.743167
  30
0
  11
0.733
  21
-7.655581
  31
0
  0
LINE
  5
7e
  100
AcDbEntity
  8
1
  100
AcDbLine
  10
24.001
  20
-8.599816
  30
0
  11
23.917
  21
-8.683411
  31
0
  0
LINE
  5
7f
  100
AcDbEntity
  8
1
  100
AcDbLine
  10
23.917
  20
-8.683411
  30
0
  11
23.833
  21
-8.766764
  31
0
  0
LINE
  5
80
  100
AcDbEntity
  8
1
  100
AcDbLine
  10
23.833
  20
-8.766764
  30
0
  11
23.749
  21
-8.849866
  31
0
  0
LINE
  5
81
  100
AcDbEntity
  8
1
  100
AcDbLine
  10
23.749
  20
-8.849866
  30
0
  11
23.665
  21
-8.932707
  31
0
  0
LINE
  5
82
  100
AcDbEntity
  8
1
  100
AcDbLine
  10
23.665
  20
-8.932707
  30
0
  11
23.581
  21
-8.995196
  31
0
  0
LINE
  5
83
  100
AcDbEntity
  8
1
  100
AcDbLine
  10
23.581
  20
-8.995196
  30
0
  11
23.497
  21
-8.993082
  31
0
  0
LINE
  5
84
  100
AcDbEntity
  8
1
  100
AcDbLine
  10
23.497
  20
-8.993082
  30
0
  11
23.413
  21
-8.990584
  31
0
  0
LINE
  5
85
  100
AcDbEntity
  8
1
  100
AcDbLine
  10
23.413
  20
-8.990584
  30
0
  11
23.329
  21
-8.987702
  31
0
  0
LINE
  5
86
  100
AcDbEntity
  8
1
  100
AcDbLine
  10
23.329
  20
-8.987702
  30
0
  11
23.245
  21
-8.984437
  31
0
  0
LINE
  5
87
  100
AcDbEntity
  8
1
  100
AcDbLine
  10
23.245
  20
-8.984437
  30
0
  11
23.161
  21
-8.980787
  31
0
  0
LINE
  5
88
  100
AcDbEntity
  8
1
  100
AcDbLine
  10
23.161
  20
-8.980787
  30
0
  11
23.077
  21
-8.976755
  31
0
  0
LINE
  5
89
  100
AcDbEntity
  8
1
  100
AcDbLine
  10
23.077
  20
-8.976755
  30
0
  11
22.993
  21
-8.972338
  31
0
  0
LINE
  5
8a
  100
AcDbEntity
  8
1
  100
AcDbLine
  10
22.993
  20
-8.972338
  30
0
  11
22.909
  21
-8.967539
  31
0
  0
LINE
  5
8b
  100
AcDbEntity
  8
1
  100
AcDbLine
  10
22.909
  20
-8.967539
  30
0
  11
22.825
  21
-8.962356
  31
0
  0
LINE
  5
8c
  100
AcDbEntity
  8
1
  100
AcDbLine
  10
22.825
  20
-8.962356
  30
0
  11
22.741
  21
-8.956791
  31
0
  0
LINE
  5
8d
  100
AcDbEntity
  8
1
  100
AcDbLine
  10
22.741
  20
-8.956791
  30
0
  11
22.657
  21
-8.950843
  31
0
  0
LINE
  5
8e
  100
AcDbEntity
  8
1
  100
AcDbLine
  10
22.657
  20
-8.950843
  30
0
  11
22.573
  21
-8.944513
  31
0
  0
LINE
  5
8f
  100
AcDbEntity
  8
1
  100
AcDbLine
  10
22.573
  20
-8.944513
  30
0
  11
22.489
  21
-8.937801
  31
0
  0
LINE
  5
90
  100
AcDbEntity
  8
1
  100
AcDbLine
  10
22.489
  20
-8.937801
  30
0
  11
22.405
  21
-8.930707
  31
0
  0
LINE
  5
91
  100
AcDbEntity
  8
1
  100
AcDbLine
  10
22.405
  20
-8.930707
  30
0
  11
22.321
  21
-8.923232
  31
0
  0
LINE
  5
92
  100
AcDbEntity
  8
1
  100
AcDbLine
  10
22.321
  20
-8.923232
  30
0
  11
22.237
  21
-8.915375
  31
0
  0
LINE
  5
93
  100
AcDbEntity
  8
1
  100
AcDbLine
  10
22.237
  20
-8.915375
  30
0
  11
22.153
  21
-8.907138
  31
0
  0
LINE
  5
94
  100
AcDbEntity
  8
1
  100
AcDbLine
  10
22.153
  20
-8.907138
  30
0
  11
22.069
  21
-8.898521
  31
0
  0
LINE
  5
95
  100
AcDbEntity
  8
1
  100
AcDbLine
  10
22.069
  20
-8.898521
  30
0
  11
21.985
  21
-8.889523
  31
0
  0
LINE
  5
96
  100
AcDbEntity
  8
1
  100
AcDbLine
  10
21.985
  20
-8.889523
  30
0
  11
21.901
  21
-8.880146
  31
0
  0
LINE
  5
97
  100
AcDbEntity
  8
1
  100
AcDbLine
  10
21.901
  20
-8.880146
  30
0
  11
21.817
  21
-8.870389
  31
0
  0
LINE
  5
98
  100
AcDbEntity
  8
1
  100
AcDbLine
  10
21.817
  20
-8.870389
  30
0
  11
21.733
  21
-8.860254
  31
0
  0
LINE
  5
99
  100
AcDbEntity
  8
1
  100
AcDbLine
  10
21.733
  20
-8.860254
  30
0
  11
21.649
  21
-8.84974
  31
0
  0
LINE
  5
9a
  100
AcDbEntity
  8
1
  100
AcDbLine
  10
21.649
  20
-8.84974
  30
0
  11
21.565
  21
-8.838848
  31
0
  0
LINE
  5
9b
  100
AcDbEntity
  8
1
  100
AcDbLine
  10
21.565
  20
-8.838848
  30
0
  11
21.481
  21
-8.827579
  31
0
  0
LINE
  5
9c
  100
AcDbEntity
  8
1
  100
AcDbLine
  10
21.481
  20
-8.827579
  30
0
  11
21.397
  21
-8.815933
  31
0
  0
LINE
  5
9d
  100
AcDbEntity
  8
1
  100
AcDbLine
  10
21.397
  20
-8.815933
  30
0
  11
21.313
  21
-8.80391
  31
0
  0
LINE
  5
9e
  100
AcDbEntity
  8
1
  100
AcDbLine
  10
21.313
  20
-8.80391
  30
0
  11
21.229
  21
-8.791511
  31
0
  0
LINE
  5
9f
  100
AcDbEntity
  8
1
  100
AcDbLine
  10
21.229
  20
-8.791511
  30
0
  11
21.145
  21
-8.778736
  31
0
  0
LINE
  5
a0
  100
AcDbEntity
  8
1
  100
AcDbLine
  10
21.145
  20
-8.778736
  30
0
  11
21.061
  21
-8.765587
  31
0
  0
LINE
  5
a1
  100
AcDbEntity
  8
1
  100
AcDbLine
  10
21.061
  20
-8.765587
  30
0
  11
20.977
  21
-8.752064
  31
0
  0
LINE
  5
a2
  100
AcDbEntity
  8
1
  100
AcDbLine
  10
20.977
  20
-8.752064
  30
0
  11
20.893
  21
-8.738166
  31
0
  0
LINE
  5
a3
  100
AcDbEntity
  8
1
  100
AcDbLine
  10
20.893
  20
-8.738166
  30
0
  11
20.809
  21
-8.723895
  31
0
  0
LINE
  5
a4
  100
AcDbEntity
  8
1
  100
AcDbLine
  10
20.809
  20
-8.723895
  30
0
  11
20.725
  21
-8.709252
  31
0
  0
LINE
  5
a5
  100
AcDbEntity
  8
1
  100
AcDbLine
  10
20.725
  20
-8.709252
  30
0
  11
20.641
  21
-8.694237
  31
0
  0
LINE
  5
a6
  100
AcDbEntity
  8
1
  100
AcDbLine
  10
20.641
  20
-8.694237
  30
0
  11
20.557
  21
-8.67885
  31
0
  0
LINE
  5
a7
  100
AcDbEntity
  8
1
  100
AcDbLine
  10
20.557
  20
-8.67885
  30
0
  11
20.473
  21
-8.663093
  31
0
  0
LINE
  5
a8
  100
AcDbEntity
  8
1
  100
AcDbLine
  10
20.473
  20
-8.663093
  30
0
  11
20.389
  21
-8.646966
  31
0
  0
LINE
  5
a9
  100
AcDbEntity
  8
1
  100
AcDbLine
  10
20.389
  20
-8.646966
  30
0
  11
20.305
  21
-8.630469
  31
0
  0
LINE
  5
aa
  100
AcDbEntity
  8
1
  100
AcDbLine
  10
20.305
  20
-8.630469
  30
0
  11
20.221
  21
-8.613604
  31
0
  0
LINE
  5
ab
  100
AcDbEntity
  8
1
  100
AcDbLine
  10
20.221
  20
-8.613604
  30
0
  11
20.137
  21
-8.596371
  31
0
  0
LINE
  5
ac
  100
AcDbEntity
  8
1
  100
AcDbLine
  10
20.137
  20
-8.596371
  30
0
  11
20.053
  21
-8.578771
  31
0
  0
LINE
  5
ad
  100
AcDbEntity
  8
1
  100
AcDbLine
  10
20.053
  20
-8.578771
  30
0
  11
19.969
  21
-8.560805
  31
0
  0
LINE
  5
ae
  100
AcDbEntity
  8
1
  100
AcDbLine
  10
19.969
  20
-8.560805
  30
0
  11
19.885
  21
-8.542472
  31
0
  0
LINE
  5
af
  100
AcDbEntity
  8
1
  100
AcDbLine
  10
19.885
  20
-8.542472
  30
0
  11
19.801
  21
-8.523775
  31
0
  0
LINE
  5
b0
  100
AcDbEntity
  8
1
  100
AcDbLine
  10
19.801
  20
-8.523775
  30
0
  11
19.717
  21
-8.504714
  31
0
  0
LINE
  5
b1
  100
AcDbEntity
  8
1
  100
AcDbLine
  10
19.717
  20
-8.504714
  30
0
  11
19.633
  21
-8.48529
  31
0
  0
LINE
  5
b2
  100
AcDbEntity
  8
1
  100
AcDbLine
  10
19.633
  20
-8.48529
  30
0
  11
19.549
  21
-8.465503
  31
0
  0
LINE
  5
b3
  100
AcDbEntity
  8
1
  100
AcDbLine
  10
19.549
  20
-8.465503
  30
0
  11
19.465
  21
-8.445355
  31
0
  0
LINE
  5
b4
  100
AcDbEntity
  8
1
  100
AcDbLine
  10
19.465
  20
-8.445355
  30
0
  11
19.381
  21
-8.424846
  31
0
  0
LINE
  5
b5
  100
AcDbEntity
  8
1
  100
AcDbLine
  10
19.381
  20
-8.424846
  30
0
  11
19.297
  21
-8.403977
  31
0
  0
LINE
  5
b6
  100
AcDbEntity
  8
1
  100
AcDbLine
  10
19.297
  20
-8.403977
  30
0
  11
19.213
  21
-8.382749
  31
0
  0
LINE
  5
b7
  100
AcDbEntity
  8
1
  100
AcDbLine
  10
19.213
  20
-8.382749
  30
0
  11
19.129
  21
-8.361164
  31
0
  0
LINE
  5
b8
  100
AcDbEntity
  8
1
  100
AcDbLine
  10
19.129
  20
-8.361164
  30
0
  11
19.045
  21
-8.339221
  31
0
  0
LINE
  5
b9
  100
AcDbEntity
  8
1
  100
AcDbLine
  10
19.045
  20
-8.339221
  30
0
  11
18.961
  21
-8.316922
  31
0
  0
LINE
  5
ba
  100
AcDbEntity
  8
1
  100
AcDbLine
  10
18.961
  20
-8.316922
  30
0
  11
18.877
  21
-8.294268
  31
0
  0
LINE
  5
bb
  100
AcDbEntity
  8
1
  100
AcDbLine
  10
18.877
  20
-8.294268
  30
0
  11
18.793
  21
-8.271259
  31
0
  0
LINE
  5
bc
  100
AcDbEntity
  8
1
  100
AcDbLine
  10
18.793
  20
-8.271259
  30
0
  11
18.709
  21
-8.247897
  31
0
  0
LINE
  5
bd
  100
AcDbEntity
  8
1
  100
AcDbLine
  10
18.709
  20
-8.247897
  30
0
  11
18.625
  21
-8.224183
  31
0
  0
LINE
  5
be
  100
AcDbEntity
  8
1
  100
AcDbLine
  10
18.625
  20
-8.224183
  30
0
  11
18.541
  21
-8.200118
  31
0
  0
LINE
  5
bf
  100
AcDbEntity
  8
1
  100
AcDbLine
  10
18.541
  20
-8.200118
  30
0
  11
18.457
  21
-8.175703
  31
0
  0
LINE
  5
c0
  100
AcDbEntity
  8
1
  100
AcDbLine
  10
18.457
  20
-8.175703
  30
0
  11
18.373
  21
-8.150938
  31
0
  0
LINE
  5
c1
  100
AcDbEntity
  8
1
  100
AcDbLine
  10
18.373
  20
-8.150938
  30
0
  11
18.289
  21
-8.125825
  31
0
  0
LINE
  5
c2
  100
AcDbEntity
  8
1
  100
AcDbLine
  10
18.289
  20
-8.125825
  30
0
  11
18.205
  21
-8.100365
  31
0
  0
LINE
  5
c3
  100
AcDbEntity
  8
1
  100
AcDbLine
  10
18.205
  20
-8.100365
  30
0
  11
18.121
  21
-8.07456
  31
0
  0
LINE
  5
c4
  100
AcDbEntity
  8
1
  100
AcDbLine
  10
18.121
  20
-8.07456
  30
0
  11
18.037
  21
-8.048409
  31
0
  0
LINE
  5
c5
  100
AcDbEntity
  8
1
  100
AcDbLine
  10
18.037
  20
-8.048409
  30
0
  11
17.953
  21
-8.021915
  31
0
  0
LINE
  5
c6
  100
AcDbEntity
  8
1
  100
AcDbLine
  10
17.953
  20
-8.021915
  30
0
  11
17.869
  21
-7.995078
  31
0
  0
LINE
  5
c7
  100
AcDbEntity
  8
1
  100
AcDbLine
  10
17.869
  20
-7.995078
  30
0
  11
17.785
  21
-7.967899
  31
0
  0
LINE
  5
c8
  100
AcDbEntity
  8
1
  100
AcDbLine
  10
17.785
  20
-7.967899
  30
0
  11
17.701
  21
-7.94038
  31
0
  0
LINE
  5
c9
  100
AcDbEntity
  8
1
  100
AcDbLine
  10
17.701
  20
-7.94038
  30
0
  11
17.617
  21
-7.912522
  31
0
  0
LINE
  5
ca
  100
AcDbEntity
  8
1
  100
AcDbLine
  10
17.617
  20
-7.912522
  30
0
  11
17.533
  21
-7.884327
  31
0
  0
LINE
  5
cb
  100
AcDbEntity
  8
1
  100
AcDbLine
  10
17.533
  20
-7.884327
  30
0
  11
17.449
  21
-7.855794
  31
0
  0
LINE
  5
cc
  100
AcDbEntity
  8
1
  100
AcDbLine
  10
17.449
  20
-7.855794
  30
0
  11
17.365
  21
-7.826926
  31
0
  0
LINE
  5
cd
  100
AcDbEntity
  8
1
  100
AcDbLine
  10
17.365
  20
-7.826926
  30
0
  11
17.281
  21
-7.797723
  31
0
  0
LINE
  5
ce
  100
AcDbEntity
  8
1
  100
AcDbLine
  10
17.281
  20
-7.797723
  30
0
  11
17.197
  21
-7.768188
  31
0
  0
LINE
  5
cf
  100
AcDbEntity
  8
1
  100
AcDbLine
  10
17.197
  20
-7.768188
  30
0
  11
17.113
  21
-7.738321
  31
0
  0
LINE
  5
d0
  100
AcDbEntity
  8
1
  100
AcDbLine
  10
17.113
  20
-7.738321
  30
0
  11
17.029
  21
-7.708123
  31
0
  0
LINE
  5
d1
  100
AcDbEntity
  8
1
  100
AcDbLine
  10
17.029
  20
-7.708123
  30
0
  11
16.945
  21
-7.677596
  31
0
  0
LINE
  5
d2
  100
AcDbEntity
  8
1
  100
AcDbLine
  10
16.945
  20
-7.677596
  30
0
  11
16.861
  21
-7.646741
  31
0
  0
LINE
  5
d3
  100
AcDbEntity
  8
1
  100
AcDbLine
  10
16.861
  20
-7.646741
  30
0
  11
16.777
  21
-7.61556
  31
0
  0
LINE
  5
d4
  100
AcDbEntity
  8
1
  100
AcDbLine
  10
16.777
  20
-7.61556
  30
0
  11
16.693
  21
-7.584053
  31
0
  0
LINE
  5
d5
  100
AcDbEntity
  8
1
  100
AcDbLine
  10
16.693
  20
-7.584053
  30
0
  11
16.609
  21
-7.552223
  31
0
  0
LINE
  5
d6
  100
AcDbEntity
  8
1
  100
AcDbLine
  10
16.609
  20
-7.552223
  30
0
  11
16.525
  21
-7.52007
  31
0
  0
LINE
  5
d7
  100
AcDbEntity
  8
1
  100
AcDbLine
  10
16.525
  20
-7.52007
  30
0
  11
16.441
  21
-7.487595
  31
0
  0
LINE
  5
d8
  100
AcDbEntity
  8
1
  100
AcDbLine
  10
16.441
  20
-7.487595
  30
0
  11
16.357
  21
-7.454801
  31
0
  0
LINE
  5
d9
  100
AcDbEntity
  8
1
  100
AcDbLine
  10
16.357
  20
-7.454801
  30
0
  11
16.273
  21
-7.421689
  31
0
  0
LINE
  5
da
  100
AcDbEntity
  8
1
  100
AcDbLine
  10
16.273
  20
-7.421689
  30
0
  11
16.189
  21
-7.388259
  31
0
  0
LINE
  5
db
  100
AcDbEntity
  8
1
  100
AcDbLine
  10
16.189
  20
-7.388259
  30
0
  11
16.105
  21
-7.354514
  31
0
  0
LINE
  5
dc
  100
AcDbEntity
  8
1
  100
AcDbLine
  10
16.105
  20
-7.354514
  30
0
  11
16.021
  21
-7.320455
  31
0
  0
LINE
  5
dd
  100
AcDbEntity
  8
1
  100
AcDbLine
  10
16.021
  20
-7.320455
  30
0
  11
15.937
  21
-7.286083
  31
0
  0
LINE
  5
de
  100
AcDbEntity
  8
1
  100
AcDbLine
  10
15.937
  20
-7.286083
  30
0
  11
15.853
  21
-7.2514
  31
0
  0
LINE
  5
df
  100
AcDbEntity
  8
1
  100
AcDbLine
  10
15.853
  20
-7.2514
  30
0
  11
15.769
  21
-7.216408
  31
0
  0
LINE
  5
e0
  100
AcDbEntity
  8
1
  100
AcDbLine
  10
15.769
  20
-7.216408
  30
0
  11
15.685
  21
-7.181107
  31
0
  0
LINE
  5
e1
  100
AcDbEntity
  8
1
  100
AcDbLine
  10
15.685
  20
-7.181107
  30
0
  11
15.601
  21
-7.145499
  31
0
  0
LINE
  5
e2
  100
AcDbEntity
  8
1
  100
AcDbLine
  10
15.601
  20
-7.145499
  30
0
  11
15.517
  21
-7.109586
  31
0
  0
LINE
  5
e3
  100
AcDbEntity
  8
1
  100
AcDbLine
  10
15.517
  20
-7.109586
  30
0
  11
15.433
  21
-7.07337
  31
0
  0
LINE
  5
e4
  100
AcDbEntity
  8
1
  100
AcDbLine
  10
15.433
  20
-7.07337
  30
0
  11
15.349
  21
-7.036851
  31
0
  0
LINE
  5
e5
  100
AcDbEntity
  8
1
  100
AcDbLine
  10
15.349
  20
-7.036851
  30
0
  11
15.265
  21
-7.000032
  31
0
  0
LINE
  5
e6
  100
AcDbEntity
  8
1
  100
AcDbLine
  10
15.265
  20
-7.000032
  30
0
  11
15.181
  21
-6.962914
  31
0
  0
LINE
  5
e7
  100
AcDbEntity
  8
1
  100
AcDbLine
  10
15.181
  20
-6.962914
  30
0
  11
15.097
  21
-6.925499
  31
0
  0
LINE
  5
e8
  100
AcDbEntity
  8
1
  100
AcDbLine
  10
15.097
  20
-6.925499
  30
0
  11
15.013
  21
-6.887788
  31
0
  0
LINE
  5
e9
  100
AcDbEntity
  8
1
  100
AcDbLine
  10
15.013
  20
-6.887788
  30
0
  11
14.929
  21
-6.849782
  31
0
  0
LINE
  5
ea
  100
AcDbEntity
  8
1
  100
AcDbLine
  10
14.929
  20
-6.849782
  30
0
  11
14.845
  21
-6.811484
  31
0
  0
LINE
  5
eb
  100
AcDbEntity
  8
1
  100
AcDbLine
  10
14.845
  20
-6.811484
  30
0
  11
14.761
  21
-6.772895
  31
0
  0
LINE
  5
ec
  100
AcDbEntity
  8
1
  100
AcDbLine
  10
14.761
  20
-6.772895
  30
0
  11
14.677
  21
-6.734017
  31
0
  0
LINE
  5
ed
  100
AcDbEntity
  8
1
  100
AcDbLine
  10
14.677
  20
-6.734017
  30
0
  11
14.593
  21
-6.694852
  31
0
  0
LINE
  5
ee
  100
AcDbEntity
  8
1
  100
AcDbLine
  10
14.593
  20
-6.694852
  30
0
  11
14.509
  21
-6.6554
  31
0
  0
LINE
  5
ef
  100
AcDbEntity
  8
1
  100
AcDbLine
  10
14.509
  20
-6.6554
  30
0
  11
14.425
  21
-6.615664
  31
0
  0
LINE
  5
f0
  100
AcDbEntity
  8
1
  100
AcDbLine
  10
14.425
  20
-6.615664
  30
0
  11
14.341
  21
-6.575646
  31
0
  0
LINE
  5
f1
  100
AcDbEntity
  8
1
  100
AcDbLine
  10
14.341
  20
-6.575646
  30
0
  11
14.257
  21
-6.535346
  31
0
  0
LINE
  5
f2
  100
AcDbEntity
  8
1
  100
AcDbLine
  10
14.257
  20
-6.535346
  30
0
  11
14.173
  21
-6.494768
  31
0
  0
LINE
  5
f3
  100
AcDbEntity
  8
1
  100
AcDbLine
  10
14.173
  20
-6.494768
  30
0
  11
14.089
  21
-6.453912
  31
0
  0
LINE
  5
f4
  100
AcDbEntity
  8
1
  100
AcDbLine
  10
14.089
  20
-6.453912
  30
0
  11
14.005
  21
-6.412781
  31
0
  0
LINE
  5
f5
  100
AcDbEntity
  8
1
  100
AcDbLine
  10
14.005
  20
-6.412781
  30
0
  11
13.921
  21
-6.371375
  31
0
  0
LINE
  5
f6
  100
AcDbEntity
  8
1
  100
AcDbLine
  10
13.921
  20
-6.371375
  30
0
  11
13.837
  21
-6.329698
  31
0
  0
LINE
  5
f7
  100
AcDbEntity
  8
1
  100
AcDbLine
  10
13.837
  20
-6.329698
  30
0
  11
13.753
  21
-6.28775
  31
0
  0
LINE
  5
f8
  100
AcDbEntity
  8
1
  100
AcDbLine
  10
13.753
  20
-6.28775
  30
0
  11
13.669
  21
-6.245534
  31
0
  0
LINE
  5
f9
  100
AcDbEntity
  8
1
  100
AcDbLine
  10
13.669
  20
-6.245534
  30
0
  11
13.585
  21
-6.203051
  31
0
  0
LINE
  5
fa
  100
AcDbEntity
  8
1
  100
AcDbLine
  10
13.585
  20
-6.203051
  30
0
  11
13.501
  21
-6.160303
  31
0
  0
LINE
  5
fb
  100
AcDbEntity
  8
1
  100
AcDbLine
  10
13.501
  20
-6.160303
  30
0
  11
13.417
  21
-6.117291
  31
0
  0
LINE
  5
fc
  100
AcDbEntity
  8
1
  100
AcDbLine
  10
13.417
  20
-6.117291
  30
0
  11
13.333
  21
-6.074019
  31
0
  0
LINE
  5
fd
  100
AcDbEntity
  8
1
  100
AcDbLine
  10
13.333
  20
-6.074019
  30
0
  11
13.249
  21
-6.030487
  31
0
  0
LINE
  5
fe
  100
AcDbEntity
  8
1
  100
AcDbLine
  10
13.249
  20
-6.030487
  30
0
  11
13.165
  21
-5.986698
  31
0
  0
LINE
  5
ff
  100
AcDbEntity
  8
1
  100
AcDbLine
  10
13.165
  20
-5.986698
  30
0
  11
13.081
  21
-5.942653
  31
0
  0
LINE
  5
100
  100
AcDbEntity
  8
1
  100
AcDbLine
  10
13.081
  20
-5.942653
  30
0
  11
12.997
  21
-5.898354
  31
0
  0
LINE
  5
101
  100
AcDbEntity
  8
1
  100
AcDbLine
  10
12.997
  20
-5.898354
  30
0
  11
12.913
  21
-5.853803
  31
0
  0
LINE
  5
102
  100
AcDbEntity
  8
1
  100
AcDbLine
  10
12.913
  20
-5.853803
  30
0
  11
12.829
  21
-5.809002
  31
0
  0
LINE
  5
103
  100
AcDbEntity
  8
1
  100
AcDbLine
  10
12.829
  20
-5.809002
  30
0
  11
12.745
  21
-5.763953
  31
0
  0
LINE
  5
104
  100
AcDbEntity
  8
1
  100
AcDbLine
  10
12.745
  20
-5.763953
  30
0
  11
12.661
  21
-5.718658
  31
0
  0
LINE
  5
105
  100
AcDbEntity
  8
1
  100
AcDbLine
  10
12.661
  20
-5.718658
  30
0
  11
12.577
  21
-5.673119
  31
0
  0
LINE
  5
106
  100
AcDbEntity
  8
1
  100
AcDbLine
  10
12.577
  20
-5.673119
  30
0
  11
12.493
  21
-5.627337
  31
0
  0
LINE
  5
107
  100
AcDbEntity
  8
1
  100
AcDbLine
  10
12.493
  20
-5.627337
  30
0
  11
12.409
  21
-5.581316
  31
0
  0
LINE
  5
108
  100
AcDbEntity
  8
1
  100
AcDbLine
  10
12.409
  20
-5.581316
  30
0
  11
12.325
  21
-5.535055
  31
0
  0
LINE
  5
109
  100
AcDbEntity
  8
1
  100
AcDbLine
  10
12.325
  20
-5.535055
  30
0
  11
12.241
  21
-5.488558
  31
0
  0
LINE
  5
10a
  100
AcDbEntity
  8
1
  100
AcDbLine
  10
12.241
  20
-5.488558
  30
0
  11
12.157
  21
-5.441827
  31
0
  0
LINE
  5
10b
  100
AcDbEntity
  8
1
  100
AcDbLine
  10
12.157
  20
-5.441827
  30
0
  11
12.073
  21
-5.394864
  31
0
  0
LINE
  5
10c
  100
AcDbEntity
  8
1
  100
AcDbLine
  10
12.073
  20
-5.394864
  30
0
  11
11.989
  21
-5.34767
  31
0
  0
LINE
  5
10d
  100
AcDbEntity
  8
1
  100
AcDbLine
  10
11.989
  20
-5.34767
  30
0
  11
11.905
  21
-5.300247
  31
0
  0
LINE
  5
10e
  100
AcDbEntity
  8
1
  100
AcDbLine
  10
11.905
  20
-5.300247
  30
0
  11
11.821
  21
-5.252599
  31
0
  0
LINE
  5
10f
  100
AcDbEntity
  8
1
  100
AcDbLine
  10
11.821
  20
-5.252599
  30
0
  11
11.737
  21
-5.204726
  31
0
  0
LINE
  5
110
  100
AcDbEntity
  8
1
  100
AcDbLine
  10
11.737
  20
-5.204726
  30
0
  11
11.653
  21
-5.15663
  31
0
  0
LINE
  5
111
  100
AcDbEntity
  8
1
  100
AcDbLine
  10
11.653
  20
-5.15663
  30
0
  11
11.569
  21
-5.108315
  31
0
  0
LINE
  5
112
  100
AcDbEntity
  8
1
  100
AcDbLine
  10
11.569
  20
-5.108315
  30
0
  11
11.485
  21
-5.059781
  31
0
  0
LINE
  5
113
  100
AcDbEntity
  8
1
  100
AcDbLine
  10
11.485
  20
-5.059781
  30
0
  11
11.401
  21
-5.011031
  31
0
  0
LINE
  5
114
  100
AcDbEntity
  8
1
  100
AcDbLine
  10
11.401
  20
-5.011031
  30
0
  11
11.317
  21
-4.962067
  31
0
  0
LINE
  5
115
  100
AcDbEntity
  8
1
  100
AcDbLine
  10
11.317
  20
-4.962067
  30
0
  11
11.233
  21
-4.912891
  31
0
  0
LINE
  5
116
  100
AcDbEntity
  8
1
  100
AcDbLine
  10
11.233
  20
-4.912891
  30
0
  11
11.149
  21
-4.863506
  31
0
  0
LINE
  5
117
  100
AcDbEntity
  8
1
  100
AcDbLine
  10
11.149
  20
-4.863506
  30
0
  11
11.065
  21
-4.813912
  31
0
  0
LINE
  5
118
  100
AcDbEntity
  8
1
  100
AcDbLine
  10
11.065
  20
-4.813912
  30
0
  11
10.981
  21
-4.764113
  31
0
  0
LINE
  5
119
  100
AcDbEntity
  8
1
  100
AcDbLine
  10
10.981
  20
-4.764113
  30
0
  11
10.897
  21
-4.714111
  31
0
  0
LINE
  5
11a
  100
AcDbEntity
  8
1
  100
AcDbLine
  10
10.897
  20
-4.714111
  30
0
  11
10.813
  21
-4.663907
  31
0
  0
LINE
  5
11b
  100
AcDbEntity
  8
1
  100
AcDbLine
  10
10.813
  20
-4.663907
  30
0
  11
10.729
  21
-4.613504
  31
0
  0
LINE
  5
11c
  100
AcDbEntity
  8
1
  100
AcDbLine
  10
10.729
  20
-4.613504
  30
0
  11
10.645
  21
-4.562904
  31
0
  0
LINE
  5
11d
  100
AcDbEntity
  8
1
  100
AcDbLine
  10
10.645
  20
-4.562904
  30
0
  11
10.561
  21
-4.512109
  31
0
  0
LINE
  5
11e
  100
AcDbEntity
  8
1
  100
AcDbLine
  10
10.561
  20
-4.512109
  30
0
  11
10.477
  21
-4.461121
  31
0
  0
LINE
  5
11f
  100
AcDbEntity
  8
1
  100
AcDbLine
  10
10.477
  20
-4.461121
  30
0
  11
10.393
  21
-4.409943
  31
0
  0
LINE
  5
120
  100
AcDbEntity
  8
1
  100
AcDbLine
  10
10.393
  20
-4.409943
  30
0
  11
10.309
  21
-4.358577
  31
0
  0
LINE
  5
121
  100
AcDbEntity
  8
1
  100
AcDbLine
  10
10.309
  20
-4.358577
  30
0
  11
10.225
  21
-4.307024
  31
0
  0
LINE
  5
122
  100
AcDbEntity
  8
1
  100
AcDbLine
  10
10.225
  20
-4.307024
  30
0
  11
10.141
  21
-4.255288
  31
0
  0
LINE
  5
123
  100
AcDbEntity
  8
1
  100
AcDbLine
  10
10.141
  20
-4.255288
  30
0
  11
10.057
  21
-4.203369
  31
0
  0
LINE
  5
124
  100
AcDbEntity
  8
1
  100
AcDbLine
  10
10.057
  20
-4.203369
  30
0
  11
9.973
  21
-4.151271
  31
0
  0
LINE
  5
125
  100
AcDbEntity
  8
1
  100
AcDbLine
  10
9.973
  20
-4.151271
  30
0
  11
9.889
  21
-4.098996
  31
0
  0
LINE
  5
126
  100
AcDbEntity
  8
1
  100
AcDbLine
  10
9.889
  20
-4.098996
  30
0
  11
9.805
  21
-4.046546
  31
0
  0
LINE
  5
127
  100
AcDbEntity
  8
1
  100
AcDbLine
  10
9.805
  20
-4.046546
  30
0
  11
9.721
  21
-3.993923
  31
0
  0
LINE
  5
128
  100
AcDbEntity
  8
1
  100
AcDbLine
  10
9.721
  20
-3.993923
  30
0
  11
9.637
  21
-3.941129
  31
0
  0
LINE
  5
129
  100
AcDbEntity
  8
1
  100
AcDbLine
  10
9.637
  20
-3.941129
  30
0
  11
9.553
  21
-3.888167
  31
0
  0
LINE
  5
12a
  100
AcDbEntity
  8
1
  100
AcDbLine
  10
9.553
  20
-3.888167
  30
0
  11
9.469
  21
-3.835039
  31
0
  0
LINE
  5
12b
  100
AcDbEntity
  8
1
  100
AcDbLine
  10
9.469
  20
-3.835039
  30
0
  11
9.385
  21
-3.781748
  31
0
  0
LINE
  5
12c
  100
AcDbEntity
  8
1
  100
AcDbLine
  10
9.385
  20
-3.781748
  30
0
  11
9.301
  21
-3.728294
  31
0
  0
LINE
  5
12d
  100
AcDbEntity
  8
1
  100
AcDbLine
  10
9.301
  20
-3.728294
  30
0
  11
9.217
  21
-3.674682
  31
0
  0
LINE
  5
12e
  100
AcDbEntity
  8
1
  100
AcDbLine
  10
9.217
  20
-3.674682
  30
0
  11
9.133
  21
-3.620912
  31
0
  0
LINE
  5
12f
  100
AcDbEntity
  8
1
  100
AcDbLine
  10
9.133
  20
-3.620912
  30
0
  11
9.049
  21
-3.566988
  31
0
  0
LINE
  5
130
  100
AcDbEntity
  8
1
  100
AcDbLine
  10
9.049
  20
-3.566988
  30
0
  11
8.965
  21
-3.512911
  31
0
  0
LINE
  5
131
  100
AcDbEntity
  8
1
  100
AcDbLine
  10
8.965
  20
-3.512911
  30
0
  11
8.881
  21
-3.458685
  31
0
  0
LINE
  5
132
  100
AcDbEntity
  8
1
  100
AcDbLine
  10
8.881
  20
-3.458685
  30
0
  11
8.797
  21
-3.404311
  31
0
  0
LINE
  5
133
  100
AcDbEntity
  8
1
  100
AcDbLine
  10
8.797
  20
-3.404311
  30
0
  11
8.713
  21
-3.349791
  31
0
  0
LINE
  5
134
  100
AcDbEntity
  8
1
  100
AcDbLine
  10
8.713
  20
-3.349791
  30
0
  11
8.629
  21
-3.295128
  31
0
  0
LINE
  5
135
  100
AcDbEntity
  8
1
  100
AcDbLine
  10
8.629
  20
-3.295128
  30
0
  11
8.545
  21
-3.240325
  31
0
  0
LINE
  5
136
  100
AcDbEntity
  8
1
  100
AcDbLine
  10
8.545
  20
-3.240325
  30
0
  11
8.461
  21
-3.185383
  31
0
  0
LINE
  5
137
  100
AcDbEntity
  8
1
  100
AcDbLine
  10
8.461
  20
-3.185383
  30
0
  11
8.377
  21
-3.130305
  31
0
  0
LINE
  5
138
  100
AcDbEntity
  8
1
  100
AcDbLine
  10
8.377
  20
-3.130305
  30
0
  11
8.293
  21
-3.075094
  31
0
  0
LINE
  5
139
  100
AcDbEntity
  8
1
  100
AcDbLine
  10
8.293
  20
-3.075094
  30
0
  11
8.209
  21
-3.019751
  31
0
  0
LINE
  5
13a
  100
AcDbEntity
  8
1
  100
AcDbLine
  10
8.209
  20
-3.019751
  30
0
  11
8.125
  21
-2.964279
  31
0
  0
LINE
  5
13b
  100
AcDbEntity
  8
1
  100
AcDbLine
  10
8.125
  20
-2.964279
  30
0
  11
8.041
  21
-2.90868
  31
0
  0
LINE
  5
13c
  100
AcDbEntity
  8
1
  100
AcDbLine
  10
8.041
  20
-2.90868
  30
0
  11
7.957
  21
-2.852957
  31
0
  0
LINE
  5
13d
  100
AcDbEntity
  8
1
  100
AcDbLine
  10
7.957
  20
-2.852957
  30
0
  11
7.873
  21
-2.797113
  31
0
  0
LINE
  5
13e
  100
AcDbEntity
  8
1
  100
AcDbLine
  10
7.873
  20
-2.797113
  30
0
  11
7.789
  21
-2.741149
  31
0
  0
LINE
  5
13f
  100
AcDbEntity
  8
1
  100
AcDbLine
  10
7.789
  20
-2.741149
  30
0
  11
7.705
  21
-2.685068
  31
0
  0
LINE
  5
140
  100
AcDbEntity
  8
1
  100
AcDbLine
  10
7.705
  20
-2.685068
  30
0
  11
7.621
  21
-2.628872
  31
0
  0
LINE
  5
141
  100
AcDbEntity
  8
1
  100
AcDbLine
  10
7.621
  20
-2.628872
  30
0
  11
7.537
  21
-2.572564
  31
0
  0
LINE
  5
142
  100
AcDbEntity
  8
1
  100
AcDbLine
  10
7.537
  20
-2.572564
  30
0
  11
7.453
  21
-2.516146
  31
0
  0
LINE
  5
143
  100
AcDbEntity
  8
1
  100
AcDbLine
  10
7.453
  20
-2.516146
  30
0
  11
7.369
  21
-2.459621
  31
0
  0
LINE
  5
144
  100
AcDbEntity
  8
1
  100
AcDbLine
  10
7.369
  20
-2.459621
  30
0
  11
7.285
  21
-2.40299
  31
0
  0
LINE
  5
145
  100
AcDbEntity
  8
1
  100
AcDbLine
  10
7.285
  20
-2.40299
  30
0
  11
7.201
  21
-2.346257
  31
0
  0
LINE
  5
146
  100
AcDbEntity
  8
1
  100
AcDbLine
  10
7.201
  20
-2.346257
  30
0
  11
7.117
  21
-2.289424
  31
0
  0
LINE
  5
147
  100
AcDbEntity
  8
1
  100
AcDbLine
  10
7.117
  20
-2.289424
  30
0
  11
7.033
  21
-2.232493
  31
0
  0
LINE
  5
148
  100
AcDbEntity
  8
1
  100
AcDbLine
  10
7.033
  20
-2.232493
  30
0
  11
6.949
  21
-2.175466
  31
0
  0
LINE
  5
149
  100
AcDbEntity
  8
1
  100
AcDbLine
  10
6.949
  20
-2.175466
  30
0
  11
6.865
  21
-2.118347
  31
0
  0
LINE
  5
14a
  100
AcDbEntity
  8
1
  100
AcDbLine
  10
6.865
  20
-2.118347
  30
0
  11
6.781
  21
-2.061137
  31
0
  0
LINE
  5
14b
  100
AcDbEntity
  8
1
  100
AcDbLine
  10
6.781
  20
-2.061137
  30
0
  11
6.697
  21
-2.003839
  31
0
  0
LINE
  5
14c
  100
AcDbEntity
  8
1
  100
AcDbLine
  10
6.697
  20
-2.003839
  30
0
  11
6.613
  21
-1.946456
  31
0
  0
LINE
  5
14d
  100
AcDbEntity
  8
1
  100
AcDbLine
  10
6.613
  20
-1.946456
  30
0
  11
6.529
  21
-1.888989
  31
0
  0
LINE
  5
14e
  100
AcDbEntity
  8
1
  100
AcDbLine
  10
6.529
  20
-1.888989
  30
0
  11
6.445
  21
-1.831442
  31
0
  0
LINE
  5
14f
  100
AcDbEntity
  8
1
  100
AcDbLine
  10
6.445
  20
-1.831442
  30
0
  11
6.361
  21
-1.773817
  31
0
  0
LINE
  5
150
  100
AcDbEntity
  8
1
  100
AcDbLine
  10
6.361
  20
-1.773817
  30
0
  11
6.277
  21
-1.716115
  31
0
  0
LINE
  5
151
  100
AcDbEntity
  8
1
  100
AcDbLine
  10
6.277
  20
-1.716115
  30
0
  11
6.193
  21
-1.658341
  31
0
  0
LINE
  5
152
  100
AcDbEntity
  8
1
  100
AcDbLine
  10
6.193
  20
-1.658341
  30
0
  11
6.109
  21
-1.600495
  31
0
  0
LINE
  5
153
  100
AcDbEntity
  8
1
  100
AcDbLine
  10
6.109
  20
-1.600495
  30
0
  11
6.025
  21
-1.542582
  31
0
  0
LINE
  5
154
  100
AcDbEntity
  8
1
  100
AcDbLine
  10
6.025
  20
-1.542582
  30
0
  11
5.941
  21
-1.484602
  31
0
  0
LINE
  5
155
  100
AcDbEntity
  8
1
  100
AcDbLine
  10
5.941
  20
-1.484602
  30
0
  11
5.857
  21
-1.426559
  31
0
  0
LINE
  5
156
  100
AcDbEntity
  8
1
  100
AcDbLine
  10
5.857
  20
-1.426559
  30
0
  11
5.773
  21
-1.368455
  31
0
  0
LINE
  5
157
  100
AcDbEntity
  8
1
  100
AcDbLine
  10
5.773
  20
-1.368455
  30
0
  11
5.689
  21
-1.310293
  31
0
  0
LINE
  5
158
  100
AcDbEntity
  8
1
  100
AcDbLine
  10
5.689
  20
-1.310293
  30
0
  11
5.605
  21
-1.252075
  31
0
  0
LINE
  5
159
  100
AcDbEntity
  8
1
  100
AcDbLine
  10
5.605
  20
-1.252075
  30
0
  11
5.521
  21
-1.193803
  31
0
  0
LINE
  5
15a
  100
AcDbEntity
  8
1
  100
AcDbLine
  10
5.521
  20
-1.193803
  30
0
  11
5.437
  21
-1.13548
  31
0
  0
LINE
  5
15b
  100
AcDbEntity
  8
1
  100
AcDbLine
  10
5.437
  20
-1.13548
  30
0
  11
5.353
  21
-1.077109
  31
0
  0
LINE
  5
15c
  100
AcDbEntity
  8
1
  100
AcDbLine
  10
5.353
  20
-1.077109
  30
0
  11
5.269
  21
-1.018692
  31
0
  0
LINE
  5
15d
  100
AcDbEntity
  8
1
  100
AcDbLine
  10
5.269
  20
-1.018692
  30
0
  11
5.185
  21
-0.960231
  31
0
  0
LINE
  5
15e
  100
AcDbEntity
  8
1
  100
AcDbLine
  10
5.185
  20
-0.960231
  30
0
  11
5.101
  21
-0.901729
  31
0
  0
LINE
  5
15f
  100
AcDbEntity
  8
1
  100
AcDbLine
  10
5.101
  20
-0.901729
  30
0
  11
5.017
  21
-0.843189
  31
0
  0
LINE
  5
160
  100
AcDbEntity
  8
1
  100
AcDbLine
  10
5.017
  20
-0.843189
  30
0
  11
4.933
  21
-0.784612
  31
0
  0
LINE
  5
161
  100
AcDbEntity
  8
1
  100
AcDbLine
  10
4.933
  20
-0.784612
  30
0
  11
4.849
  21
-0.726002
  31
0
  0
LINE
  5
162
  100
AcDbEntity
  8
1
  100
AcDbLine
  10
4.849
  20
-0.726002
  30
0
  11
4.765
  21
-0.667362
  31
0
  0
LINE
  5
163
  100
AcDbEntity
  8
1
  100
AcDbLine
  10
4.765
  20
-0.667362
  30
0
  11
4.681
  21
-0.608692
  31
0
  0
LINE
  5
164
  100
AcDbEntity
  8
1
  100
AcDbLine
  10
4.681
  20
-0.608692
  30
0
  11
4.597
  21
-0.549997
  31
0
  0
LINE
  5
165
  100
AcDbEntity
  8
1
  100
AcDbLine
  10
4.597
  20
-0.549997
  30
0
  11
4.513
  21
-0.491278
  31
0
  0
LINE
  5
166
  100
AcDbEntity
  8
1
  100
AcDbLine
  10
4.513
  20
-0.491278
  30
0
  11
4.429
  21
-0.432538
  31
0
  0
LINE
  5
167
  100
AcDbEntity
  8
1
  100
AcDbLine
  10
4.429
  20
-0.432538
  30
0
  11
4.345
  21
-0.37378
  31
0
  0
LINE
  5
168
  100
AcDbEntity
  8
1
  100
AcDbLine
  10
4.345
  20
-0.37378
  30
0
  11
4.261
  21
-0.315006
  31
0
  0
LINE
  5
169
  100
AcDbEntity
  8
1
  100
AcDbLine
  10
4.261
  20
-0.315006
  30
0
  11
4.177
  21
-0.256218
  31
0
  0
LINE
  5
16a
  100
AcDbEntity
  8
1
  100
AcDbLine
  10
4.177
  20
-0.256218
  30
0
  11
4.093
  21
-0.197419
  31
0
  0
LINE
  5
16b
  100
AcDbEntity
  8
1
  100
AcDbLine
  10
4.093
  20
-0.197419
  30
0
  11
4.009
  21
-0.138612
  31
0
  0
LINE
  5
16c
  100
AcDbEntity
  8
1
  100
AcDbLine
  10
4.009
  20
-0.138612
  30
0
  11
3.925
  21
-0.079799
  31
0
  0
LINE
  5
16d
  100
AcDbEntity
  8
1
  100
AcDbLine
  10
3.925
  20
-0.079799
  30
0
  11
3.841
  21
-0.020983
  31
0
  0
LINE
  5
16e
  100
AcDbEntity
  8
1
  100
AcDbLine
  10
3.841
  20
-0.020983
  30
0
  11
3.757
  21
0.037834
  31
0
  0
LINE
  5
16f
  100
AcDbEntity
  8
1
  100
AcDbLine
  10
3.757
  20
0.037834
  30
0
  11
3.673
  21
0.09665
  31
0
  0
LINE
  5
170
  100
AcDbEntity
  8
1
  100
AcDbLine
  10
3.673
  20
0.09665
  30
0
  11
3.589
  21
0.155462
  31
0
  0
LINE
  5
171
  100
AcDbEntity
  8
1
  100
AcDbLine
  10
3.589
  20
0.155462
  30
0
  11
3.505
  21
0.214267
  31
0
  0
LINE
  5
172
  100
AcDbEntity
  8
1
  100
AcDbLine
  10
3.505
  20
0.214267
  30
0
  11
3.421
  21
0.273062
  31
0
  0
LINE
  5
173
  100
AcDbEntity
  8
1
  100
AcDbLine
  10
3.421
  20
0.273062
  30
0
  11
3.337
  21
0.331846
  31
0
  0
LINE
  5
174
  100
AcDbEntity
  8
1
  100
AcDbLine
  10
3.337
  20
0.331846
  30
0
  11
3.253
  21
0.390616
  31
0
  0
LINE
  5
175
  100
AcDbEntity
  8
1
  100
AcDbLine
  10
3.253
  20
0.390616
  30
0
  11
3.169
  21
0.44937
  31
0
  0
LINE
  5
176
  100
AcDbEntity
  8
1
  100
AcDbLine
  10
3.169
  20
0.44937
  30
0
  11
3.085
  21
0.508104
  31
0
  0
LINE
  5
177
  100
AcDbEntity
  8
1
  100
AcDbLine
  10
3.085
  20
0.508104
  30
0
  11
3.001
  21
0.566816
  31
0
  0
LINE
  5
178
  100
AcDbEntity
  8
1
  100
AcDbLine
  10
3.001
  20
0.566816
  30
0
  11
2.917
  21
0.625504
  31
0
  0
LINE
  5
179
  100
AcDbEntity
  8
1
  100
AcDbLine
  10
2.917
  20
0.625504
  30
0
  11
2.833
  21
0.684166
  31
0
  0
LINE
  5
17a
  100
AcDbEntity
  8
1
  100
AcDbLine
  10
2.833
  20
0.684166
  30
0
  11
2.749
  21
0.742798
  31
0
  0
LINE
  5
17b
  100
AcDbEntity
  8
1
  100
AcDbLine
  10
2.749
  20
0.742798
  30
0
  11
2.665
  21
0.801398
  31
0
  0
LINE
  5
17c
  100
AcDbEntity
  8
1
  100
AcDbLine
  10
2.665
  20
0.801398
  30
0
  11
2.581
  21
0.859965
  31
0
  0
LINE
  5
17d
  100
AcDbEntity
  8
1
  100
AcDbLine
  10
2.581
  20
0.859965
  30
0
  11
2.497
  21
0.918494
  31
0
  0
LINE
  5
17e
  100
AcDbEntity
  8
1
  100
AcDbLine
  10
2.497
  20
0.918494
  30
0
  11
2.413
  21
0.976984
  31
0
  0
LINE
  5
17f
  100
AcDbEntity
  8
1
  100
AcDbLine
  10
2.413
  20
0.976984
  30
0
  11
2.329
  21
1.035433
  31
0
  0
LINE
  5
180
  100
AcDbEntity
  8
1
  100
AcDbLine
  10
2.329
  20
1.035433
  30
0
  11
2.245
  21
1.093837
  31
0
  0
LINE
  5
181
  100
AcDbEntity
  8
1
  100
AcDbLine
  10
2.245
  20
1.093837
  30
0
  11
2.161
  21
1.152195
  31
0
  0
LINE
  5
182
  100
AcDbEntity
  8
1
  100
AcDbLine
  10
2.161
  20
1.152195
  30
0
  11
2.077
  21
1.210503
  31
0
  0
LINE
  5
183
  100
AcDbEntity
  8
1
  100
AcDbLine
  10
2.077
  20
1.210503
  30
0
  11
1.993
  21
1.26876
  31
0
  0
LINE
  5
184
  100
AcDbEntity
  8
1
  100
AcDbLine
  10
1.993
  20
1.26876
  30
0
  11
1.909
  21
1.326963
  31
0
  0
LINE
  5
185
  100
AcDbEntity
  8
1
  100
AcDbLine
  10
1.909
  20
1.326963
  30
0
  11
1.825
  21
1.385108
  31
0
  0
LINE
  5
186
  100
AcDbEntity
  8
1
  100
AcDbLine
  10
1.825
  20
1.385108
  30
0
  11
1.741
  21
1.443195
  31
0
  0
LINE
  5
187
  100
AcDbEntity
  8
1
  100
AcDbLine
  10
1.741
  20
1.443195
  30
0
  11
1.657
  21
1.50122
  31
0
  0
LINE
  5
188
  100
AcDbEntity
  8
1
  100
AcDbLine
  10
1.657
  20
1.50122
  30
0
  11
1.573
  21
1.559181
  31
0
  0
LINE
  5
189
  100
AcDbEntity
  8
1
  100
AcDbLine
  10
1.573
  20
1.559181
  30
0
  11
1.489
  21
1.617076
  31
0
  0
LINE
  5
18a
  100
AcDbEntity
  8
1
  100
AcDbLine
  10
1.489
  20
1.617076
  30
0
  11
1.405
  21
1.674901
  31
0
  0
LINE
  5
18b
  100
AcDbEntity
  8
1
  100
AcDbLine
  10
1.405
  20
1.674901
  30
0
  11
1.321
  21
1.732655
  31
0
  0
LINE
  5
18c
  100
AcDbEntity
  8
1
  100
AcDbLine
  10
1.321
  20
1.732655
  30
0
  11
1.237
  21
1.790334
  31
0
  0
LINE
  5
18d
  100
AcDbEntity
  8
1
  100
AcDbLine
  10
1.237
  20
1.790334
  30
0
  11
1.153
  21
1.847938
  31
0
  0
LINE
  5
18e
  100
AcDbEntity
  8
1
  100
AcDbLine
  10
1.153
  20
1.847938
  30
0
  11
1.069
  21
1.905462
  31
0
  0
LINE
  5
18f
  100
AcDbEntity
  8
1
  100
AcDbLine
  10
1.069
  20
1.905462
  30
0
  11
0.985
  21
1.962905
  31
0
  0
LINE
  5
190
  100
AcDbEntity
  8
1
  100
AcDbLine
  10
0.985
  20
1.962905
  30
0
  11
0.901
  21
2.020264
  31
0
  0
LINE
  5
191
  100
AcDbEntity
  8
1
  100
AcDbLine
  10
0.901
  20
2.020264
  30
0
  11
0.817
  21
2.077537
  31
0
  0
LINE
  5
192
  100
AcDbEntity
  8
1
  100
AcDbLine
  10
0.817
  20
2.077537
  30
0
  11
0.733
  21
2.134721
  31
0
  0
LINE
  5
193
  100
AcDbEntity
  8
1
  100
AcDbLine
  10
0.733
  20
2.134721
  30
0
  11
0.649
  21
2.191814
  31
0
  0
LINE
  5
194
  100
AcDbEntity
  8
1
  100
AcDbLine
  10
0.649
  20
2.191814
  30
0
  11
0.565
  21
2.248814
  31
0
  0
LINE
  5
195
  100
AcDbEntity
  8
1
  100
AcDbLine
  10
0.565
  20
2.248814
  30
0
  11
0.481
  21
2.305717
  31
0
  0
LINE
  5
196
  100
AcDbEntity
  8
1
  100
AcDbLine
  10
0.481
  20
2.305717
  30
0
  11
0.397
  21
2.362522
  31
0
  0
LINE
  5
197
  100
AcDbEntity
  8
1
  100
AcDbLine
  10
0.397
  20
2.362522
  30
0
  11
0.313
  21
2.419226
  31
0
  0
LINE
  5
198
  100
AcDbEntity
  8
1
  100
AcDbLine
  10
0.313
  20
2.419226
  30
0
  11
0.229
  21
2.475826
  31
0
  0
LINE
  5
199
  100
AcDbEntity
  8
1
  100
AcDbLine
  10
0.229
  20
2.475826
  30
0
  11
0.145
  21
2.532321
  31
0
  0
LINE
  5
19a
  100
AcDbEntity
  8
1
  100
AcDbLine
  10
0.145
  20
2.532321
  30
0
  11
0.061
  21
2.588708
  31
0
  0
LINE
  5
19b
  100
AcDbEntity
  8
1
  100
AcDbLine
  10
24.001
  20
0.056242
  30
0
  11
23.917
  21
0.101177
  31
0
  0
LINE
  5
19c
  100
AcDbEntity
  8
1
  100
AcDbLine
  10
23.917
  20
0.101177
  30
0
  11
23.833
  21
0.14721
  31
0
  0
LINE
  5
19d
  100
AcDbEntity
  8
1
  100
AcDbLine
  10
23.833
  20
0.14721
  30
0
  11
23.749
  21
0.194339
  31
0
  0
LINE
  5
19e
  100
AcDbEntity
  8
1
  100
AcDbLine
  10
23.749
  20
0.194339
  30
0
  11
23.665
  21
0.242562
  31
0
  0
LINE
  5
19f
  100
AcDbEntity
  8
1
  100
AcDbLine
  10
23.665
  20
0.242562
  30
0
  11
23.581
  21
0.294035
  31
0
  0
LINE
  5
1a0
  100
AcDbEntity
  8
1
  100
AcDbLine
  10
23.581
  20
0.294035
  30
0
  11
23.497
  21
0.352814
  31
0
  0
LINE
  5
1a1
  100
AcDbEntity
  8
1
  100
AcDbLine
  10
23.497
  20
0.352814
  30
0
  11
23.413
  21
0.411578
  31
0
  0
LINE
  5
1a2
  100
AcDbEntity
  8
1
  100
AcDbLine
  10
23.413
  20
0.411578
  30
0
  11
23.329
  21
0.470325
  31
0
  0
LINE
  5
1a3
  100
AcDbEntity
  8
1
  100
AcDbLine
  10
23.329
  20
0.470325
  30
0
  11
23.245
  21
0.529052
  31
0
  0
LINE
  5
1a4
  100
AcDbEntity
  8
1
  100
AcDbLine
  10
23.245
  20
0.529052
  30
0
  11
23.161
  21
0.587756
  31
0
  0
LINE
  5
1a5
  100
AcDbEntity
  8
1
  100
AcDbLine
  10
23.161
  20
0.587756
  30
0
  11
23.077
  21
0.646435
  31
0
  0
LINE
  5
1a6
  100
AcDbEntity
  8
1
  100
AcDbLine
  10
23.077
  20
0.646435
  30
0
  11
22.993
  21
0.705086
  31
0
  0
LINE
  5
1a7
  100
AcDbEntity
  8
1
  100
AcDbLine
  10
22.993
  20
0.705086
  30
0
  11
22.909
  21
0.763707
  31
0
  0
LINE
  5
1a8
  100
AcDbEntity
  8
1
  100
AcDbLine
  10
22.909
  20
0.763707
  30
0
  11
22.825
  21
0.822296
  31
0
  0
LINE
  5
1a9
  100
AcDbEntity
  8
1
  100
AcDbLine
  10
22.825
  20
0.822296
  30
0
  11
22.741
  21
0.880849
  31
0
  0
LINE
  5
1aa
  100
AcDbEntity
  8
1
  100
AcDbLine
  10
22.741
  20
0.880849
  30
0
  11
22.657
  21
0.939365
  31
0
  0
LINE
  5
1ab
  100
AcDbEntity
  8
1
  100
AcDbLine
  10
22.657
  20
0.939365
  30
0
  11
22.573
  21
0.997841
  31
0
  0
LINE
  5
1ac
  100
AcDbEntity
  8
1
  100
AcDbLine
  10
22.573
  20
0.997841
  30
0
  11
22.489
  21
1.056274
  31
0
  0
LINE
  5
1ad
  100
AcDbEntity
  8
1
  100
AcDbLine
  10
22.489
  20
1.056274
  30
0
  11
22.405
  21
1.114662
  31
0
  0
LINE
  5
1ae
  100
AcDbEntity
  8
1
  100
AcDbLine
  10
22.405
  20
1.114662
  30
0
  11
22.321
  21
1.173002
  31
0
  0
LINE
  5
1af
  100
AcDbEntity
  8
1
  100
AcDbLine
  10
22.321
  20
1.173002
  30
0
  11
22.237
  21
1.231292
  31
0
  0
LINE
  5
1b0
  100
AcDbEntity
  8
1
  100
AcDbLine
  10
22.237
  20
1.231292
  30
0
  11
22.153
  21
1.28953
  31
0
  0
LINE
  5
1b1
  100
AcDbEntity
  8
1
  100
AcDbLine
  10
22.153
  20
1.28953
  30
0
  11
22.069
  21
1.347713
  31
0
  0
LINE
  5
1b2
  100
AcDbEntity
  8
1
  100
AcDbLine
  10
22.069
  20
1.347713
  30
0
  11
21.985
  21
1.405838
  31
0
  0
LINE
  5
1b3
  100
AcDbEntity
  8
1
  100
AcDbLine
  10
21.985
  20
1.405838
  30
0
  11
21.901
  21
1.463903
  31
0
  0
LINE
  5
1b4
  100
AcDbEntity
  8
1
  100
AcDbLine
  10
21.901
  20
1.463903
  30
0
  11
21.817
  21
1.521905
  31
0
  0
LINE
  5
1b5
  100
AcDbEntity
  8
1
  100
AcDbLine
  10
21.817
  20
1.521905
  30
0
  11
21.733
  21
1.579843
  31
0
  0
LINE
  5
1b6
  100
AcDbEntity
  8
1
  100
AcDbLine
  10
21.733
  20
1.579843
  30
0
  11
21.649
  21
1.637713
  31
0
  0
LINE
  5
1b7
  100
AcDbEntity
  8
1
  100
AcDbLine
  10
21.649
  20
1.637713
  30
0
  11
21.565
  21
1.695513
  31
0
  0
LINE
  5
1b8
  100
AcDbEntity
  8
1
  100
AcDbLine
  10
21.565
  20
1.695513
  30
0
  11
21.481
  21
1.75324
  31
0
  0
LINE
  5
1b9
  100
AcDbEntity
  8
1
  100
AcDbLine
  10
21.481
  20
1.75324
  30
0
  11
21.397
  21
1.810893
  31
0
  0
LINE
  5
1ba
  100
AcDbEntity
  8
1
  100
AcDbLine
  10
21.397
  20
1.810893
  30
0
  11
21.313
  21
1.868469
  31
0
  0
LINE
  5
1bb
  100
AcDbEntity
  8
1
  100
AcDbLine
  10
21.313
  20
1.868469
  30
0
  11
21.229
  21
1.925964
  31
0
  0
LINE
  5
1bc
  100
AcDbEntity
  8
1
  100
AcDbLine
  10
21.229
  20
1.925964
  30
0
  11
21.145
  21
1.983378
  31
0
  0
LINE
  5
1bd
  100
AcDbEntity
  8
1
  100
AcDbLine
  10
21.145
  20
1.983378
  30
0
  11
21.061
  21
2.040706
  31
0
  0
LINE
  5
1be
  100
AcDbEntity
  8
1
  100
AcDbLine
  10
21.061
  20
2.040706
  30
0
  11
20.977
  21
2.097948
  31
0
  0
LINE
  5
1bf
  100
AcDbEntity
  8
1
  100
AcDbLine
  10
20.977
  20
2.097948
  30
0
  11
20.893
  21
2.1551
  31
0
  0
LINE
  5
1c0
  100
AcDbEntity
  8
1
  100
AcDbLine
  10
20.893
  20
2.1551
  30
0
  11
20.809
  21
2.212159
  31
0
  0
LINE
  5
1c1
  100
AcDbEntity
  8
1
  100
AcDbLine
  10
20.809
  20
2.212159
  30
0
  11
20.725
  21
2.269125
  31
0
  0
LINE
  5
1c2
  100
AcDbEntity
  8
1
  100
AcDbLine
  10
20.725
  20
2.269125
  30
0
  11
20.641
  21
2.325993
  31
0
  0
LINE
  5
1c3
  100
AcDbEntity
  8
1
  100
AcDbLine
  10
20.641
  20
2.325993
  30
0
  11
20.557
  21
2.382762
  31
0
  0
LINE
  5
1c4
  100
AcDbEntity
  8
1
  100
AcDbLine
  10
20.557
  20
2.382762
  30
0
  11
20.473
  21
2.43943
  31
0
  0
LINE
  5
1c5
  100
AcDbEntity
  8
1
  100
AcDbLine
  10
20.473
  20
2.43943
  30
0
  11
20.389
  21
2.495993
  31
0
  0
LINE
  5
1c6
  100
AcDbEntity
  8
1
  100
AcDbLine
  10
20.389
  20
2.495993
  30
0
  11
20.305
  21
2.552449
  31
0
  0
LINE
  5
1c7
  100
AcDbEntity
  8
1
  100
AcDbLine
  10
20.305
  20
2.552449
  30
0
  11
20.221
  21
2.608797
  31
0
  0
LINE
  5
1c8
  100
AcDbEntity
  8
1
  100
AcDbLine
  10
20.221
  20
2.608797
  30
0
  11
20.137
  21
2.665033
  31
0
  0
LINE
  5
1c9
  100
AcDbEntity
  8
1
  100
AcDbLine
  10
20.137
  20
2.665033
  30
0
  11
20.053
  21
2.721155
  31
0
  0
LINE
  5
1ca
  100
AcDbEntity
  8
1
  100
AcDbLine
  10
20.053
  20
2.721155
  30
0
  11
19.969
  21
2.777161
  31
0
  0
LINE
  5
1cb
  100
AcDbEntity
  8
1
  100
AcDbLine
  10
19.969
  20
2.777161
  30
0
  11
19.885
  21
2.833049
  31
0
  0
LINE
  5
1cc
  100
AcDbEntity
  8
1
  100
AcDbLine
  10
19.885
  20
2.833049
  30
0
  11
19.801
  21
2.888815
  31
0
  0
LINE
  5
1cd
  100
AcDbEntity
  8
1
  100
AcDbLine
  10
19.801
  20
2.888815
  30
0
  11
19.717
  21
2.944458
  31
0
  0
LINE
  5
1ce
  100
AcDbEntity
  8
1
  100
AcDbLine
  10
19.717
  20
2.944458
  30
0
  11
19.633
  21
2.999976
  31
0
  0
LINE
  5
1cf
  100
AcDbEntity
  8
1
  100
AcDbLine
  10
19.633
  20
2.999976
  30
0
  11
19.549
  21
3.055365
  31
0
  0
LINE
  5
1d0
  100
AcDbEntity
  8
1
  100
AcDbLine
  10
19.549
  20
3.055365
  30
0
  11
19.465
  21
3.110624
  31
0
  0
LINE
  5
1d1
  100
AcDbEntity
  8
1
  100
AcDbLine
  10
19.465
  20
3.110624
  30
0
  11
19.381
  21
3.16575
  31
0
  0
LINE
  5
1d2
  100
AcDbEntity
  8
1
  100
AcDbLine
  10
19.381
  20
3.16575
  30
0
  11
19.297
  21
3.22074
  31
0
  0
LINE
  5
1d3
  100
AcDbEntity
  8
1
  100
AcDbLine
  10
19.297
  20
3.22074
  30
0
  11
19.213
  21
3.275593
  31
0
  0
LINE
  5
1d4
  100
AcDbEntity
  8
1
  100
AcDbLine
  10
19.213
  20
3.275593
  30
0
  11
19.129
  21
3.330307
  31
0
  0
LINE
  5
1d5
  100
AcDbEntity
  8
1
  100
AcDbLine
  10
19.129
  20
3.330307
  30
0
  11
19.045
  21
3.384877
  31
0
  0
LINE
  5
1d6
  100
AcDbEntity
  8
1
  100
AcDbLine
  10
19.045
  20
3.384877
  30
0
  11
18.961
  21
3.439304
  31
0
  0
LINE
  5
1d7
  100
AcDbEntity
  8
1
  100
AcDbLine
  10
18.961
  20
3.439304
  30
0
  11
18.877
  21
3.493583
  31
0
  0
LINE
  5
1d8
  100
AcDbEntity
  8
1
  100
AcDbLine
  10
18.877
  20
3.493583
  30
0
  11
18.793
  21
3.547714
  31
0
  0
LINE
  5
1d9
  100
AcDbEntity
  8
1
  100
AcDbLine
  10
18.793
  20
3.547714
  30
0
  11
18.709
  21
3.601692
  31
0
  0
LINE
  5
1da
  100
AcDbEntity
  8
1
  100
AcDbLine
  10
18.709
  20
3.601692
  30
0
  11
18.625
  21
3.655517
  31
0
  0
LINE
  5
1db
  100
AcDbEntity
  8
1
  100
AcDbLine
  10
18.625
  20
3.655517
  30
0
  11
18.541
  21
3.709186
  31
0
  0
LINE
  5
1dc
  100
AcDbEntity
  8
1
  100
AcDbLine
  10
18.541
  20
3.709186
  30
0
  11
18.457
  21
3.762697
  31
0
  0
LINE
  5
1dd
  100
AcDbEntity
  8
1
  100
AcDbLine
  10
18.457
  20
3.762697
  30
0
  11
18.373
  21
3.816046
  31
0
  0
LINE
  5
1de
  100
AcDbEntity
  8
1
  100
AcDbLine
  10
18.373
  20
3.816046
  30
0
  11
18.289
  21
3.869233
  31
0
  0
LINE
  5
1df
  100
AcDbEntity
  8
1
  100
AcDbLine
  10
18.289
  20
3.869233
  30
0
  11
18.205
  21
3.922254
  31
0
  0
LINE
  5
1e0
  100
AcDbEntity
  8
1
  100
AcDbLine
  10
18.205
  20
3.922254
  30
0
  11
18.121
  21
3.975108
  31
0
  0
LINE
  5
1e1
  100
AcDbEntity
  8
1
  100
AcDbLine
  10
18.121
  20
3.975108
  30
0
  11
18.037
  21
4.027793
  31
0
  0
LINE
  5
1e2
  100
AcDbEntity
  8
1
  100
AcDbLine
  10
18.037
  20
4.027793
  30
0
  11
17.953
  21
4.080305
  31
0
  0
LINE
  5
1e3
  100
AcDbEntity
  8
1
  100
AcDbLine
  10
17.953
  20
4.080305
  30
0
  11
17.869
  21
4.132643
  31
0
  0
LINE
  5
1e4
  100
AcDbEntity
  8
1
  100
AcDbLine
  10
17.869
  20
4.132643
  30
0
  11
17.785
  21
4.184804
  31
0
  0
LINE
  5
1e5
  100
AcDbEntity
  8
1
  100
AcDbLine
  10
17.785
  20
4.184804
  30
0
  11
17.701
  21
4.236787
  31
0
  0
LINE
  5
1e6
  100
AcDbEntity
  8
1
  100
AcDbLine
  10
17.701
  20
4.236787
  30
0
  11
17.617
  21
4.288588
  31
0
  0
LINE
  5
1e7
  100
AcDbEntity
  8
1
  100
AcDbLine
  10
17.617
  20
4.288588
  30
0
  11
17.533
  21
4.340207
  31
0
  0
LINE
  5
1e8
  100
AcDbEntity
  8
1
  100
AcDbLine
  10
17.533
  20
4.340207
  30
0
  11
17.449
  21
4.39164
  31
0
  0
LINE
  5
1e9
  100
AcDbEntity
  8
1
  100
AcDbLine
  10
17.449
  20
4.39164
  30
0
  11
17.365
  21
4.442886
  31
0
  0
LINE
  5
1ea
  100
AcDbEntity
  8
1
  100
AcDbLine
  10
17.365
  20
4.442886
  30
0
  11
17.281
  21
4.493941
  31
0
  0
LINE
  5
1eb
  100
AcDbEntity
  8
1
  100
AcDbLine
  10
17.281
  20
4.493941
  30
0
  11
17.197
  21
4.544805
  31
0
  0
LINE
  5
1ec
  100
AcDbEntity
  8
1
  100
AcDbLine
  10
17.197
  20
4.544805
  30
0
  11
17.113
  21
4.595475
  31
0
  0
LINE
  5
1ed
  100
AcDbEntity
  8
1
  100
AcDbLine
  10
17.113
  20
4.595475
  30
0
  11
17.029
  21
4.645949
  31
0
  0
LINE
  5
1ee
  100
AcDbEntity
  8
1
  100
AcDbLine
  10
17.029
  20
4.645949
  30
0
  11
16.945
  21
4.696224
  31
0
  0
LINE
  5
1ef
  100
AcDbEntity
  8
1
  100
AcDbLine
  10
16.945
  20
4.696224
  30
0
  11
16.861
  21
4.746298
  31
0
  0
LINE
  5
1f0
  100
AcDbEntity
  8
1
  100
AcDbLine
  10
16.861
  20
4.746298
  30
0
  11
16.777
  21
4.79617
  31
0
  0
LINE
  5
1f1
  100
AcDbEntity
  8
1
  100
AcDbLine
  10
16.777
  20
4.79617
  30
0
  11
16.693
  21
4.845837
  31
0
  0
LINE
  5
1f2
  100
AcDbEntity
  8
1
  100
AcDbLine
  10
16.693
  20
4.845837
  30
0
  11
16.609
  21
4.895297
  31
0
  0
LINE
  5
1f3
  100
AcDbEntity
  8
1
  100
AcDbLine
  10
16.609
  20
4.895297
  30
0
  11
16.525
  21
4.944548
  31
0
  0
LINE
  5
1f4
  100
AcDbEntity
  8
1
  100
AcDbLine
  10
16.525
  20
4.944548
  30
0
  11
16.441
  21
4.993588
  31
0
  0
LINE
  5
1f5
  100
AcDbEntity
  8
1
  100
AcDbLine
  10
16.441
  20
4.993588
  30
0
  11
16.357
  21
5.042414
  31
0
  0
LINE
  5
1f6
  100
AcDbEntity
  8
1
  100
AcDbLine
  10
16.357
  20
5.042414
  30
0
  11
16.273
  21
5.091025
  31
0
  0
LINE
  5
1f7
  100
AcDbEntity
  8
1
  100
AcDbLine
  10
16.273
  20
5.091025
  30
0
  11
16.189
  21
5.139419
  31
0
  0
LINE
  5
1f8
  100
AcDbEntity
  8
1
  100
AcDbLine
  10
16.189
  20
5.139419
  30
0
  11
16.105
  21
5.187593
  31
0
  0
LINE
  5
1f9
  100
AcDbEntity
  8
1
  100
AcDbLine
  10
16.105
  20
5.187593
  30
0
  11
16.021
  21
5.235546
  31
0
  0
LINE
  5
1fa
  100
AcDbEntity
  8
1
  100
AcDbLine
  10
16.021
  20
5.235546
  30
0
  11
15.937
  21
5.283275
  31
0
  0
LINE
  5
1fb
  100
AcDbEntity
  8
1
  100
AcDbLine
  10
15.937
  20
5.283275
  30
0
  11
15.853
  21
5.330778
  31
0
  0
LINE
  5
1fc
  100
AcDbEntity
  8
1
  100
AcDbLine
  10
15.853
  20
5.330778
  30
0
  11
15.769
  21
5.378054
  31
0
  0
LINE
  5
1fd
  100
AcDbEntity
  8
1
  100
AcDbLine
  10
15.769
  20
5.378054
  30
0
  11
15.685
  21
5.4251
  31
0
  0
LINE
  5
1fe
  100
AcDbEntity
  8
1
  100
AcDbLine
  10
15.685
  20
5.4251
  30
0
  11
15.601
  21
5.471914
  31
0
  0
LINE
  5
1ff
  100
AcDbEntity
  8
1
  100
AcDbLine
  10
15.601
  20
5.471914
  30
0
  11
15.517
  21
5.518495
  31
0
  0
LINE
  5
200
  100
AcDbEntity
  8
1
  100
AcDbLine
  10
15.517
  20
5.518495
  30
0
  11
15.433
  21
5.56484
  31
0
  0
LINE
  5
201
  100
AcDbEntity
  8
1
  100
AcDbLine
  10
15.433
  20
5.56484
  30
0
  11
15.349
  21
5.610947
  31
0
  0
LINE
  5
202
  100
AcDbEntity
  8
1
  100
AcDbLine
  10
15.349
  20
5.610947
  30
0
  11
15.265
  21
5.656814
  31
0
  0
LINE
  5
203
  100
AcDbEntity
  8
1
  100
AcDbLine
  10
15.265
  20
5.656814
  30
0
  11
15.181
  21
5.70244
  31
0
  0
LINE
  5
204
  100
AcDbEntity
  8
1
  100
AcDbLine
  10
15.181
  20
5.70244
  30
0
  11
15.097
  21
5.747823
  31
0
  0
LINE
  5
205
  100
AcDbEntity
  8
1
  100
AcDbLine
  10
15.097
  20
5.747823
  30
0
  11
15.013
  21
5.79296
  31
0
  0
LINE
  5
206
  100
AcDbEntity
  8
1
  100
AcDbLine
  10
15.013
  20
5.79296
  30
0
  11
14.929
  21
5.837849
  31
0
  0
LINE
  5
207
  100
AcDbEntity
  8
1
  100
AcDbLine
  10
14.929
  20
5.837849
  30
0
  11
14.845
  21
5.882489
  31
0
  0
LINE
  5
208
  100
AcDbEntity
  8
1
  100
AcDbLine
  10
14.845
  20
5.882489
  30
0
  11
14.761
  21
5.926878
  31
0
  0
LINE
  5
209
  100
AcDbEntity
  8
1
  100
AcDbLine
  10
14.761
  20
5.926878
  30
0
  11
14.677
  21
5.971014
  31
0
  0
LINE
  5
20a
  100
AcDbEntity
  8
1
  100
AcDbLine
  10
14.677
  20
5.971014
  30
0
  11
14.593
  21
6.014895
  31
0
  0
LINE
  5
20b
  100
AcDbEntity
  8
1
  100
AcDbLine
  10
14.593
  20
6.014895
  30
0
  11
14.509
  21
6.058519
  31
0
  0
LINE
  5
20c
  100
AcDbEntity
  8
1
  100
AcDbLine
  10
14.509
  20
6.058519
  30
0
  11
14.425
  21
6.101884
  31
0
  0
LINE
  5
20d
  100
AcDbEntity
  8
1
  100
AcDbLine
  10
14.425
  20
6.101884
  30
0
  11
14.341
  21
6.144989
  31
0
  0
LINE
  5
20e
  100
AcDbEntity
  8
1
  100
AcDbLine
  10
14.341
  20
6.144989
  30
0
  11
14.257
  21
6.187831
  31
0
  0
LINE
  5
20f
  100
AcDbEntity
  8
1
  100
AcDbLine
  10
14.257
  20
6.187831
  30
0
  11
14.173
  21
6.230408
  31
0
  0
LINE
  5
210
  100
AcDbEntity
  8
1
  100
AcDbLine
  10
14.173
  20
6.230408
  30
0
  11
14.089
  21
6.27272
  31
0
  0
LINE
  5
211
  100
AcDbEntity
  8
1
  100
AcDbLine
  10
14.089
  20
6.27272
  30
0
  11
14.005
  21
6.314764
  31
0
  0
LINE
  5
212
  100
AcDbEntity
  8
1
  100
AcDbLine
  10
14.005
  20
6.314764
  30
0
  11
13.921
  21
6.356538
  31
0
  0
LINE
  5
213
  100
AcDbEntity
  8
1
  100
AcDbLine
  10
13.921
  20
6.356538
  30
0
  11
13.837
  21
6.398041
  31
0
  0
LINE
  5
214
  100
AcDbEntity
  8
1
  100
AcDbLine
  10
13.837
  20
6.398041
  30
0
  11
13.753
  21
6.43927
  31
0
  0
LINE
  5
215
  100
AcDbEntity
  8
1
  100
AcDbLine
  10
13.753
  20
6.43927
  30
0
  11
13.669
  21
6.480224
  31
0
  0
LINE
  5
216
  100
AcDbEntity
  8
1
  100
AcDbLine
  10
13.669
  20
6.480224
  30
0
  11
13.585
  21
6.520902
  31
0
  0
LINE
  5
217
  100
AcDbEntity
  8
1
  100
AcDbLine
  10
13.585
  20
6.520902
  30
0
  11
13.501
  21
6.561301
  31
0
  0
LINE
  5
218
  100
AcDbEntity
  8
1
  100
AcDbLine
  10
13.501
  20
6.561301
  30
0
  11
13.417
  21
6.60142
  31
0
  0
LINE
  5
219
  100
AcDbEntity
  8
1
  100
AcDbLine
  10
13.417
  20
6.60142
  30
0
  11
13.333
  21
6.641257
  31
0
  0
LINE
  5
21a
  100
AcDbEntity
  8
1
  100
AcDbLine
  10
13.333
  20
6.641257
  30
0
  11
13.249
  21
6.68081
  31
0
  0
LINE
  5
21b
  100
AcDbEntity
  8
1
  100
AcDbLine
  10
13.249
  20
6.68081
  30
0
  11
13.165
  21
6.720078
  31
0
  0
LINE
  5
21c
  100
AcDbEntity
  8
1
  100
AcDbLine
  10
13.165
  20
6.720078
  30
0
  11
13.081
  21
6.759059
  31
0
  0
LINE
  5
21d
  100
AcDbEntity
  8
1
  100
AcDbLine
  10
13.081
  20
6.759059
  30
0
  11
12.997
  21
6.797751
  31
0
  0
LINE
  5
21e
  100
AcDbEntity
  8
1
  100
AcDbLine
  10
12.997
  20
6.797751
  30
0
  11
12.913
  21
6.836153
  31
0
  0
LINE
  5
21f
  100
AcDbEntity
  8
1
  100
AcDbLine
  10
12.913
  20
6.836153
  30
0
  11
12.829
  21
6.874263
  31
0
  0
LINE
  5
220
  100
AcDbEntity
  8
1
  100
AcDbLine
  10
12.829
  20
6.874263
  30
0
  11
12.745
  21
6.912079
  31
0
  0
LINE
  5
221
  100
AcDbEntity
  8
1
  100
AcDbLine
  10
12.745
  20
6.912079
  30
0
  11
12.661
  21
6.9496
  31
0
  0
LINE
  5
222
  100
AcDbEntity
  8
1
  100
AcDbLine
  10
12.661
  20
6.9496
  30
0
  11
12.577
  21
6.986825
  31
0
  0
LINE
  5
223
  100
AcDbEntity
  8
1
  100
AcDbLine
  10
12.577
  20
6.986825
  30
0
  11
12.493
  21
7.023751
  31
0
  0
LINE
  5
224
  100
AcDbEntity
  8
1
  100
AcDbLine
  10
12.493
  20
7.023751
  30
0
  11
12.409
  21
7.060377
  31
0
  0
LINE
  5
225
  100
AcDbEntity
  8
1
  100
AcDbLine
  10
12.409
  20
7.060377
  30
0
  11
12.325
  21
7.096701
  31
0
  0
LINE
  5
226
  100
AcDbEntity
  8
1
  100
AcDbLine
  10
12.325
  20
7.096701
  30
0
  11
12.241
  21
7.132722
  31
0
  0
LINE
  5
227
  100
AcDbEntity
  8
1
  100
AcDbLine
  10
12.241
  20
7.132722
  30
0
  11
12.157
  21
7.168439
  31
0
  0
LINE
  5
228
  100
AcDbEntity
  8
1
  100
AcDbLine
  10
12.157
  20
7.168439
  30
0
  11
12.073
  21
7.203849
  31
0
  0
LINE
  5
229
  100
AcDbEntity
  8
1
  100
AcDbLine
  10
12.073
  20
7.203849
  30
0
  11
11.989
  21
7.238952
  31
0
  0
LINE
  5
22a
  100
AcDbEntity
  8
1
  100
AcDbLine
  10
11.989
  20
7.238952
  30
0
  11
11.905
  21
7.273746
  31
0
  0
LINE
  5
22b
  100
AcDbEntity
  8
1
  100
AcDbLine
  10
11.905
  20
7.273746
  30
0
  11
11.821
  21
7.308229
  31
0
  0
LINE
  5
22c
  100
AcDbEntity
  8
1
  100
AcDbLine
  10
11.821
  20
7.308229
  30
0
  11
11.737
  21
7.3424
  31
0
  0
LINE
  5
22d
  100
AcDbEntity
  8
1
  100
AcDbLine
  10
11.737
  20
7.3424
  30
0
  11
11.653
  21
7.376257
  31
0
  0
LINE
  5
22e
  100
AcDbEntity
  8
1
  100
AcDbLine
  10
11.653
  20
7.376257
  30
0
  11
11.569
  21
7.409799
  31
0
  0
LINE
  5
22f
  100
AcDbEntity
  8
1
  100
AcDbLine
  10
11.569
  20
7.409799
  30
0
  11
11.485
  21
7.443025
  31
0
  0
LINE
  5
230
  100
AcDbEntity
  8
1
  100
AcDbLine
  10
11.485
  20
7.443025
  30
0
  11
11.401
  21
7.475933
  31
0
  0
LINE
  5
231
  100
AcDbEntity
  8
1
  100
AcDbLine
  10
11.401
  20
7.475933
  30
0
  11
11.317
  21
7.508521
  31
0
  0
LINE
  5
232
  100
AcDbEntity
  8
1
  100
AcDbLine
  10
11.317
  20
7.508521
  30
0
  11
11.233
  21
7.540789
  31
0
  0
LINE
  5
233
  100
AcDbEntity
  8
1
  100
AcDbLine
  10
11.233
  20
7.540789
  30
0
  11
11.149
  21
7.572735
  31
0
  0
LINE
  5
234
  100
AcDbEntity
  8
1
  100
AcDbLine
  10
11.149
  20
7.572735
  30
0
  11
11.065
  21
7.604357
  31
0
  0
LINE
  5
235
  100
AcDbEntity
  8
1
  100
AcDbLine
  10
11.065
  20
7.604357
  30
0
  11
10.981
  21
7.635655
  31
0
  0
LINE
  5
236
  100
AcDbEntity
  8
1
  100
AcDbLine
  10
10.981
  20
7.635655
  30
0
  11
10.897
  21
7.666626
  31
0
  0
LINE
  5
237
  100
AcDbEntity
  8
1
  100
AcDbLine
  10
10.897
  20
7.666626
  30
0
  11
10.813
  21
7.69727
  31
0
  0
LINE
  5
238
  100
AcDbEntity
  8
1
  100
AcDbLine
  10
10.813
  20
7.69727
  30
0
  11
10.729
  21
7.727586
  31
0
  0
LINE
  5
239
  100
AcDbEntity
  8
1
  100
AcDbLine
  10
10.729
  20
7.727586
  30
0
  11
10.645
  21
7.757571
  31
0
  0
LINE
  5
23a
  100
AcDbEntity
  8
1
  100
AcDbLine
  10
10.645
  20
7.757571
  30
0
  11
10.561
  21
7.787225
  31
0
  0
LINE
  5
23b
  100
AcDbEntity
  8
1
  100
AcDbLine
  10
10.561
  20
7.787225
  30
0
  11
10.477
  21
7.816546
  31
0
  0
LINE
  5
23c
  100
AcDbEntity
  8
1
  100
AcDbLine
  10
10.477
  20
7.816546
  30
0
  11
10.393
  21
7.845534
  31
0
  0
LINE
  5
23d
  100
AcDbEntity
  8
1
  100
AcDbLine
  10
10.393
  20
7.845534
  30
0
  11
10.309
  21
7.874186
  31
0
  0
LINE
  5
23e
  100
AcDbEntity
  8
1
  100
AcDbLine
  10
10.309
  20
7.874186
  30
0
  11
10.225
  21
7.902502
  31
0
  0
LINE
  5
23f
  100
AcDbEntity
  8
1
  100
AcDbLine
  10
10.225
  20
7.902502
  30
0
  11
10.141
  21
7.930481
  31
0
  0
LINE
  5
240
  100
AcDbEntity
  8
1
  100
AcDbLine
  10
10.141
  20
7.930481
  30
0
  11
10.057
  21
7.958121
  31
0
  0
LINE
  5
241
  100
AcDbEntity
  8
1
  100
AcDbLine
  10
10.057
  20
7.958121
  30
0
  11
9.973
  21
7.985421
  31
0
  0
LINE
  5
242
  100
AcDbEntity
  8
1
  100
AcDbLine
  10
9.973
  20
7.985421
  30
0
  11
9.889
  21
8.01238
  31
0
  0
LINE
  5
243
  100
AcDbEntity
  8
1
  100
AcDbLine
  10
9.889
  20
8.01238
  30
0
  11
9.805
  21
8.038997
  31
0
  0
LINE
  5
244
  100
AcDbEntity
  8
1
  100
AcDbLine
  10
9.805
  20
8.038997
  30
0
  11
9.721
  21
8.06527
  31
0
  0
LINE
  5
245
  100
AcDbEntity
  8
1
  100
AcDbLine
  10
9.721
  20
8.06527
  30
0
  11
9.637
  21
8.091199
  31
0
  0
LINE
  5
246
  100
AcDbEntity
  8
1
  100
AcDbLine
  10
9.637
  20
8.091199
  30
0
  11
9.553
  21
8.116782
  31
0
  0
LINE
  5
247
  100
AcDbEntity
  8
1
  100
AcDbLine
  10
9.553
  20
8.116782
  30
0
  11
9.469
  21
8.142019
  31
0
  0
LINE
  5
248
  100
AcDbEntity
  8
1
  100
AcDbLine
  10
9.469
  20
8.142019
  30
0
  11
9.385
  21
8.166908
  31
0
  0
LINE
  5
249
  100
AcDbEntity
  8
1
  100
AcDbLine
  10
9.385
  20
8.166908
  30
0
  11
9.301
  21
8.191448
  31
0
  0
LINE
  5
24a
  100
AcDbEntity
  8
1
  100
AcDbLine
  10
9.301
  20
8.191448
  30
0
  11
9.217
  21
8.215638
  31
0
  0
LINE
  5
24b
  100
AcDbEntity
  8
1
  100
AcDbLine
  10
9.217
  20
8.215638
  30
0
  11
9.133
  21
8.239478
  31
0
  0
LINE
  5
24c
  100
AcDbEntity
  8
1
  100
AcDbLine
  10
9.133
  20
8.239478
  30
0
  11
9.049
  21
8.262965
  31
0
  0
LINE
  5
24d
  100
AcDbEntity
  8
1
  100
AcDbLine
  10
9.049
  20
8.262965
  30
0
  11
8.965
  21
8.2861
  31
0
  0
LINE
  5
24e
  100
AcDbEntity
  8
1
  100
AcDbLine
  10
8.965
  20
8.2861
  30
0
  11
8.881
  21
8.308881
  31
0
  0
LINE
  5
24f
  100
AcDbEntity
  8
1
  100
AcDbLine
  10
8.881
  20
8.308881
  30
0
  11
8.797
  21
8.331307
  31
0
  0
LINE
  5
250
  100
AcDbEntity
  8
1
  100
AcDbLine
  10
8.797
  20
8.331307
  30
0
  11
8.713
  21
8.353377
  31
0
  0
LINE
  5
251
  100
AcDbEntity
  8
1
  100
AcDbLine
  10
8.713
  20
8.353377
  30
0
  11
8.629
  21
8.37509
  31
0
  0
LINE
  5
252
  100
AcDbEntity
  8
1
  100
AcDbLine
  10
8.629
  20
8.37509
  30
0
  11
8.545
  21
8.396445
  31
0
  0
LINE
  5
253
  100
AcDbEntity
  8
1
  100
AcDbLine
  10
8.545
  20
8.396445
  30
0
  11
8.461
  21
8.417442
  31
0
  0
LINE
  5
254
  100
AcDbEntity
  8
1
  100
AcDbLine
  10
8.461
  20
8.417442
  30
0
  11
8.377
  21
8.43808
  31
0
  0
LINE
  5
255
  100
AcDbEntity
  8
1
  100
AcDbLine
  10
8.377
  20
8.43808
  30
0
  11
8.293
  21
8.458357
  31
0
  0
LINE
  5
256
  100
AcDbEntity
  8
1
  100
AcDbLine
  10
8.293
  20
8.458357
  30
0
  11
8.209
  21
8.478273
  31
0
  0
LINE
  5
257
  100
AcDbEntity
  8
1
  100
AcDbLine
  10
8.209
  20
8.478273
  30
0
  11
8.125
  21
8.497826
  31
0
  0
LINE
  5
258
  100
AcDbEntity
  8
1
  100
AcDbLine
  10
8.125
  20
8.497826
  30
0
  11
8.041
  21
8.517017
  31
0
  0
LINE
  5
259
  100
AcDbEntity
  8
1
  100
AcDbLine
  10
8.041
  20
8.517017
  30
0
  11
7.957
  21
8.535844
  31
0
  0
LINE
  5
25a
  100
AcDbEntity
  8
1
  100
AcDbLine
  10
7.957
  20
8.535844
  30
0
  11
7.873
  21
8.554306
  31
0
  0
LINE
  5
25b
  100
AcDbEntity
  8
1
  100
AcDbLine
  10
7.873
  20
8.554306
  30
0
  11
7.789
  21
8.572404
  31
0
  0
LINE
  5
25c
  100
AcDbEntity
  8
1
  100
AcDbLine
  10
7.789
  20
8.572404
  30
0
  11
7.705
  21
8.590135
  31
0
  0
LINE
  5
25d
  100
AcDbEntity
  8
1
  100
AcDbLine
  10
7.705
  20
8.590135
  30
0
  11
7.621
  21
8.607499
  31
0
  0
LINE
  5
25e
  100
AcDbEntity
  8
1
  100
AcDbLine
  10
7.621
  20
8.607499
  30
0
  11
7.537
  21
8.624495
  31
0
  0
LINE
  5
25f
  100
AcDbEntity
  8
1
  100
AcDbLine
  10
7.537
  20
8.624495
  30
0
  11
7.453
  21
8.641123
  31
0
  0
LINE
  5
260
  100
AcDbEntity
  8
1
  100
AcDbLine
  10
7.453
  20
8.641123
  30
0
  11
7.369
  21
8.657382
  31
0
  0
LINE
  5
261
  100
AcDbEntity
  8
1
  100
AcDbLine
  10
7.369
  20
8.657382
  30
0
  11
7.285
  21
8.673272
  31
0
  0
LINE
  5
262
  100
AcDbEntity
  8
1
  100
AcDbLine
  10
7.285
  20
8.673272
  30
0
  11
7.201
  21
8.68879
  31
0
  0
LINE
  5
263
  100
AcDbEntity
  8
1
  100
AcDbLine
  10
7.201
  20
8.68879
  30
0
  11
7.117
  21
8.703938
  31
0
  0
LINE
  5
264
  100
AcDbEntity
  8
1
  100
AcDbLine
  10
7.117
  20
8.703938
  30
0
  11
7.033
  21
8.718714
  31
0
  0
LINE
  5
265
  100
AcDbEntity
  8
1
  100
AcDbLine
  10
7.033
  20
8.718714
  30
0
  11
6.949
  21
8.733118
  31
0
  0
LINE
  5
266
  100
AcDbEntity
  8
1
  100
AcDbLine
  10
6.949
  20
8.733118
  30
0
  11
6.865
  21
8.747148
  31
0
  0
LINE
  5
267
  100
AcDbEntity
  8
1
  100
AcDbLine
  10
6.865
  20
8.747148
  30
0
  11
6.781
  21
8.760806
  31
0
  0
LINE
  5
268
  100
AcDbEntity
  8
1
  100
AcDbLine
  10
6.781
  20
8.760806
  30
0
  11
6.697
  21
8.774088
  31
0
  0
LINE
  5
269
  100
AcDbEntity
  8
1
  100
AcDbLine
  10
6.697
  20
8.774088
  30
0
  11
6.613
  21
8.786997
  31
0
  0
LINE
  5
26a
  100
AcDbEntity
  8
1
  100
AcDbLine
  10
6.613
  20
8.786997
  30
0
  11
6.529
  21
8.79953
  31
0
  0
LINE
  5
26b
  100
AcDbEntity
  8
1
  100
AcDbLine
  10
6.529
  20
8.79953
  30
0
  11
6.445
  21
8.811687
  31
0
  0
LINE
  5
26c
  100
AcDbEntity
  8
1
  100
AcDbLine
  10
6.445
  20
8.811687
  30
0
  11
6.361
  21
8.823467
  31
0
  0
LINE
  5
26d
  100
AcDbEntity
  8
1
  100
AcDbLine
  10
6.361
  20
8.823467
  30
0
  11
6.277
  21
8.834871
  31
0
  0
LINE
  5
26e
  100
AcDbEntity
  8
1
  100
AcDbLine
  10
6.277
  20
8.834871
  30
0
  11
6.193
  21
8.845898
  31
0
  0
LINE
  5
26f
  100
AcDbEntity
  8
1
  100
AcDbLine
  10
6.193
  20
8.845898
  30
0
  11
6.109
  21
8.856546
  31
0
  0
LINE
  5
270
  100
AcDbEntity
  8
1
  100
AcDbLine
  10
6.109
  20
8.856546
  30
0
  11
6.025
  21
8.866817
  31
0
  0
LINE
  5
271
  100
AcDbEntity
  8
1
  100
AcDbLine
  10
6.025
  20
8.866817
  30
0
  11
5.941
  21
8.876709
  31
0
  0
LINE
  5
272
  100
AcDbEntity
  8
1
  100
AcDbLine
  10
5.941
  20
8.876709
  30
0
  11
5.857
  21
8.886221
  31
0
  0
LINE
  5
273
  100
AcDbEntity
  8
1
  100
AcDbLine
  10
5.857
  20
8.886221
  30
0
  11
5.773
  21
8.895354
  31
0
  0
LINE
  5
274
  100
AcDbEntity
  8
1
  100
AcDbLine
  10
5.773
  20
8.895354
  30
0
  11
5.689
  21
8.904108
  31
0
  0
LINE
  5
275
  100
AcDbEntity
  8
1
  100
AcDbLine
  10
5.689
  20
8.904108
  30
0
  11
5.605
  21
8.912481
  31
0
  0
LINE
  5
276
  100
AcDbEntity
  8
1
  100
AcDbLine
  10
5.605
  20
8.912481
  30
0
  11
5.521
  21
8.920473
  31
0
  0
LINE
  5
277
  100
AcDbEntity
  8
1
  100
AcDbLine
  10
5.521
  20
8.920473
  30
0
  11
5.437
  21
8.928084
  31
0
  0
LINE
  5
278
  100
AcDbEntity
  8
1
  100
AcDbLine
  10
5.437
  20
8.928084
  30
0
  11
5.353
  21
8.935314
  31
0
  0
LINE
  5
279
  100
AcDbEntity
  8
1
  100
AcDbLine
  10
5.353
  20
8.935314
  30
0
  11
5.269
  21
8.942162
  31
0
  0
LINE
  5
27a
  100
AcDbEntity
  8
1
  100
AcDbLine
  10
5.269
  20
8.942162
  30
0
  11
5.185
  21
8.948629
  31
0
  0
LINE
  5
27b
  100
AcDbEntity
  8
1
  100
AcDbLine
  10
5.185
  20
8.948629
  30
0
  11
5.101
  21
8.954713
  31
0
  0
LINE
  5
27c
  100
AcDbEntity
  8
1
  100
AcDbLine
  10
5.101
  20
8.954713
  30
0
  11
5.017
  21
8.960415
  31
0
  0
LINE
  5
27d
  100
AcDbEntity
  8
1
  100
AcDbLine
  10
5.017
  20
8.960415
  30
0
  11
4.933
  21
8.965734
  31
0
  0
LINE
  5
27e
  100
AcDbEntity
  8
1
  100
AcDbLine
  10
4.933
  20
8.965734
  30
0
  11
4.849
  21
8.97067
  31
0
  0
LINE
  5
27f
  100
AcDbEntity
  8
1
  100
AcDbLine
  10
4.849
  20
8.97067
  30
0
  11
4.765
  21
8.975223
  31
0
  0
LINE
  5
280
  100
AcDbEntity
  8
1
  100
AcDbLine
  10
4.765
  20
8.975223
  30
0
  11
4.681
  21
8.979393
  31
0
  0
LINE
  5
281
  100
AcDbEntity
  8
1
  100
AcDbLine
  10
4.681
  20
8.979393
  30
0
  11
4.597
  21
8.983179
  31
0
  0
LINE
  5
282
  100
AcDbEntity
  8
1
  100
AcDbLine
  10
4.597
  20
8.983179
  30
0
  11
4.513
  21
8.986581
  31
0
  0
LINE
  5
283
  100
AcDbEntity
  8
1
  100
AcDbLine
  10
4.513
  20
8.986581
  30
0
  11
4.429
  21
8.9896
  31
0
  0
LINE
  5
284
  100
AcDbEntity
  8
1
  100
AcDbLine
  10
4.429
  20
8.9896
  30
0
  11
4.345
  21
8.992235
  31
0
  0
LINE
  5
285
  100
AcDbEntity
  8
1
  100
AcDbLine
  10
4.345
  20
8.992235
  30
0
  11
4.261
  21
8.994486
  31
0
  0
LINE
  5
286
  100
AcDbEntity
  8
1
  100
AcDbLine
  10
4.261
  20
8.994486
  30
0
  11
4.177
  21
8.996352
  31
0
  0
LINE
  5
287
  100
AcDbEntity
  8
1
  100
AcDbLine
  10
4.177
  20
8.996352
  30
0
  11
4.093
  21
8.997834
  31
0
  0
LINE
  5
288
  100
AcDbEntity
  8
1
  100
AcDbLine
  10
4.093
  20
8.997834
  30
0
  11
4.009
  21
8.998933
  31
0
  0
LINE
  5
289
  100
AcDbEntity
  8
1
  100
AcDbLine
  10
4.009
  20
8.998933
  30
0
  11
3.925
  21
8.999646
  31
0
  0
LINE
  5
28a
  100
AcDbEntity
  8
1
  100
AcDbLine
  10
3.925
  20
8.999646
  30
0
  11
3.841
  21
8.999976
  31
0
  0
LINE
  5
28b
  100
AcDbEntity
  8
1
  100
AcDbLine
  10
3.841
  20
8.999976
  30
0
  11
3.811033
  21
9
  31
0
  0
LINE
  5
28c
  100
AcDbEntity
  8
1
  100
AcDbLine
  10
3.811033
  20
-9
  30
0
  11
3.757
  21
-8.99992
  31
0
  0
LINE
  5
28d
  100
AcDbEntity
  8
1
  100
AcDbLine
  10
3.757
  20
-8.99992
  30
0
  11
3.673
  21
-8.999481
  31
0
  0
LINE
  5
28e
  100
AcDbEntity
  8
1
  100
AcDbLine
  10
3.673
  20
-8.999481
  30
0
  11
3.589
  21
-8.998657
  31
0
  0
LINE
  5
28f
  100
AcDbEntity
  8
1
  100
AcDbLine
  10
3.589
  20
-8.998657
  30
0
  11
3.505
  21
-8.997449
  31
0
  0
LINE
  5
290
  100
AcDbEntity
  8
1
  100
AcDbLine
  10
3.505
  20
-8.997449
  30
0
  11
3.421
  21
-8.995857
  31
0
  0
LINE
  5
291
  100
AcDbEntity
  8
1
  100
AcDbLine
  10
3.421
  20
-8.995857
  30
0
  11
3.337
  21
-8.99388
  31
0
  0
LINE
  5
292
  100
AcDbEntity
  8
1
  100
AcDbLine
  10
3.337
  20
-8.99388
  30
0
  11
3.253
  21
-8.991519
  31
0
  0
LINE
  5
293
  100
AcDbEntity
  8
1
  100
AcDbLine
  10
3.253
  20
-8.991519
  30
0
  11
3.169
  21
-8.988774
  31
0
  0
LINE
  5
294
  100
AcDbEntity
  8
1
  100
AcDbLine
  10
3.169
  20
-8.988774
  30
0
  11
3.085
  21
-8.985646
  31
0
  0
LINE
  5
295
  100
AcDbEntity
  8
1
  100
AcDbLine
  10
3.085
  20
-8.985646
  30
0
  11
3.001
  21
-8.982133
  31
0
  0
LINE
  5
296
  100
AcDbEntity
  8
1
  100
AcDbLine
  10
3.001
  20
-8.982133
  30
0
  11
2.917
  21
-8.978237
  31
0
  0
LINE
  5
297
  100
AcDbEntity
  8
1
  100
AcDbLine
  10
2.917
  20
-8.978237
  30
0
  11
2.833
  21
-8.973958
  31
0
  0
LINE
  5
298
  100
AcDbEntity
  8
1
  100
AcDbLine
  10
2.833
  20
-8.973958
  30
0
  11
2.749
  21
-8.969295
  31
0
  0
LINE
  5
299
  100
AcDbEntity
  8
1
  100
AcDbLine
  10
2.749
  20
-8.969295
  30
0
  11
2.665
  21
-8.964249
  31
0
  0
LINE
  5
29a
  100
AcDbEntity
  8
1
  100
AcDbLine
  10
2.665
  20
-8.964249
  30
0
  11
2.581
  21
-8.95882
  31
0
  0
LINE
  5
29b
  100
AcDbEntity
  8
1
  100
AcDbLine
  10
2.581
  20
-8.95882
  30
0
  11
2.497
  21
-8.953009
  31
0
  0
LINE
  5
29c
  100
AcDbEntity
  8
1
  100
AcDbLine
  10
2.497
  20
-8.953009
  30
0
  11
2.413
  21
-8.946815
  31
0
  0
LINE
  5
29d
  100
AcDbEntity
  8
1
  100
AcDbLine
  10
2.413
  20
-8.946815
  30
0
  11
2.329
  21
-8.940239
  31
0
  0
LINE
  5
29e
  100
AcDbEntity
  8
1
  100
AcDbLine
  10
2.329
  20
-8.940239
  30
0
  11
2.245
  21
-8.933282
  31
0
  0
LINE
  5
29f
  100
AcDbEntity
  8
1
  100
AcDbLine
  10
2.245
  20
-8.933282
  30
0
  11
2.161
  21
-8.925942
  31
0
  0
LINE
  5
2a0
  100
AcDbEntity
  8
1
  100
AcDbLine
  10
2.161
  20
-8.925942
  30
0
  11
2.077
  21
-8.918222
  31
0
  0
LINE
  5
2a1
  100
AcDbEntity
  8
1
  100
AcDbLine
  10
2.077
  20
-8.918222
  30
0
  11
1.993
  21
-8.910121
  31
0
  0
LINE
  5
2a2
  100
AcDbEntity
  8
1
  100
AcDbLine
  10
1.993
  20
-8.910121
  30
0
  11
1.909
  21
-8.901639
  31
0
  0
LINE
  5
2a3
  100
AcDbEntity
  8
1
  100
AcDbLine
  10
1.909
  20
-8.901639
  30
0
  11
1.825
  21
-8.892777
  31
0
  0
LINE
  5
2a4
  100
AcDbEntity
  8
1
  100
AcDbLine
  10
1.825
  20
-8.892777
  30
0
  11
1.741
  21
-8.883535
  31
0
  0
LINE
  5
2a5
  100
AcDbEntity
  8
1
  100
AcDbLine
  10
1.741
  20
-8.883535
  30
0
  11
1.657
  21
-8.873913
  31
0
  0
LINE
  5
2a6
  100
AcDbEntity
  8
1
  100
AcDbLine
  10
1.657
  20
-8.873913
  30
0
  11
1.573
  21
-8.863913
  31
0
  0
LINE
  5
2a7
  100
AcDbEntity
  8
1
  100
AcDbLine
  10
1.573
  20
-8.863913
  30
0
  11
1.489
  21
-8.853534
  31
0
  0
LINE
  5
2a8
  100
AcDbEntity
  8
1
  100
AcDbLine
  10
1.489
  20
-8.853534
  30
0
  11
1.405
  21
-8.842777
  31
0
  0
LINE
  5
2a9
  100
AcDbEntity
  8
1
  100
AcDbLine
  10
1.405
  20
-8.842777
  30
0
  11
1.321
  21
-8.831642
  31
0
  0
LINE
  5
2aa
  100
AcDbEntity
  8
1
  100
AcDbLine
  10
1.321
  20
-8.831642
  30
0
  11
1.237
  21
-8.820131
  31
0
  0
LINE
  5
2ab
  100
AcDbEntity
  8
1
  100
AcDbLine
  10
1.237
  20
-8.820131
  30
0
  11
1.153
  21
-8.808242
  31
0
  0
LINE
  5
2ac
  100
AcDbEntity
  8
1
  100
AcDbLine
  10
1.153
  20
-8.808242
  30
0
  11
1.069
  21
-8.795977
  31
0
  0
LINE
  5
2ad
  100
AcDbEntity
  8
1
  100
AcDbLine
  10
1.069
  20
-8.795977
  30
0
  11
0.985
  21
-8.783337
  31
0
  0
LINE
  5
2ae
  100
AcDbEntity
  8
1
  100
AcDbLine
  10
0.985
  20
-8.783337
  30
0
  11
0.901
  21
-8.770321
  31
0
  0
LINE
  5
2af
  100
AcDbEntity
  8
1
  100
AcDbLine
  10
0.901
  20
-8.770321
  30
0
  11
0.817
  21
-8.756931
  31
0
  0
LINE
  5
2b0
  100
AcDbEntity
  8
1
  100
AcDbLine
  10
0.817
  20
-8.756931
  30
0
  11
0.733
  21
-8.743167
  31
0
  0
LINE
  5
2b1
  100
AcDbEntity
  8
1
  100
AcDbLine
  10
0.733
  20
-8.743167
  30
0
  11
0.649
  21
-8.729029
  31
0
  0
LINE
  5
2b2
  100
AcDbEntity
  8
1
  100
AcDbLine
  10
0.649
  20
-8.729029
  30
0
  11
0.565
  21
-8.714519
  31
0
  0
LINE
  5
2b3
  100
AcDbEntity
  8
1
  100
AcDbLine
  10
0.565
  20
-8.714519
  30
0
  11
0.481
  21
-8.699636
  31
0
  0
LINE
  5
2b4
  100
AcDbEntity
  8
1
  100
AcDbLine
  10
0.481
  20
-8.699636
  30
0
  11
0.397
  21
-8.684382
  31
0
  0
LINE
  5
2b5
  100
AcDbEntity
  8
1
  100
AcDbLine
  10
0.397
  20
-8.684382
  30
0
  11
0.313
  21
-8.668757
  31
0
  0
LINE
  5
2b6
  100
AcDbEntity
  8
1
  100
AcDbLine
  10
0.313
  20
-8.668757
  30
0
  11
0.229
  21
-8.652762
  31
0
  0
LINE
  5
2b7
  100
AcDbEntity
  8
1
  100
AcDbLine
  10
0.229
  20
-8.652762
  30
0
  11
0.145
  21
-8.636397
  31
0
  0
LINE
  5
2b8
  100
AcDbEntity
  8
1
  100
AcDbLine
  10
0.145
  20
-8.636397
  30
0
  11
0.061
  21
-8.619663
  31
0
  0
LINE
  5
2b9
  100
AcDbEntity
  8
1
  100
AcDbLine
  10
7.849027
  20
-9
  30
0
  11
7.789
  21
-8.999902
  31
0
  0
LINE
  5
2ba
  100
AcDbEntity
  8
1
  100
AcDbLine
  10
7.789
  20
-8.999902
  30
0
  11
7.705
  21
-8.999435
  31
0
  0
LINE
  5
2bb
  100
AcDbEntity
  8
1
  100
AcDbLine
  10
7.705
  20
-8.999435
  30
0
  11
7.621
  21
-8.998584
  31
0
  0
LINE
  5
2bc
  100
AcDbEntity
  8
1
  100
AcDbLine
  10
7.621
  20
-8.998584
  30
0
  11
7.537
  21
-8.997348
  31
0
  0
LINE
  5
2bd
  100
AcDbEntity
  8
1
  100
AcDbLine
  10
7.537
  20
-8.997348
  30
0
  11
7.453
  21
-8.995728
  31
0
  0
LINE
  5
2be
  100
AcDbEntity
  8
1
  100
AcDbLine
  10
7.453
  20
-8.995728
  30
0
  11
7.369
  21
-8.993724
  31
0
  0
LINE
  5
2bf
  100
AcDbEntity
  8
1
  100
AcDbLine
  10
7.369
  20
-8.993724
  30
0
  11
7.285
  21
-8.991336
  31
0
  0
LINE
  5
2c0
  100
AcDbEntity
  8
1
  100
AcDbLine
  10
7.285
  20
-8.991336
  30
0
  11
7.201
  21
-8.988564
  31
0
  0
LINE
  5
2c1
  100
AcDbEntity
  8
1
  100
AcDbLine
  10
7.201
  20
-8.988564
  30
0
  11
7.117
  21
-8.985408
  31
0
  0
LINE
  5
2c2
  100
AcDbEntity
  8
1
  100
AcDbLine
  10
7.117
  20
-8.985408
  30
0
  11
7.033
  21
-8.981868
  31
0
  0
LINE
  5
2c3
  100
AcDbEntity
  8
1
  100
AcDbLine
  10
7.033
  20
-8.981868
  30
0
  11
6.949
  21
-8.977945
  31
0
  0
LINE
  5
2c4
  100
AcDbEntity
  8
1
  100
AcDbLine
  10
6.949
  20
-8.977945
  30
0
  11
6.865
  21
-8.973638
  31
0
  0
LINE
  5
2c5
  100
AcDbEntity
  8
1
  100
AcDbLine
  10
6.865
  20
-8.973638
  30
0
  11
6.781
  21
-8.968948
  31
0
  0
LINE
  5
2c6
  100
AcDbEntity
  8
1
  100
AcDbLine
  10
6.781
  20
-8.968948
  30
0
  11
6.697
  21
-8.963874
  31
0
  0
LINE
  5
2c7
  100
AcDbEntity
  8
1
  100
AcDbLine
  10
6.697
  20
-8.963874
  30
0
  11
6.613
  21
-8.958418
  31
0
  0
LINE
  5
2c8
  100
AcDbEntity
  8
1
  100
AcDbLine
  10
6.613
  20
-8.958418
  30
0
  11
6.529
  21
-8.95258
  31
0
  0
LINE
  5
2c9
  100
AcDbEntity
  8
1
  100
AcDbLine
  10
6.529
  20
-8.95258
  30
0
  11
6.445
  21
-8.946359
  31
0
  0
LINE
  5
2ca
  100
AcDbEntity
  8
1
  100
AcDbLine
  10
6.445
  20
-8.946359
  30
0
  11
6.361
  21
-8.939756
  31
0
  0
LINE
  5
2cb
  100
AcDbEntity
  8
1
  100
AcDbLine
  10
6.361
  20
-8.939756
  30
0
  11
6.277
  21
-8.932771
  31
0
  0
LINE
  5
2cc
  100
AcDbEntity
  8
1
  100
AcDbLine
  10
6.277
  20
-8.932771
  30
0
  11
6.193
  21
-8.925404
  31
0
  0
LINE
  5
2cd
  100
AcDbEntity
  8
1
  100
AcDbLine
  10
6.193
  20
-8.925404
  30
0
  11
6.109
  21
-8.917656
  31
0
  0
LINE
  5
2ce
  100
AcDbEntity
  8
1
  100
AcDbLine
  10
6.109
  20
-8.917656
  30
0
  11
6.025
  21
-8.909528
  31
0
  0
LINE
  5
2cf
  100
AcDbEntity
  8
1
  100
AcDbLine
  10
6.025
  20
-8.909528
  30
0
  11
5.941
  21
-8.901019
  31
0
  0
LINE
  5
2d0
  100
AcDbEntity
  8
1
  100
AcDbLine
  10
5.941
  20
-8.901019
  30
0
  11
5.857
  21
-8.89213
  31
0
  0
LINE
  5
2d1
  100
AcDbEntity
  8
1
  100
AcDbLine
  10
5.857
  20
-8.89213
  30
0
  11
5.773
  21
-8.882861
  31
0
  0
LINE
  5
2d2
  100
AcDbEntity
  8
1
  100
AcDbLine
  10
5.773
  20
-8.882861
  30
0
  11
5.689
  21
-8.873212
  31
0
  0
LINE
  5
2d3
  100
AcDbEntity
  8
1
  100
AcDbLine
  10
5.689
  20
-8.873212
  30
0
  11
5.605
  21
-8.863185
  31
0
  0
LINE
  5
2d4
  100
AcDbEntity
  8
1
  100
AcDbLine
  10
5.605
  20
-8.863185
  30
0
  11
5.521
  21
-8.852779
  31
0
  0
LINE
  5
2d5
  100
AcDbEntity
  8
1
  100
AcDbLine
  10
5.521
  20
-8.852779
  30
0
  11
5.437
  21
-8.841995
  31
0
  0
LINE
  5
2d6
  100
AcDbEntity
  8
1
  100
AcDbLine
  10
5.437
  20
-8.841995
  30
0
  11
5.353
  21
-8.830834
  31
0
  0
LINE
  5
2d7
  100
AcDbEntity
  8
1
  100
AcDbLine
  10
5.353
  20
-8.830834
  30
0
  11
5.269
  21
-8.819295
  31
0
  0
LINE
  5
2d8
  100
AcDbEntity
  8
1
  100
AcDbLine
  10
5.269
  20
-8.819295
  30
0
  11
5.185
  21
-8.807379
  31
0
  0
LINE
  5
2d9
  100
AcDbEntity
  8
1
  100
AcDbLine
  10
5.185
  20
-8.807379
  30
0
  11
5.101
  21
-8.795088
  31
0
  0
LINE
  5
2da
  100
AcDbEntity
  8
1
  100
AcDbLine
  10
5.101
  20
-8.795088
  30
0
  11
5.017
  21
-8.78242
  31
0
  0
LINE
  5
2db
  100
AcDbEntity
  8
1
  100
AcDbLine
  10
5.017
  20
-8.78242
  30
0
  11
4.933
  21
-8.769378
  31
0
  0
LINE
  5
2dc
  100
AcDbEntity
  8
1
  100
AcDbLine
  10
4.933
  20
-8.769378
  30
0
  11
4.849
  21
-8.755961
  31
0
  0
LINE
  5
2dd
  100
AcDbEntity
  8
1
  100
AcDbLine
  10
4.849
  20
-8.755961
  30
0
  11
4.765
  21
-8.74217
  31
0
  0
LINE
  5
2de
  100
AcDbEntity
  8
1
  100
AcDbLine
  10
4.765
  20
-8.74217
  30
0
  11
4.681
  21
-8.728006
  31
0
  0
LINE
  5
2df
  100
AcDbEntity
  8
1
  100
AcDbLine
  10
4.681
  20
-8.728006
  30
0
  11
4.597
  21
-8.713469
  31
0
  0
LINE
  5
2e0
  100
AcDbEntity
  8
1
  100
AcDbLine
  10
4.597
  20
-8.713469
  30
0
  11
4.513
  21
-8.69856
  31
0
  0
LINE
  5
2e1
  100
AcDbEntity
  8
1
  100
AcDbLine
  10
4.513
  20
-8.69856
  30
0
  11
4.429
  21
-8.683279
  31
0
  0
LINE
  5
2e2
  100
AcDbEntity
  8
1
  100
AcDbLine
  10
4.429
  20
-8.683279
  30
0
  11
4.345
  21
-8.667628
  31
0
  0
LINE
  5
2e3
  100
AcDbEntity
  8
1
  100
AcDbLine
  10
4.345
  20
-8.667628
  30
0
  11
4.261
  21
-8.651606
  31
0
  0
LINE
  5
2e4
  100
AcDbEntity
  8
1
  100
AcDbLine
  10
4.261
  20
-8.651606
  30
0
  11
4.177
  21
-8.635215
  31
0
  0
LINE
  5
2e5
  100
AcDbEntity
  8
1
  100
AcDbLine
  10
4.177
  20
-8.635215
  30
0
  11
4.093
  21
-8.618455
  31
0
  0
LINE
  5
2e6
  100
AcDbEntity
  8
1
  100
AcDbLine
  10
4.093
  20
-8.618455
  30
0
  11
4.009
  21
-8.601327
  31
0
  0
LINE
  5
2e7
  100
AcDbEntity
  8
1
  100
AcDbLine
  10
4.009
  20
-8.601327
  30
0
  11
3.925
  21
-8.583832
  31
0
  0
LINE
  5
2e8
  100
AcDbEntity
  8
1
  100
AcDbLine
  10
3.925
  20
-8.583832
  30
0
  11
3.841
  21
-8.565969
  31
0
  0
LINE
  5
2e9
  100
AcDbEntity
  8
1
  100
AcDbLine
  10
3.841
  20
-8.565969
  30
0
  11
3.757
  21
-8.547742
  31
0
  0
LINE
  5
2ea
  100
AcDbEntity
  8
1
  100
AcDbLine
  10
3.757
  20
-8.547742
  30
0
  11
3.673
  21
-8.529149
  31
0
  0
LINE
  5
2eb
  100
AcDbEntity
  8
1
  100
AcDbLine
  10
3.673
  20
-8.529149
  30
0
  11
3.589
  21
-8.510191
  31
0
  0
LINE
  5
2ec
  100
AcDbEntity
  8
1
  100
AcDbLine
  10
3.589
  20
-8.510191
  30
0
  11
3.505
  21
-8.490871
  31
0
  0
LINE
  5
2ed
  100
AcDbEntity
  8
1
  100
AcDbLine
  10
3.505
  20
-8.490871
  30
0
  11
3.421
  21
-8.471187
  31
0
  0
LINE
  5
2ee
  100
AcDbEntity
  8
1
  100
AcDbLine
  10
3.421
  20
-8.471187
  30
0
  11
3.337
  21
-8.451142
  31
0
  0
LINE
  5
2ef
  100
AcDbEntity
  8
1
  100
AcDbLine
  10
3.337
  20
-8.451142
  30
0
  11
3.253
  21
-8.430736
  31
0
  0
LINE
  5
2f0
  100
AcDbEntity
  8
1
  100
AcDbLine
  10
3.253
  20
-8.430736
  30
0
  11
3.169
  21
-8.40997
  31
0
  0
LINE
  5
2f1
  100
AcDbEntity
  8
1
  100
AcDbLine
  10
3.169
  20
-8.40997
  30
0
  11
3.085
  21
-8.388844
  31
0
  0
LINE
  5
2f2
  100
AcDbEntity
  8
1
  100
AcDbLine
  10
3.085
  20
-8.388844
  30
0
  11
3.001
  21
-8.367361
  31
0
  0
LINE
  5
2f3
  100
AcDbEntity
  8
1
  100
AcDbLine
  10
3.001
  20
-8.367361
  30
0
  11
2.917
  21
-8.34552
  31
0
  0
LINE
  5
2f4
  100
AcDbEntity
  8
1
  100
AcDbLine
  10
2.917
  20
-8.34552
  30
0
  11
2.833
  21
-8.323322
  31
0
  0
LINE
  5
2f5
  100
AcDbEntity
  8
1
  100
AcDbLine
  10
2.833
  20
-8.323322
  30
0
  11
2.749
  21
-8.300769
  31
0
  0
LINE
  5
2f6
  100
AcDbEntity
  8
1
  100
AcDbLine
  10
2.749
  20
-8.300769
  30
0
  11
2.665
  21
-8.277862
  31
0
  0
LINE
  5
2f7
  100
AcDbEntity
  8
1
  100
AcDbLine
  10
2.665
  20
-8.277862
  30
0
  11
2.581
  21
-8.254601
  31
0
  0
LINE
  5
2f8
  100
AcDbEntity
  8
1
  100
AcDbLine
  10
2.581
  20
-8.254601
  30
0
  11
2.497
  21
-8.230987
  31
0
  0
LINE
  5
2f9
  100
AcDbEntity
  8
1
  100
AcDbLine
  10
2.497
  20
-8.230987
  30
0
  11
2.413
  21
-8.207022
  31
0
  0
LINE
  5
2fa
  100
AcDbEntity
  8
1
  100
AcDbLine
  10
2.413
  20
-8.207022
  30
0
  11
2.329
  21
-8.182706
  31
0
  0
LINE
  5
2fb
  100
AcDbEntity
  8
1
  100
AcDbLine
  10
2.329
  20
-8.182706
  30
0
  11
2.245
  21
-8.158041
  31
0
  0
LINE
  5
2fc
  100
AcDbEntity
  8
1
  100
AcDbLine
  10
2.245
  20
-8.158041
  30
0
  11
2.161
  21
-8.133028
  31
0
  0
LINE
  5
2fd
  100
AcDbEntity
  8
1
  100
AcDbLine
  10
2.161
  20
-8.133028
  30
0
  11
2.077
  21
-8.107667
  31
0
  0
LINE
  5
2fe
  100
AcDbEntity
  8
1
  100
AcDbLine
  10
2.077
  20
-8.107667
  30
0
  11
1.993
  21
-8.08196
  31
0
  0
LINE
  5
2ff
  100
AcDbEntity
  8
1
  100
AcDbLine
  10
1.993
  20
-8.08196
  30
0
  11
1.909
  21
-8.055907
  31
0
  0
LINE
  5
300
  100
AcDbEntity
  8
1
  100
AcDbLine
  10
1.909
  20
-8.055907
  30
0
  11
1.825
  21
-8.029511
  31
0
  0
LINE
  5
301
  100
AcDbEntity
  8
1
  100
AcDbLine
  10
1.825
  20
-8.029511
  30
0
  11
1.741
  21
-8.002772
  31
0
  0
LINE
  5
302
  100
AcDbEntity
  8
1
  100
AcDbLine
  10
1.741
  20
-8.002772
  30
0
  11
1.657
  21
-7.975691
  31
0
  0
LINE
  5
303
  100
AcDbEntity
  8
1
  100
AcDbLine
  10
1.657
  20
-7.975691
  30
0
  11
1.573
  21
-7.948269
  31
0
  0
LINE
  5
304
  100
AcDbEntity
  8
1
  100
AcDbLine
  10
1.573
  20
-7.948269
  30
0
  11
1.489
  21
-7.920507
  31
0
  0
LINE
  5
305
  100
AcDbEntity
  8
1
  100
AcDbLine
  10
1.489
  20
-7.920507
  30
0
  11
1.405
  21
-7.892408
  31
0
  0
LINE
  5
306
  100
AcDbEntity
  8
1
  100
AcDbLine
  10
1.405
  20
-7.892408
  30
0
  11
1.321
  21
-7.863971
  31
0
  0
LINE
  5
307
  100
AcDbEntity
  8
1
  100
AcDbLine
  10
1.321
  20
-7.863971
  30
0
  11
1.237
  21
-7.835199
  31
0
  0
LINE
  5
308
  100
AcDbEntity
  8
1
  100
AcDbLine
  10
1.237
  20
-7.835199
  30
0
  11
1.153
  21
-7.806092
  31
0
  0
LINE
  5
309
  100
AcDbEntity
  8
1
  100
AcDbLine
  10
1.153
  20
-7.806092
  30
0
  11
1.069
  21
-7.776651
  31
0
  0
LINE
  5
30a
  100
AcDbEntity
  8
1
  100
AcDbLine
  10
1.069
  20
-7.776651
  30
0
  11
0.985
  21
-7.746879
  31
0
  0
LINE
  5
30b
  100
AcDbEntity
  8
1
  100
AcDbLine
  10
0.985
  20
-7.746879
  30
0
  11
0.901
  21
-7.716775
  31
0
  0
LINE
  5
30c
  100
AcDbEntity
  8
1
  100
AcDbLine
  10
0.901
  20
-7.716775
  30
0
  11
0.817
  21
-7.686342
  31
0
  0
LINE
  5
30d
  100
AcDbEntity
  8
1
  100
AcDbLine
  10
0.817
  20
-7.686342
  30
0
  11
0.733
  21
-7.655581
  31
0
  0
LINE
  5
30e
  100
AcDbEntity
  8
1
  100
AcDbLine
  10
0.733
  20
-7.655581
  30
0
  11
0.649
  21
-7.624492
  31
0
  0
LINE
  5
30f
  100
AcDbEntity
  8
1
  100
AcDbLine
  10
0.649
  20
-7.624492
  30
0
  11
0.565
  21
-7.593078
  31
0
  0
LINE
  5
310
  100
AcDbEntity
  8
1
  100
AcDbLine
  10
0.565
  20
-7.593078
  30
0
  11
0.481
  21
-7.56134
  31
0
  0
LINE
  5
311
  100
AcDbEntity
  8
1
  100
AcDbLine
  10
0.481
  20
-7.56134
  30
0
  11
0.397
  21
-7.529279
  31
0
  0
LINE
  5
312
  100
AcDbEntity
  8
1
  100
AcDbLine
  10
0.397
  20
-7.529279
  30
0
  11
0.313
  21
-7.496896
  31
0
  0
LINE
  5
313
  100
AcDbEntity
  8
1
  100
AcDbLine
  10
0.313
  20
-7.496896
  30
0
  11
0.229
  21
-7.464193
  31
0
  0
LINE
  5
314
  100
AcDbEntity
  8
1
  100
AcDbLine
  10
0.229
  20
-7.464193
  30
0
  11
0.145
  21
-7.431171
  31
0
  0
LINE
  5
315
  100
AcDbEntity
  8
1
  100
AcDbLine
  10
0.145
  20
-7.431171
  30
0
  11
0.061
  21
-7.397832
  31
0
  0
LINE
  5
316
  100
AcDbEntity
  8
1
  100
AcDbLine
  10
24.001
  20
-8.104186
  30
0
  11
23.917
  21
-8.181573
  31
0
  0
LINE
  5
317
  100
AcDbEntity
  8
1
  100
AcDbLine
  10
23.917
  20
-8.181573
  30
0
  11
23.833
  21
-8.258529
  31
0
  0
LINE
  5
318
  100
AcDbEntity
  8
1
  100
AcDbLine
  10
23.833
  20
-8.258529
  30
0
  11
23.749
  21
-8.335053
  31
0
  0
LINE
  5
319
  100
AcDbEntity
  8
1
  100
AcDbLine
  10
23.749
  20
-8.335053
  30
0
  11
23.665
  21
-8.411144
  31
0
  0
LINE
  5
31a
  100
AcDbEntity
  8
1
  100
AcDbLine
  10
23.665
  20
-8.411144
  30
0
  11
23.581
  21
-8.464078
  31
0
  0
LINE
  5
31b
  100
AcDbEntity
  8
1
  100
AcDbLine
  10
23.581
  20
-8.464078
  30
0
  11
23.497
  21
-8.443904
  31
0
  0
LINE
  5
31c
  100
AcDbEntity
  8
1
  100
AcDbLine
  10
23.497
  20
-8.443904
  30
0
  11
23.413
  21
-8.423369
  31
0
  0
LINE
  5
31d
  100
AcDbEntity
  8
1
  100
AcDbLine
  10
23.413
  20
-8.423369
  30
0
  11
23.329
  21
-8.402474
  31
0
  0
LINE
  5
31e
  100
AcDbEntity
  8
1
  100
AcDbLine
  10
23.329
  20
-8.402474
  30
0
  11
23.245
  21
-8.381221
  31
0
  0
LINE
  5
31f
  100
AcDbEntity
  8
1
  100
AcDbLine
  10
23.245
  20
-8.381221
  30
0
  11
23.161
  21
-8.35961
  31
0
  0
LINE
  5
320
  100
AcDbEntity
  8
1
  100
AcDbLine
  10
23.161
  20
-8.35961
  30
0
  11
23.077
  21
-8.337642
  31
0
  0
LINE
  5
321
  100
AcDbEntity
  8
1
  100
AcDbLine
  10
23.077
  20
-8.337642
  30
0
  11
22.993
  21
-8.315317
  31
0
  0
LINE
  5
322
  100
AcDbEntity
  8
1
  100
AcDbLine
  10
22.993
  20
-8.315317
  30
0
  11
22.909
  21
-8.292638
  31
0
  0
LINE
  5
323
  100
AcDbEntity
  8
1
  100
AcDbLine
  10
22.909
  20
-8.292638
  30
0
  11
22.825
  21
-8.269604
  31
0
  0
LINE
  5
324
  100
AcDbEntity
  8
1
  100
AcDbLine
  10
22.825
  20
-8.269604
  30
0
  11
22.741
  21
-8.246217
  31
0
  0
LINE
  5
325
  100
AcDbEntity
  8
1
  100
AcDbLine
  10
22.741
  20
-8.246217
  30
0
  11
22.657
  21
-8.222478
  31
0
  0
LINE
  5
326
  100
AcDbEntity
  8
1
  100
AcDbLine
  10
22.657
  20
-8.222478
  30
0
  11
22.573
  21
-8.198388
  31
0
  0
LINE
  5
327
  100
AcDbEntity
  8
1
  100
AcDbLine
  10
22.573
  20
-8.198388
  30
0
  11
22.489
  21
-8.173947
  31
0
  0
LINE
  5
328
  100
AcDbEntity
  8
1
  100
AcDbLine
  10
22.489
  20
-8.173947
  30
0
  11
22.405
  21
-8.149158
  31
0
  0
LINE
  5
329
  100
AcDbEntity
  8
1
  100
AcDbLine
  10
22.405
  20
-8.149158
  30
0
  11
22.321
  21
-8.12402
  31
0
  0
LINE
  5
32a
  100
AcDbEntity
  8
1
  100
AcDbLine
  10
22.321
  20
-8.12402
  30
0
  11
22.237
  21
-8.098536
  31
0
  0
LINE
  5
32b
  100
AcDbEntity
  8
1
  100
AcDbLine
  10
22.237
  20
-8.098536
  30
0
  11
22.153
  21
-8.072705
  31
0
  0
LINE
  5
32c
  100
AcDbEntity
  8
1
  100
AcDbLine
  10
22.153
  20
-8.072705
  30
0
  11
22.069
  21
-8.04653
  31
0
  0
LINE
  5
32d
  100
AcDbEntity
  8
1
  100
AcDbLine
  10
22.069
  20
-8.04653
  30
0
  11
21.985
  21
-8.020011
  31
0
  0
LINE
  5
32e
  100
AcDbEntity
  8
1
  100
AcDbLine
  10
21.985
  20
-8.020011
  30
0
  11
21.901
  21
-7.99315
  31
0
  0
LINE
  5
32f
  100
AcDbEntity
  8
1
  100
AcDbLine
  10
21.901
  20
-7.99315
  30
0
  11
21.817
  21
-7.965947
  31
0
  0
LINE
  5
330
  100
AcDbEntity
  8
1
  100
AcDbLine
  10
21.817
  20
-7.965947
  30
0
  11
21.733
  21
-7.938404
  31
0
  0
LINE
  5
331
  100
AcDbEntity
  8
1
  100
AcDbLine
  10
21.733
  20
-7.938404
  30
0
  11
21.649
  21
-7.910522
  31
0
  0
LINE
  5
332
  100
AcDbEntity
  8
1
  100
AcDbLine
  10
21.649
  20
-7.910522
  30
0
  11
21.565
  21
-7.882302
  31
0
  0
LINE
  5
333
  100
AcDbEntity
  8
1
  100
AcDbLine
  10
21.565
  20
-7.882302
  30
0
  11
21.481
  21
-7.853745
  31
0
  0
LINE
  5
334
  100
AcDbEntity
  8
1
  100
AcDbLine
  10
21.481
  20
-7.853745
  30
0
  11
21.397
  21
-7.824853
  31
0
  0
LINE
  5
335
  100
AcDbEntity
  8
1
  100
AcDbLine
  10
21.397
  20
-7.824853
  30
0
  11
21.313
  21
-7.795627
  31
0
  0
LINE
  5
336
  100
AcDbEntity
  8
1
  100
AcDbLine
  10
21.313
  20
-7.795627
  30
0
  11
21.229
  21
-7.766068
  31
0
  0
LINE
  5
337
  100
AcDbEntity
  8
1
  100
AcDbLine
  10
21.229
  20
-7.766068
  30
0
  11
21.145
  21
-7.736177
  31
0
  0
LINE
  5
338
  100
AcDbEntity
  8
1
  100
AcDbLine
  10
21.145
  20
-7.736177
  30
0
  11
21.061
  21
-7.705956
  31
0
  0
LINE
  5
339
  100
AcDbEntity
  8
1
  100
AcDbLine
  10
21.061
  20
-7.705956
  30
0
  11
20.977
  21
-7.675406
  31
0
  0
LINE
  5
33a
  100
AcDbEntity
  8
1
  100
AcDbLine
  10
20.977
  20
-7.675406
  30
0
  11
20.893
  21
-7.644527
  31
0
  0
LINE
  5
33b
  100
AcDbEntity
  8
1
  100
AcDbLine
  10
20.893
  20
-7.644527
  30
0
  11
20.809
  21
-7.613323
  31
0
  0
LINE
  5
33c
  100
AcDbEntity
  8
1
  100
AcDbLine
  10
20.809
  20
-7.613323
  30
0
  11
20.725
  21
-7.581793
  31
0
  0
LINE
  5
33d
  100
AcDbEntity
  8
1
  100
AcDbLine
  10
20.725
  20
-7.581793
  30
0
  11
20.641
  21
-7.549939
  31
0
  0
LINE
  5
33e
  100
AcDbEntity
  8
1
  100
AcDbLine
  10
20.641
  20
-7.549939
  30
0
  11
20.557
  21
-7.517763
  31
0
  0
LINE
  5
33f
  100
AcDbEntity
  8
1
  100
AcDbLine
  10
20.557
  20
-7.517763
  30
0
  11
20.473
  21
-7.485266
  31
0
  0
LINE
  5
340
  100
AcDbEntity
  8
1
  100
AcDbLine
  10
20.473
  20
-7.485266
  30
0
  11
20.389
  21
-7.452449
  31
0
  0
LINE
  5
341
  100
AcDbEntity
  8
1
  100
AcDbLine
  10
20.389
  20
-7.452449
  30
0
  11
20.305
  21
-7.419314
  31
0
  0
LINE
  5
342
  100
AcDbEntity
  8
1
  100
AcDbLine
  10
20.305
  20
-7.419314
  30
0
  11
20.221
  21
-7.385862
  31
0
  0
LINE
  5
343
  100
AcDbEntity
  8
1
  100
AcDbLine
  10
20.221
  20
-7.385862
  30
0
  11
20.137
  21
-7.352094
  31
0
  0
LINE
  5
344
  100
AcDbEntity
  8
1
  100
AcDbLine
  10
20.137
  20
-7.352094
  30
0
  11
20.053
  21
-7.318013
  31
0
  0
LINE
  5
345
  100
AcDbEntity
  8
1
  100
AcDbLine
  10
20.053
  20
-7.318013
  30
0
  11
19.969
  21
-7.283619
  31
0
  0
LINE
  5
346
  100
AcDbEntity
  8
1
  100
AcDbLine
  10
19.969
  20
-7.283619
  30
0
  11
19.885
  21
-7.248914
  31
0
  0
LINE
  5
347
  100
AcDbEntity
  8
1
  100
AcDbLine
  10
19.885
  20
-7.248914
  30
0
  11
19.801
  21
-7.213899
  31
0
  0
LINE
  5
348
  100
AcDbEntity
  8
1
  100
AcDbLine
  10
19.801
  20
-7.213899
  30
0
  11
19.717
  21
-7.178576
  31
0
  0
LINE
  5
349
  100
AcDbEntity
  8
1
  100
AcDbLine
  10
19.717
  20
-7.178576
  30
0
  11
19.633
  21
-7.142947
  31
0
  0
LINE
  5
34a
  100
AcDbEntity
  8
1
  100
AcDbLine
  10
19.633
  20
-7.142947
  30
0
  11
19.549
  21
-7.107012
  31
0
  0
LINE
  5
34b
  100
AcDbEntity
  8
1
  100
AcDbLine
  10
19.549
  20
-7.107012
  30
0
  11
19.465
  21
-7.070774
  31
0
  0
LINE
  5
34c
  100
AcDbEntity
  8
1
  100
AcDbLine
  10
19.465
  20
-7.070774
  30
0
  11
19.381
  21
-7.034234
  31
0
  0
LINE
  5
34d
  100
AcDbEntity
  8
1
  100
AcDbLine
  10
19.381
  20
-7.034234
  30
0
  11
19.297
  21
-6.997394
  31
0
  0
LINE
  5
34e
  100
AcDbEntity
  8
1
  100
AcDbLine
  10
19.297
  20
-6.997394
  30
0
  11
19.213
  21
-6.960254
  31
0
  0
LINE
  5
34f
  100
AcDbEntity
  8
1
  100
AcDbLine
  10
19.213
  20
-6.960254
  30
0
  11
19.129
  21
-6.922818
  31
0
  0
LINE
  5
350
  100
AcDbEntity
  8
1
  100
AcDbLine
  10
19.129
  20
-6.922818
  30
0
  11
19.045
  21
-6.885086
  31
0
  0
LINE
  5
351
  100
AcDbEntity
  8
1
  100
AcDbLine
  10
19.045
  20
-6.885086
  30
0
  11
18.961
  21
-6.847059
  31
0
  0
LINE
  5
352
  100
AcDbEntity
  8
1
  100
AcDbLine
  10
18.961
  20
-6.847059
  30
0
  11
18.877
  21
-6.808741
  31
0
  0
LINE
  5
353
  100
AcDbEntity
  8
1
  100
AcDbLine
  10
18.877
  20
-6.808741
  30
0
  11
18.793
  21
-6.770131
  31
0
  0
LINE
  5
354
  100
AcDbEntity
  8
1
  100
AcDbLine
  10
18.793
  20
-6.770131
  30
0
  11
18.709
  21
-6.731232
  31
0
  0
LINE
  5
355
  100
AcDbEntity
  8
1
  100
AcDbLine
  10
18.709
  20
-6.731232
  30
0
  11
18.625
  21
-6.692046
  31
0
  0
LINE
  5
356
  100
AcDbEntity
  8
1
  100
AcDbLine
  10
18.625
  20
-6.692046
  30
0
  11
18.541
  21
-6.652574
  31
0
  0
LINE
  5
357
  100
AcDbEntity
  8
1
  100
AcDbLine
  10
18.541
  20
-6.652574
  30
0
  11
18.457
  21
-6.612818
  31
0
  0
LINE
  5
358
  100
AcDbEntity
  8
1
  100
AcDbLine
  10
18.457
  20
-6.612818
  30
0
  11
18.373
  21
-6.57278
  31
0
  0
LINE
  5
359
  100
AcDbEntity
  8
1
  100
AcDbLine
  10
18.373
  20
-6.57278
  30
0
  11
18.289
  21
-6.53246
  31
0
  0
LINE
  5
35a
  100
AcDbEntity
  8
1
  100
AcDbLine
  10
18.289
  20
-6.53246
  30
0
  11
18.205
  21
-6.491862
  31
0
  0
LINE
  5
35b
  100
AcDbEntity
  8
1
  100
AcDbLine
  10
18.205
  20
-6.491862
  30
0
  11
18.121
  21
-6.450987
  31
0
  0
LINE
  5
35c
  100
AcDbEntity
  8
1
  100
AcDbLine
  10
18.121
  20
-6.450987
  30
0
  11
18.037
  21
-6.409835
  31
0
  0
LINE
  5
35d
  100
AcDbEntity
  8
1
  100
AcDbLine
  10
18.037
  20
-6.409835
  30
0
  11
17.953
  21
-6.368411
  31
0
  0
LINE
  5
35e
  100
AcDbEntity
  8
1
  100
AcDbLine
  10
17.953
  20
-6.368411
  30
0
  11
17.869
  21
-6.326714
  31
0
  0
LINE
  5
35f
  100
AcDbEntity
  8
1
  100
AcDbLine
  10
17.869
  20
-6.326714
  30
0
  11
17.785
  21
-6.284747
  31
0
  0
LINE
  5
360
  100
AcDbEntity
  8
1
  100
AcDbLine
  10
17.785
  20
-6.284747
  30
0
  11
17.701
  21
-6.242511
  31
0
  0
LINE
  5
361
  100
AcDbEntity
  8
1
  100
AcDbLine
  10
17.701
  20
-6.242511
  30
0
  11
17.617
  21
-6.200009
  31
0
  0
LINE
  5
362
  100
AcDbEntity
  8
1
  100
AcDbLine
  10
17.617
  20
-6.200009
  30
0
  11
17.533
  21
-6.157242
  31
0
  0
LINE
  5
363
  100
AcDbEntity
  8
1
  100
AcDbLine
  10
17.533
  20
-6.157242
  30
0
  11
17.449
  21
-6.114213
  31
0
  0
LINE
  5
364
  100
AcDbEntity
  8
1
  100
AcDbLine
  10
17.449
  20
-6.114213
  30
0
  11
17.365
  21
-6.070922
  31
0
  0
LINE
  5
365
  100
AcDbEntity
  8
1
  100
AcDbLine
  10
17.365
  20
-6.070922
  30
0
  11
17.281
  21
-6.027371
  31
0
  0
LINE
  5
366
  100
AcDbEntity
  8
1
  100
AcDbLine
  10
17.281
  20
-6.027371
  30
0
  11
17.197
  21
-5.983564
  31
0
  0
LINE
  5
367
  100
AcDbEntity
  8
1
  100
AcDbLine
  10
17.197
  20
-5.983564
  30
0
  11
17.113
  21
-5.939501
  31
0
  0
LINE
  5
368
  100
AcDbEntity
  8
1
  100
AcDbLine
  10
17.113
  20
-5.939501
  30
0
  11
17.029
  21
-5.895184
  31
0
  0
LINE
  5
369
  100
AcDbEntity
  8
1
  100
AcDbLine
  10
17.029
  20
-5.895184
  30
0
  11
16.945
  21
-5.850615
  31
0
  0
LINE
  5
36a
  100
AcDbEntity
  8
1
  100
AcDbLine
  10
16.945
  20
-5.850615
  30
0
  11
16.861
  21
-5.805796
  31
0
  0
LINE
  5
36b
  100
AcDbEntity
  8
1
  100
AcDbLine
  10
16.861
  20
-5.805796
  30
0
  11
16.777
  21
-5.76073
  31
0
  0
LINE
  5
36c
  100
AcDbEntity
  8
1
  100
AcDbLine
  10
16.777
  20
-5.76073
  30
0
  11
16.693
  21
-5.715417
  31
0
  0
LINE
  5
36d
  100
AcDbEntity
  8
1
  100
AcDbLine
  10
16.693
  20
-5.715417
  30
0
  11
16.609
  21
-5.669861
  31
0
  0
LINE
  5
36e
  100
AcDbEntity
  8
1
  100
AcDbLine
  10
16.609
  20
-5.669861
  30
0
  11
16.525
  21
-5.624062
  31
0
  0
LINE
  5
36f
  100
AcDbEntity
  8
1
  100
AcDbLine
  10
16.525
  20
-5.624062
  30
0
  11
16.441
  21
-5.578023
  31
0
  0
LINE
  5
370
  100
AcDbEntity
  8
1
  100
AcDbLine
  10
16.441
  20
-5.578023
  30
0
  11
16.357
  21
-5.531746
  31
0
  0
LINE
  5
371
  100
AcDbEntity
  8
1
  100
AcDbLine
  10
16.357
  20
-5.531746
  30
0
  11
16.273
  21
-5.485232
  31
0
  0
LINE
  5
372
  100
AcDbEntity
  8
1
  100
AcDbLine
  10
16.273
  20
-5.485232
  30
0
  11
16.189
  21
-5.438484
  31
0
  0
LINE
  5
373
  100
AcDbEntity
  8
1
  100
AcDbLine
  10
16.189
  20
-5.438484
  30
0
  11
16.105
  21
-5.391504
  31
0
  0
LINE
  5
374
  100
AcDbEntity
  8
1
  100
AcDbLine
  10
16.105
  20
-5.391504
  30
0
  11
16.021
  21
-5.344294
  31
0
  0
LINE
  5
375
  100
AcDbEntity
  8
1
  100
AcDbLine
  10
16.021
  20
-5.344294
  30
0
  11
15.937
  21
-5.296855
  31
0
  0
LINE
  5
376
  100
AcDbEntity
  8
1
  100
AcDbLine
  10
15.937
  20
-5.296855
  30
0
  11
15.853
  21
-5.24919
  31
0
  0
LINE
  5
377
  100
AcDbEntity
  8
1
  100
AcDbLine
  10
15.853
  20
-5.24919
  30
0
  11
15.769
  21
-5.201301
  31
0
  0
LINE
  5
378
  100
AcDbEntity
  8
1
  100
AcDbLine
  10
15.769
  20
-5.201301
  30
0
  11
15.685
  21
-5.15319
  31
0
  0
LINE
  5
379
  100
AcDbEntity
  8
1
  100
AcDbLine
  10
15.685
  20
-5.15319
  30
0
  11
15.601
  21
-5.104859
  31
0
  0
LINE
  5
37a
  100
AcDbEntity
  8
1
  100
AcDbLine
  10
15.601
  20
-5.104859
  30
0
  11
15.517
  21
-5.05631
  31
0
  0
LINE
  5
37b
  100
AcDbEntity
  8
1
  100
AcDbLine
  10
15.517
  20
-5.05631
  30
0
  11
15.433
  21
-5.007544
  31
0
  0
LINE
  5
37c
  100
AcDbEntity
  8
1
  100
AcDbLine
  10
15.433
  20
-5.007544
  30
0
  11
15.349
  21
-4.958565
  31
0
  0
LINE
  5
37d
  100
AcDbEntity
  8
1
  100
AcDbLine
  10
15.349
  20
-4.958565
  30
0
  11
15.265
  21
-4.909375
  31
0
  0
LINE
  5
37e
  100
AcDbEntity
  8
1
  100
AcDbLine
  10
15.265
  20
-4.909375
  30
0
  11
15.181
  21
-4.859974
  31
0
  0
LINE
  5
37f
  100
AcDbEntity
  8
1
  100
AcDbLine
  10
15.181
  20
-4.859974
  30
0
  11
15.097
  21
-4.810366
  31
0
  0
LINE
  5
380
  100
AcDbEntity
  8
1
  100
AcDbLine
  10
15.097
  20
-4.810366
  30
0
  11
15.013
  21
-4.760552
  31
0
  0
LINE
  5
381
  100
AcDbEntity
  8
1
  100
AcDbLine
  10
15.013
  20
-4.760552
  30
0
  11
14.929
  21
-4.710535
  31
0
  0
LINE
  5
382
  100
AcDbEntity
  8
1
  100
AcDbLine
  10
14.929
  20
-4.710535
  30
0
  11
14.845
  21
-4.660317
  31
0
  0
LINE
  5
383
  100
AcDbEntity
  8
1
  100
AcDbLine
  10
14.845
  20
-4.660317
  30
0
  11
14.761
  21
-4.6099
  31
0
  0
LINE
  5
384
  100
AcDbEntity
  8
1
  100
AcDbLine
  10
14.761
  20
-4.6099
  30
0
  11
14.677
  21
-4.559286
  31
0
  0
LINE
  5
385
  100
AcDbEntity
  8
1
  100
AcDbLine
  10
14.677
  20
-4.559286
  30
0
  11
14.593
  21
-4.508478
  31
0
  0
LINE
  5
386
  100
AcDbEntity
  8
1
  100
AcDbLine
  10
14.593
  20
-4.508478
  30
0
  11
14.509
  21
-4.457476
  31
0
  0
LINE
  5
387
  100
AcDbEntity
  8
1
  100
AcDbLine
  10
14.509
  20
-4.457476
  30
0
  11
14.425
  21
-4.406285
  31
0
  0
LINE
  5
388
  100
AcDbEntity
  8
1
  100
AcDbLine
  10
14.425
  20
-4.406285
  30
0
  11
14.341
  21
-4.354905
  31
0
  0
LINE
  5
389
  100
AcDbEntity
  8
1
  100
AcDbLine
  10
14.341
  20
-4.354905
  30
0
  11
14.257
  21
-4.303339
  31
0
  0
LINE
  5
38a
  100
AcDbEntity
  8
1
  100
AcDbLine
  10
14.257
  20
-4.303339
  30
0
  11
14.173
  21
-4.251589
  31
0
  0
LINE
  5
38b
  100
AcDbEntity
  8
1
  100
AcDbLine
  10
14.173
  20
-4.251589
  30
0
  11
14.089
  21
-4.199658
  31
0
  0
LINE
  5
38c
  100
AcDbEntity
  8
1
  100
AcDbLine
  10
14.089
  20
-4.199658
  30
0
  11
14.005
  21
-4.147547
  31
0
  0
LINE
  5
38d
  100
AcDbEntity
  8
1
  100
AcDbLine
  10
14.005
  20
-4.147547
  30
0
  11
13.921
  21
-4.09526
  31
0
  0
LINE
  5
38e
  100
AcDbEntity
  8
1
  100
AcDbLine
  10
13.921
  20
-4.09526
  30
0
  11
13.837
  21
-4.042797
  31
0
  0
LINE
  5
38f
  100
AcDbEntity
  8
1
  100
AcDbLine
  10
13.837
  20
-4.042797
  30
0
  11
13.753
  21
-3.990162
  31
0
  0
LINE
  5
390
  100
AcDbEntity
  8
1
  100
AcDbLine
  10
13.753
  20
-3.990162
  30
0
  11
13.669
  21
-3.937356
  31
0
  0
LINE
  5
391
  100
AcDbEntity
  8
1
  100
AcDbLine
  10
13.669
  20
-3.937356
  30
0
  11
13.585
  21
-3.884382
  31
0
  0
LINE
  5
392
  100
AcDbEntity
  8
1
  100
AcDbLine
  10
13.585
  20
-3.884382
  30
0
  11
13.501
  21
-3.831242
  31
0
  0
LINE
  5
393
  100
AcDbEntity
  8
1
  100
AcDbLine
  10
13.501
  20
-3.831242
  30
0
  11
13.417
  21
-3.777939
  31
0
  0
LINE
  5
394
  100
AcDbEntity
  8
1
  100
AcDbLine
  10
13.417
  20
-3.777939
  30
0
  11
13.333
  21
-3.724474
  31
0
  0
LINE
  5
395
  100
AcDbEntity
  8
1
  100
AcDbLine
  10
13.333
  20
-3.724474
  30
0
  11
13.249
  21
-3.67085
  31
0
  0
LINE
  5
396
  100
AcDbEntity
  8
1
  100
AcDbLine
  10
13.249
  20
-3.67085
  30
0
  11
13.165
  21
-3.61707
  31
0
  0
LINE
  5
397
  100
AcDbEntity
  8
1
  100
AcDbLine
  10
13.165
  20
-3.61707
  30
0
  11
13.081
  21
-3.563135
  31
0
  0
LINE
  5
398
  100
AcDbEntity
  8
1
  100
AcDbLine
  10
13.081
  20
-3.563135
  30
0
  11
12.997
  21
-3.509047
  31
0
  0
LINE
  5
399
  100
AcDbEntity
  8
1
  100
AcDbLine
  10
12.997
  20
-3.509047
  30
0
  11
12.913
  21
-3.45481
  31
0
  0
LINE
  5
39a
  100
AcDbEntity
  8
1
  100
AcDbLine
  10
12.913
  20
-3.45481
  30
0
  11
12.829
  21
-3.400426
  31
0
  0
LINE
  5
39b
  100
AcDbEntity
  8
1
  100
AcDbLine
  10
12.829
  20
-3.400426
  30
0
  11
12.745
  21
-3.345896
  31
0
  0
LINE
  5
39c
  100
AcDbEntity
  8
1
  100
AcDbLine
  10
12.745
  20
-3.345896
  30
0
  11
12.661
  21
-3.291223
  31
0
  0
LINE
  5
39d
  100
AcDbEntity
  8
1
  100
AcDbLine
  10
12.661
  20
-3.291223
  30
0
  11
12.577
  21
-3.236409
  31
0
  0
LINE
  5
39e
  100
AcDbEntity
  8
1
  100
AcDbLine
  10
12.577
  20
-3.236409
  30
0
  11
12.493
  21
-3.181458
  31
0
  0
LINE
  5
39f
  100
AcDbEntity
  8
1
  100
AcDbLine
  10
12.493
  20
-3.181458
  30
0
  11
12.409
  21
-3.12637
  31
0
  0
LINE
  5
3a0
  100
AcDbEntity
  8
1
  100
AcDbLine
  10
12.409
  20
-3.12637
  30
0
  11
12.325
  21
-3.071149
  31
0
  0
LINE
  5
3a1
  100
AcDbEntity
  8
1
  100
AcDbLine
  10
12.325
  20
-3.071149
  30
0
  11
12.241
  21
-3.015797
  31
0
  0
LINE
  5
3a2
  100
AcDbEntity
  8
1
  100
AcDbLine
  10
12.241
  20
-3.015797
  30
0
  11
12.157
  21
-2.960316
  31
0
  0
LINE
  5
3a3
  100
AcDbEntity
  8
1
  100
AcDbLine
  10
12.157
  20
-2.960316
  30
0
  11
12.073
  21
-2.904708
  31
0
  0
LINE
  5
3a4
  100
AcDbEntity
  8
1
  100
AcDbLine
  10
12.073
  20
-2.904708
  30
0
  11
11.989
  21
-2.848977
  31
0
  0
LINE
  5
3a5
  100
AcDbEntity
  8
1
  100
AcDbLine
  10
11.989
  20
-2.848977
  30
0
  11
11.905
  21
-2.793124
  31
0
  0
LINE
  5
3a6
  100
AcDbEntity
  8
1
  100
AcDbLine
  10
11.905
  20
-2.793124
  30
0
  11
11.821
  21
-2.737151
  31
0
  0
LINE
  5
3a7
  100
AcDbEntity
  8
1
  100
AcDbLine
  10
11.821
  20
-2.737151
  30
0
  11
11.737
  21
-2.681062
  31
0
  0
LINE
  5
3a8
  100
AcDbEntity
  8
1
  100
AcDbLine
  10
11.737
  20
-2.681062
  30
0
  11
11.653
  21
-2.624858
  31
0
  0
LINE
  5
3a9
  100
AcDbEntity
  8
1
  100
AcDbLine
  10
11.653
  20
-2.624858
  30
0
  11
11.569
  21
-2.568542
  31
0
  0
LINE
  5
3aa
  100
AcDbEntity
  8
1
  100
AcDbLine
  10
11.569
  20
-2.568542
  30
0
  11
11.485
  21
-2.512116
  31
0
  0
LINE
  5
3ab
  100
AcDbEntity
  8
1
  100
AcDbLine
  10
11.485
  20
-2.512116
  30
0
  11
11.401
  21
-2.455583
  31
0
  0
LINE
  5
3ac
  100
AcDbEntity
  8
1
  100
AcDbLine
  10
11.401
  20
-2.455583
  30
0
  11
11.317
  21
-2.398946
  31
0
  0
LINE
  5
3ad
  100
AcDbEntity
  8
1
  100
AcDbLine
  10
11.317
  20
-2.398946
  30
0
  11
11.233
  21
-2.342205
  31
0
  0
LINE
  5
3ae
  100
AcDbEntity
  8
1
  100
AcDbLine
  10
11.233
  20
-2.342205
  30
0
  11
11.149
  21
-2.285365
  31
0
  0
LINE
  5
3af
  100
AcDbEntity
  8
1
  100
AcDbLine
  10
11.149
  20
-2.285365
  30
0
  11
11.065
  21
-2.228427
  31
0
  0
LINE
  5
3b0
  100
AcDbEntity
  8
1
  100
AcDbLine
  10
11.065
  20
-2.228427
  30
0
  11
10.981
  21
-2.171394
  31
0
  0
LINE
  5
3b1
  100
AcDbEntity
  8
1
  100
AcDbLine
  10
10.981
  20
-2.171394
  30
0
  11
10.897
  21
-2.114268
  31
0
  0
LINE
  5
3b2
  100
AcDbEntity
  8
1
  100
AcDbLine
  10
10.897
  20
-2.114268
  30
0
  11
10.813
  21
-2.057052
  31
0
  0
LINE
  5
3b3
  100
AcDbEntity
  8
1
  100
AcDbLine
  10
10.813
  20
-2.057052
  30
0
  11
10.729
  21
-1.999748
  31
0
  0
LINE
  5
3b4
  100
AcDbEntity
  8
1
  100
AcDbLine
  10
10.729
  20
-1.999748
  30
0
  11
10.645
  21
-1.942358
  31
0
  0
LINE
  5
3b5
  100
AcDbEntity
  8
1
  100
AcDbLine
  10
10.645
  20
-1.942358
  30
0
  11
10.561
  21
-1.884886
  31
0
  0
LINE
  5
3b6
  100
AcDbEntity
  8
1
  100
AcDbLine
  10
10.561
  20
-1.884886
  30
0
  11
10.477
  21
-1.827333
  31
0
  0
LINE
  5
3b7
  100
AcDbEntity
  8
1
  100
AcDbLine
  10
10.477
  20
-1.827333
  30
0
  11
10.393
  21
-1.769702
  31
0
  0
LINE
  5
3b8
  100
AcDbEntity
  8
1
  100
AcDbLine
  10
10.393
  20
-1.769702
  30
0
  11
10.309
  21
-1.711996
  31
0
  0
LINE
  5
3b9
  100
AcDbEntity
  8
1
  100
AcDbLine
  10
10.309
  20
-1.711996
  30
0
  11
10.225
  21
-1.654216
  31
0
  0
LINE
  5
3ba
  100
AcDbEntity
  8
1
  100
AcDbLine
  10
10.225
  20
-1.654216
  30
0
  11
10.141
  21
-1.596366
  31
0
  0
LINE
  5
3bb
  100
AcDbEntity
  8
1
  100
AcDbLine
  10
10.141
  20
-1.596366
  30
0
  11
10.057
  21
-1.538447
  31
0
  0
LINE
  5
3bc
  100
AcDbEntity
  8
1
  100
AcDbLine
  10
10.057
  20
-1.538447
  30
0
  11
9.973
  21
-1.480463
  31
0
  0
LINE
  5
3bd
  100
AcDbEntity
  8
1
  100
AcDbLine
  10
9.973
  20
-1.480463
  30
0
  11
9.889
  21
-1.422416
  31
0
  0
LINE
  5
3be
  100
AcDbEntity
  8
1
  100
AcDbLine
  10
9.889
  20
-1.422416
  30
0
  11
9.805
  21
-1.364307
  31
0
  0
LINE
  5
3bf
  100
AcDbEntity
  8
1
  100
AcDbLine
  10
9.805
  20
-1.364307
  30
0
  11
9.721
  21
-1.306141
  31
0
  0
LINE
  5
3c0
  100
AcDbEntity
  8
1
  100
AcDbLine
  10
9.721
  20
-1.306141
  30
0
  11
9.637
  21
-1.247919
  31
0
  0
LINE
  5
3c1
  100
AcDbEntity
  8
1
  100
AcDbLine
  10
9.637
  20
-1.247919
  30
0
  11
9.553
  21
-1.189643
  31
0
  0
LINE
  5
3c2
  100
AcDbEntity
  8
1
  100
AcDbLine
  10
9.553
  20
-1.189643
  30
0
  11
9.469
  21
-1.131317
  31
0
  0
LINE
  5
3c3
  100
AcDbEntity
  8
1
  100
AcDbLine
  10
9.469
  20
-1.131317
  30
0
  11
9.385
  21
-1.072942
  31
0
  0
LINE
  5
3c4
  100
AcDbEntity
  8
1
  100
AcDbLine
  10
9.385
  20
-1.072942
  30
0
  11
9.301
  21
-1.014522
  31
0
  0
LINE
  5
3c5
  100
AcDbEntity
  8
1
  100
AcDbLine
  10
9.301
  20
-1.014522
  30
0
  11
9.217
  21
-0.956058
  31
0
  0
LINE
  5
3c6
  100
AcDbEntity
  8
1
  100
AcDbLine
  10
9.217
  20
-0.956058
  30
0
  11
9.133
  21
-0.897553
  31
0
  0
LINE
  5
3c7
  100
AcDbEntity
  8
1
  100
AcDbLine
  10
9.133
  20
-0.897553
  30
0
  11
9.049
  21
-0.83901
  31
0
  0
LINE
  5
3c8
  100
AcDbEntity
  8
1
  100
AcDbLine
  10
9.049
  20
-0.83901
  30
0
  11
8.965
  21
-0.780432
  31
0
  0
LINE
  5
3c9
  100
AcDbEntity
  8
1
  100
AcDbLine
  10
8.965
  20
-0.780432
  30
0
  11
8.881
  21
-0.721819
  31
0
  0
LINE
  5
3ca
  100
AcDbEntity
  8
1
  100
AcDbLine
  10
8.881
  20
-0.721819
  30
0
  11
8.797
  21
-0.663177
  31
0
  0
LINE
  5
3cb
  100
AcDbEntity
  8
1
  100
AcDbLine
  10
8.797
  20
-0.663177
  30
0
  11
8.713
  21
-0.604505
  31
0
  0
LINE
  5
3cc
  100
AcDbEntity
  8
1
  100
AcDbLine
  10
8.713
  20
-0.604505
  30
0
  11
8.629
  21
-0.545808
  31
0
  0
LINE
  5
3cd
  100
AcDbEntity
  8
1
  100
AcDbLine
  10
8.629
  20
-0.545808
  30
0
  11
8.545
  21
-0.487088
  31
0
  0
LINE
  5
3ce
  100
AcDbEntity
  8
1
  100
AcDbLine
  10
8.545
  20
-0.487088
  30
0
  11
8.461
  21
-0.428347
  31
0
  0
LINE
  5
3cf
  100
AcDbEntity
  8
1
  100
AcDbLine
  10
8.461
  20
-0.428347
  30
0
  11
8.377
  21
-0.369587
  31
0
  0
LINE
  5
3d0
  100
AcDbEntity
  8
1
  100
AcDbLine
  10
8.377
  20
-0.369587
  30
0
  11
8.293
  21
-0.310812
  31
0
  0
LINE
  5
3d1
  100
AcDbEntity
  8
1
  100
AcDbLine
  10
8.293
  20
-0.310812
  30
0
  11
8.209
  21
-0.252023
  31
0
  0
LINE
  5
3d2
  100
AcDbEntity
  8
1
  100
AcDbLine
  10
8.209
  20
-0.252023
  30
0
  11
8.125
  21
-0.193224
  31
0
  0
LINE
  5
3d3
  100
AcDbEntity
  8
1
  100
AcDbLine
  10
8.125
  20
-0.193224
  30
0
  11
8.041
  21
-0.134416
  31
0
  0
LINE
  5
3d4
  100
AcDbEntity
  8
1
  100
AcDbLine
  10
8.041
  20
-0.134416
  30
0
  11
7.957
  21
-0.075603
  31
0
  0
LINE
  5
3d5
  100
AcDbEntity
  8
1
  100
AcDbLine
  10
7.957
  20
-0.075603
  30
0
  11
7.873
  21
-0.016786
  31
0
  0
LINE
  5
3d6
  100
AcDbEntity
  8
1
  100
AcDbLine
  10
7.873
  20
-0.016786
  30
0
  11
7.789
  21
0.042031
  31
0
  0
LINE
  5
3d7
  100
AcDbEntity
  8
1
  100
AcDbLine
  10
7.789
  20
0.042031
  30
0
  11
7.705
  21
0.100846
  31
0
  0
LINE
  5
3d8
  100
AcDbEntity
  8
1
  100
AcDbLine
  10
7.705
  20
0.100846
  30
0
  11
7.621
  21
0.159658
  31
0
  0
LINE
  5
3d9
  100
AcDbEntity
  8
1
  100
AcDbLine
  10
7.621
  20
0.159658
  30
0
  11
7.537
  21
0.218462
  31
0
  0
LINE
  5
3da
  100
AcDbEntity
  8
1
  100
AcDbLine
  10
7.537
  20
0.218462
  30
0
  11
7.453
  21
0.277257
  31
0
  0
LINE
  5
3db
  100
AcDbEntity
  8
1
  100
AcDbLine
  10
7.453
  20
0.277257
  30
0
  11
7.369
  21
0.33604
  31
0
  0
LINE
  5
3dc
  100
AcDbEntity
  8
1
  100
AcDbLine
  10
7.369
  20
0.33604
  30
0
  11
7.285
  21
0.394809
  31
0
  0
LINE
  5
3dd
  100
AcDbEntity
  8
1
  100
AcDbLine
  10
7.285
  20
0.394809
  30
0
  11
7.201
  21
0.453561
  31
0
  0
LINE
  5
3de
  100
AcDbEntity
  8
1
  100
AcDbLine
  10
7.201
  20
0.453561
  30
0
  11
7.117
  21
0.512293
  31
0
  0
LINE
  5
3df
  100
AcDbEntity
  8
1
  100
AcDbLine
  10
7.117
  20
0.512293
  30
0
  11
7.033
  21
0.571004
  31
0
  0
LINE
  5
3e0
  100
AcDbEntity
  8
1
  100
AcDbLine
  10
7.033
  20
0.571004
  30
0
  11
6.949
  21
0.629691
  31
0
  0
LINE
  5
3e1
  100
AcDbEntity
  8
1
  100
AcDbLine
  10
6.949
  20
0.629691
  30
0
  11
6.865
  21
0.68835
  31
0
  0
LINE
  5
3e2
  100
AcDbEntity
  8
1
  100
AcDbLine
  10
6.865
  20
0.68835
  30
0
  11
6.781
  21
0.74698
  31
0
  0
LINE
  5
3e3
  100
AcDbEntity
  8
1
  100
AcDbLine
  10
6.781
  20
0.74698
  30
0
  11
6.697
  21
0.805578
  31
0
  0
LINE
  5
3e4
  100
AcDbEntity
  8
1
  100
AcDbLine
  10
6.697
  20
0.805578
  30
0
  11
6.613
  21
0.864142
  31
0
  0
LINE
  5
3e5
  100
AcDbEntity
  8
1
  100
AcDbLine
  10
6.613
  20
0.864142
  30
0
  11
6.529
  21
0.922669
  31
0
  0
LINE
  5
3e6
  100
AcDbEntity
  8
1
  100
AcDbLine
  10
6.529
  20
0.922669
  30
0
  11
6.445
  21
0.981156
  31
0
  0
LINE
  5
3e7
  100
AcDbEntity
  8
1
  100
AcDbLine
  10
6.445
  20
0.981156
  30
0
  11
6.361
  21
1.039602
  31
0
  0
LINE
  5
3e8
  100
AcDbEntity
  8
1
  100
AcDbLine
  10
6.361
  20
1.039602
  30
0
  11
6.277
  21
1.098003
  31
0
  0
LINE
  5
3e9
  100
AcDbEntity
  8
1
  100
AcDbLine
  10
6.277
  20
1.098003
  30
0
  11
6.193
  21
1.156357
  31
0
  0
LINE
  5
3ea
  100
AcDbEntity
  8
1
  100
AcDbLine
  10
6.193
  20
1.156357
  30
0
  11
6.109
  21
1.214662
  31
0
  0
LINE
  5
3eb
  100
AcDbEntity
  8
1
  100
AcDbLine
  10
6.109
  20
1.214662
  30
0
  11
6.025
  21
1.272915
  31
0
  0
LINE
  5
3ec
  100
AcDbEntity
  8
1
  100
AcDbLine
  10
6.025
  20
1.272915
  30
0
  11
5.941
  21
1.331113
  31
0
  0
LINE
  5
3ed
  100
AcDbEntity
  8
1
  100
AcDbLine
  10
5.941
  20
1.331113
  30
0
  11
5.857
  21
1.389255
  31
0
  0
LINE
  5
3ee
  100
AcDbEntity
  8
1
  100
AcDbLine
  10
5.857
  20
1.389255
  30
0
  11
5.773
  21
1.447337
  31
0
  0
LINE
  5
3ef
  100
AcDbEntity
  8
1
  100
AcDbLine
  10
5.773
  20
1.447337
  30
0
  11
5.689
  21
1.505358
  31
0
  0
LINE
  5
3f0
  100
AcDbEntity
  8
1
  100
AcDbLine
  10
5.689
  20
1.505358
  30
0
  11
5.605
  21
1.563314
  31
0
  0
LINE
  5
3f1
  100
AcDbEntity
  8
1
  100
AcDbLine
  10
5.605
  20
1.563314
  30
0
  11
5.521
  21
1.621204
  31
0
  0
LINE
  5
3f2
  100
AcDbEntity
  8
1
  100
AcDbLine
  10
5.521
  20
1.621204
  30
0
  11
5.437
  21
1.679024
  31
0
  0
LINE
  5
3f3
  100
AcDbEntity
  8
1
  100
AcDbLine
  10
5.437
  20
1.679024
  30
0
  11
5.353
  21
1.736773
  31
0
  0
LINE
  5
3f4
  100
AcDbEntity
  8
1
  100
AcDbLine
  10
5.353
  20
1.736773
  30
0
  11
5.269
  21
1.794447
  31
0
  0
LINE
  5
3f5
  100
AcDbEntity
  8
1
  100
AcDbLine
  10
5.269
  20
1.794447
  30
0
  11
5.185
  21
1.852045
  31
0
  0
LINE
  5
3f6
  100
AcDbEntity
  8
1
  100
AcDbLine
  10
5.185
  20
1.852045
  30
0
  11
5.101
  21
1.909563
  31
0
  0
LINE
  5
3f7
  100
AcDbEntity
  8
1
  100
AcDbLine
  10
5.101
  20
1.909563
  30
0
  11
5.017
  21
1.967
  31
0
  0
LINE
  5
3f8
  100
AcDbEntity
  8
1
  100
AcDbLine
  10
5.017
  20
1.967
  30
0
  11
4.933
  21
2.024353
  31
0
  0
LINE
  5
3f9
  100
AcDbEntity
  8
1
  100
AcDbLine
  10
4.933
  20
2.024353
  30
0
  11
4.849
  21
2.08162
  31
0
  0
LINE
  5
3fa
  100
AcDbEntity
  8
1
  100
AcDbLine
  10
4.849
  20
2.08162
  30
0
  11
4.765
  21
2.138798
  31
0
  0
LINE
  5
3fb
  100
AcDbEntity
  8
1
  100
AcDbLine
  10
4.765
  20
2.138798
  30
0
  11
4.681
  21
2.195884
  31
0
  0
LINE
  5
3fc
  100
AcDbEntity
  8
1
  100
AcDbLine
  10
4.681
  20
2.195884
  30
0
  11
4.597
  21
2.252877
  31
0
  0
LINE
  5
3fd
  100
AcDbEntity
  8
1
  100
AcDbLine
  10
4.597
  20
2.252877
  30
0
  11
4.513
  21
2.309773
  31
0
  0
LINE
  5
3fe
  100
AcDbEntity
  8
1
  100
AcDbLine
  10
4.513
  20
2.309773
  30
0
  11
4.429
  21
2.366571
  31
0
  0
LINE
  5
3ff
  100
AcDbEntity
  8
1
  100
AcDbLine
  10
4.429
  20
2.366571
  30
0
  11
4.345
  21
2.423267
  31
0
  0
LINE
  5
400
  100
AcDbEntity
  8
1
  100
AcDbLine
  10
4.345
  20
2.423267
  30
0
  11
4.261
  21
2.479861
  31
0
  0
LINE
  5
401
  100
AcDbEntity
  8
1
  100
AcDbLine
  10
4.261
  20
2.479861
  30
0
  11
4.177
  21
2.536348
  31
0
  0
LINE
  5
402
  100
AcDbEntity
  8
1
  100
AcDbLine
  10
4.177
  20
2.536348
  30
0
  11
4.093
  21
2.592727
  31
0
  0
LINE
  5
403
  100
AcDbEntity
  8
1
  100
AcDbLine
  10
4.093
  20
2.592727
  30
0
  11
4.009
  21
2.648995
  31
0
  0
LINE
  5
404
  100
AcDbEntity
  8
1
  100
AcDbLine
  10
4.009
  20
2.648995
  30
0
  11
3.925
  21
2.70515
  31
0
  0
LINE
  5
405
  100
AcDbEntity
  8
1
  100
AcDbLine
  10
3.925
  20
2.70515
  30
0
  11
3.841
  21
2.761189
  31
0
  0
LINE
  5
406
  100
AcDbEntity
  8
1
  100
AcDbLine
  10
3.841
  20
2.761189
  30
0
  11
3.757
  21
2.817111
  31
0
  0
LINE
  5
407
  100
AcDbEntity
  8
1
  100
AcDbLine
  10
3.757
  20
2.817111
  30
0
  11
3.673
  21
2.872912
  31
0
  0
LINE
  5
408
  100
AcDbEntity
  8
1
  100
AcDbLine
  10
3.673
  20
2.872912
  30
0
  11
3.589
  21
2.928591
  31
0
  0
LINE
  5
409
  100
AcDbEntity
  8
1
  100
AcDbLine
  10
3.589
  20
2.928591
  30
0
  11
3.505
  21
2.984144
  31
0
  0
LINE
  5
40a
  100
AcDbEntity
  8
1
  100
AcDbLine
  10
3.505
  20
2.984144
  30
0
  11
3.421
  21
3.03957
  31
0
  0
LINE
  5
40b
  100
AcDbEntity
  8
1
  100
AcDbLine
  10
3.421
  20
3.03957
  30
0
  11
3.337
  21
3.094866
  31
0
  0
LINE
  5
40c
  100
AcDbEntity
  8
1
  100
AcDbLine
  10
3.337
  20
3.094866
  30
0
  11
3.253
  21
3.15003
  31
0
  0
LINE
  5
40d
  100
AcDbEntity
  8
1
  100
AcDbLine
  10
3.253
  20
3.15003
  30
0
  11
3.169
  21
3.20506
  31
0
  0
LINE
  5
40e
  100
AcDbEntity
  8
1
  100
AcDbLine
  10
3.169
  20
3.20506
  30
0
  11
3.085
  21
3.259953
  31
0
  0
LINE
  5
40f
  100
AcDbEntity
  8
1
  100
AcDbLine
  10
3.085
  20
3.259953
  30
0
  11
3.001
  21
3.314706
  31
0
  0
LINE
  5
410
  100
AcDbEntity
  8
1
  100
AcDbLine
  10
3.001
  20
3.314706
  30
0
  11
2.917
  21
3.369318
  31
0
  0
LINE
  5
411
  100
AcDbEntity
  8
1
  100
AcDbLine
  10
2.917
  20
3.369318
  30
0
  11
2.833
  21
3.423786
  31
0
  0
LINE
  5
412
  100
AcDbEntity
  8
1
  100
AcDbLine
  10
2.833
  20
3.423786
  30
0
  11
2.749
  21
3.478107
  31
0
  0
LINE
  5
413
  100
AcDbEntity
  8
1
  100
AcDbLine
  10
2.749
  20
3.478107
  30
0
  11
2.665
  21
3.53228
  31
0
  0
LINE
  5
414
  100
AcDbEntity
  8
1
  100
AcDbLine
  10
2.665
  20
3.53228
  30
0
  11
2.581
  21
3.586303
  31
0
  0
LINE
  5
415
  100
AcDbEntity
  8
1
  100
AcDbLine
  10
2.581
  20
3.586303
  30
0
  11
2.497
  21
3.640172
  31
0
  0
LINE
  5
416
  100
AcDbEntity
  8
1
  100
AcDbLine
  10
2.497
  20
3.640172
  30
0
  11
2.413
  21
3.693885
  31
0
  0
LINE
  5
417
  100
AcDbEntity
  8
1
  100
AcDbLine
  10
2.413
  20
3.693885
  30
0
  11
2.329
  21
3.747441
  31
0
  0
LINE
  5
418
  100
AcDbEntity
  8
1
  100
AcDbLine
  10
2.329
  20
3.747441
  30
0
  11
2.245
  21
3.800837
  31
0
  0
LINE
  5
419
  100
AcDbEntity
  8
1
  100
AcDbLine
  10
2.245
  20
3.800837
  30
0
  11
2.161
  21
3.85407
  31
0
  0
LINE
  5
41a
  100
AcDbEntity
  8
1
  100
AcDbLine
  10
2.161
  20
3.85407
  30
0
  11
2.077
  21
3.907139
  31
0
  0
LINE
  5
41b
  100
AcDbEntity
  8
1
  100
AcDbLine
  10
2.077
  20
3.907139
  30
0
  11
1.993
  21
3.960041
  31
0
  0
LINE
  5
41c
  100
AcDbEntity
  8
1
  100
AcDbLine
  10
1.993
  20
3.960041
  30
0
  11
1.909
  21
4.012774
  31
0
  0
LINE
  5
41d
  100
AcDbEntity
  8
1
  100
AcDbLine
  10
1.909
  20
4.012774
  30
0
  11
1.825
  21
4.065336
  31
0
  0
LINE
  5
41e
  100
AcDbEntity
  8
1
  100
AcDbLine
  10
1.825
  20
4.065336
  30
0
  11
1.741
  21
4.117723
  31
0
  0
LINE
  5
41f
  100
AcDbEntity
  8
1
  100
AcDbLine
  10
1.741
  20
4.117723
  30
0
  11
1.657
  21
4.169935
  31
0
  0
LINE
  5
420
  100
AcDbEntity
  8
1
  100
AcDbLine
  10
1.657
  20
4.169935
  30
0
  11
1.573
  21
4.221969
  31
0
  0
LINE
  5
421
  100
AcDbEntity
  8
1
  100
AcDbLine
  10
1.573
  20
4.221969
  30
0
  11
1.489
  21
4.273823
  31
0
  0
LINE
  5
422
  100
AcDbEntity
  8
1
  100
AcDbLine
  10
1.489
  20
4.273823
  30
0
  11
1.405
  21
4.325494
  31
0
  0
LINE
  5
423
  100
AcDbEntity
  8
1
  100
AcDbLine
  10
1.405
  20
4.325494
  30
0
  11
1.321
  21
4.37698
  31
0
  0
LINE
  5
424
  100
AcDbEntity
  8
1
  100
AcDbLine
  10
1.321
  20
4.37698
  30
0
  11
1.237
  21
4.428279
  31
0
  0
LINE
  5
425
  100
AcDbEntity
  8
1
  100
AcDbLine
  10
1.237
  20
4.428279
  30
0
  11
1.153
  21
4.47939
  31
0
  0
LINE
  5
426
  100
AcDbEntity
  8
1
  100
AcDbLine
  10
1.153
  20
4.47939
  30
0
  11
1.069
  21
4.530309
  31
0
  0
LINE
  5
427
  100
AcDbEntity
  8
1
  100
AcDbLine
  10
1.069
  20
4.530309
  30
0
  11
0.985
  21
4.581034
  31
0
  0
LINE
  5
428
  100
AcDbEntity
  8
1
  100
AcDbLine
  10
0.985
  20
4.581034
  30
0
  11
0.901
  21
4.631564
  31
0
  0
LINE
  5
429
  100
AcDbEntity
  8
1
  100
AcDbLine
  10
0.901
  20
4.631564
  30
0
  11
0.817
  21
4.681896
  31
0
  0
LINE
  5
42a
  100
AcDbEntity
  8
1
  100
AcDbLine
  10
0.817
  20
4.681896
  30
0
  11
0.733
  21
4.732028
  31
0
  0
LINE
  5
42b
  100
AcDbEntity
  8
1
  100
AcDbLine
  10
0.733
  20
4.732028
  30
0
  11
0.649
  21
4.781958
  31
0
  0
LINE
  5
42c
  100
AcDbEntity
  8
1
  100
AcDbLine
  10
0.649
  20
4.781958
  30
0
  11
0.565
  21
4.831683
  31
0
  0
LINE
  5
42d
  100
AcDbEntity
  8
1
  100
AcDbLine
  10
0.565
  20
4.831683
  30
0
  11
0.481
  21
4.881202
  31
0
  0
LINE
  5
42e
  100
AcDbEntity
  8
1
  100
AcDbLine
  10
0.481
  20
4.881202
  30
0
  11
0.397
  21
4.930513
  31
0
  0
LINE
  5
42f
  100
AcDbEntity
  8
1
  100
AcDbLine
  10
0.397
  20
4.930513
  30
0
  11
0.313
  21
4.979613
  31
0
  0
LINE
  5
430
  100
AcDbEntity
  8
1
  100
AcDbLine
  10
0.313
  20
4.979613
  30
0
  11
0.229
  21
5.028501
  31
0
  0
LINE
  5
431
  100
AcDbEntity
  8
1
  100
AcDbLine
  10
0.229
  20
5.028501
  30
0
  11
0.145
  21
5.077174
  31
0
  0
LINE
  5
432
  100
AcDbEntity
  8
1
  100
AcDbLine
  10
0.145
  20
5.077174
  30
0
  11
0.061
  21
5.12563
  31
0
  0
LINE
  5
433
  100
AcDbEntity
  8
1
  100
AcDbLine
  10
24.001
  20
2.877877
  30
0
  11
23.917
  21
2.910964
  31
0
  0
LINE
  5
434
  100
AcDbEntity
  8
1
  100
AcDbLine
  10
23.917
  20
2.910964
  30
0
  11
23.833
  21
2.945254
  31
0
  0
LINE
  5
435
  100
AcDbEntity
  8
1
  100
AcDbLine
  10
23.833
  20
2.945254
  30
0
  11
23.749
  21
2.980739
  31
0
  0
LINE
  5
436
  100
AcDbEntity
  8
1
  100
AcDbLine
  10
23.749
  20
2.980739
  30
0
  11
23.665
  21
3.017409
  31
0
  0
LINE
  5
437
  100
AcDbEntity
  8
1
  100
AcDbLine
  10
23.665
  20
3.017409
  30
0
  11
23.581
  21
3.059312
  31
0
  0
LINE
  5
438
  100
AcDbEntity
  8
1
  100
AcDbLine
  10
23.581
  20
3.059312
  30
0
  11
23.497
  21
3.114561
  31
0
  0
LINE
  5
439
  100
AcDbEntity
  8
1
  100
AcDbLine
  10
23.497
  20
3.114561
  30
0
  11
23.413
  21
3.169678
  31
0
  0
LINE
  5
43a
  100
AcDbEntity
  8
1
  100
AcDbLine
  10
23.413
  20
3.169678
  30
0
  11
23.329
  21
3.224659
  31
0
  0
LINE
  5
43b
  100
AcDbEntity
  8
1
  100
AcDbLine
  10
23.329
  20
3.224659
  30
0
  11
23.245
  21
3.279502
  31
0
  0
LINE
  5
43c
  100
AcDbEntity
  8
1
  100
AcDbLine
  10
23.245
  20
3.279502
  30
0
  11
23.161
  21
3.334205
  31
0
  0
LINE
  5
43d
  100
AcDbEntity
  8
1
  100
AcDbLine
  10
23.161
  20
3.334205
  30
0
  11
23.077
  21
3.388766
  31
0
  0
LINE
  5
43e
  100
AcDbEntity
  8
1
  100
AcDbLine
  10
23.077
  20
3.388766
  30
0
  11
22.993
  21
3.443182
  31
0
  0
LINE
  5
43f
  100
AcDbEntity
  8
1
  100
AcDbLine
  10
22.993
  20
3.443182
  30
0
  11
22.909
  21
3.497451
  31
0
  0
LINE
  5
440
  100
AcDbEntity
  8
1
  100
AcDbLine
  10
22.909
  20
3.497451
  30
0
  11
22.825
  21
3.55157
  31
0
  0
LINE
  5
441
  100
AcDbEntity
  8
1
  100
AcDbLine
  10
22.825
  20
3.55157
  30
0
  11
22.741
  21
3.605538
  31
0
  0
LINE
  5
442
  100
AcDbEntity
  8
1
  100
AcDbLine
  10
22.741
  20
3.605538
  30
0
  11
22.657
  21
3.659352
  31
0
  0
LINE
  5
443
  100
AcDbEntity
  8
1
  100
AcDbLine
  10
22.657
  20
3.659352
  30
0
  11
22.573
  21
3.713009
  31
0
  0
LINE
  5
444
  100
AcDbEntity
  8
1
  100
AcDbLine
  10
22.573
  20
3.713009
  30
0
  11
22.489
  21
3.766508
  31
0
  0
LINE
  5
445
  100
AcDbEntity
  8
1
  100
AcDbLine
  10
22.489
  20
3.766508
  30
0
  11
22.405
  21
3.819847
  31
0
  0
LINE
  5
446
  100
AcDbEntity
  8
1
  100
AcDbLine
  10
22.405
  20
3.819847
  30
0
  11
22.321
  21
3.873022
  31
0
  0
LINE
  5
447
  100
AcDbEntity
  8
1
  100
AcDbLine
  10
22.321
  20
3.873022
  30
0
  11
22.237
  21
3.926031
  31
0
  0
LINE
  5
448
  100
AcDbEntity
  8
1
  100
AcDbLine
  10
22.237
  20
3.926031
  30
0
  11
22.153
  21
3.978873
  31
0
  0
LINE
  5
449
  100
AcDbEntity
  8
1
  100
AcDbLine
  10
22.153
  20
3.978873
  30
0
  11
22.069
  21
4.031545
  31
0
  0
LINE
  5
44a
  100
AcDbEntity
  8
1
  100
AcDbLine
  10
22.069
  20
4.031545
  30
0
  11
21.985
  21
4.084045
  31
0
  0
LINE
  5
44b
  100
AcDbEntity
  8
1
  100
AcDbLine
  10
21.985
  20
4.084045
  30
0
  11
21.901
  21
4.13637
  31
0
  0
LINE
  5
44c
  100
AcDbEntity
  8
1
  100
AcDbLine
  10
21.901
  20
4.13637
  30
0
  11
21.817
  21
4.188519
  31
0
  0
LINE
  5
44d
  100
AcDbEntity
  8
1
  100
AcDbLine
  10
21.817
  20
4.188519
  30
0
  11
21.733
  21
4.240489
  31
0
  0
LINE
  5
44e
  100
AcDbEntity
  8
1
  100
AcDbLine
  10
21.733
  20
4.240489
  30
0
  11
21.649
  21
4.292277
  31
0
  0
LINE
  5
44f
  100
AcDbEntity
  8
1
  100
AcDbLine
  10
21.649
  20
4.292277
  30
0
  11
21.565
  21
4.343883
  31
0
  0
LINE
  5
450
  100
AcDbEntity
  8
1
  100
AcDbLine
  10
21.565
  20
4.343883
  30
0
  11
21.481
  21
4.395303
  31
0
  0
LINE
  5
451
  100
AcDbEntity
  8
1
  100
AcDbLine
  10
21.481
  20
4.395303
  30
0
  11
21.397
  21
4.446535
  31
0
  0
LINE
  5
452
  100
AcDbEntity
  8
1
  100
AcDbLine
  10
21.397
  20
4.446535
  30
0
  11
21.313
  21
4.497577
  31
0
  0
LINE
  5
453
  100
AcDbEntity
  8
1
  100
AcDbLine
  10
21.313
  20
4.497577
  30
0
  11
21.229
  21
4.548427
  31
0
  0
LINE
  5
454
  100
AcDbEntity
  8
1
  100
AcDbLine
  10
21.229
  20
4.548427
  30
0
  11
21.145
  21
4.599083
  31
0
  0
LINE
  5
455
  100
AcDbEntity
  8
1
  100
AcDbLine
  10
21.145
  20
4.599083
  30
0
  11
21.061
  21
4.649542
  31
0
  0
LINE
  5
456
  100
AcDbEntity
  8
1
  100
AcDbLine
  10
21.061
  20
4.649542
  30
0
  11
20.977
  21
4.699803
  31
0
  0
LINE
  5
457
  100
AcDbEntity
  8
1
  100
AcDbLine
  10
20.977
  20
4.699803
  30
0
  11
20.893
  21
4.749863
  31
0
  0
LINE
  5
458
  100
AcDbEntity
  8
1
  100
AcDbLine
  10
20.893
  20
4.749863
  30
0
  11
20.809
  21
4.799721
  31
0
  0
LINE
  5
459
  100
AcDbEntity
  8
1
  100
AcDbLine
  10
20.809
  20
4.799721
  30
0
  11
20.725
  21
4.849373
  31
0
  0
LINE
  5
45a
  100
AcDbEntity
  8
1
  100
AcDbLine
  10
20.725
  20
4.849373
  30
0
  11
20.641
  21
4.898818
  31
0
  0
LINE
  5
45b
  100
AcDbEntity
  8
1
  100
AcDbLine
  10
20.641
  20
4.898818
  30
0
  11
20.557
  21
4.948054
  31
0
  0
LINE
  5
45c
  100
AcDbEntity
  8
1
  100
AcDbLine
  10
20.557
  20
4.948054
  30
0
  11
20.473
  21
4.997079
  31
0
  0
LINE
  5
45d
  100
AcDbEntity
  8
1
  100
AcDbLine
  10
20.473
  20
4.997079
  30
0
  11
20.389
  21
5.04589
  31
0
  0
LINE
  5
45e
  100
AcDbEntity
  8
1
  100
AcDbLine
  10
20.389
  20
5.04589
  30
0
  11
20.305
  21
5.094485
  31
0
  0
LINE
  5
45f
  100
AcDbEntity
  8
1
  100
AcDbLine
  10
20.305
  20
5.094485
  30
0
  11
20.221
  21
5.142863
  31
0
  0
LINE
  5
460
  100
AcDbEntity
  8
1
  100
AcDbLine
  10
20.221
  20
5.142863
  30
0
  11
20.137
  21
5.191022
  31
0
  0
LINE
  5
461
  100
AcDbEntity
  8
1
  100
AcDbLine
  10
20.137
  20
5.191022
  30
0
  11
20.053
  21
5.238959
  31
0
  0
LINE
  5
462
  100
AcDbEntity
  8
1
  100
AcDbLine
  10
20.053
  20
5.238959
  30
0
  11
19.969
  21
5.286672
  31
0
  0
LINE
  5
463
  100
AcDbEntity
  8
1
  100
AcDbLine
  10
19.969
  20
5.286672
  30
0
  11
19.885
  21
5.334159
  31
0
  0
LINE
  5
464
  100
AcDbEntity
  8
1
  100
AcDbLine
  10
19.885
  20
5.334159
  30
0
  11
19.801
  21
5.381418
  31
0
  0
LINE
  5
465
  100
AcDbEntity
  8
1
  100
AcDbLine
  10
19.801
  20
5.381418
  30
0
  11
19.717
  21
5.428448
  31
0
  0
LINE
  5
466
  100
AcDbEntity
  8
1
  100
AcDbLine
  10
19.717
  20
5.428448
  30
0
  11
19.633
  21
5.475245
  31
0
  0
LINE
  5
467
  100
AcDbEntity
  8
1
  100
AcDbLine
  10
19.633
  20
5.475245
  30
0
  11
19.549
  21
5.521809
  31
0
  0
LINE
  5
468
  100
AcDbEntity
  8
1
  100
AcDbLine
  10
19.549
  20
5.521809
  30
0
  11
19.465
  21
5.568137
  31
0
  0
LINE
  5
469
  100
AcDbEntity
  8
1
  100
AcDbLine
  10
19.465
  20
5.568137
  30
0
  11
19.381
  21
5.614227
  31
0
  0
LINE
  5
46a
  100
AcDbEntity
  8
1
  100
AcDbLine
  10
19.381
  20
5.614227
  30
0
  11
19.297
  21
5.660078
  31
0
  0
LINE
  5
46b
  100
AcDbEntity
  8
1
  100
AcDbLine
  10
19.297
  20
5.660078
  30
0
  11
19.213
  21
5.705686
  31
0
  0
LINE
  5
46c
  100
AcDbEntity
  8
1
  100
AcDbLine
  10
19.213
  20
5.705686
  30
0
  11
19.129
  21
5.751051
  31
0
  0
LINE
  5
46d
  100
AcDbEntity
  8
1
  100
AcDbLine
  10
19.129
  20
5.751051
  30
0
  11
19.045
  21
5.796171
  31
0
  0
LINE
  5
46e
  100
AcDbEntity
  8
1
  100
AcDbLine
  10
19.045
  20
5.796171
  30
0
  11
18.961
  21
5.841043
  31
0
  0
LINE
  5
46f
  100
AcDbEntity
  8
1
  100
AcDbLine
  10
18.961
  20
5.841043
  30
0
  11
18.877
  21
5.885665
  31
0
  0
LINE
  5
470
  100
AcDbEntity
  8
1
  100
AcDbLine
  10
18.877
  20
5.885665
  30
0
  11
18.793
  21
5.930036
  31
0
  0
LINE
  5
471
  100
AcDbEntity
  8
1
  100
AcDbLine
  10
18.793
  20
5.930036
  30
0
  11
18.709
  21
5.974154
  31
0
  0
LINE
  5
472
  100
AcDbEntity
  8
1
  100
AcDbLine
  10
18.709
  20
5.974154
  30
0
  11
18.625
  21
6.018016
  31
0
  0
LINE
  5
473
  100
AcDbEntity
  8
1
  100
AcDbLine
  10
18.625
  20
6.018016
  30
0
  11
18.541
  21
6.061622
  31
0
  0
LINE
  5
474
  100
AcDbEntity
  8
1
  100
AcDbLine
  10
18.541
  20
6.061622
  30
0
  11
18.457
  21
6.104968
  31
0
  0
LINE
  5
475
  100
AcDbEntity
  8
1
  100
AcDbLine
  10
18.457
  20
6.104968
  30
0
  11
18.373
  21
6.148054
  31
0
  0
LINE
  5
476
  100
AcDbEntity
  8
1
  100
AcDbLine
  10
18.373
  20
6.148054
  30
0
  11
18.289
  21
6.190877
  31
0
  0
LINE
  5
477
  100
AcDbEntity
  8
1
  100
AcDbLine
  10
18.289
  20
6.190877
  30
0
  11
18.205
  21
6.233436
  31
0
  0
LINE
  5
478
  100
AcDbEntity
  8
1
  100
AcDbLine
  10
18.205
  20
6.233436
  30
0
  11
18.121
  21
6.275729
  31
0
  0
LINE
  5
479
  100
AcDbEntity
  8
1
  100
AcDbLine
  10
18.121
  20
6.275729
  30
0
  11
18.037
  21
6.317754
  31
0
  0
LINE
  5
47a
  100
AcDbEntity
  8
1
  100
AcDbLine
  10
18.037
  20
6.317754
  30
0
  11
17.953
  21
6.359508
  31
0
  0
LINE
  5
47b
  100
AcDbEntity
  8
1
  100
AcDbLine
  10
17.953
  20
6.359508
  30
0
  11
17.869
  21
6.400991
  31
0
  0
LINE
  5
47c
  100
AcDbEntity
  8
1
  100
AcDbLine
  10
17.869
  20
6.400991
  30
0
  11
17.785
  21
6.442201
  31
0
  0
LINE
  5
47d
  100
AcDbEntity
  8
1
  100
AcDbLine
  10
17.785
  20
6.442201
  30
0
  11
17.701
  21
6.483136
  31
0
  0
LINE
  5
47e
  100
AcDbEntity
  8
1
  100
AcDbLine
  10
17.701
  20
6.483136
  30
0
  11
17.617
  21
6.523794
  31
0
  0
LINE
  5
47f
  100
AcDbEntity
  8
1
  100
AcDbLine
  10
17.617
  20
6.523794
  30
0
  11
17.533
  21
6.564173
  31
0
  0
LINE
  5
480
  100
AcDbEntity
  8
1
  100
AcDbLine
  10
17.533
  20
6.564173
  30
0
  11
17.449
  21
6.604272
  31
0
  0
LINE
  5
481
  100
AcDbEntity
  8
1
  100
AcDbLine
  10
17.449
  20
6.604272
  30
0
  11
17.365
  21
6.644088
  31
0
  0
LINE
  5
482
  100
AcDbEntity
  8
1
  100
AcDbLine
  10
17.365
  20
6.644088
  30
0
  11
17.281
  21
6.683621
  31
0
  0
LINE
  5
483
  100
AcDbEntity
  8
1
  100
AcDbLine
  10
17.281
  20
6.683621
  30
0
  11
17.197
  21
6.722869
  31
0
  0
LINE
  5
484
  100
AcDbEntity
  8
1
  100
AcDbLine
  10
17.197
  20
6.722869
  30
0
  11
17.113
  21
6.761829
  31
0
  0
LINE
  5
485
  100
AcDbEntity
  8
1
  100
AcDbLine
  10
17.113
  20
6.761829
  30
0
  11
17.029
  21
6.800501
  31
0
  0
LINE
  5
486
  100
AcDbEntity
  8
1
  100
AcDbLine
  10
17.029
  20
6.800501
  30
0
  11
16.945
  21
6.838882
  31
0
  0
LINE
  5
487
  100
AcDbEntity
  8
1
  100
AcDbLine
  10
16.945
  20
6.838882
  30
0
  11
16.861
  21
6.876971
  31
0
  0
LINE
  5
488
  100
AcDbEntity
  8
1
  100
AcDbLine
  10
16.861
  20
6.876971
  30
0
  11
16.777
  21
6.914766
  31
0
  0
LINE
  5
489
  100
AcDbEntity
  8
1
  100
AcDbLine
  10
16.777
  20
6.914766
  30
0
  11
16.693
  21
6.952266
  31
0
  0
LINE
  5
48a
  100
AcDbEntity
  8
1
  100
AcDbLine
  10
16.693
  20
6.952266
  30
0
  11
16.609
  21
6.989469
  31
0
  0
LINE
  5
48b
  100
AcDbEntity
  8
1
  100
AcDbLine
  10
16.609
  20
6.989469
  30
0
  11
16.525
  21
7.026374
  31
0
  0
LINE
  5
48c
  100
AcDbEntity
  8
1
  100
AcDbLine
  10
16.525
  20
7.026374
  30
0
  11
16.441
  21
7.062978
  31
0
  0
LINE
  5
48d
  100
AcDbEntity
  8
1
  100
AcDbLine
  10
16.441
  20
7.062978
  30
0
  11
16.357
  21
7.099281
  31
0
  0
LINE
  5
48e
  100
AcDbEntity
  8
1
  100
AcDbLine
  10
16.357
  20
7.099281
  30
0
  11
16.273
  21
7.135281
  31
0
  0
LINE
  5
48f
  100
AcDbEntity
  8
1
  100
AcDbLine
  10
16.273
  20
7.135281
  30
0
  11
16.189
  21
7.170976
  31
0
  0
LINE
  5
490
  100
AcDbEntity
  8
1
  100
AcDbLine
  10
16.189
  20
7.170976
  30
0
  11
16.105
  21
7.206364
  31
0
  0
LINE
  5
491
  100
AcDbEntity
  8
1
  100
AcDbLine
  10
16.105
  20
7.206364
  30
0
  11
16.021
  21
7.241445
  31
0
  0
LINE
  5
492
  100
AcDbEntity
  8
1
  100
AcDbLine
  10
16.021
  20
7.241445
  30
0
  11
15.937
  21
7.276216
  31
0
  0
LINE
  5
493
  100
AcDbEntity
  8
1
  100
AcDbLine
  10
15.937
  20
7.276216
  30
0
  11
15.853
  21
7.310677
  31
0
  0
LINE
  5
494
  100
AcDbEntity
  8
1
  100
AcDbLine
  10
15.853
  20
7.310677
  30
0
  11
15.769
  21
7.344826
  31
0
  0
LINE
  5
495
  100
AcDbEntity
  8
1
  100
AcDbLine
  10
15.769
  20
7.344826
  30
0
  11
15.685
  21
7.37866
  31
0
  0
LINE
  5
496
  100
AcDbEntity
  8
1
  100
AcDbLine
  10
15.685
  20
7.37866
  30
0
  11
15.601
  21
7.41218
  31
0
  0
LINE
  5
497
  100
AcDbEntity
  8
1
  100
AcDbLine
  10
15.601
  20
7.41218
  30
0
  11
15.517
  21
7.445383
  31
0
  0
LINE
  5
498
  100
AcDbEntity
  8
1
  100
AcDbLine
  10
15.517
  20
7.445383
  30
0
  11
15.433
  21
7.478268
  31
0
  0
LINE
  5
499
  100
AcDbEntity
  8
1
  100
AcDbLine
  10
15.433
  20
7.478268
  30
0
  11
15.349
  21
7.510834
  31
0
  0
LINE
  5
49a
  100
AcDbEntity
  8
1
  100
AcDbLine
  10
15.349
  20
7.510834
  30
0
  11
15.265
  21
7.543079
  31
0
  0
LINE
  5
49b
  100
AcDbEntity
  8
1
  100
AcDbLine
  10
15.265
  20
7.543079
  30
0
  11
15.181
  21
7.575002
  31
0
  0
LINE
  5
49c
  100
AcDbEntity
  8
1
  100
AcDbLine
  10
15.181
  20
7.575002
  30
0
  11
15.097
  21
7.606601
  31
0
  0
LINE
  5
49d
  100
AcDbEntity
  8
1
  100
AcDbLine
  10
15.097
  20
7.606601
  30
0
  11
15.013
  21
7.637875
  31
0
  0
LINE
  5
49e
  100
AcDbEntity
  8
1
  100
AcDbLine
  10
15.013
  20
7.637875
  30
0
  11
14.929
  21
7.668824
  31
0
  0
LINE
  5
49f
  100
AcDbEntity
  8
1
  100
AcDbLine
  10
14.929
  20
7.668824
  30
0
  11
14.845
  21
7.699444
  31
0
  0
LINE
  5
4a0
  100
AcDbEntity
  8
1
  100
AcDbLine
  10
14.845
  20
7.699444
  30
0
  11
14.761
  21
7.729736
  31
0
  0
LINE
  5
4a1
  100
AcDbEntity
  8
1
  100
AcDbLine
  10
14.761
  20
7.729736
  30
0
  11
14.677
  21
7.759698
  31
0
  0
LINE
  5
4a2
  100
AcDbEntity
  8
1
  100
AcDbLine
  10
14.677
  20
7.759698
  30
0
  11
14.593
  21
7.789328
  31
0
  0
LINE
  5
4a3
  100
AcDbEntity
  8
1
  100
AcDbLine
  10
14.593
  20
7.789328
  30
0
  11
14.509
  21
7.818626
  31
0
  0
LINE
  5
4a4
  100
AcDbEntity
  8
1
  100
AcDbLine
  10
14.509
  20
7.818626
  30
0
  11
14.425
  21
7.847589
  31
0
  0
LINE
  5
4a5
  100
AcDbEntity
  8
1
  100
AcDbLine
  10
14.425
  20
7.847589
  30
0
  11
14.341
  21
7.876218
  31
0
  0
LINE
  5
4a6
  100
AcDbEntity
  8
1
  100
AcDbLine
  10
14.341
  20
7.876218
  30
0
  11
14.257
  21
7.90451
  31
0
  0
LINE
  5
4a7
  100
AcDbEntity
  8
1
  100
AcDbLine
  10
14.257
  20
7.90451
  30
0
  11
14.173
  21
7.932464
  31
0
  0
LINE
  5
4a8
  100
AcDbEntity
  8
1
  100
AcDbLine
  10
14.173
  20
7.932464
  30
0
  11
14.089
  21
7.96008
  31
0
  0
LINE
  5
4a9
  100
AcDbEntity
  8
1
  100
AcDbLine
  10
14.089
  20
7.96008
  30
0
  11
14.005
  21
7.987356
  31
0
  0
LINE
  5
4aa
  100
AcDbEntity
  8
1
  100
AcDbLine
  10
14.005
  20
7.987356
  30
0
  11
13.921
  21
8.01429
  31
0
  0
LINE
  5
4ab
  100
AcDbEntity
  8
1
  100
AcDbLine
  10
13.921
  20
8.01429
  30
0
  11
13.837
  21
8.040883
  31
0
  0
LINE
  5
4ac
  100
AcDbEntity
  8
1
  100
AcDbLine
  10
13.837
  20
8.040883
  30
0
  11
13.753
  21
8.067131
  31
0
  0
LINE
  5
4ad
  100
AcDbEntity
  8
1
  100
AcDbLine
  10
13.753
  20
8.067131
  30
0
  11
13.669
  21
8.093036
  31
0
  0
LINE
  5
4ae
  100
AcDbEntity
  8
1
  100
AcDbLine
  10
13.669
  20
8.093036
  30
0
  11
13.585
  21
8.118594
  31
0
  0
LINE
  5
4af
  100
AcDbEntity
  8
1
  100
AcDbLine
  10
13.585
  20
8.118594
  30
0
  11
13.501
  21
8.143806
  31
0
  0
LINE
  5
4b0
  100
AcDbEntity
  8
1
  100
AcDbLine
  10
13.501
  20
8.143806
  30
0
  11
13.417
  21
8.16867
  31
0
  0
LINE
  5
4b1
  100
AcDbEntity
  8
1
  100
AcDbLine
  10
13.417
  20
8.16867
  30
0
  11
13.333
  21
8.193186
  31
0
  0
LINE
  5
4b2
  100
AcDbEntity
  8
1
  100
AcDbLine
  10
13.333
  20
8.193186
  30
0
  11
13.249
  21
8.217351
  31
0
  0
LINE
  5
4b3
  100
AcDbEntity
  8
1
  100
AcDbLine
  10
13.249
  20
8.217351
  30
0
  11
13.165
  21
8.241165
  31
0
  0
LINE
  5
4b4
  100
AcDbEntity
  8
1
  100
AcDbLine
  10
13.165
  20
8.241165
  30
0
  11
13.081
  21
8.264628
  31
0
  0
LINE
  5
4b5
  100
AcDbEntity
  8
1
  100
AcDbLine
  10
13.081
  20
8.264628
  30
0
  11
12.997
  21
8.287737
  31
0
  0
LINE
  5
4b6
  100
AcDbEntity
  8
1
  100
AcDbLine
  10
12.997
  20
8.287737
  30
0
  11
12.913
  21
8.310493
  31
0
  0
LINE
  5
4b7
  100
AcDbEntity
  8
1
  100
AcDbLine
  10
12.913
  20
8.310493
  30
0
  11
12.829
  21
8.332893
  31
0
  0
LINE
  5
4b8
  100
AcDbEntity
  8
1
  100
AcDbLine
  10
12.829
  20
8.332893
  30
0
  11
12.745
  21
8.354938
  31
0
  0
LINE
  5
4b9
  100
AcDbEntity
  8
1
  100
AcDbLine
  10
12.745
  20
8.354938
  30
0
  11
12.661
  21
8.376625
  31
0
  0
LINE
  5
4ba
  100
AcDbEntity
  8
1
  100
AcDbLine
  10
12.661
  20
8.376625
  30
0
  11
12.577
  21
8.397955
  31
0
  0
LINE
  5
4bb
  100
AcDbEntity
  8
1
  100
AcDbLine
  10
12.577
  20
8.397955
  30
0
  11
12.493
  21
8.418927
  31
0
  0
LINE
  5
4bc
  100
AcDbEntity
  8
1
  100
AcDbLine
  10
12.493
  20
8.418927
  30
0
  11
12.409
  21
8.439538
  31
0
  0
LINE
  5
4bd
  100
AcDbEntity
  8
1
  100
AcDbLine
  10
12.409
  20
8.439538
  30
0
  11
12.325
  21
8.45979
  31
0
  0
LINE
  5
4be
  100
AcDbEntity
  8
1
  100
AcDbLine
  10
12.325
  20
8.45979
  30
0
  11
12.241
  21
8.47968
  31
0
  0
LINE
  5
4bf
  100
AcDbEntity
  8
1
  100
AcDbLine
  10
12.241
  20
8.47968
  30
0
  11
12.157
  21
8.499208
  31
0
  0
LINE
  5
4c0
  100
AcDbEntity
  8
1
  100
AcDbLine
  10
12.157
  20
8.499208
  30
0
  11
12.073
  21
8.518372
  31
0
  0
LINE
  5
4c1
  100
AcDbEntity
  8
1
  100
AcDbLine
  10
12.073
  20
8.518372
  30
0
  11
11.989
  21
8.537173
  31
0
  0
LINE
  5
4c2
  100
AcDbEntity
  8
1
  100
AcDbLine
  10
11.989
  20
8.537173
  30
0
  11
11.905
  21
8.55561
  31
0
  0
LINE
  5
4c3
  100
AcDbEntity
  8
1
  100
AcDbLine
  10
11.905
  20
8.55561
  30
0
  11
11.821
  21
8.573681
  31
0
  0
LINE
  5
4c4
  100
AcDbEntity
  8
1
  100
AcDbLine
  10
11.821
  20
8.573681
  30
0
  11
11.737
  21
8.591386
  31
0
  0
LINE
  5
4c5
  100
AcDbEntity
  8
1
  100
AcDbLine
  10
11.737
  20
8.591386
  30
0
  11
11.653
  21
8.608723
  31
0
  0
LINE
  5
4c6
  100
AcDbEntity
  8
1
  100
AcDbLine
  10
11.653
  20
8.608723
  30
0
  11
11.569
  21
8.625694
  31
0
  0
LINE
  5
4c7
  100
AcDbEntity
  8
1
  100
AcDbLine
  10
11.569
  20
8.625694
  30
0
  11
11.485
  21
8.642295
  31
0
  0
LINE
  5
4c8
  100
AcDbEntity
  8
1
  100
AcDbLine
  10
11.485
  20
8.642295
  30
0
  11
11.401
  21
8.658528
  31
0
  0
LINE
  5
4c9
  100
AcDbEntity
  8
1
  100
AcDbLine
  10
11.401
  20
8.658528
  30
0
  11
11.317
  21
8.674391
  31
0
  0
LINE
  5
4ca
  100
AcDbEntity
  8
1
  100
AcDbLine
  10
11.317
  20
8.674391
  30
0
  11
11.233
  21
8.689883
  31
0
  0
LINE
  5
4cb
  100
AcDbEntity
  8
1
  100
AcDbLine
  10
11.233
  20
8.689883
  30
0
  11
11.149
  21
8.705005
  31
0
  0
LINE
  5
4cc
  100
AcDbEntity
  8
1
  100
AcDbLine
  10
11.149
  20
8.705005
  30
0
  11
11.065
  21
8.719754
  31
0
  0
LINE
  5
4cd
  100
AcDbEntity
  8
1
  100
AcDbLine
  10
11.065
  20
8.719754
  30
0
  11
10.981
  21
8.734131
  31
0
  0
LINE
  5
4ce
  100
AcDbEntity
  8
1
  100
AcDbLine
  10
10.981
  20
8.734131
  30
0
  11
10.897
  21
8.748135
  31
0
  0
LINE
  5
4cf
  100
AcDbEntity
  8
1
  100
AcDbLine
  10
10.897
  20
8.748135
  30
0
  11
10.813
  21
8.761766
  31
0
  0
LINE
  5
4d0
  100
AcDbEntity
  8
1
  100
AcDbLine
  10
10.813
  20
8.761766
  30
0
  11
10.729
  21
8.775022
  31
0
  0
LINE
  5
4d1
  100
AcDbEntity
  8
1
  100
AcDbLine
  10
10.729
  20
8.775022
  30
0
  11
10.645
  21
8.787903
  31
0
  0
LINE
  5
4d2
  100
AcDbEntity
  8
1
  100
AcDbLine
  10
10.645
  20
8.787903
  30
0
  11
10.561
  21
8.800409
  31
0
  0
LINE
  5
4d3
  100
AcDbEntity
  8
1
  100
AcDbLine
  10
10.561
  20
8.800409
  30
0
  11
10.477
  21
8.81254
  31
0
  0
LINE
  5
4d4
  100
AcDbEntity
  8
1
  100
AcDbLine
  10
10.477
  20
8.81254
  30
0
  11
10.393
  21
8.824293
  31
0
  0
LINE
  5
4d5
  100
AcDbEntity
  8
1
  100
AcDbLine
  10
10.393
  20
8.824293
  30
0
  11
10.309
  21
8.83567
  31
0
  0
LINE
  5
4d6
  100
AcDbEntity
  8
1
  100
AcDbLine
  10
10.309
  20
8.83567
  30
0
  11
10.225
  21
8.84667
  31
0
  0
LINE
  5
4d7
  100
AcDbEntity
  8
1
  100
AcDbLine
  10
10.225
  20
8.84667
  30
0
  11
10.141
  21
8.857292
  31
0
  0
LINE
  5
4d8
  100
AcDbEntity
  8
1
  100
AcDbLine
  10
10.141
  20
8.857292
  30
0
  11
10.057
  21
8.867535
  31
0
  0
LINE
  5
4d9
  100
AcDbEntity
  8
1
  100
AcDbLine
  10
10.057
  20
8.867535
  30
0
  11
9.973
  21
8.8774
  31
0
  0
LINE
  5
4da
  100
AcDbEntity
  8
1
  100
AcDbLine
  10
9.973
  20
8.8774
  30
0
  11
9.889
  21
8.886886
  31
0
  0
LINE
  5
4db
  100
AcDbEntity
  8
1
  100
AcDbLine
  10
9.889
  20
8.886886
  30
0
  11
9.805
  21
8.895992
  31
0
  0
LINE
  5
4dc
  100
AcDbEntity
  8
1
  100
AcDbLine
  10
9.805
  20
8.895992
  30
0
  11
9.721
  21
8.904718
  31
0
  0
LINE
  5
4dd
  100
AcDbEntity
  8
1
  100
AcDbLine
  10
9.721
  20
8.904718
  30
0
  11
9.637
  21
8.913063
  31
0
  0
LINE
  5
4de
  100
AcDbEntity
  8
1
  100
AcDbLine
  10
9.637
  20
8.913063
  30
0
  11
9.553
  21
8.921028
  31
0
  0
LINE
  5
4df
  100
AcDbEntity
  8
1
  100
AcDbLine
  10
9.553
  20
8.921028
  30
0
  11
9.469
  21
8.928613
  31
0
  0
LINE
  5
4e0
  100
AcDbEntity
  8
1
  100
AcDbLine
  10
9.469
  20
8.928613
  30
0
  11
9.385
  21
8.935815
  31
0
  0
LINE
  5
4e1
  100
AcDbEntity
  8
1
  100
AcDbLine
  10
9.385
  20
8.935815
  30
0
  11
9.301
  21
8.942636
  31
0
  0
LINE
  5
4e2
  100
AcDbEntity
  8
1
  100
AcDbLine
  10
9.301
  20
8.942636
  30
0
  11
9.217
  21
8.949076
  31
0
  0
LINE
  5
4e3
  100
AcDbEntity
  8
1
  100
AcDbLine
  10
9.217
  20
8.949076
  30
0
  11
9.133
  21
8.955132
  31
0
  0
LINE
  5
4e4
  100
AcDbEntity
  8
1
  100
AcDbLine
  10
9.133
  20
8.955132
  30
0
  11
9.049
  21
8.960807
  31
0
  0
LINE
  5
4e5
  100
AcDbEntity
  8
1
  100
AcDbLine
  10
9.049
  20
8.960807
  30
0
  11
8.965
  21
8.966099
  31
0
  0
LINE
  5
4e6
  100
AcDbEntity
  8
1
  100
AcDbLine
  10
8.965
  20
8.966099
  30
0
  11
8.881
  21
8.971008
  31
0
  0
LINE
  5
4e7
  100
AcDbEntity
  8
1
  100
AcDbLine
  10
8.881
  20
8.971008
  30
0
  11
8.797
  21
8.975533
  31
0
  0
LINE
  5
4e8
  100
AcDbEntity
  8
1
  100
AcDbLine
  10
8.797
  20
8.975533
  30
0
  11
8.713
  21
8.979676
  31
0
  0
LINE
  5
4e9
  100
AcDbEntity
  8
1
  100
AcDbLine
  10
8.713
  20
8.979676
  30
0
  11
8.629
  21
8.983434
  31
0
  0
LINE
  5
4ea
  100
AcDbEntity
  8
1
  100
AcDbLine
  10
8.629
  20
8.983434
  30
0
  11
8.545
  21
8.98681
  31
0
  0
LINE
  5
4eb
  100
AcDbEntity
  8
1
  100
AcDbLine
  10
8.545
  20
8.98681
  30
0
  11
8.461
  21
8.989801
  31
0
  0
LINE
  5
4ec
  100
AcDbEntity
  8
1
  100
AcDbLine
  10
8.461
  20
8.989801
  30
0
  11
8.377
  21
8.992408
  31
0
  0
LINE
  5
4ed
  100
AcDbEntity
  8
1
  100
AcDbLine
  10
8.377
  20
8.992408
  30
0
  11
8.293
  21
8.994632
  31
0
  0
LINE
  5
4ee
  100
AcDbEntity
  8
1
  100
AcDbLine
  10
8.293
  20
8.994632
  30
0
  11
8.209
  21
8.996471
  31
0
  0
LINE
  5
4ef
  100
AcDbEntity
  8
1
  100
AcDbLine
  10
8.209
  20
8.996471
  30
0
  11
8.125
  21
8.997926
  31
0
  0
LINE
  5
4f0
  100
AcDbEntity
  8
1
  100
AcDbLine
  10
8.125
  20
8.997926
  30
0
  11
8.041
  21
8.998996
  31
0
  0
LINE
  5
4f1
  100
AcDbEntity
  8
1
  100
AcDbLine
  10
8.041
  20
8.998996
  30
0
  11
7.957
  21
8.999682
  31
0
  0
LINE
  5
4f2
  100
AcDbEntity
  8
1
  100
AcDbLine
  10
7.957
  20
8.999682
  30
0
  11
7.873
  21
8.999984
  31
0
  0
LINE
  5
4f3
  100
AcDbEntity
  8
1
  100
AcDbLine
  10
7.873
  20
8.999984
  30
0
  11
7.849027
  21
9
  31
0
  0
LINE
  5
4f4
  100
AcDbEntity
  8
1
  100
AcDbLine
  10
0.061
  20
2.588708
  30
0
  11
0
  21
2.629575
  31
0
  0
LINE
  5
4f5
  100
AcDbEntity
  8
1
  100
AcDbLine
  10
0
  20
-7.373392
  30
0
  11
0.061
  21
-7.397832
  31
0
  0
LINE
  5
4f6
  100
AcDbEntity
  8
1
  100
AcDbLine
  10
-0
  20
5.160659
  30
0
  11
0.061
  21
5.12563
  31
0
  0
LINE
  5
4f7
  100
AcDbEntity
  8
1
  100
AcDbLine
  10
0.061
  20
-8.619663
  30
0
  11
-0
  21
-8.607244
  31
0
  0
LINE
  5
4f8
  100
AcDbEntity
  8
1
  100
AcDbLine
  10
24.001
  20
0.941528
  30
0
  11
23.917
  21
0.985623
  31
0
  0
LINE
  5
4f9
  100
AcDbEntity
  8
1
  100
AcDbLine
  10
23.917
  20
0.985623
  30
0
  11
23.833
  21
1.030788
  31
0
  0
LINE
  5
4fa
  100
AcDbEntity
  8
1
  100
AcDbLine
  10
23.833
  20
1.030788
  30
0
  11
23.749
  21
1.077021
  31
0
  0
LINE
  5
4fb
  100
AcDbEntity
  8
1
  100
AcDbLine
  10
23.749
  20
1.077021
  30
0
  11
23.665
  21
1.12432
  31
0
  0
LINE
  5
4fc
  100
AcDbEntity
  8
1
  100
AcDbLine
  10
23.665
  20
1.12432
  30
0
  11
23.581
  21
1.174783
  31
0
  0
LINE
  5
4fd
  100
AcDbEntity
  8
1
  100
AcDbLine
  10
23.581
  20
1.174783
  30
0
  11
23.497
  21
1.232333
  31
0
  0
LINE
  5
4fe
  100
AcDbEntity
  8
1
  100
AcDbLine
  10
23.497
  20
1.232333
  30
0
  11
23.413
  21
1.289831
  31
0
  0
LINE
  5
4ff
  100
AcDbEntity
  8
1
  100
AcDbLine
  10
23.413
  20
1.289831
  30
0
  11
23.329
  21
1.347274
  31
0
  0
LINE
  5
500
  100
AcDbEntity
  8
1
  100
AcDbLine
  10
23.329
  20
1.347274
  30
0
  11
23.245
  21
1.404659
  31
0
  0
LINE
  5
501
  100
AcDbEntity
  8
1
  100
AcDbLine
  10
23.245
  20
1.404659
  30
0
  11
23.161
  21
1.461984
  31
0
  0
LINE
  5
502
  100
AcDbEntity
  8
1
  100
AcDbLine
  10
23.161
  20
1.461984
  30
0
  11
23.077
  21
1.519247
  31
0
  0
LINE
  5
503
  100
AcDbEntity
  8
1
  100
AcDbLine
  10
23.077
  20
1.519247
  30
0
  11
22.993
  21
1.576445
  31
0
  0
LINE
  5
504
  100
AcDbEntity
  8
1
  100
AcDbLine
  10
22.993
  20
1.576445
  30
0
  11
22.909
  21
1.633576
  31
0
  0
LINE
  5
505
  100
AcDbEntity
  8
1
  100
AcDbLine
  10
22.909
  20
1.633576
  30
0
  11
22.825
  21
1.690636
  31
0
  0
LINE
  5
506
  100
AcDbEntity
  8
1
  100
AcDbLine
  10
22.825
  20
1.690636
  30
0
  11
22.741
  21
1.747625
  31
0
  0
LINE
  5
507
  100
AcDbEntity
  8
1
  100
AcDbLine
  10
22.741
  20
1.747625
  30
0
  11
22.657
  21
1.804539
  31
0
  0
LINE
  5
508
  100
AcDbEntity
  8
1
  100
AcDbLine
  10
22.657
  20
1.804539
  30
0
  11
22.573
  21
1.861376
  31
0
  0
LINE
  5
509
  100
AcDbEntity
  8
1
  100
AcDbLine
  10
22.573
  20
1.861376
  30
0
  11
22.489
  21
1.918133
  31
0
  0
LINE
  5
50a
  100
AcDbEntity
  8
1
  100
AcDbLine
  10
22.489
  20
1.918133
  30
0
  11
22.405
  21
1.974809
  31
0
  0
LINE
  5
50b
  100
AcDbEntity
  8
1
  100
AcDbLine
  10
22.405
  20
1.974809
  30
0
  11
22.321
  21
2.0314
  31
0
  0
LINE
  5
50c
  100
AcDbEntity
  8
1
  100
AcDbLine
  10
22.321
  20
2.0314
  30
0
  11
22.237
  21
2.087904
  31
0
  0
LINE
  5
50d
  100
AcDbEntity
  8
1
  100
AcDbLine
  10
22.237
  20
2.087904
  30
0
  11
22.153
  21
2.144319
  31
0
  0
LINE
  5
50e
  100
AcDbEntity
  8
1
  100
AcDbLine
  10
22.153
  20
2.144319
  30
0
  11
22.069
  21
2.200643
  31
0
  0
LINE
  5
50f
  100
AcDbEntity
  8
1
  100
AcDbLine
  10
22.069
  20
2.200643
  30
0
  11
21.985
  21
2.256873
  31
0
  0
LINE
  5
510
  100
AcDbEntity
  8
1
  100
AcDbLine
  10
21.985
  20
2.256873
  30
0
  11
21.901
  21
2.313006
  31
0
  0
LINE
  5
511
  100
AcDbEntity
  8
1
  100
AcDbLine
  10
21.901
  20
2.313006
  30
0
  11
21.817
  21
2.36904
  31
0
  0
LINE
  5
512
  100
AcDbEntity
  8
1
  100
AcDbLine
  10
21.817
  20
2.36904
  30
0
  11
21.733
  21
2.424974
  31
0
  0
LINE
  5
513
  100
AcDbEntity
  8
1
  100
AcDbLine
  10
21.733
  20
2.424974
  30
0
  11
21.649
  21
2.480803
  31
0
  0
LINE
  5
514
  100
AcDbEntity
  8
1
  100
AcDbLine
  10
21.649
  20
2.480803
  30
0
  11
21.565
  21
2.536527
  31
0
  0
LINE
  5
515
  100
AcDbEntity
  8
1
  100
AcDbLine
  10
21.565
  20
2.536527
  30
0
  11
21.481
  21
2.592142
  31
0
  0
LINE
  5
516
  100
AcDbEntity
  8
1
  100
AcDbLine
  10
21.481
  20
2.592142
  30
0
  11
21.397
  21
2.647647
  31
0
  0
LINE
  5
517
  100
AcDbEntity
  8
1
  100
AcDbLine
  10
21.397
  20
2.647647
  30
0
  11
21.313
  21
2.703039
  31
0
  0
LINE
  5
518
  100
AcDbEntity
  8
1
  100
AcDbLine
  10
21.313
  20
2.703039
  30
0
  11
21.229
  21
2.758315
  31
0
  0
LINE
  5
519
  100
AcDbEntity
  8
1
  100
AcDbLine
  10
21.229
  20
2.758315
  30
0
  11
21.145
  21
2.813473
  31
0
  0
LINE
  5
51a
  100
AcDbEntity
  8
1
  100
AcDbLine
  10
21.145
  20
2.813473
  30
0
  11
21.061
  21
2.868511
  31
0
  0
LINE
  5
51b
  100
AcDbEntity
  8
1
  100
AcDbLine
  10
21.061
  20
2.868511
  30
0
  11
20.977
  21
2.923427
  31
0
  0
LINE
  5
51c
  100
AcDbEntity
  8
1
  100
AcDbLine
  10
20.977
  20
2.923427
  30
0
  11
20.893
  21
2.978218
  31
0
  0
LINE
  5
51d
  100
AcDbEntity
  8
1
  100
AcDbLine
  10
20.893
  20
2.978218
  30
0
  11
20.809
  21
3.032882
  31
0
  0
LINE
  5
51e
  100
AcDbEntity
  8
1
  100
AcDbLine
  10
20.809
  20
3.032882
  30
0
  11
20.725
  21
3.087416
  31
0
  0
LINE
  5
51f
  100
AcDbEntity
  8
1
  100
AcDbLine
  10
20.725
  20
3.087416
  30
0
  11
20.641
  21
3.141818
  31
0
  0
LINE
  5
520
  100
AcDbEntity
  8
1
  100
AcDbLine
  10
20.641
  20
3.141818
  30
0
  11
20.557
  21
3.196086
  31
0
  0
LINE
  5
521
  100
AcDbEntity
  8
1
  100
AcDbLine
  10
20.557
  20
3.196086
  30
0
  11
20.473
  21
3.250218
  31
0
  0
LINE
  5
522
  100
AcDbEntity
  8
1
  100
AcDbLine
  10
20.473
  20
3.250218
  30
0
  11
20.389
  21
3.30421
  31
0
  0
LINE
  5
523
  100
AcDbEntity
  8
1
  100
AcDbLine
  10
20.389
  20
3.30421
  30
0
  11
20.305
  21
3.358062
  31
0
  0
LINE
  5
524
  100
AcDbEntity
  8
1
  100
AcDbLine
  10
20.305
  20
3.358062
  30
0
  11
20.221
  21
3.41177
  31
0
  0
LINE
  5
525
  100
AcDbEntity
  8
1
  100
AcDbLine
  10
20.221
  20
3.41177
  30
0
  11
20.137
  21
3.465333
  31
0
  0
LINE
  5
526
  100
AcDbEntity
  8
1
  100
AcDbLine
  10
20.137
  20
3.465333
  30
0
  11
20.053
  21
3.518747
  31
0
  0
LINE
  5
527
  100
AcDbEntity
  8
1
  100
AcDbLine
  10
20.053
  20
3.518747
  30
0
  11
19.969
  21
3.572011
  31
0
  0
LINE
  5
528
  100
AcDbEntity
  8
1
  100
AcDbLine
  10
19.969
  20
3.572011
  30
0
  11
19.885
  21
3.625123
  31
0
  0
LINE
  5
529
  100
AcDbEntity
  8
1
  100
AcDbLine
  10
19.885
  20
3.625123
  30
0
  11
19.801
  21
3.67808
  31
0
  0
LINE
  5
52a
  100
AcDbEntity
  8
1
  100
AcDbLine
  10
19.801
  20
3.67808
  30
0
  11
19.717
  21
3.730879
  31
0
  0
LINE
  5
52b
  100
AcDbEntity
  8
1
  100
AcDbLine
  10
19.717
  20
3.730879
  30
0
  11
19.633
  21
3.78352
  31
0
  0
LINE
  5
52c
  100
AcDbEntity
  8
1
  100
AcDbLine
  10
19.633
  20
3.78352
  30
0
  11
19.549
  21
3.835998
  31
0
  0
LINE
  5
52d
  100
AcDbEntity
  8
1
  100
AcDbLine
  10
19.549
  20
3.835998
  30
0
  11
19.465
  21
3.888313
  31
0
  0
LINE
  5
52e
  100
AcDbEntity
  8
1
  100
AcDbLine
  10
19.465
  20
3.888313
  30
0
  11
19.381
  21
3.940462
  31
0
  0
LINE
  5
52f
  100
AcDbEntity
  8
1
  100
AcDbLine
  10
19.381
  20
3.940462
  30
0
  11
19.297
  21
3.992443
  31
0
  0
LINE
  5
530
  100
AcDbEntity
  8
1
  100
AcDbLine
  10
19.297
  20
3.992443
  30
0
  11
19.213
  21
4.044253
  31
0
  0
LINE
  5
531
  100
AcDbEntity
  8
1
  100
AcDbLine
  10
19.213
  20
4.044253
  30
0
  11
19.129
  21
4.09589
  31
0
  0
LINE
  5
532
  100
AcDbEntity
  8
1
  100
AcDbLine
  10
19.129
  20
4.09589
  30
0
  11
19.045
  21
4.147353
  31
0
  0
LINE
  5
533
  100
AcDbEntity
  8
1
  100
AcDbLine
  10
19.045
  20
4.147353
  30
0
  11
18.961
  21
4.198638
  31
0
  0
LINE
  5
534
  100
AcDbEntity
  8
1
  100
AcDbLine
  10
18.961
  20
4.198638
  30
0
  11
18.877
  21
4.249744
  31
0
  0
LINE
  5
535
  100
AcDbEntity
  8
1
  100
AcDbLine
  10
18.877
  20
4.249744
  30
0
  11
18.793
  21
4.300668
  31
0
  0
LINE
  5
536
  100
AcDbEntity
  8
1
  100
AcDbLine
  10
18.793
  20
4.300668
  30
0
  11
18.709
  21
4.351409
  31
0
  0
LINE
  5
537
  100
AcDbEntity
  8
1
  100
AcDbLine
  10
18.709
  20
4.351409
  30
0
  11
18.625
  21
4.401964
  31
0
  0
LINE
  5
538
  100
AcDbEntity
  8
1
  100
AcDbLine
  10
18.625
  20
4.401964
  30
0
  11
18.541
  21
4.452331
  31
0
  0
LINE
  5
539
  100
AcDbEntity
  8
1
  100
AcDbLine
  10
18.541
  20
4.452331
  30
0
  11
18.457
  21
4.502508
  31
0
  0
LINE
  5
53a
  100
AcDbEntity
  8
1
  100
AcDbLine
  10
18.457
  20
4.502508
  30
0
  11
18.373
  21
4.552492
  31
0
  0
LINE
  5
53b
  100
AcDbEntity
  8
1
  100
AcDbLine
  10
18.373
  20
4.552492
  30
0
  11
18.289
  21
4.602282
  31
0
  0
LINE
  5
53c
  100
AcDbEntity
  8
1
  100
AcDbLine
  10
18.289
  20
4.602282
  30
0
  11
18.205
  21
4.651875
  31
0
  0
LINE
  5
53d
  100
AcDbEntity
  8
1
  100
AcDbLine
  10
18.205
  20
4.651875
  30
0
  11
18.121
  21
4.70127
  31
0
  0
LINE
  5
53e
  100
AcDbEntity
  8
1
  100
AcDbLine
  10
18.121
  20
4.70127
  30
0
  11
18.037
  21
4.750464
  31
0
  0
LINE
  5
53f
  100
AcDbEntity
  8
1
  100
AcDbLine
  10
18.037
  20
4.750464
  30
0
  11
17.953
  21
4.799455
  31
0
  0
LINE
  5
540
  100
AcDbEntity
  8
1
  100
AcDbLine
  10
17.953
  20
4.799455
  30
0
  11
17.869
  21
4.848241
  31
0
  0
LINE
  5
541
  100
AcDbEntity
  8
1
  100
AcDbLine
  10
17.869
  20
4.848241
  30
0
  11
17.785
  21
4.89682
  31
0
  0
LINE
  5
542
  100
AcDbEntity
  8
1
  100
AcDbLine
  10
17.785
  20
4.89682
  30
0
  11
17.701
  21
4.94519
  31
0
  0
LINE
  5
543
  100
AcDbEntity
  8
1
  100
AcDbLine
  10
17.701
  20
4.94519
  30
0
  11
17.617
  21
4.993349
  31
0
  0
LINE
  5
544
  100
AcDbEntity
  8
1
  100
AcDbLine
  10
17.617
  20
4.993349
  30
0
  11
17.533
  21
5.041294
  31
0
  0
LINE
  5
545
  100
AcDbEntity
  8
1
  100
AcDbLine
  10
17.533
  20
5.041294
  30
0
  11
17.449
  21
5.089025
  31
0
  0
LINE
  5
546
  100
AcDbEntity
  8
1
  100
AcDbLine
  10
17.449
  20
5.089025
  30
0
  11
17.365
  21
5.136537
  31
0
  0
LINE
  5
547
  100
AcDbEntity
  8
1
  100
AcDbLine
  10
17.365
  20
5.136537
  30
0
  11
17.281
  21
5.183831
  31
0
  0
LINE
  5
548
  100
AcDbEntity
  8
1
  100
AcDbLine
  10
17.281
  20
5.183831
  30
0
  11
17.197
  21
5.230903
  31
0
  0
LINE
  5
549
  100
AcDbEntity
  8
1
  100
AcDbLine
  10
17.197
  20
5.230903
  30
0
  11
17.113
  21
5.277751
  31
0
  0
LINE
  5
54a
  100
AcDbEntity
  8
1
  100
AcDbLine
  10
17.113
  20
5.277751
  30
0
  11
17.029
  21
5.324374
  31
0
  0
LINE
  5
54b
  100
AcDbEntity
  8
1
  100
AcDbLine
  10
17.029
  20
5.324374
  30
0
  11
16.945
  21
5.37077
  31
0
  0
LINE
  5
54c
  100
AcDbEntity
  8
1
  100
AcDbLine
  10
16.945
  20
5.37077
  30
0
  11
16.861
  21
5.416937
  31
0
  0
LINE
  5
54d
  100
AcDbEntity
  8
1
  100
AcDbLine
  10
16.861
  20
5.416937
  30
0
  11
16.777
  21
5.462872
  31
0
  0
LINE
  5
54e
  100
AcDbEntity
  8
1
  100
AcDbLine
  10
16.777
  20
5.462872
  30
0
  11
16.693
  21
5.508573
  31
0
  0
LINE
  5
54f
  100
AcDbEntity
  8
1
  100
AcDbLine
  10
16.693
  20
5.508573
  30
0
  11
16.609
  21
5.55404
  31
0
  0
LINE
  5
550
  100
AcDbEntity
  8
1
  100
AcDbLine
  10
16.609
  20
5.55404
  30
0
  11
16.525
  21
5.599269
  31
0
  0
LINE
  5
551
  100
AcDbEntity
  8
1
  100
AcDbLine
  10
16.525
  20
5.599269
  30
0
  11
16.441
  21
5.644259
  31
0
  0
LINE
  5
552
  100
AcDbEntity
  8
1
  100
AcDbLine
  10
16.441
  20
5.644259
  30
0
  11
16.357
  21
5.689008
  31
0
  0
LINE
  5
553
  100
AcDbEntity
  8
1
  100
AcDbLine
  10
16.357
  20
5.689008
  30
0
  11
16.273
  21
5.733514
  31
0
  0
LINE
  5
554
  100
AcDbEntity
  8
1
  100
AcDbLine
  10
16.273
  20
5.733514
  30
0
  11
16.189
  21
5.777775
  31
0
  0
LINE
  5
555
  100
AcDbEntity
  8
1
  100
AcDbLine
  10
16.189
  20
5.777775
  30
0
  11
16.105
  21
5.82179
  31
0
  0
LINE
  5
556
  100
AcDbEntity
  8
1
  100
AcDbLine
  10
16.105
  20
5.82179
  30
0
  11
16.021
  21
5.865556
  31
0
  0
LINE
  5
557
  100
AcDbEntity
  8
1
  100
AcDbLine
  10
16.021
  20
5.865556
  30
0
  11
15.937
  21
5.909071
  31
0
  0
LINE
  5
558
  100
AcDbEntity
  8
1
  100
AcDbLine
  10
15.937
  20
5.909071
  30
0
  11
15.853
  21
5.952334
  31
0
  0
LINE
  5
559
  100
AcDbEntity
  8
1
  100
AcDbLine
  10
15.853
  20
5.952334
  30
0
  11
15.769
  21
5.995342
  31
0
  0
LINE
  5
55a
  100
AcDbEntity
  8
1
  100
AcDbLine
  10
15.769
  20
5.995342
  30
0
  11
15.685
  21
6.038095
  31
0
  0
LINE
  5
55b
  100
AcDbEntity
  8
1
  100
AcDbLine
  10
15.685
  20
6.038095
  30
0
  11
15.601
  21
6.08059
  31
0
  0
LINE
  5
55c
  100
AcDbEntity
  8
1
  100
AcDbLine
  10
15.601
  20
6.08059
  30
0
  11
15.517
  21
6.122825
  31
0
  0
LINE
  5
55d
  100
AcDbEntity
  8
1
  100
AcDbLine
  10
15.517
  20
6.122825
  30
0
  11
15.433
  21
6.164798
  31
0
  0
LINE
  5
55e
  100
AcDbEntity
  8
1
  100
AcDbLine
  10
15.433
  20
6.164798
  30
0
  11
15.349
  21
6.206508
  31
0
  0
LINE
  5
55f
  100
AcDbEntity
  8
1
  100
AcDbLine
  10
15.349
  20
6.206508
  30
0
  11
15.265
  21
6.247953
  31
0
  0
LINE
  5
560
  100
AcDbEntity
  8
1
  100
AcDbLine
  10
15.265
  20
6.247953
  30
0
  11
15.181
  21
6.289132
  31
0
  0
LINE
  5
561
  100
AcDbEntity
  8
1
  100
AcDbLine
  10
15.181
  20
6.289132
  30
0
  11
15.097
  21
6.330041
  31
0
  0
LINE
  5
562
  100
AcDbEntity
  8
1
  100
AcDbLine
  10
15.097
  20
6.330041
  30
0
  11
15.013
  21
6.370681
  31
0
  0
LINE
  5
563
  100
AcDbEntity
  8
1
  100
AcDbLine
  10
15.013
  20
6.370681
  30
0
  11
14.929
  21
6.411048
  31
0
  0
LINE
  5
564
  100
AcDbEntity
  8
1
  100
AcDbLine
  10
14.929
  20
6.411048
  30
0
  11
14.845
  21
6.451141
  31
0
  0
LINE
  5
565
  100
AcDbEntity
  8
1
  100
AcDbLine
  10
14.845
  20
6.451141
  30
0
  11
14.761
  21
6.490959
  31
0
  0
LINE
  5
566
  100
AcDbEntity
  8
1
  100
AcDbLine
  10
14.761
  20
6.490959
  30
0
  11
14.677
  21
6.5305
  31
0
  0
LINE
  5
567
  100
AcDbEntity
  8
1
  100
AcDbLine
  10
14.677
  20
6.5305
  30
0
  11
14.593
  21
6.569762
  31
0
  0
LINE
  5
568
  100
AcDbEntity
  8
1
  100
AcDbLine
  10
14.593
  20
6.569762
  30
0
  11
14.509
  21
6.608743
  31
0
  0
LINE
  5
569
  100
AcDbEntity
  8
1
  100
AcDbLine
  10
14.509
  20
6.608743
  30
0
  11
14.425
  21
6.647442
  31
0
  0
LINE
  5
56a
  100
AcDbEntity
  8
1
  100
AcDbLine
  10
14.425
  20
6.647442
  30
0
  11
14.341
  21
6.685857
  31
0
  0
LINE
  5
56b
  100
AcDbEntity
  8
1
  100
AcDbLine
  10
14.341
  20
6.685857
  30
0
  11
14.257
  21
6.723986
  31
0
  0
LINE
  5
56c
  100
AcDbEntity
  8
1
  100
AcDbLine
  10
14.257
  20
6.723986
  30
0
  11
14.173
  21
6.761828
  31
0
  0
LINE
  5
56d
  100
AcDbEntity
  8
1
  100
AcDbLine
  10
14.173
  20
6.761828
  30
0
  11
14.089
  21
6.799382
  31
0
  0
LINE
  5
56e
  100
AcDbEntity
  8
1
  100
AcDbLine
  10
14.089
  20
6.799382
  30
0
  11
14.005
  21
6.836645
  31
0
  0
LINE
  5
56f
  100
AcDbEntity
  8
1
  100
AcDbLine
  10
14.005
  20
6.836645
  30
0
  11
13.921
  21
6.873616
  31
0
  0
LINE
  5
570
  100
AcDbEntity
  8
1
  100
AcDbLine
  10
13.921
  20
6.873616
  30
0
  11
13.837
  21
6.910293
  31
0
  0
LINE
  5
571
  100
AcDbEntity
  8
1
  100
AcDbLine
  10
13.837
  20
6.910293
  30
0
  11
13.753
  21
6.946676
  31
0
  0
LINE
  5
572
  100
AcDbEntity
  8
1
  100
AcDbLine
  10
13.753
  20
6.946676
  30
0
  11
13.669
  21
6.982762
  31
0
  0
LINE
  5
573
  100
AcDbEntity
  8
1
  100
AcDbLine
  10
13.669
  20
6.982762
  30
0
  11
13.585
  21
7.018549
  31
0
  0
LINE
  5
574
  100
AcDbEntity
  8
1
  100
AcDbLine
  10
13.585
  20
7.018549
  30
0
  11
13.501
  21
7.054037
  31
0
  0
LINE
  5
575
  100
AcDbEntity
  8
1
  100
AcDbLine
  10
13.501
  20
7.054037
  30
0
  11
13.417
  21
7.089223
  31
0
  0
LINE
  5
576
  100
AcDbEntity
  8
1
  100
AcDbLine
  10
13.417
  20
7.089223
  30
0
  11
13.333
  21
7.124107
  31
0
  0
LINE
  5
577
  100
AcDbEntity
  8
1
  100
AcDbLine
  10
13.333
  20
7.124107
  30
0
  11
13.249
  21
7.158686
  31
0
  0
LINE
  5
578
  100
AcDbEntity
  8
1
  100
AcDbLine
  10
13.249
  20
7.158686
  30
0
  11
13.165
  21
7.19296
  31
0
  0
LINE
  5
579
  100
AcDbEntity
  8
1
  100
AcDbLine
  10
13.165
  20
7.19296
  30
0
  11
13.081
  21
7.226926
  31
0
  0
LINE
  5
57a
  100
AcDbEntity
  8
1
  100
AcDbLine
  10
13.081
  20
7.226926
  30
0
  11
12.997
  21
7.260584
  31
0
  0
LINE
  5
57b
  100
AcDbEntity
  8
1
  100
AcDbLine
  10
12.997
  20
7.260584
  30
0
  11
12.913
  21
7.293932
  31
0
  0
LINE
  5
57c
  100
AcDbEntity
  8
1
  100
AcDbLine
  10
12.913
  20
7.293932
  30
0
  11
12.829
  21
7.326968
  31
0
  0
LINE
  5
57d
  100
AcDbEntity
  8
1
  100
AcDbLine
  10
12.829
  20
7.326968
  30
0
  11
12.745
  21
7.359691
  31
0
  0
LINE
  5
57e
  100
AcDbEntity
  8
1
  100
AcDbLine
  10
12.745
  20
7.359691
  30
0
  11
12.661
  21
7.3921
  31
0
  0
LINE
  5
57f
  100
AcDbEntity
  8
1
  100
AcDbLine
  10
12.661
  20
7.3921
  30
0
  11
12.577
  21
7.424193
  31
0
  0
LINE
  5
580
  100
AcDbEntity
  8
1
  100
AcDbLine
  10
12.577
  20
7.424193
  30
0
  11
12.493
  21
7.455969
  31
0
  0
LINE
  5
581
  100
AcDbEntity
  8
1
  100
AcDbLine
  10
12.493
  20
7.455969
  30
0
  11
12.409
  21
7.487427
  31
0
  0
LINE
  5
582
  100
AcDbEntity
  8
1
  100
AcDbLine
  10
12.409
  20
7.487427
  30
0
  11
12.325
  21
7.518565
  31
0
  0
LINE
  5
583
  100
AcDbEntity
  8
1
  100
AcDbLine
  10
12.325
  20
7.518565
  30
0
  11
12.241
  21
7.549381
  31
0
  0
LINE
  5
584
  100
AcDbEntity
  8
1
  100
AcDbLine
  10
12.241
  20
7.549381
  30
0
  11
12.157
  21
7.579876
  31
0
  0
LINE
  5
585
  100
AcDbEntity
  8
1
  100
AcDbLine
  10
12.157
  20
7.579876
  30
0
  11
12.073
  21
7.610046
  31
0
  0
LINE
  5
586
  100
AcDbEntity
  8
1
  100
AcDbLine
  10
12.073
  20
7.610046
  30
0
  11
11.989
  21
7.639892
  31
0
  0
LINE
  5
587
  100
AcDbEntity
  8
1
  100
AcDbLine
  10
11.989
  20
7.639892
  30
0
  11
11.905
  21
7.669411
  31
0
  0
LINE
  5
588
  100
AcDbEntity
  8
1
  100
AcDbLine
  10
11.905
  20
7.669411
  30
0
  11
11.821
  21
7.698603
  31
0
  0
LINE
  5
589
  100
AcDbEntity
  8
1
  100
AcDbLine
  10
11.821
  20
7.698603
  30
0
  11
11.737
  21
7.727466
  31
0
  0
LINE
  5
58a
  100
AcDbEntity
  8
1
  100
AcDbLine
  10
11.737
  20
7.727466
  30
0
  11
11.653
  21
7.755998
  31
0
  0
LINE
  5
58b
  100
AcDbEntity
  8
1
  100
AcDbLine
  10
11.653
  20
7.755998
  30
0
  11
11.569
  21
7.7842
  31
0
  0
LINE
  5
58c
  100
AcDbEntity
  8
1
  100
AcDbLine
  10
11.569
  20
7.7842
  30
0
  11
11.485
  21
7.812069
  31
0
  0
LINE
  5
58d
  100
AcDbEntity
  8
1
  100
AcDbLine
  10
11.485
  20
7.812069
  30
0
  11
11.401
  21
7.839605
  31
0
  0
LINE
  5
58e
  100
AcDbEntity
  8
1
  100
AcDbLine
  10
11.401
  20
7.839605
  30
0
  11
11.317
  21
7.866805
  31
0
  0
LINE
  5
58f
  100
AcDbEntity
  8
1
  100
AcDbLine
  10
11.317
  20
7.866805
  30
0
  11
11.233
  21
7.89367
  31
0
  0
LINE
  5
590
  100
AcDbEntity
  8
1
  100
AcDbLine
  10
11.233
  20
7.89367
  30
0
  11
11.149
  21
7.920198
  31
0
  0
LINE
  5
591
  100
AcDbEntity
  8
1
  100
AcDbLine
  10
11.149
  20
7.920198
  30
0
  11
11.065
  21
7.946387
  31
0
  0
LINE
  5
592
  100
AcDbEntity
  8
1
  100
AcDbLine
  10
11.065
  20
7.946387
  30
0
  11
10.981
  21
7.972237
  31
0
  0
LINE
  5
593
  100
AcDbEntity
  8
1
  100
AcDbLine
  10
10.981
  20
7.972237
  30
0
  11
10.897
  21
7.997746
  31
0
  0
LINE
  5
594
  100
AcDbEntity
  8
1
  100
AcDbLine
  10
10.897
  20
7.997746
  30
0
  11
10.813
  21
8.022914
  31
0
  0
LINE
  5
595
  100
AcDbEntity
  8
1
  100
AcDbLine
  10
10.813
  20
8.022914
  30
0
  11
10.729
  21
8.047739
  31
0
  0
LINE
  5
596
  100
AcDbEntity
  8
1
  100
AcDbLine
  10
10.729
  20
8.047739
  30
0
  11
10.645
  21
8.07222
  31
0
  0
LINE
  5
597
  100
AcDbEntity
  8
1
  100
AcDbLine
  10
10.645
  20
8.07222
  30
0
  11
10.561
  21
8.096357
  31
0
  0
LINE
  5
598
  100
AcDbEntity
  8
1
  100
AcDbLine
  10
10.561
  20
8.096357
  30
0
  11
10.477
  21
8.120148
  31
0
  0
LINE
  5
599
  100
AcDbEntity
  8
1
  100
AcDbLine
  10
10.477
  20
8.120148
  30
0
  11
10.393
  21
8.143592
  31
0
  0
LINE
  5
59a
  100
AcDbEntity
  8
1
  100
AcDbLine
  10
10.393
  20
8.143592
  30
0
  11
10.309
  21
8.166688
  31
0
  0
LINE
  5
59b
  100
AcDbEntity
  8
1
  100
AcDbLine
  10
10.309
  20
8.166688
  30
0
  11
10.225
  21
8.189436
  31
0
  0
LINE
  5
59c
  100
AcDbEntity
  8
1
  100
AcDbLine
  10
10.225
  20
8.189436
  30
0
  11
10.141
  21
8.211834
  31
0
  0
LINE
  5
59d
  100
AcDbEntity
  8
1
  100
AcDbLine
  10
10.141
  20
8.211834
  30
0
  11
10.057
  21
8.233881
  31
0
  0
LINE
  5
59e
  100
AcDbEntity
  8
1
  100
AcDbLine
  10
10.057
  20
8.233881
  30
0
  11
9.973
  21
8.255576
  31
0
  0
LINE
  5
59f
  100
AcDbEntity
  8
1
  100
AcDbLine
  10
9.973
  20
8.255576
  30
0
  11
9.889
  21
8.276919
  31
0
  0
LINE
  5
5a0
  100
AcDbEntity
  8
1
  100
AcDbLine
  10
9.889
  20
8.276919
  30
0
  11
9.805
  21
8.297908
  31
0
  0
LINE
  5
5a1
  100
AcDbEntity
  8
1
  100
AcDbLine
  10
9.805
  20
8.297908
  30
0
  11
9.721
  21
8.318543
  31
0
  0
LINE
  5
5a2
  100
AcDbEntity
  8
1
  100
AcDbLine
  10
9.721
  20
8.318543
  30
0
  11
9.637
  21
8.338822
  31
0
  0
LINE
  5
5a3
  100
AcDbEntity
  8
1
  100
AcDbLine
  10
9.637
  20
8.338822
  30
0
  11
9.553
  21
8.358746
  31
0
  0
LINE
  5
5a4
  100
AcDbEntity
  8
1
  100
AcDbLine
  10
9.553
  20
8.358746
  30
0
  11
9.469
  21
8.378312
  31
0
  0
LINE
  5
5a5
  100
AcDbEntity
  8
1
  100
AcDbLine
  10
9.469
  20
8.378312
  30
0
  11
9.385
  21
8.397521
  31
0
  0
LINE
  5
5a6
  100
AcDbEntity
  8
1
  100
AcDbLine
  10
9.385
  20
8.397521
  30
0
  11
9.301
  21
8.41637
  31
0
  0
LINE
  5
5a7
  100
AcDbEntity
  8
1
  100
AcDbLine
  10
9.301
  20
8.41637
  30
0
  11
9.217
  21
8.434861
  31
0
  0
LINE
  5
5a8
  100
AcDbEntity
  8
1
  100
AcDbLine
  10
9.217
  20
8.434861
  30
0
  11
9.133
  21
8.452991
  31
0
  0
LINE
  5
5a9
  100
AcDbEntity
  8
1
  100
AcDbLine
  10
9.133
  20
8.452991
  30
0
  11
9.049
  21
8.47076
  31
0
  0
LINE
  5
5aa
  100
AcDbEntity
  8
1
  100
AcDbLine
  10
9.049
  20
8.47076
  30
0
  11
8.965
  21
8.488168
  31
0
  0
LINE
  5
5ab
  100
AcDbEntity
  8
1
  100
AcDbLine
  10
8.965
  20
8.488168
  30
0
  11
8.881
  21
8.505212
  31
0
  0
LINE
  5
5ac
  100
AcDbEntity
  8
1
  100
AcDbLine
  10
8.881
  20
8.505212
  30
0
  11
8.797
  21
8.521894
  31
0
  0
LINE
  5
5ad
  100
AcDbEntity
  8
1
  100
AcDbLine
  10
8.797
  20
8.521894
  30
0
  11
8.713
  21
8.538212
  31
0
  0
LINE
  5
5ae
  100
AcDbEntity
  8
1
  100
AcDbLine
  10
8.713
  20
8.538212
  30
0
  11
8.629
  21
8.554165
  31
0
  0
LINE
  5
5af
  100
AcDbEntity
  8
1
  100
AcDbLine
  10
8.629
  20
8.554165
  30
0
  11
8.545
  21
8.569752
  31
0
  0
LINE
  5
5b0
  100
AcDbEntity
  8
1
  100
AcDbLine
  10
8.545
  20
8.569752
  30
0
  11
8.461
  21
8.584974
  31
0
  0
LINE
  5
5b1
  100
AcDbEntity
  8
1
  100
AcDbLine
  10
8.461
  20
8.584974
  30
0
  11
8.377
  21
8.599829
  31
0
  0
LINE
  5
5b2
  100
AcDbEntity
  8
1
  100
AcDbLine
  10
8.377
  20
8.599829
  30
0
  11
8.293
  21
8.614317
  31
0
  0
LINE
  5
5b3
  100
AcDbEntity
  8
1
  100
AcDbLine
  10
8.293
  20
8.614317
  30
0
  11
8.209
  21
8.628436
  31
0
  0
LINE
  5
5b4
  100
AcDbEntity
  8
1
  100
AcDbLine
  10
8.209
  20
8.628436
  30
0
  11
8.125
  21
8.642188
  31
0
  0
LINE
  5
5b5
  100
AcDbEntity
  8
1
  100
AcDbLine
  10
8.125
  20
8.642188
  30
0
  11
8.041
  21
8.65557
  31
0
  0
LINE
  5
5b6
  100
AcDbEntity
  8
1
  100
AcDbLine
  10
8.041
  20
8.65557
  30
0
  11
7.957
  21
8.668582
  31
0
  0
LINE
  5
5b7
  100
AcDbEntity
  8
1
  100
AcDbLine
  10
7.957
  20
8.668582
  30
0
  11
7.873
  21
8.681224
  31
0
  0
LINE
  5
5b8
  100
AcDbEntity
  8
1
  100
AcDbLine
  10
7.873
  20
8.681224
  30
0
  11
7.789
  21
8.693496
  31
0
  0
LINE
  5
5b9
  100
AcDbEntity
  8
1
  100
AcDbLine
  10
7.789
  20
8.693496
  30
0
  11
7.705
  21
8.705396
  31
0
  0
LINE
  5
5ba
  100
AcDbEntity
  8
1
  100
AcDbLine
  10
7.705
  20
8.705396
  30
0
  11
7.621
  21
8.716924
  31
0
  0
LINE
  5
5bb
  100
AcDbEntity
  8
1
  100
AcDbLine
  10
7.621
  20
8.716924
  30
0
  11
7.537
  21
8.72808
  31
0
  0
LINE
  5
5bc
  100
AcDbEntity
  8
1
  100
AcDbLine
  10
7.537
  20
8.72808
  30
0
  11
7.453
  21
8.738864
  31
0
  0
LINE
  5
5bd
  100
AcDbEntity
  8
1
  100
AcDbLine
  10
7.453
  20
8.738864
  30
0
  11
7.369
  21
8.749274
  31
0
  0
LINE
  5
5be
  100
AcDbEntity
  8
1
  100
AcDbLine
  10
7.369
  20
8.749274
  30
0
  11
7.285
  21
8.75931
  31
0
  0
LINE
  5
5bf
  100
AcDbEntity
  8
1
  100
AcDbLine
  10
7.285
  20
8.75931
  30
0
  11
7.201
  21
8.768972
  31
0
  0
LINE
  5
5c0
  100
AcDbEntity
  8
1
  100
AcDbLine
  10
7.201
  20
8.768972
  30
0
  11
7.117
  21
8.77826
  31
0
  0
LINE
  5
5c1
  100
AcDbEntity
  8
1
  100
AcDbLine
  10
7.117
  20
8.77826
  30
0
  11
7.033
  21
8.787173
  31
0
  0
LINE
  5
5c2
  100
AcDbEntity
  8
1
  100
AcDbLine
  10
7.033
  20
8.787173
  30
0
  11
6.949
  21
8.79571
  31
0
  0
LINE
  5
5c3
  100
AcDbEntity
  8
1
  100
AcDbLine
  10
6.949
  20
8.79571
  30
0
  11
6.865
  21
8.803872
  31
0
  0
LINE
  5
5c4
  100
AcDbEntity
  8
1
  100
AcDbLine
  10
6.865
  20
8.803872
  30
0
  11
6.781
  21
8.811658
  31
0
  0
LINE
  5
5c5
  100
AcDbEntity
  8
1
  100
AcDbLine
  10
6.781
  20
8.811658
  30
0
  11
6.697
  21
8.819068
  31
0
  0
LINE
  5
5c6
  100
AcDbEntity
  8
1
  100
AcDbLine
  10
6.697
  20
8.819068
  30
0
  11
6.613
  21
8.826101
  31
0
  0
LINE
  5
5c7
  100
AcDbEntity
  8
1
  100
AcDbLine
  10
6.613
  20
8.826101
  30
0
  11
6.529
  21
8.832756
  31
0
  0
LINE
  5
5c8
  100
AcDbEntity
  8
1
  100
AcDbLine
  10
6.529
  20
8.832756
  30
0
  11
6.445
  21
8.839035
  31
0
  0
LINE
  5
5c9
  100
AcDbEntity
  8
1
  100
AcDbLine
  10
6.445
  20
8.839035
  30
0
  11
6.361
  21
8.844936
  31
0
  0
LINE
  5
5ca
  100
AcDbEntity
  8
1
  100
AcDbLine
  10
6.361
  20
8.844936
  30
0
  11
6.277
  21
8.85046
  31
0
  0
LINE
  5
5cb
  100
AcDbEntity
  8
1
  100
AcDbLine
  10
6.277
  20
8.85046
  30
0
  11
6.193
  21
8.855605
  31
0
  0
LINE
  5
5cc
  100
AcDbEntity
  8
1
  100
AcDbLine
  10
6.193
  20
8.855605
  30
0
  11
6.109
  21
8.860372
  31
0
  0
LINE
  5
5cd
  100
AcDbEntity
  8
1
  100
AcDbLine
  10
6.109
  20
8.860372
  30
0
  11
6.025
  21
8.864761
  31
0
  0
LINE
  5
5ce
  100
AcDbEntity
  8
1
  100
AcDbLine
  10
6.025
  20
8.864761
  30
0
  11
5.941
  21
8.868771
  31
0
  0
LINE
  5
5cf
  100
AcDbEntity
  8
1
  100
AcDbLine
  10
5.941
  20
8.868771
  30
0
  11
5.857
  21
8.872402
  31
0
  0
LINE
  5
5d0
  100
AcDbEntity
  8
1
  100
AcDbLine
  10
5.857
  20
8.872402
  30
0
  11
5.773
  21
8.875655
  31
0
  0
LINE
  5
5d1
  100
AcDbEntity
  8
1
  100
AcDbLine
  10
5.773
  20
8.875655
  30
0
  11
5.689
  21
8.878528
  31
0
  0
LINE
  5
5d2
  100
AcDbEntity
  8
1
  100
AcDbLine
  10
5.689
  20
8.878528
  30
0
  11
5.605
  21
8.881022
  31
0
  0
LINE
  5
5d3
  100
AcDbEntity
  8
1
  100
AcDbLine
  10
5.605
  20
8.881022
  30
0
  11
5.521
  21
8.883137
  31
0
  0
LINE
  5
5d4
  100
AcDbEntity
  8
1
  100
AcDbLine
  10
5.521
  20
8.883137
  30
0
  11
5.437
  21
8.884872
  31
0
  0
LINE
  5
5d5
  100
AcDbEntity
  8
1
  100
AcDbLine
  10
5.437
  20
8.884872
  30
0
  11
5.353
  21
8.886228
  31
0
  0
LINE
  5
5d6
  100
AcDbEntity
  8
1
  100
AcDbLine
  10
5.353
  20
8.886228
  30
0
  11
5.269
  21
8.887205
  31
0
  0
LINE
  5
5d7
  100
AcDbEntity
  8
1
  100
AcDbLine
  10
5.269
  20
8.887205
  30
0
  11
5.185
  21
8.887802
  31
0
  0
LINE
  5
5d8
  100
AcDbEntity
  8
1
  100
AcDbLine
  10
5.185
  20
8.887802
  30
0
  11
5.101
  21
8.888019
  31
0
  0
LINE
  5
5d9
  100
AcDbEntity
  8
1
  100
AcDbLine
  10
5.101
  20
8.888019
  30
0
  11
5.094921
  21
9
  31
0
  0
LINE
  5
5da
  100
AcDbEntity
  8
1
  100
AcDbLine
  10
5.094921
  20
-9
  30
0
  11
5.017
  21
-8.887857
  31
0
  0
LINE
  5
5db
  100
AcDbEntity
  8
1
  100
AcDbLine
  10
5.017
  20
-8.887857
  30
0
  11
4.933
  21
-8.887315
  31
0
  0
LINE
  5
5dc
  100
AcDbEntity
  8
1
  100
AcDbLine
  10
4.933
  20
-8.887315
  30
0
  11
4.849
  21
-8.886393
  31
0
  0
LINE
  5
5dd
  100
AcDbEntity
  8
1
  100
AcDbLine
  10
4.849
  20
-8.886393
  30
0
  11
4.765
  21
-8.885092
  31
0
  0
LINE
  5
5de
  100
AcDbEntity
  8
1
  100
AcDbLine
  10
4.765
  20
-8.885092
  30
0
  11
4.681
  21
-8.883412
  31
0
  0
LINE
  5
5df
  100
AcDbEntity
  8
1
  100
AcDbLine
  10
4.681
  20
-8.883412
  30
0
  11
4.597
  21
-8.881352
  31
0
  0
LINE
  5
5e0
  100
AcDbEntity
  8
1
  100
AcDbLine
  10
4.597
  20
-8.881352
  30
0
  11
4.513
  21
-8.878913
  31
0
  0
LINE
  5
5e1
  100
AcDbEntity
  8
1
  100
AcDbLine
  10
4.513
  20
-8.878913
  30
0
  11
4.429
  21
-8.876094
  31
0
  0
LINE
  5
5e2
  100
AcDbEntity
  8
1
  100
AcDbLine
  10
4.429
  20
-8.876094
  30
0
  11
4.345
  21
-8.872897
  31
0
  0
LINE
  5
5e3
  100
AcDbEntity
  8
1
  100
AcDbLine
  10
4.345
  20
-8.872897
  30
0
  11
4.261
  21
-8.86932
  31
0
  0
LINE
  5
5e4
  100
AcDbEntity
  8
1
  100
AcDbLine
  10
4.261
  20
-8.86932
  30
0
  11
4.177
  21
-8.865365
  31
0
  0
LINE
  5
5e5
  100
AcDbEntity
  8
1
  100
AcDbLine
  10
4.177
  20
-8.865365
  30
0
  11
4.093
  21
-8.861031
  31
0
  0
LINE
  5
5e6
  100
AcDbEntity
  8
1
  100
AcDbLine
  10
4.093
  20
-8.861031
  30
0
  11
4.009
  21
-8.856318
  31
0
  0
LINE
  5
5e7
  100
AcDbEntity
  8
1
  100
AcDbLine
  10
4.009
  20
-8.856318
  30
0
  11
3.925
  21
-8.851228
  31
0
  0
LINE
  5
5e8
  100
AcDbEntity
  8
1
  100
AcDbLine
  10
3.925
  20
-8.851228
  30
0
  11
3.841
  21
-8.845759
  31
0
  0
LINE
  5
5e9
  100
AcDbEntity
  8
1
  100
AcDbLine
  10
3.841
  20
-8.845759
  30
0
  11
3.757
  21
-8.839913
  31
0
  0
LINE
  5
5ea
  100
AcDbEntity
  8
1
  100
AcDbLine
  10
3.757
  20
-8.839913
  30
0
  11
3.673
  21
-8.833689
  31
0
  0
LINE
  5
5eb
  100
AcDbEntity
  8
1
  100
AcDbLine
  10
3.673
  20
-8.833689
  30
0
  11
3.589
  21
-8.827087
  31
0
  0
LINE
  5
5ec
  100
AcDbEntity
  8
1
  100
AcDbLine
  10
3.589
  20
-8.827087
  30
0
  11
3.505
  21
-8.820109
  31
0
  0
LINE
  5
5ed
  100
AcDbEntity
  8
1
  100
AcDbLine
  10
3.505
  20
-8.820109
  30
0
  11
3.421
  21
-8.812754
  31
0
  0
LINE
  5
5ee
  100
AcDbEntity
  8
1
  100
AcDbLine
  10
3.421
  20
-8.812754
  30
0
  11
3.337
  21
-8.805022
  31
0
  0
LINE
  5
5ef
  100
AcDbEntity
  8
1
  100
AcDbLine
  10
3.337
  20
-8.805022
  30
0
  11
3.253
  21
-8.796915
  31
0
  0
LINE
  5
5f0
  100
AcDbEntity
  8
1
  100
AcDbLine
  10
3.253
  20
-8.796915
  30
0
  11
3.169
  21
-8.788432
  31
0
  0
LINE
  5
5f1
  100
AcDbEntity
  8
1
  100
AcDbLine
  10
3.169
  20
-8.788432
  30
0
  11
3.085
  21
-8.779573
  31
0
  0
LINE
  5
5f2
  100
AcDbEntity
  8
1
  100
AcDbLine
  10
3.085
  20
-8.779573
  30
0
  11
3.001
  21
-8.77034
  31
0
  0
LINE
  5
5f3
  100
AcDbEntity
  8
1
  100
AcDbLine
  10
3.001
  20
-8.77034
  30
0
  11
2.917
  21
-8.760732
  31
0
  0
LINE
  5
5f4
  100
AcDbEntity
  8
1
  100
AcDbLine
  10
2.917
  20
-8.760732
  30
0
  11
2.833
  21
-8.750749
  31
0
  0
LINE
  5
5f5
  100
AcDbEntity
  8
1
  100
AcDbLine
  10
2.833
  20
-8.750749
  30
0
  11
2.749
  21
-8.740393
  31
0
  0
LINE
  5
5f6
  100
AcDbEntity
  8
1
  100
AcDbLine
  10
2.749
  20
-8.740393
  30
0
  11
2.665
  21
-8.729664
  31
0
  0
LINE
  5
5f7
  100
AcDbEntity
  8
1
  100
AcDbLine
  10
2.665
  20
-8.729664
  30
0
  11
2.581
  21
-8.718562
  31
0
  0
LINE
  5
5f8
  100
AcDbEntity
  8
1
  100
AcDbLine
  10
2.581
  20
-8.718562
  30
0
  11
2.497
  21
-8.707088
  31
0
  0
LINE
  5
5f9
  100
AcDbEntity
  8
1
  100
AcDbLine
  10
2.497
  20
-8.707088
  30
0
  11
2.413
  21
-8.695241
  31
0
  0
LINE
  5
5fa
  100
AcDbEntity
  8
1
  100
AcDbLine
  10
2.413
  20
-8.695241
  30
0
  11
2.329
  21
-8.683023
  31
0
  0
LINE
  5
5fb
  100
AcDbEntity
  8
1
  100
AcDbLine
  10
2.329
  20
-8.683023
  30
0
  11
2.245
  21
-8.670435
  31
0
  0
LINE
  5
5fc
  100
AcDbEntity
  8
1
  100
AcDbLine
  10
2.245
  20
-8.670435
  30
0
  11
2.161
  21
-8.657476
  31
0
  0
LINE
  5
5fd
  100
AcDbEntity
  8
1
  100
AcDbLine
  10
2.161
  20
-8.657476
  30
0
  11
2.077
  21
-8.644147
  31
0
  0
LINE
  5
5fe
  100
AcDbEntity
  8
1
  100
AcDbLine
  10
2.077
  20
-8.644147
  30
0
  11
1.993
  21
-8.630449
  31
0
  0
LINE
  5
5ff
  100
AcDbEntity
  8
1
  100
AcDbLine
  10
1.993
  20
-8.630449
  30
0
  11
1.909
  21
-8.616383
  31
0
  0
LINE
  5
600
  100
AcDbEntity
  8
1
  100
AcDbLine
  10
1.909
  20
-8.616383
  30
0
  11
1.825
  21
-8.601949
  31
0
  0
LINE
  5
601
  100
AcDbEntity
  8
1
  100
AcDbLine
  10
1.825
  20
-8.601949
  30
0
  11
1.741
  21
-8.587147
  31
0
  0
LINE
  5
602
  100
AcDbEntity
  8
1
  100
AcDbLine
  10
1.741
  20
-8.587147
  30
0
  11
1.657
  21
-8.571978
  31
0
  0
LINE
  5
603
  100
AcDbEntity
  8
1
  100
AcDbLine
  10
1.657
  20
-8.571978
  30
0
  11
1.573
  21
-8.556443
  31
0
  0
LINE
  5
604
  100
AcDbEntity
  8
1
  100
AcDbLine
  10
1.573
  20
-8.556443
  30
0
  11
1.489
  21
-8.540543
  31
0
  0
LINE
  5
605
  100
AcDbEntity
  8
1
  100
AcDbLine
  10
1.489
  20
-8.540543
  30
0
  11
1.405
  21
-8.524278
  31
0
  0
LINE
  5
606
  100
AcDbEntity
  8
1
  100
AcDbLine
  10
1.405
  20
-8.524278
  30
0
  11
1.321
  21
-8.507649
  31
0
  0
LINE
  5
607
  100
AcDbEntity
  8
1
  100
AcDbLine
  10
1.321
  20
-8.507649
  30
0
  11
1.237
  21
-8.490657
  31
0
  0
LINE
  5
608
  100
AcDbEntity
  8
1
  100
AcDbLine
  10
1.237
  20
-8.490657
  30
0
  11
1.153
  21
-8.473302
  31
0
  0
LINE
  5
609
  100
AcDbEntity
  8
1
  100
AcDbLine
  10
1.153
  20
-8.473302
  30
0
  11
1.069
  21
-8.455585
  31
0
  0
LINE
  5
60a
  100
AcDbEntity
  8
1
  100
AcDbLine
  10
1.069
  20
-8.455585
  30
0
  11
0.985
  21
-8.437507
  31
0
  0
LINE
  5
60b
  100
AcDbEntity
  8
1
  100
AcDbLine
  10
0.985
  20
-8.437507
  30
0
  11
0.901
  21
-8.419069
  31
0
  0
LINE
  5
60c
  100
AcDbEntity
  8
1
  100
AcDbLine
  10
0.901
  20
-8.419069
  30
0
  11
0.817
  21
-8.400271
  31
0
  0
LINE
  5
60d
  100
AcDbEntity
  8
1
  100
AcDbLine
  10
0.817
  20
-8.400271
  30
0
  11
0.733
  21
-8.381114
  31
0
  0
LINE
  5
60e
  100
AcDbEntity
  8
1
  100
AcDbLine
  10
0.733
  20
-8.381114
  30
0
  11
0.649
  21
-8.3616
  31
0
  0
LINE
  5
60f
  100
AcDbEntity
  8
1
  100
AcDbLine
  10
0.649
  20
-8.3616
  30
0
  11
0.565
  21
-8.341728
  31
0
  0
LINE
  5
610
  100
AcDbEntity
  8
1
  100
AcDbLine
  10
0.565
  20
-8.341728
  30
0
  11
0.481
  21
-8.3215
  31
0
  0
LINE
  5
611
  100
AcDbEntity
  8
1
  100
AcDbLine
  10
0.481
  20
-8.3215
  30
0
  11
0.397
  21
-8.300916
  31
0
  0
LINE
  5
612
  100
AcDbEntity
  8
1
  100
AcDbLine
  10
0.397
  20
-8.300916
  30
0
  11
0.313
  21
-8.279978
  31
0
  0
LINE
  5
613
  100
AcDbEntity
  8
1
  100
AcDbLine
  10
0.313
  20
-8.279978
  30
0
  11
0.229
  21
-8.258687
  31
0
  0
LINE
  5
614
  100
AcDbEntity
  8
1
  100
AcDbLine
  10
0.229
  20
-8.258687
  30
0
  11
0.145
  21
-8.237042
  31
0
  0
LINE
  5
615
  100
AcDbEntity
  8
1
  100
AcDbLine
  10
0.145
  20
-8.237042
  30
0
  11
0.061
  21
-8.215046
  31
0
  0
LINE
  5
616
  100
AcDbEntity
  8
1
  100
AcDbLine
  10
24.001
  20
-8.43774
  30
0
  11
23.917
  21
-8.516811
  31
0
  0
LINE
  5
617
  100
AcDbEntity
  8
1
  100
AcDbLine
  10
23.917
  20
-8.516811
  30
0
  11
23.833
  21
-8.595622
  31
0
  0
LINE
  5
618
  100
AcDbEntity
  8
1
  100
AcDbLine
  10
23.833
  20
-8.595622
  30
0
  11
23.749
  21
-8.674162
  31
0
  0
LINE
  5
619
  100
AcDbEntity
  8
1
  100
AcDbLine
  10
23.749
  20
-8.674162
  30
0
  11
23.665
  21
-8.752423
  31
0
  0
LINE
  5
61a
  100
AcDbEntity
  8
1
  100
AcDbLine
  10
23.665
  20
-8.752423
  30
0
  11
23.581
  21
-8.810039
  31
0
  0
LINE
  5
61b
  100
AcDbEntity
  8
1
  100
AcDbLine
  10
23.581
  20
-8.810039
  30
0
  11
23.497
  21
-8.802173
  31
0
  0
LINE
  5
61c
  100
AcDbEntity
  8
1
  100
AcDbLine
  10
23.497
  20
-8.802173
  30
0
  11
23.413
  21
-8.793932
  31
0
  0
LINE
  5
61d
  100
AcDbEntity
  8
1
  100
AcDbLine
  10
23.413
  20
-8.793932
  30
0
  11
23.329
  21
-8.785315
  31
0
  0
LINE
  5
61e
  100
AcDbEntity
  8
1
  100
AcDbLine
  10
23.329
  20
-8.785315
  30
0
  11
23.245
  21
-8.776322
  31
0
  0
LINE
  5
61f
  100
AcDbEntity
  8
1
  100
AcDbLine
  10
23.245
  20
-8.776322
  30
0
  11
23.161
  21
-8.766955
  31
0
  0
LINE
  5
620
  100
AcDbEntity
  8
1
  100
AcDbLine
  10
23.161
  20
-8.766955
  30
0
  11
23.077
  21
-8.757213
  31
0
  0
LINE
  5
621
  100
AcDbEntity
  8
1
  100
AcDbLine
  10
23.077
  20
-8.757213
  30
0
  11
22.993
  21
-8.747098
  31
0
  0
LINE
  5
622
  100
AcDbEntity
  8
1
  100
AcDbLine
  10
22.993
  20
-8.747098
  30
0
  11
22.909
  21
-8.736609
  31
0
  0
LINE
  5
623
  100
AcDbEntity
  8
1
  100
AcDbLine
  10
22.909
  20
-8.736609
  30
0
  11
22.825
  21
-8.725746
  31
0
  0
LINE
  5
624
  100
AcDbEntity
  8
1
  100
AcDbLine
  10
22.825
  20
-8.725746
  30
0
  11
22.741
  21
-8.714511
  31
0
  0
LINE
  5
625
  100
AcDbEntity
  8
1
  100
AcDbLine
  10
22.741
  20
-8.714511
  30
0
  11
22.657
  21
-8.702904
  31
0
  0
LINE
  5
626
  100
AcDbEntity
  8
1
  100
AcDbLine
  10
22.657
  20
-8.702904
  30
0
  11
22.573
  21
-8.690925
  31
0
  0
LINE
  5
627
  100
AcDbEntity
  8
1
  100
AcDbLine
  10
22.573
  20
-8.690925
  30
0
  11
22.489
  21
-8.678575
  31
0
  0
LINE
  5
628
  100
AcDbEntity
  8
1
  100
AcDbLine
  10
22.489
  20
-8.678575
  30
0
  11
22.405
  21
-8.665854
  31
0
  0
LINE
  5
629
  100
AcDbEntity
  8
1
  100
AcDbLine
  10
22.405
  20
-8.665854
  30
0
  11
22.321
  21
-8.652763
  31
0
  0
LINE
  5
62a
  100
AcDbEntity
  8
1
  100
AcDbLine
  10
22.321
  20
-8.652763
  30
0
  11
22.237
  21
-8.639303
  31
0
  0
LINE
  5
62b
  100
AcDbEntity
  8
1
  100
AcDbLine
  10
22.237
  20
-8.639303
  30
0
  11
22.153
  21
-8.625474
  31
0
  0
LINE
  5
62c
  100
AcDbEntity
  8
1
  100
AcDbLine
  10
22.153
  20
-8.625474
  30
0
  11
22.069
  21
-8.611276
  31
0
  0
LINE
  5
62d
  100
AcDbEntity
  8
1
  100
AcDbLine
  10
22.069
  20
-8.611276
  30
0
  11
21.985
  21
-8.59671
  31
0
  0
LINE
  5
62e
  100
AcDbEntity
  8
1
  100
AcDbLine
  10
21.985
  20
-8.59671
  30
0
  11
21.901
  21
-8.581777
  31
0
  0
LINE
  5
62f
  100
AcDbEntity
  8
1
  100
AcDbLine
  10
21.901
  20
-8.581777
  30
0
  11
21.817
  21
-8.566478
  31
0
  0
LINE
  5
630
  100
AcDbEntity
  8
1
  100
AcDbLine
  10
21.817
  20
-8.566478
  30
0
  11
21.733
  21
-8.550813
  31
0
  0
LINE
  5
631
  100
AcDbEntity
  8
1
  100
AcDbLine
  10
21.733
  20
-8.550813
  30
0
  11
21.649
  21
-8.534783
  31
0
  0
LINE
  5
632
  100
AcDbEntity
  8
1
  100
AcDbLine
  10
21.649
  20
-8.534783
  30
0
  11
21.565
  21
-8.518388
  31
0
  0
LINE
  5
633
  100
AcDbEntity
  8
1
  100
AcDbLine
  10
21.565
  20
-8.518388
  30
0
  11
21.481
  21
-8.501629
  31
0
  0
LINE
  5
634
  100
AcDbEntity
  8
1
  100
AcDbLine
  10
21.481
  20
-8.501629
  30
0
  11
21.397
  21
-8.484507
  31
0
  0
LINE
  5
635
  100
AcDbEntity
  8
1
  100
AcDbLine
  10
21.397
  20
-8.484507
  30
0
  11
21.313
  21
-8.467023
  31
0
  0
LINE
  5
636
  100
AcDbEntity
  8
1
  100
AcDbLine
  10
21.313
  20
-8.467023
  30
0
  11
21.229
  21
-8.449177
  31
0
  0
LINE
  5
637
  100
AcDbEntity
  8
1
  100
AcDbLine
  10
21.229
  20
-8.449177
  30
0
  11
21.145
  21
-8.430971
  31
0
  0
LINE
  5
638
  100
AcDbEntity
  8
1
  100
AcDbLine
  10
21.145
  20
-8.430971
  30
0
  11
21.061
  21
-8.412404
  31
0
  0
LINE
  5
639
  100
AcDbEntity
  8
1
  100
AcDbLine
  10
21.061
  20
-8.412404
  30
0
  11
20.977
  21
-8.393478
  31
0
  0
LINE
  5
63a
  100
AcDbEntity
  8
1
  100
AcDbLine
  10
20.977
  20
-8.393478
  30
0
  11
20.893
  21
-8.374194
  31
0
  0
LINE
  5
63b
  100
AcDbEntity
  8
1
  100
AcDbLine
  10
20.893
  20
-8.374194
  30
0
  11
20.809
  21
-8.354551
  31
0
  0
LINE
  5
63c
  100
AcDbEntity
  8
1
  100
AcDbLine
  10
20.809
  20
-8.354551
  30
0
  11
20.725
  21
-8.334552
  31
0
  0
LINE
  5
63d
  100
AcDbEntity
  8
1
  100
AcDbLine
  10
20.725
  20
-8.334552
  30
0
  11
20.641
  21
-8.314197
  31
0
  0
LINE
  5
63e
  100
AcDbEntity
  8
1
  100
AcDbLine
  10
20.641
  20
-8.314197
  30
0
  11
20.557
  21
-8.293487
  31
0
  0
LINE
  5
63f
  100
AcDbEntity
  8
1
  100
AcDbLine
  10
20.557
  20
-8.293487
  30
0
  11
20.473
  21
-8.272423
  31
0
  0
LINE
  5
640
  100
AcDbEntity
  8
1
  100
AcDbLine
  10
20.473
  20
-8.272423
  30
0
  11
20.389
  21
-8.251006
  31
0
  0
LINE
  5
641
  100
AcDbEntity
  8
1
  100
AcDbLine
  10
20.389
  20
-8.251006
  30
0
  11
20.305
  21
-8.229236
  31
0
  0
LINE
  5
642
  100
AcDbEntity
  8
1
  100
AcDbLine
  10
20.305
  20
-8.229236
  30
0
  11
20.221
  21
-8.207114
  31
0
  0
LINE
  5
643
  100
AcDbEntity
  8
1
  100
AcDbLine
  10
20.221
  20
-8.207114
  30
0
  11
20.137
  21
-8.184642
  31
0
  0
LINE
  5
644
  100
AcDbEntity
  8
1
  100
AcDbLine
  10
20.137
  20
-8.184642
  30
0
  11
20.053
  21
-8.161821
  31
0
  0
LINE
  5
645
  100
AcDbEntity
  8
1
  100
AcDbLine
  10
20.053
  20
-8.161821
  30
0
  11
19.969
  21
-8.138651
  31
0
  0
LINE
  5
646
  100
AcDbEntity
  8
1
  100
AcDbLine
  10
19.969
  20
-8.138651
  30
0
  11
19.885
  21
-8.115133
  31
0
  0
LINE
  5
647
  100
AcDbEntity
  8
1
  100
AcDbLine
  10
19.885
  20
-8.115133
  30
0
  11
19.801
  21
-8.091269
  31
0
  0
LINE
  5
648
  100
AcDbEntity
  8
1
  100
AcDbLine
  10
19.801
  20
-8.091269
  30
0
  11
19.717
  21
-8.067059
  31
0
  0
LINE
  5
649
  100
AcDbEntity
  8
1
  100
AcDbLine
  10
19.717
  20
-8.067059
  30
0
  11
19.633
  21
-8.042504
  31
0
  0
LINE
  5
64a
  100
AcDbEntity
  8
1
  100
AcDbLine
  10
19.633
  20
-8.042504
  30
0
  11
19.549
  21
-8.017607
  31
0
  0
LINE
  5
64b
  100
AcDbEntity
  8
1
  100
AcDbLine
  10
19.549
  20
-8.017607
  30
0
  11
19.465
  21
-7.992366
  31
0
  0
LINE
  5
64c
  100
AcDbEntity
  8
1
  100
AcDbLine
  10
19.465
  20
-7.992366
  30
0
  11
19.381
  21
-7.966785
  31
0
  0
LINE
  5
64d
  100
AcDbEntity
  8
1
  100
AcDbLine
  10
19.381
  20
-7.966785
  30
0
  11
19.297
  21
-7.940863
  31
0
  0
LINE
  5
64e
  100
AcDbEntity
  8
1
  100
AcDbLine
  10
19.297
  20
-7.940863
  30
0
  11
19.213
  21
-7.914602
  31
0
  0
LINE
  5
64f
  100
AcDbEntity
  8
1
  100
AcDbLine
  10
19.213
  20
-7.914602
  30
0
  11
19.129
  21
-7.888002
  31
0
  0
LINE
  5
650
  100
AcDbEntity
  8
1
  100
AcDbLine
  10
19.129
  20
-7.888002
  30
0
  11
19.045
  21
-7.861066
  31
0
  0
LINE
  5
651
  100
AcDbEntity
  8
1
  100
AcDbLine
  10
19.045
  20
-7.861066
  30
0
  11
18.961
  21
-7.833795
  31
0
  0
LINE
  5
652
  100
AcDbEntity
  8
1
  100
AcDbLine
  10
18.961
  20
-7.833795
  30
0
  11
18.877
  21
-7.806188
  31
0
  0
LINE
  5
653
  100
AcDbEntity
  8
1
  100
AcDbLine
  10
18.877
  20
-7.806188
  30
0
  11
18.793
  21
-7.778249
  31
0
  0
LINE
  5
654
  100
AcDbEntity
  8
1
  100
AcDbLine
  10
18.793
  20
-7.778249
  30
0
  11
18.709
  21
-7.749977
  31
0
  0
LINE
  5
655
  100
AcDbEntity
  8
1
  100
AcDbLine
  10
18.709
  20
-7.749977
  30
0
  11
18.625
  21
-7.721374
  31
0
  0
LINE
  5
656
  100
AcDbEntity
  8
1
  100
AcDbLine
  10
18.625
  20
-7.721374
  30
0
  11
18.541
  21
-7.692441
  31
0
  0
LINE
  5
657
  100
AcDbEntity
  8
1
  100
AcDbLine
  10
18.541
  20
-7.692441
  30
0
  11
18.457
  21
-7.66318
  31
0
  0
LINE
  5
658
  100
AcDbEntity
  8
1
  100
AcDbLine
  10
18.457
  20
-7.66318
  30
0
  11
18.373
  21
-7.633591
  31
0
  0
LINE
  5
659
  100
AcDbEntity
  8
1
  100
AcDbLine
  10
18.373
  20
-7.633591
  30
0
  11
18.289
  21
-7.603677
  31
0
  0
LINE
  5
65a
  100
AcDbEntity
  8
1
  100
AcDbLine
  10
18.289
  20
-7.603677
  30
0
  11
18.205
  21
-7.573437
  31
0
  0
LINE
  5
65b
  100
AcDbEntity
  8
1
  100
AcDbLine
  10
18.205
  20
-7.573437
  30
0
  11
18.121
  21
-7.542875
  31
0
  0
LINE
  5
65c
  100
AcDbEntity
  8
1
  100
AcDbLine
  10
18.121
  20
-7.542875
  30
0
  11
18.037
  21
-7.51199
  31
0
  0
LINE
  5
65d
  100
AcDbEntity
  8
1
  100
AcDbLine
  10
18.037
  20
-7.51199
  30
0
  11
17.953
  21
-7.480784
  31
0
  0
LINE
  5
65e
  100
AcDbEntity
  8
1
  100
AcDbLine
  10
17.953
  20
-7.480784
  30
0
  11
17.869
  21
-7.449259
  31
0
  0
LINE
  5
65f
  100
AcDbEntity
  8
1
  100
AcDbLine
  10
17.869
  20
-7.449259
  30
0
  11
17.785
  21
-7.417415
  31
0
  0
LINE
  5
660
  100
AcDbEntity
  8
1
  100
AcDbLine
  10
17.785
  20
-7.417415
  30
0
  11
17.701
  21
-7.385255
  31
0
  0
LINE
  5
661
  100
AcDbEntity
  8
1
  100
AcDbLine
  10
17.701
  20
-7.385255
  30
0
  11
17.617
  21
-7.352779
  31
0
  0
LINE
  5
662
  100
AcDbEntity
  8
1
  100
AcDbLine
  10
17.617
  20
-7.352779
  30
0
  11
17.533
  21
-7.31999
  31
0
  0
LINE
  5
663
  100
AcDbEntity
  8
1
  100
AcDbLine
  10
17.533
  20
-7.31999
  30
0
  11
17.449
  21
-7.286887
  31
0
  0
LINE
  5
664
  100
AcDbEntity
  8
1
  100
AcDbLine
  10
17.449
  20
-7.286887
  30
0
  11
17.365
  21
-7.253474
  31
0
  0
LINE
  5
665
  100
AcDbEntity
  8
1
  100
AcDbLine
  10
17.365
  20
-7.253474
  30
0
  11
17.281
  21
-7.219751
  31
0
  0
LINE
  5
666
  100
AcDbEntity
  8
1
  100
AcDbLine
  10
17.281
  20
-7.219751
  30
0
  11
17.197
  21
-7.185719
  31
0
  0
LINE
  5
667
  100
AcDbEntity
  8
1
  100
AcDbLine
  10
17.197
  20
-7.185719
  30
0
  11
17.113
  21
-7.15138
  31
0
  0
LINE
  5
668
  100
AcDbEntity
  8
1
  100
AcDbLine
  10
17.113
  20
-7.15138
  30
0
  11
17.029
  21
-7.116736
  31
0
  0
LINE
  5
669
  100
AcDbEntity
  8
1
  100
AcDbLine
  10
17.029
  20
-7.116736
  30
0
  11
16.945
  21
-7.081788
  31
0
  0
LINE
  5
66a
  100
AcDbEntity
  8
1
  100
AcDbLine
  10
16.945
  20
-7.081788
  30
0
  11
16.861
  21
-7.046538
  31
0
  0
LINE
  5
66b
  100
AcDbEntity
  8
1
  100
AcDbLine
  10
16.861
  20
-7.046538
  30
0
  11
16.777
  21
-7.010987
  31
0
  0
LINE
  5
66c
  100
AcDbEntity
  8
1
  100
AcDbLine
  10
16.777
  20
-7.010987
  30
0
  11
16.693
  21
-6.975136
  31
0
  0
LINE
  5
66d
  100
AcDbEntity
  8
1
  100
AcDbLine
  10
16.693
  20
-6.975136
  30
0
  11
16.609
  21
-6.938987
  31
0
  0
LINE
  5
66e
  100
AcDbEntity
  8
1
  100
AcDbLine
  10
16.609
  20
-6.938987
  30
0
  11
16.525
  21
-6.902542
  31
0
  0
LINE
  5
66f
  100
AcDbEntity
  8
1
  100
AcDbLine
  10
16.525
  20
-6.902542
  30
0
  11
16.441
  21
-6.865802
  31
0
  0
LINE
  5
670
  100
AcDbEntity
  8
1
  100
AcDbLine
  10
16.441
  20
-6.865802
  30
0
  11
16.357
  21
-6.828769
  31
0
  0
LINE
  5
671
  100
AcDbEntity
  8
1
  100
AcDbLine
  10
16.357
  20
-6.828769
  30
0
  11
16.273
  21
-6.791444
  31
0
  0
LINE
  5
672
  100
AcDbEntity
  8
1
  100
AcDbLine
  10
16.273
  20
-6.791444
  30
0
  11
16.189
  21
-6.753829
  31
0
  0
LINE
  5
673
  100
AcDbEntity
  8
1
  100
AcDbLine
  10
16.189
  20
-6.753829
  30
0
  11
16.105
  21
-6.715926
  31
0
  0
LINE
  5
674
  100
AcDbEntity
  8
1
  100
AcDbLine
  10
16.105
  20
-6.715926
  30
0
  11
16.021
  21
-6.677736
  31
0
  0
LINE
  5
675
  100
AcDbEntity
  8
1
  100
AcDbLine
  10
16.021
  20
-6.677736
  30
0
  11
15.937
  21
-6.639261
  31
0
  0
LINE
  5
676
  100
AcDbEntity
  8
1
  100
AcDbLine
  10
15.937
  20
-6.639261
  30
0
  11
15.853
  21
-6.600502
  31
0
  0
LINE
  5
677
  100
AcDbEntity
  8
1
  100
AcDbLine
  10
15.853
  20
-6.600502
  30
0
  11
15.769
  21
-6.561461
  31
0
  0
LINE
  5
678
  100
AcDbEntity
  8
1
  100
AcDbLine
  10
15.769
  20
-6.561461
  30
0
  11
15.685
  21
-6.52214
  31
0
  0
LINE
  5
679
  100
AcDbEntity
  8
1
  100
AcDbLine
  10
15.685
  20
-6.52214
  30
0
  11
15.601
  21
-6.48254
  31
0
  0
LINE
  5
67a
  100
AcDbEntity
  8
1
  100
AcDbLine
  10
15.601
  20
-6.48254
  30
0
  11
15.517
  21
-6.442664
  31
0
  0
LINE
  5
67b
  100
AcDbEntity
  8
1
  100
AcDbLine
  10
15.517
  20
-6.442664
  30
0
  11
15.433
  21
-6.402512
  31
0
  0
LINE
  5
67c
  100
AcDbEntity
  8
1
  100
AcDbLine
  10
15.433
  20
-6.402512
  30
0
  11
15.349
  21
-6.362087
  31
0
  0
LINE
  5
67d
  100
AcDbEntity
  8
1
  100
AcDbLine
  10
15.349
  20
-6.362087
  30
0
  11
15.265
  21
-6.321391
  31
0
  0
LINE
  5
67e
  100
AcDbEntity
  8
1
  100
AcDbLine
  10
15.265
  20
-6.321391
  30
0
  11
15.181
  21
-6.280424
  31
0
  0
LINE
  5
67f
  100
AcDbEntity
  8
1
  100
AcDbLine
  10
15.181
  20
-6.280424
  30
0
  11
15.097
  21
-6.239189
  31
0
  0
LINE
  5
680
  100
AcDbEntity
  8
1
  100
AcDbLine
  10
15.097
  20
-6.239189
  30
0
  11
15.013
  21
-6.197687
  31
0
  0
LINE
  5
681
  100
AcDbEntity
  8
1
  100
AcDbLine
  10
15.013
  20
-6.197687
  30
0
  11
14.929
  21
-6.155921
  31
0
  0
LINE
  5
682
  100
AcDbEntity
  8
1
  100
AcDbLine
  10
14.929
  20
-6.155921
  30
0
  11
14.845
  21
-6.113892
  31
0
  0
LINE
  5
683
  100
AcDbEntity
  8
1
  100
AcDbLine
  10
14.845
  20
-6.113892
  30
0
  11
14.761
  21
-6.071602
  31
0
  0
LINE
  5
684
  100
AcDbEntity
  8
1
  100
AcDbLine
  10
14.761
  20
-6.071602
  30
0
  11
14.677
  21
-6.029052
  31
0
  0
LINE
  5
685
  100
AcDbEntity
  8
1
  100
AcDbLine
  10
14.677
  20
-6.029052
  30
0
  11
14.593
  21
-5.986245
  31
0
  0
LINE
  5
686
  100
AcDbEntity
  8
1
  100
AcDbLine
  10
14.593
  20
-5.986245
  30
0
  11
14.509
  21
-5.943183
  31
0
  0
LINE
  5
687
  100
AcDbEntity
  8
1
  100
AcDbLine
  10
14.509
  20
-5.943183
  30
0
  11
14.425
  21
-5.899866
  31
0
  0
LINE
  5
688
  100
AcDbEntity
  8
1
  100
AcDbLine
  10
14.425
  20
-5.899866
  30
0
  11
14.341
  21
-5.856297
  31
0
  0
LINE
  5
689
  100
AcDbEntity
  8
1
  100
AcDbLine
  10
14.341
  20
-5.856297
  30
0
  11
14.257
  21
-5.812479
  31
0
  0
LINE
  5
68a
  100
AcDbEntity
  8
1
  100
AcDbLine
  10
14.257
  20
-5.812479
  30
0
  11
14.173
  21
-5.768412
  31
0
  0
LINE
  5
68b
  100
AcDbEntity
  8
1
  100
AcDbLine
  10
14.173
  20
-5.768412
  30
0
  11
14.089
  21
-5.724099
  31
0
  0
LINE
  5
68c
  100
AcDbEntity
  8
1
  100
AcDbLine
  10
14.089
  20
-5.724099
  30
0
  11
14.005
  21
-5.679541
  31
0
  0
LINE
  5
68d
  100
AcDbEntity
  8
1
  100
AcDbLine
  10
14.005
  20
-5.679541
  30
0
  11
13.921
  21
-5.634741
  31
0
  0
LINE
  5
68e
  100
AcDbEntity
  8
1
  100
AcDbLine
  10
13.921
  20
-5.634741
  30
0
  11
13.837
  21
-5.5897
  31
0
  0
LINE
  5
68f
  100
AcDbEntity
  8
1
  100
AcDbLine
  10
13.837
  20
-5.5897
  30
0
  11
13.753
  21
-5.54442
  31
0
  0
LINE
  5
690
  100
AcDbEntity
  8
1
  100
AcDbLine
  10
13.753
  20
-5.54442
  30
0
  11
13.669
  21
-5.498904
  31
0
  0
LINE
  5
691
  100
AcDbEntity
  8
1
  100
AcDbLine
  10
13.669
  20
-5.498904
  30
0
  11
13.585
  21
-5.453152
  31
0
  0
LINE
  5
692
  100
AcDbEntity
  8
1
  100
AcDbLine
  10
13.585
  20
-5.453152
  30
0
  11
13.501
  21
-5.407168
  31
0
  0
LINE
  5
693
  100
AcDbEntity
  8
1
  100
AcDbLine
  10
13.501
  20
-5.407168
  30
0
  11
13.417
  21
-5.360953
  31
0
  0
LINE
  5
694
  100
AcDbEntity
  8
1
  100
AcDbLine
  10
13.417
  20
-5.360953
  30
0
  11
13.333
  21
-5.314509
  31
0
  0
LINE
  5
695
  100
AcDbEntity
  8
1
  100
AcDbLine
  10
13.333
  20
-5.314509
  30
0
  11
13.249
  21
-5.267838
  31
0
  0
LINE
  5
696
  100
AcDbEntity
  8
1
  100
AcDbLine
  10
13.249
  20
-5.267838
  30
0
  11
13.165
  21
-5.220941
  31
0
  0
LINE
  5
697
  100
AcDbEntity
  8
1
  100
AcDbLine
  10
13.165
  20
-5.220941
  30
0
  11
13.081
  21
-5.173822
  31
0
  0
LINE
  5
698
  100
AcDbEntity
  8
1
  100
AcDbLine
  10
13.081
  20
-5.173822
  30
0
  11
12.997
  21
-5.126482
  31
0
  0
LINE
  5
699
  100
AcDbEntity
  8
1
  100
AcDbLine
  10
12.997
  20
-5.126482
  30
0
  11
12.913
  21
-5.078923
  31
0
  0
LINE
  5
69a
  100
AcDbEntity
  8
1
  100
AcDbLine
  10
12.913
  20
-5.078923
  30
0
  11
12.829
  21
-5.031147
  31
0
  0
LINE
  5
69b
  100
AcDbEntity
  8
1
  100
AcDbLine
  10
12.829
  20
-5.031147
  30
0
  11
12.745
  21
-4.983157
  31
0
  0
LINE
  5
69c
  100
AcDbEntity
  8
1
  100
AcDbLine
  10
12.745
  20
-4.983157
  30
0
  11
12.661
  21
-4.934953
  31
0
  0
LINE
  5
69d
  100
AcDbEntity
  8
1
  100
AcDbLine
  10
12.661
  20
-4.934953
  30
0
  11
12.577
  21
-4.886539
  31
0
  0
LINE
  5
69e
  100
AcDbEntity
  8
1
  100
AcDbLine
  10
12.577
  20
-4.886539
  30
0
  11
12.493
  21
-4.837915
  31
0
  0
LINE
  5
69f
  100
AcDbEntity
  8
1
  100
AcDbLine
  10
12.493
  20
-4.837915
  30
0
  11
12.409
  21
-4.789086
  31
0
  0
LINE
  5
6a0
  100
AcDbEntity
  8
1
  100
AcDbLine
  10
12.409
  20
-4.789086
  30
0
  11
12.325
  21
-4.740051
  31
0
  0
LINE
  5
6a1
  100
AcDbEntity
  8
1
  100
AcDbLine
  10
12.325
  20
-4.740051
  30
0
  11
12.241
  21
-4.690815
  31
0
  0
LINE
  5
6a2
  100
AcDbEntity
  8
1
  100
AcDbLine
  10
12.241
  20
-4.690815
  30
0
  11
12.157
  21
-4.641378
  31
0
  0
LINE
  5
6a3
  100
AcDbEntity
  8
1
  100
AcDbLine
  10
12.157
  20
-4.641378
  30
0
  11
12.073
  21
-4.591742
  31
0
  0
LINE
  5
6a4
  100
AcDbEntity
  8
1
  100
AcDbLine
  10
12.073
  20
-4.591742
  30
0
  11
11.989
  21
-4.541911
  31
0
  0
LINE
  5
6a5
  100
AcDbEntity
  8
1
  100
AcDbLine
  10
11.989
  20
-4.541911
  30
0
  11
11.905
  21
-4.491885
  31
0
  0
LINE
  5
6a6
  100
AcDbEntity
  8
1
  100
AcDbLine
  10
11.905
  20
-4.491885
  30
0
  11
11.821
  21
-4.441668
  31
0
  0
LINE
  5
6a7
  100
AcDbEntity
  8
1
  100
AcDbLine
  10
11.821
  20
-4.441668
  30
0
  11
11.737
  21
-4.391261
  31
0
  0
LINE
  5
6a8
  100
AcDbEntity
  8
1
  100
AcDbLine
  10
11.737
  20
-4.391261
  30
0
  11
11.653
  21
-4.340667
  31
0
  0
LINE
  5
6a9
  100
AcDbEntity
  8
1
  100
AcDbLine
  10
11.653
  20
-4.340667
  30
0
  11
11.569
  21
-4.289887
  31
0
  0
LINE
  5
6aa
  100
AcDbEntity
  8
1
  100
AcDbLine
  10
11.569
  20
-4.289887
  30
0
  11
11.485
  21
-4.238924
  31
0
  0
LINE
  5
6ab
  100
AcDbEntity
  8
1
  100
AcDbLine
  10
11.485
  20
-4.238924
  30
0
  11
11.401
  21
-4.18778
  31
0
  0
LINE
  5
6ac
  100
AcDbEntity
  8
1
  100
AcDbLine
  10
11.401
  20
-4.18778
  30
0
  11
11.317
  21
-4.136457
  31
0
  0
LINE
  5
6ad
  100
AcDbEntity
  8
1
  100
AcDbLine
  10
11.317
  20
-4.136457
  30
0
  11
11.233
  21
-4.084957
  31
0
  0
LINE
  5
6ae
  100
AcDbEntity
  8
1
  100
AcDbLine
  10
11.233
  20
-4.084957
  30
0
  11
11.149
  21
-4.033283
  31
0
  0
LINE
  5
6af
  100
AcDbEntity
  8
1
  100
AcDbLine
  10
11.149
  20
-4.033283
  30
0
  11
11.065
  21
-3.981436
  31
0
  0
LINE
  5
6b0
  100
AcDbEntity
  8
1
  100
AcDbLine
  10
11.065
  20
-3.981436
  30
0
  11
10.981
  21
-3.92942
  31
0
  0
LINE
  5
6b1
  100
AcDbEntity
  8
1
  100
AcDbLine
  10
10.981
  20
-3.92942
  30
0
  11
10.897
  21
-3.877236
  31
0
  0
LINE
  5
6b2
  100
AcDbEntity
  8
1
  100
AcDbLine
  10
10.897
  20
-3.877236
  30
0
  11
10.813
  21
-3.824886
  31
0
  0
LINE
  5
6b3
  100
AcDbEntity
  8
1
  100
AcDbLine
  10
10.813
  20
-3.824886
  30
0
  11
10.729
  21
-3.772373
  31
0
  0
LINE
  5
6b4
  100
AcDbEntity
  8
1
  100
AcDbLine
  10
10.729
  20
-3.772373
  30
0
  11
10.645
  21
-3.719698
  31
0
  0
LINE
  5
6b5
  100
AcDbEntity
  8
1
  100
AcDbLine
  10
10.645
  20
-3.719698
  30
0
  11
10.561
  21
-3.666865
  31
0
  0
LINE
  5
6b6
  100
AcDbEntity
  8
1
  100
AcDbLine
  10
10.561
  20
-3.666865
  30
0
  11
10.477
  21
-3.613875
  31
0
  0
LINE
  5
6b7
  100
AcDbEntity
  8
1
  100
AcDbLine
  10
10.477
  20
-3.613875
  30
0
  11
10.393
  21
-3.560731
  31
0
  0
LINE
  5
6b8
  100
AcDbEntity
  8
1
  100
AcDbLine
  10
10.393
  20
-3.560731
  30
0
  11
10.309
  21
-3.507435
  31
0
  0
LINE
  5
6b9
  100
AcDbEntity
  8
1
  100
AcDbLine
  10
10.309
  20
-3.507435
  30
0
  11
10.225
  21
-3.453989
  31
0
  0
LINE
  5
6ba
  100
AcDbEntity
  8
1
  100
AcDbLine
  10
10.225
  20
-3.453989
  30
0
  11
10.141
  21
-3.400395
  31
0
  0
LINE
  5
6bb
  100
AcDbEntity
  8
1
  100
AcDbLine
  10
10.141
  20
-3.400395
  30
0
  11
10.057
  21
-3.346657
  31
0
  0
LINE
  5
6bc
  100
AcDbEntity
  8
1
  100
AcDbLine
  10
10.057
  20
-3.346657
  30
0
  11
9.973
  21
-3.292775
  31
0
  0
LINE
  5
6bd
  100
AcDbEntity
  8
1
  100
AcDbLine
  10
9.973
  20
-3.292775
  30
0
  11
9.889
  21
-3.238753
  31
0
  0
LINE
  5
6be
  100
AcDbEntity
  8
1
  100
AcDbLine
  10
9.889
  20
-3.238753
  30
0
  11
9.805
  21
-3.184592
  31
0
  0
LINE
  5
6bf
  100
AcDbEntity
  8
1
  100
AcDbLine
  10
9.805
  20
-3.184592
  30
0
  11
9.721
  21
-3.130295
  31
0
  0
LINE
  5
6c0
  100
AcDbEntity
  8
1
  100
AcDbLine
  10
9.721
  20
-3.130295
  30
0
  11
9.637
  21
-3.075865
  31
0
  0
LINE
  5
6c1
  100
AcDbEntity
  8
1
  100
AcDbLine
  10
9.637
  20
-3.075865
  30
0
  11
9.553
  21
-3.021303
  31
0
  0
LINE
  5
6c2
  100
AcDbEntity
  8
1
  100
AcDbLine
  10
9.553
  20
-3.021303
  30
0
  11
9.469
  21
-2.966612
  31
0
  0
LINE
  5
6c3
  100
AcDbEntity
  8
1
  100
AcDbLine
  10
9.469
  20
-2.966612
  30
0
  11
9.385
  21
-2.911795
  31
0
  0
LINE
  5
6c4
  100
AcDbEntity
  8
1
  100
AcDbLine
  10
9.385
  20
-2.911795
  30
0
  11
9.301
  21
-2.856853
  31
0
  0
LINE
  5
6c5
  100
AcDbEntity
  8
1
  100
AcDbLine
  10
9.301
  20
-2.856853
  30
0
  11
9.217
  21
-2.801789
  31
0
  0
LINE
  5
6c6
  100
AcDbEntity
  8
1
  100
AcDbLine
  10
9.217
  20
-2.801789
  30
0
  11
9.133
  21
-2.746605
  31
0
  0
LINE
  5
6c7
  100
AcDbEntity
  8
1
  100
AcDbLine
  10
9.133
  20
-2.746605
  30
0
  11
9.049
  21
-2.691305
  31
0
  0
LINE
  5
6c8
  100
AcDbEntity
  8
1
  100
AcDbLine
  10
9.049
  20
-2.691305
  30
0
  11
8.965
  21
-2.635889
  31
0
  0
LINE
  5
6c9
  100
AcDbEntity
  8
1
  100
AcDbLine
  10
8.965
  20
-2.635889
  30
0
  11
8.881
  21
-2.58036
  31
0
  0
LINE
  5
6ca
  100
AcDbEntity
  8
1
  100
AcDbLine
  10
8.881
  20
-2.58036
  30
0
  11
8.797
  21
-2.524722
  31
0
  0
LINE
  5
6cb
  100
AcDbEntity
  8
1
  100
AcDbLine
  10
8.797
  20
-2.524722
  30
0
  11
8.713
  21
-2.468976
  31
0
  0
LINE
  5
6cc
  100
AcDbEntity
  8
1
  100
AcDbLine
  10
8.713
  20
-2.468976
  30
0
  11
8.629
  21
-2.413124
  31
0
  0
LINE
  5
6cd
  100
AcDbEntity
  8
1
  100
AcDbLine
  10
8.629
  20
-2.413124
  30
0
  11
8.545
  21
-2.357169
  31
0
  0
LINE
  5
6ce
  100
AcDbEntity
  8
1
  100
AcDbLine
  10
8.545
  20
-2.357169
  30
0
  11
8.461
  21
-2.301113
  31
0
  0
LINE
  5
6cf
  100
AcDbEntity
  8
1
  100
AcDbLine
  10
8.461
  20
-2.301113
  30
0
  11
8.377
  21
-2.244959
  31
0
  0
LINE
  5
6d0
  100
AcDbEntity
  8
1
  100
AcDbLine
  10
8.377
  20
-2.244959
  30
0
  11
8.293
  21
-2.18871
  31
0
  0
LINE
  5
6d1
  100
AcDbEntity
  8
1
  100
AcDbLine
  10
8.293
  20
-2.18871
  30
0
  11
8.209
  21
-2.132366
  31
0
  0
LINE
  5
6d2
  100
AcDbEntity
  8
1
  100
AcDbLine
  10
8.209
  20
-2.132366
  30
0
  11
8.125
  21
-2.075932
  31
0
  0
LINE
  5
6d3
  100
AcDbEntity
  8
1
  100
AcDbLine
  10
8.125
  20
-2.075932
  30
0
  11
8.041
  21
-2.019409
  31
0
  0
LINE
  5
6d4
  100
AcDbEntity
  8
1
  100
AcDbLine
  10
8.041
  20
-2.019409
  30
0
  11
7.957
  21
-1.9628
  31
0
  0
LINE
  5
6d5
  100
AcDbEntity
  8
1
  100
AcDbLine
  10
7.957
  20
-1.9628
  30
0
  11
7.873
  21
-1.906107
  31
0
  0
LINE
  5
6d6
  100
AcDbEntity
  8
1
  100
AcDbLine
  10
7.873
  20
-1.906107
  30
0
  11
7.789
  21
-1.849332
  31
0
  0
LINE
  5
6d7
  100
AcDbEntity
  8
1
  100
AcDbLine
  10
7.789
  20
-1.849332
  30
0
  11
7.705
  21
-1.792479
  31
0
  0
LINE
  5
6d8
  100
AcDbEntity
  8
1
  100
AcDbLine
  10
7.705
  20
-1.792479
  30
0
  11
7.621
  21
-1.735549
  31
0
  0
LINE
  5
6d9
  100
AcDbEntity
  8
1
  100
AcDbLine
  10
7.621
  20
-1.735549
  30
0
  11
7.537
  21
-1.678545
  31
0
  0
LINE
  5
6da
  100
AcDbEntity
  8
1
  100
AcDbLine
  10
7.537
  20
-1.678545
  30
0
  11
7.453
  21
-1.621469
  31
0
  0
LINE
  5
6db
  100
AcDbEntity
  8
1
  100
AcDbLine
  10
7.453
  20
-1.621469
  30
0
  11
7.369
  21
-1.564324
  31
0
  0
LINE
  5
6dc
  100
AcDbEntity
  8
1
  100
AcDbLine
  10
7.369
  20
-1.564324
  30
0
  11
7.285
  21
-1.507112
  31
0
  0
LINE
  5
6dd
  100
AcDbEntity
  8
1
  100
AcDbLine
  10
7.285
  20
-1.507112
  30
0
  11
7.201
  21
-1.449836
  31
0
  0
LINE
  5
6de
  100
AcDbEntity
  8
1
  100
AcDbLine
  10
7.201
  20
-1.449836
  30
0
  11
7.117
  21
-1.392498
  31
0
  0
LINE
  5
6df
  100
AcDbEntity
  8
1
  100
AcDbLine
  10
7.117
  20
-1.392498
  30
0
  11
7.033
  21
-1.3351
  31
0
  0
LINE
  5
6e0
  100
AcDbEntity
  8
1
  100
AcDbLine
  10
7.033
  20
-1.3351
  30
0
  11
6.949
  21
-1.277645
  31
0
  0
LINE
  5
6e1
  100
AcDbEntity
  8
1
  100
AcDbLine
  10
6.949
  20
-1.277645
  30
0
  11
6.865
  21
-1.220136
  31
0
  0
LINE
  5
6e2
  100
AcDbEntity
  8
1
  100
AcDbLine
  10
6.865
  20
-1.220136
  30
0
  11
6.781
  21
-1.162575
  31
0
  0
LINE
  5
6e3
  100
AcDbEntity
  8
1
  100
AcDbLine
  10
6.781
  20
-1.162575
  30
0
  11
6.697
  21
-1.104964
  31
0
  0
LINE
  5
6e4
  100
AcDbEntity
  8
1
  100
AcDbLine
  10
6.697
  20
-1.104964
  30
0
  11
6.613
  21
-1.047306
  31
0
  0
LINE
  5
6e5
  100
AcDbEntity
  8
1
  100
AcDbLine
  10
6.613
  20
-1.047306
  30
0
  11
6.529
  21
-0.989603
  31
0
  0
LINE
  5
6e6
  100
AcDbEntity
  8
1
  100
AcDbLine
  10
6.529
  20
-0.989603
  30
0
  11
6.445
  21
-0.931858
  31
0
  0
LINE
  5
6e7
  100
AcDbEntity
  8
1
  100
AcDbLine
  10
6.445
  20
-0.931858
  30
0
  11
6.361
  21
-0.874073
  31
0
  0
LINE
  5
6e8
  100
AcDbEntity
  8
1
  100
AcDbLine
  10
6.361
  20
-0.874073
  30
0
  11
6.277
  21
-0.81625
  31
0
  0
LINE
  5
6e9
  100
AcDbEntity
  8
1
  100
AcDbLine
  10
6.277
  20
-0.81625
  30
0
  11
6.193
  21
-0.758393
  31
0
  0
LINE
  5
6ea
  100
AcDbEntity
  8
1
  100
AcDbLine
  10
6.193
  20
-0.758393
  30
0
  11
6.109
  21
-0.700504
  31
0
  0
LINE
  5
6eb
  100
AcDbEntity
  8
1
  100
AcDbLine
  10
6.109
  20
-0.700504
  30
0
  11
6.025
  21
-0.642584
  31
0
  0
LINE
  5
6ec
  100
AcDbEntity
  8
1
  100
AcDbLine
  10
6.025
  20
-0.642584
  30
0
  11
5.941
  21
-0.584637
  31
0
  0
LINE
  5
6ed
  100
AcDbEntity
  8
1
  100
AcDbLine
  10
5.941
  20
-0.584637
  30
0
  11
5.857
  21
-0.526665
  31
0
  0
LINE
  5
6ee
  100
AcDbEntity
  8
1
  100
AcDbLine
  10
5.857
  20
-0.526665
  30
0
  11
5.773
  21
-0.468671
  31
0
  0
LINE
  5
6ef
  100
AcDbEntity
  8
1
  100
AcDbLine
  10
5.773
  20
-0.468671
  30
0
  11
5.689
  21
-0.410657
  31
0
  0
LINE
  5
6f0
  100
AcDbEntity
  8
1
  100
AcDbLine
  10
5.689
  20
-0.410657
  30
0
  11
5.605
  21
-0.352625
  31
0
  0
LINE
  5
6f1
  100
AcDbEntity
  8
1
  100
AcDbLine
  10
5.605
  20
-0.352625
  30
0
  11
5.521
  21
-0.294578
  31
0
  0
LINE
  5
6f2
  100
AcDbEntity
  8
1
  100
AcDbLine
  10
5.521
  20
-0.294578
  30
0
  11
5.437
  21
-0.236518
  31
0
  0
LINE
  5
6f3
  100
AcDbEntity
  8
1
  100
AcDbLine
  10
5.437
  20
-0.236518
  30
0
  11
5.353
  21
-0.178448
  31
0
  0
LINE
  5
6f4
  100
AcDbEntity
  8
1
  100
AcDbLine
  10
5.353
  20
-0.178448
  30
0
  11
5.269
  21
-0.120371
  31
0
  0
LINE
  5
6f5
  100
AcDbEntity
  8
1
  100
AcDbLine
  10
5.269
  20
-0.120371
  30
0
  11
5.185
  21
-0.062289
  31
0
  0
LINE
  5
6f6
  100
AcDbEntity
  8
1
  100
AcDbLine
  10
5.185
  20
-0.062289
  30
0
  11
5.101
  21
-0.004204
  31
0
  0
LINE
  5
6f7
  100
AcDbEntity
  8
1
  100
AcDbLine
  10
5.101
  20
-0.004204
  30
0
  11
5.017
  21
0.053882
  31
0
  0
LINE
  5
6f8
  100
AcDbEntity
  8
1
  100
AcDbLine
  10
5.017
  20
0.053882
  30
0
  11
4.933
  21
0.111965
  31
0
  0
LINE
  5
6f9
  100
AcDbEntity
  8
1
  100
AcDbLine
  10
4.933
  20
0.111965
  30
0
  11
4.849
  21
0.170043
  31
0
  0
LINE
  5
6fa
  100
AcDbEntity
  8
1
  100
AcDbLine
  10
4.849
  20
0.170043
  30
0
  11
4.765
  21
0.228114
  31
0
  0
LINE
  5
6fb
  100
AcDbEntity
  8
1
  100
AcDbLine
  10
4.765
  20
0.228114
  30
0
  11
4.681
  21
0.286175
  31
0
  0
LINE
  5
6fc
  100
AcDbEntity
  8
1
  100
AcDbLine
  10
4.681
  20
0.286175
  30
0
  11
4.597
  21
0.344224
  31
0
  0
LINE
  5
6fd
  100
AcDbEntity
  8
1
  100
AcDbLine
  10
4.597
  20
0.344224
  30
0
  11
4.513
  21
0.402258
  31
0
  0
LINE
  5
6fe
  100
AcDbEntity
  8
1
  100
AcDbLine
  10
4.513
  20
0.402258
  30
0
  11
4.429
  21
0.460275
  31
0
  0
LINE
  5
6ff
  100
AcDbEntity
  8
1
  100
AcDbLine
  10
4.429
  20
0.460275
  30
0
  11
4.345
  21
0.518273
  31
0
  0
LINE
  5
700
  100
AcDbEntity
  8
1
  100
AcDbLine
  10
4.345
  20
0.518273
  30
0
  11
4.261
  21
0.576248
  31
0
  0
LINE
  5
701
  100
AcDbEntity
  8
1
  100
AcDbLine
  10
4.261
  20
0.576248
  30
0
  11
4.177
  21
0.634199
  31
0
  0
LINE
  5
702
  100
AcDbEntity
  8
1
  100
AcDbLine
  10
4.177
  20
0.634199
  30
0
  11
4.093
  21
0.692122
  31
0
  0
LINE
  5
703
  100
AcDbEntity
  8
1
  100
AcDbLine
  10
4.093
  20
0.692122
  30
0
  11
4.009
  21
0.750016
  31
0
  0
LINE
  5
704
  100
AcDbEntity
  8
1
  100
AcDbLine
  10
4.009
  20
0.750016
  30
0
  11
3.925
  21
0.807878
  31
0
  0
LINE
  5
705
  100
AcDbEntity
  8
1
  100
AcDbLine
  10
3.925
  20
0.807878
  30
0
  11
3.841
  21
0.865706
  31
0
  0
LINE
  5
706
  100
AcDbEntity
  8
1
  100
AcDbLine
  10
3.841
  20
0.865706
  30
0
  11
3.757
  21
0.923497
  31
0
  0
LINE
  5
707
  100
AcDbEntity
  8
1
  100
AcDbLine
  10
3.757
  20
0.923497
  30
0
  11
3.673
  21
0.981248
  31
0
  0
LINE
  5
708
  100
AcDbEntity
  8
1
  100
AcDbLine
  10
3.673
  20
0.981248
  30
0
  11
3.589
  21
1.038957
  31
0
  0
LINE
  5
709
  100
AcDbEntity
  8
1
  100
AcDbLine
  10
3.589
  20
1.038957
  30
0
  11
3.505
  21
1.096622
  31
0
  0
LINE
  5
70a
  100
AcDbEntity
  8
1
  100
AcDbLine
  10
3.505
  20
1.096622
  30
0
  11
3.421
  21
1.15424
  31
0
  0
LINE
  5
70b
  100
AcDbEntity
  8
1
  100
AcDbLine
  10
3.421
  20
1.15424
  30
0
  11
3.337
  21
1.211808
  31
0
  0
LINE
  5
70c
  100
AcDbEntity
  8
1
  100
AcDbLine
  10
3.337
  20
1.211808
  30
0
  11
3.253
  21
1.269325
  31
0
  0
LINE
  5
70d
  100
AcDbEntity
  8
1
  100
AcDbLine
  10
3.253
  20
1.269325
  30
0
  11
3.169
  21
1.326788
  31
0
  0
LINE
  5
70e
  100
AcDbEntity
  8
1
  100
AcDbLine
  10
3.169
  20
1.326788
  30
0
  11
3.085
  21
1.384194
  31
0
  0
LINE
  5
70f
  100
AcDbEntity
  8
1
  100
AcDbLine
  10
3.085
  20
1.384194
  30
0
  11
3.001
  21
1.441541
  31
0
  0
LINE
  5
710
  100
AcDbEntity
  8
1
  100
AcDbLine
  10
3.001
  20
1.441541
  30
0
  11
2.917
  21
1.498826
  31
0
  0
LINE
  5
711
  100
AcDbEntity
  8
1
  100
AcDbLine
  10
2.917
  20
1.498826
  30
0
  11
2.833
  21
1.556047
  31
0
  0
LINE
  5
712
  100
AcDbEntity
  8
1
  100
AcDbLine
  10
2.833
  20
1.556047
  30
0
  11
2.749
  21
1.613202
  31
0
  0
LINE
  5
713
  100
AcDbEntity
  8
1
  100
AcDbLine
  10
2.749
  20
1.613202
  30
0
  11
2.665
  21
1.670288
  31
0
  0
LINE
  5
714
  100
AcDbEntity
  8
1
  100
AcDbLine
  10
2.665
  20
1.670288
  30
0
  11
2.581
  21
1.727303
  31
0
  0
LINE
  5
715
  100
AcDbEntity
  8
1
  100
AcDbLine
  10
2.581
  20
1.727303
  30
0
  11
2.497
  21
1.784244
  31
0
  0
LINE
  5
716
  100
AcDbEntity
  8
1
  100
AcDbLine
  10
2.497
  20
1.784244
  30
0
  11
2.413
  21
1.841108
  31
0
  0
LINE
  5
717
  100
AcDbEntity
  8
1
  100
AcDbLine
  10
2.413
  20
1.841108
  30
0
  11
2.329
  21
1.897895
  31
0
  0
LINE
  5
718
  100
AcDbEntity
  8
1
  100
AcDbLine
  10
2.329
  20
1.897895
  30
0
  11
2.245
  21
1.9546
  31
0
  0
LINE
  5
719
  100
AcDbEntity
  8
1
  100
AcDbLine
  10
2.245
  20
1.9546
  30
0
  11
2.161
  21
2.011221
  31
0
  0
LINE
  5
71a
  100
AcDbEntity
  8
1
  100
AcDbLine
  10
2.161
  20
2.011221
  30
0
  11
2.077
  21
2.067757
  31
0
  0
LINE
  5
71b
  100
AcDbEntity
  8
1
  100
AcDbLine
  10
2.077
  20
2.067757
  30
0
  11
1.993
  21
2.124204
  31
0
  0
LINE
  5
71c
  100
AcDbEntity
  8
1
  100
AcDbLine
  10
1.993
  20
2.124204
  30
0
  11
1.909
  21
2.18056
  31
0
  0
LINE
  5
71d
  100
AcDbEntity
  8
1
  100
AcDbLine
  10
1.909
  20
2.18056
  30
0
  11
1.825
  21
2.236824
  31
0
  0
LINE
  5
71e
  100
AcDbEntity
  8
1
  100
AcDbLine
  10
1.825
  20
2.236824
  30
0
  11
1.741
  21
2.292992
  31
0
  0
LINE
  5
71f
  100
AcDbEntity
  8
1
  100
AcDbLine
  10
1.741
  20
2.292992
  30
0
  11
1.657
  21
2.349062
  31
0
  0
LINE
  5
720
  100
AcDbEntity
  8
1
  100
AcDbLine
  10
1.657
  20
2.349062
  30
0
  11
1.573
  21
2.405031
  31
0
  0
LINE
  5
721
  100
AcDbEntity
  8
1
  100
AcDbLine
  10
1.573
  20
2.405031
  30
0
  11
1.489
  21
2.460898
  31
0
  0
LINE
  5
722
  100
AcDbEntity
  8
1
  100
AcDbLine
  10
1.489
  20
2.460898
  30
0
  11
1.405
  21
2.51666
  31
0
  0
LINE
  5
723
  100
AcDbEntity
  8
1
  100
AcDbLine
  10
1.405
  20
2.51666
  30
0
  11
1.321
  21
2.572314
  31
0
  0
LINE
  5
724
  100
AcDbEntity
  8
1
  100
AcDbLine
  10
1.321
  20
2.572314
  30
0
  11
1.237
  21
2.627859
  31
0
  0
LINE
  5
725
  100
AcDbEntity
  8
1
  100
AcDbLine
  10
1.237
  20
2.627859
  30
0
  11
1.153
  21
2.683291
  31
0
  0
LINE
  5
726
  100
AcDbEntity
  8
1
  100
AcDbLine
  10
1.153
  20
2.683291
  30
0
  11
1.069
  21
2.738609
  31
0
  0
LINE
  5
727
  100
AcDbEntity
  8
1
  100
AcDbLine
  10
1.069
  20
2.738609
  30
0
  11
0.985
  21
2.793809
  31
0
  0
LINE
  5
728
  100
AcDbEntity
  8
1
  100
AcDbLine
  10
0.985
  20
2.793809
  30
0
  11
0.901
  21
2.848891
  31
0
  0
LINE
  5
729
  100
AcDbEntity
  8
1
  100
AcDbLine
  10
0.901
  20
2.848891
  30
0
  11
0.817
  21
2.90385
  31
0
  0
LINE
  5
72a
  100
AcDbEntity
  8
1
  100
AcDbLine
  10
0.817
  20
2.90385
  30
0
  11
0.733
  21
2.958686
  31
0
  0
LINE
  5
72b
  100
AcDbEntity
  8
1
  100
AcDbLine
  10
0.733
  20
2.958686
  30
0
  11
0.649
  21
3.013395
  31
0
  0
LINE
  5
72c
  100
AcDbEntity
  8
1
  100
AcDbLine
  10
0.649
  20
3.013395
  30
0
  11
0.565
  21
3.067976
  31
0
  0
LINE
  5
72d
  100
AcDbEntity
  8
1
  100
AcDbLine
  10
0.565
  20
3.067976
  30
0
  11
0.481
  21
3.122425
  31
0
  0
LINE
  5
72e
  100
AcDbEntity
  8
1
  100
AcDbLine
  10
0.481
  20
3.122425
  30
0
  11
0.397
  21
3.176742
  31
0
  0
LINE
  5
72f
  100
AcDbEntity
  8
1
  100
AcDbLine
  10
0.397
  20
3.176742
  30
0
  11
0.313
  21
3.230922
  31
0
  0
LINE
  5
730
  100
AcDbEntity
  8
1
  100
AcDbLine
  10
0.313
  20
3.230922
  30
0
  11
0.229
  21
3.284965
  31
0
  0
LINE
  5
731
  100
AcDbEntity
  8
1
  100
AcDbLine
  10
0.229
  20
3.284965
  30
0
  11
0.145
  21
3.338867
  31
0
  0
LINE
  5
732
  100
AcDbEntity
  8
1
  100
AcDbLine
  10
0.145
  20
3.338867
  30
0
  11
0.061
  21
3.392626
  31
0
  0
LINE
  5
733
  100
AcDbEntity
  8
1
  100
AcDbLine
  10
24.001
  20
0
  30
0
  11
24.001
  21
-8.6
  31
0
  0
LINE
  5
734
  100
AcDbEntity
  8
1
  100
AcDbLine
  10
24.001
  20
-8.6
  30
0
  11
23.601
  21
-9
  31
0
  0
LINE
  5
735
  100
AcDbEntity
  8
1
  100
AcDbLine
  10
23.601
  20
-9
  30
0
  11
0.001
  21
-9
  31
0
  0
LINE
  5
736
  100
AcDbEntity
  8
1
  100
AcDbLine
  10
0.001
  20
-9
  30
0
  11
0
  21
-9
  31
0
  0
LINE
  5
737
  100
AcDbEntity
  8
1
  100
AcDbLine
  10
24.001
  20
8.6
  30
0
  11
24.001
  21
-8.6
  31
0
  0
LINE
  5
738
  100
AcDbEntity
  8
1
  100
AcDbLine
  10
23.601
  20
9
  30
0
  11
23.601
  21
-9
  31
0
  0
LINE
  5
739
  100
AcDbEntity
  8
1
  100
AcDbLine
  10
23.601
  20
9
  30
0
  11
23.601
  21
-9
  31
0
  0
LINE
  5
73a
  100
AcDbEntity
  8
1
  100
AcDbLine
  10
0.001
  20
9
  30
0
  11
0.001
  21
-9
  31
0
  0
LINE
  5
73b
  100
AcDbEntity
  8
1
  100
AcDbLine
  10
0.001
  20
9
  30
0
  11
0.001
  21
-9
  31
0
  0
LINE
  5
73c
  100
AcDbEntity
  8
1
  100
AcDbLine
  10
0
  20
9
  30
0
  11
0
  21
-9
  31
0
  0
LINE
  5
73d
  100
AcDbEntity
  8
1
  100
AcDbLine
  10
0
  20
9
  30
0
  11
0
  21
-9
  31
0
  0
LINE
  5
73e
  100
AcDbEntity
  8
SK1
  100
AcDbLine
  10
0
  20
2.629575
  30
0
  11
-0.023
  21
2.644984
  31
0
  0
LINE
  5
73f
  100
AcDbEntity
  8
SK1
  100
AcDbLine
  10
-0.023
  20
2.644984
  30
0
  11
-0.107
  21
2.701147
  31
0
  0
LINE
  5
740
  100
AcDbEntity
  8
SK1
  100
AcDbLine
  10
-0.107
  20
2.701147
  30
0
  11
-0.191
  21
2.757195
  31
0
  0
LINE
  5
741
  100
AcDbEntity
  8
SK1
  100
AcDbLine
  10
-0.191
  20
2.757195
  30
0
  11
-0.275
  21
2.813125
  31
0
  0
LINE
  5
742
  100
AcDbEntity
  8
SK1
  100
AcDbLine
  10
-0.275
  20
2.813125
  30
0
  11
-0.359
  21
2.868933
  31
0
  0
LINE
  5
743
  100
AcDbEntity
  8
SK1
  100
AcDbLine
  10
-0.359
  20
2.868933
  30
0
  11
-0.443
  21
2.924595
  31
0
  0
LINE
  5
744
  100
AcDbEntity
  8
SK1
  100
AcDbLine
  10
-0.443
  20
2.924595
  30
0
  11
-0.527
  21
2.979966
  31
0
  0
LINE
  5
745
  100
AcDbEntity
  8
SK1
  100
AcDbLine
  10
-0.527
  20
2.979966
  30
0
  11
-0.611
  21
3.034334
  31
0
  0
LINE
  5
746
  100
AcDbEntity
  8
SK1
  100
AcDbLine
  10
-0.611
  20
3.034334
  30
0
  11
-0.695
  21
3.084921
  31
0
  0
LINE
  5
747
  100
AcDbEntity
  8
SK1
  100
AcDbLine
  10
-0.695
  20
3.084921
  30
0
  11
-0.779
  21
3.122581
  31
0
  0
LINE
  5
748
  100
AcDbEntity
  8
SK1
  100
AcDbLine
  10
-0.779
  20
3.122581
  30
0
  11
-0.863
  21
3.120986
  31
0
  0
LINE
  5
749
  100
AcDbEntity
  8
SK1
  100
AcDbLine
  10
-0.863
  20
3.120986
  30
0
  11
-0.947
  21
3.011724
  31
0
  0
LINE
  5
74a
  100
AcDbEntity
  8
SK1
  100
AcDbLine
  10
-0.947
  20
3.011724
  30
0
  11
-1.031
  21
2.629566
  31
0
  0
LINE
  5
74b
  100
AcDbEntity
  8
SK1
  100
AcDbLine
  10
-1.031
  20
2.629566
  30
0
  11
-1.115
  21
1.594442
  31
0
  0
LINE
  5
74c
  100
AcDbEntity
  8
SK1
  100
AcDbLine
  10
-1.115
  20
1.594442
  30
0
  11
-1.199
  21
-0.90122
  31
0
  0
LINE
  5
74d
  100
AcDbEntity
  8
SK1
  100
AcDbLine
  10
-1.199
  20
-0.90122
  30
0
  11
-1.199
  21
-1.12597
  31
0
  0
LINE
  5
74e
  100
AcDbEntity
  8
SK1
  100
AcDbLine
  10
-1.199
  20
-1.12597
  30
0
  11
-1.115
  21
-3.452461
  31
0
  0
LINE
  5
74f
  100
AcDbEntity
  8
SK1
  100
AcDbLine
  10
-1.115
  20
-3.452461
  30
0
  11
-1.031
  21
-4.931992
  31
0
  0
LINE
  5
750
  100
AcDbEntity
  8
SK1
  100
AcDbLine
  10
-1.031
  20
-4.931992
  30
0
  11
-0.947
  21
-5.840726
  31
0
  0
LINE
  5
751
  100
AcDbEntity
  8
SK1
  100
AcDbLine
  10
-0.947
  20
-5.840726
  30
0
  11
-0.863
  21
-6.391302
  31
0
  0
LINE
  5
752
  100
AcDbEntity
  8
SK1
  100
AcDbLine
  10
-0.863
  20
-6.391302
  30
0
  11
-0.779
  21
-6.723441
  31
0
  0
LINE
  5
753
  100
AcDbEntity
  8
SK1
  100
AcDbLine
  10
-0.779
  20
-6.723441
  30
0
  11
-0.695
  21
-6.924243
  31
0
  0
LINE
  5
754
  100
AcDbEntity
  8
SK1
  100
AcDbLine
  10
-0.695
  20
-6.924243
  30
0
  11
-0.611
  21
-7.047441
  31
0
  0
LINE
  5
755
  100
AcDbEntity
  8
SK1
  100
AcDbLine
  10
-0.611
  20
-7.047441
  30
0
  11
-0.527
  21
-7.126222
  31
0
  0
LINE
  5
756
  100
AcDbEntity
  8
SK1
  100
AcDbLine
  10
-0.527
  20
-7.126222
  30
0
  11
-0.443
  21
-7.180905
  31
0
  0
LINE
  5
757
  100
AcDbEntity
  8
SK1
  100
AcDbLine
  10
-0.443
  20
-7.180905
  30
0
  11
-0.359
  21
-7.223525
  31
0
  0
LINE
  5
758
  100
AcDbEntity
  8
SK1
  100
AcDbLine
  10
-0.359
  20
-7.223525
  30
0
  11
-0.275
  21
-7.260747
  31
0
  0
LINE
  5
759
  100
AcDbEntity
  8
SK1
  100
AcDbLine
  10
-0.275
  20
-7.260747
  30
0
  11
-0.191
  21
-7.295859
  31
0
  0
LINE
  5
75a
  100
AcDbEntity
  8
SK1
  100
AcDbLine
  10
-0.191
  20
-7.295859
  30
0
  11
-0.107
  21
-7.330205
  31
0
  0
LINE
  5
75b
  100
AcDbEntity
  8
SK1
  100
AcDbLine
  10
-0.107
  20
-7.330205
  30
0
  11
-0.023
  21
-7.364177
  31
0
  0
LINE
  5
75c
  100
AcDbEntity
  8
SK1
  100
AcDbLine
  10
-0.023
  20
-7.364177
  30
0
  11
0
  21
-7.373392
  31
0
  0
LINE
  5
75d
  100
AcDbEntity
  8
SK1
  100
AcDbLine
  10
-1.168666
  20
9
  30
0
  11
-1.199
  21
8.954764
  31
0
  0
LINE
  5
75e
  100
AcDbEntity
  8
SK1
  100
AcDbLine
  10
-1.199
  20
8.954764
  30
0
  11
-1.199
  21
8.929288
  31
0
  0
LINE
  5
75f
  100
AcDbEntity
  8
SK1
  100
AcDbLine
  10
-1.199
  20
8.929288
  30
0
  11
-1.115
  21
8.311469
  31
0
  0
LINE
  5
760
  100
AcDbEntity
  8
SK1
  100
AcDbLine
  10
-1.115
  20
8.311469
  30
0
  11
-1.031
  21
7.528311
  31
0
  0
LINE
  5
761
  100
AcDbEntity
  8
SK1
  100
AcDbLine
  10
-1.031
  20
7.528311
  30
0
  11
-0.947
  21
6.84733
  31
0
  0
LINE
  5
762
  100
AcDbEntity
  8
SK1
  100
AcDbLine
  10
-0.947
  20
6.84733
  30
0
  11
-0.863
  21
6.336502
  31
0
  0
LINE
  5
763
  100
AcDbEntity
  8
SK1
  100
AcDbLine
  10
-0.863
  20
6.336502
  30
0
  11
-0.779
  21
5.98292
  31
0
  0
LINE
  5
764
  100
AcDbEntity
  8
SK1
  100
AcDbLine
  10
-0.779
  20
5.98292
  30
0
  11
-0.695
  21
5.749336
  31
0
  0
LINE
  5
765
  100
AcDbEntity
  8
SK1
  100
AcDbLine
  10
-0.695
  20
5.749336
  30
0
  11
-0.611
  21
5.59764
  31
0
  0
LINE
  5
766
  100
AcDbEntity
  8
SK1
  100
AcDbLine
  10
-0.611
  20
5.59764
  30
0
  11
-0.527
  21
5.496995
  31
0
  0
LINE
  5
767
  100
AcDbEntity
  8
SK1
  100
AcDbLine
  10
-0.527
  20
5.496995
  30
0
  11
-0.443
  21
5.425366
  31
0
  0
LINE
  5
768
  100
AcDbEntity
  8
SK1
  100
AcDbLine
  10
-0.443
  20
5.425366
  30
0
  11
-0.359
  21
5.36849
  31
0
  0
LINE
  5
769
  100
AcDbEntity
  8
SK1
  100
AcDbLine
  10
-0.359
  20
5.36849
  30
0
  11
-0.275
  21
5.318041
  31
0
  0
LINE
  5
76a
  100
AcDbEntity
  8
SK1
  100
AcDbLine
  10
-0.275
  20
5.318041
  30
0
  11
-0.191
  21
5.269767
  31
0
  0
LINE
  5
76b
  100
AcDbEntity
  8
SK1
  100
AcDbLine
  10
-0.191
  20
5.269767
  30
0
  11
-0.107
  21
5.221886
  31
0
  0
LINE
  5
76c
  100
AcDbEntity
  8
SK1
  100
AcDbLine
  10
-0.107
  20
5.221886
  30
0
  11
-0.023
  21
5.173867
  31
0
  0
LINE
  5
76d
  100
AcDbEntity
  8
SK1
  100
AcDbLine
  10
-0.023
  20
5.173867
  30
0
  11
-0
  21
5.160659
  31
0
  0
LINE
  5
76e
  100
AcDbEntity
  8
SK1
  100
AcDbLine
  10
-0
  20
-8.607244
  30
0
  11
-0.023
  21
-8.602561
  31
0
  0
LINE
  5
76f
  100
AcDbEntity
  8
SK1
  100
AcDbLine
  10
-0.023
  20
-8.602561
  30
0
  11
-0.107
  21
-8.585092
  31
0
  0
LINE
  5
770
  100
AcDbEntity
  8
SK1
  100
AcDbLine
  10
-0.107
  20
-8.585092
  30
0
  11
-0.191
  21
-8.567256
  31
0
  0
LINE
  5
771
  100
AcDbEntity
  8
SK1
  100
AcDbLine
  10
-0.191
  20
-8.567256
  30
0
  11
-0.275
  21
-8.549054
  31
0
  0
LINE
  5
772
  100
AcDbEntity
  8
SK1
  100
AcDbLine
  10
-0.275
  20
-8.549054
  30
0
  11
-0.359
  21
-8.530488
  31
0
  0
LINE
  5
773
  100
AcDbEntity
  8
SK1
  100
AcDbLine
  10
-0.359
  20
-8.530488
  30
0
  11
-0.443
  21
-8.511565
  31
0
  0
LINE
  5
774
  100
AcDbEntity
  8
SK1
  100
AcDbLine
  10
-0.443
  20
-8.511565
  30
0
  11
-0.527
  21
-8.492338
  31
0
  0
LINE
  5
775
  100
AcDbEntity
  8
SK1
  100
AcDbLine
  10
-0.527
  20
-8.492338
  30
0
  11
-0.611
  21
-8.473064
  31
0
  0
LINE
  5
776
  100
AcDbEntity
  8
SK1
  100
AcDbLine
  10
-0.611
  20
-8.473064
  30
0
  11
-0.695
  21
-8.454777
  31
0
  0
LINE
  5
777
  100
AcDbEntity
  8
SK1
  100
AcDbLine
  10
-0.695
  20
-8.454777
  30
0
  11
-0.779
  21
-8.440941
  31
0
  0
LINE
  5
778
  100
AcDbEntity
  8
SK1
  100
AcDbLine
  10
-0.779
  20
-8.440941
  30
0
  11
-0.863
  21
-8.441531
  31
0
  0
LINE
  5
779
  100
AcDbEntity
  8
SK1
  100
AcDbLine
  10
-0.863
  20
-8.441531
  30
0
  11
-0.947
  21
-8.481127
  31
0
  0
LINE
  5
77a
  100
AcDbEntity
  8
SK1
  100
AcDbLine
  10
-0.947
  20
-8.481127
  30
0
  11
-1.031
  21
-8.607287
  31
0
  0
LINE
  5
77b
  100
AcDbEntity
  8
SK1
  100
AcDbLine
  10
-1.031
  20
-8.607287
  30
0
  11
-1.115
  21
-8.857638
  31
0
  0
LINE
  5
77c
  100
AcDbEntity
  8
SK1
  100
AcDbLine
  10
-1.115
  20
-8.857638
  30
0
  11
-1.168666
  21
-9
  31
0
  0
LINE
  5
77d
  100
AcDbEntity
  8
SK1
  100
AcDbLine
  10
0
  20
9
  30
0
  11
-31.699
  21
9
  31
0
  0
LINE
  5
77e
  100
AcDbEntity
  8
SK1
  100
AcDbLine
  10
-31.699
  20
9
  30
0
  11
-33.499
  21
7.2
  31
0
  0
LINE
  5
77f
  100
AcDbEntity
  8
SK1
  100
AcDbLine
  10
-33.499
  20
7.2
  30
0
  11
-41.499
  21
7.2
  31
0
  0
LINE
  5
780
  100
AcDbEntity
  8
SK1
  100
AcDbLine
  10
-41.499
  20
7.2
  30
0
  11
-43.299
  21
9
  31
0
  0
LINE
  5
781
  100
AcDbEntity
  8
SK1
  100
AcDbLine
  10
-43.299
  20
9
  30
0
  11
-59.299
  21
9
  31
0
  0
LINE
  5
782
  100
AcDbEntity
  8
SK1
  100
AcDbLine
  10
-59.299
  20
9
  30
0
  11
-59.999
  21
8.3
  31
0
  0
LINE
  5
783
  100
AcDbEntity
  8
SK1
  100
AcDbLine
  10
0
  20
-9
  30
0
  11
-59.299
  21
-9
  31
0
  0
LINE
  5
784
  100
AcDbEntity
  8
SK1
  100
AcDbLine
  10
-59.299
  20
-9
  30
0
  11
-59.999
  21
-8.3
  31
0
  0
LINE
  5
785
  100
AcDbEntity
  8
SK1
  100
AcDbLine
  10
0
  20
9
  30
0
  11
0
  21
-9
  31
0
  0
LINE
  5
786
  100
AcDbEntity
  8
SK1
  100
AcDbLine
  10
0
  20
9
  30
0
  11
0
  21
-9
  31
0
  0
LINE
  5
787
  100
AcDbEntity
  8
SK1
  100
AcDbLine
  10
-59.299
  20
9
  30
0
  11
-59.299
  21
-9
  31
0
  0
LINE
  5
788
  100
AcDbEntity
  8
SK1
  100
AcDbLine
  10
-59.999
  20
8.3
  30
0
  11
-59.999
  21
-8.3
  31
0
  0
LINE
  5
7cf
  100
AcDbEntity
  8
NOCUT
  100
AcDbLine
  10
0.001
  20
0
  30
0
  11
0.001
  21
9
  31
0
  0
LINE
  5
7d0
  100
AcDbEntity
  8
NOCUT
  100
AcDbLine
  10
0.001
  20
9
  30
0
  11
0
  21
9
  31
0
  0
LINE
  5
7d1
  100
AcDbEntity
  8
NOCUT
  100
AcDbLine
  10
0
  20
9
  30
0
  11
-31.699
  21
9
  31
0
  0
LINE
  5
7d2
  100
AcDbEntity
  8
NOCUT
  100
AcDbLine
  10
-31.699
  20
9
  30
0
  11
-33.499
  21
7.2
  31
0
  0
LINE
  5
7d3
  100
AcDbEntity
  8
NOCUT
  100
AcDbLine
  10
-33.499
  20
7.2
  30
0
  11
-41.499
  21
7.2
  31
0
  0
LINE
  5
7d4
  100
AcDbEntity
  8
NOCUT
  100
AcDbLine
  10
-41.499
  20
7.2
  30
0
  11
-43.299
  21
9
  31
0
  0
LINE
  5
7d5
  100
AcDbEntity
  8
NOCUT
  100
AcDbLine
  10
-43.299
  20
9
  30
0
  11
-59.299
  21
9
  31
0
  0
LINE
  5
7d6
  100
AcDbEntity
  8
NOCUT
  100
AcDbLine
  10
-59.299
  20
9
  30
0
  11
-59.999
  21
8.3
  31
0
  0
LINE
  5
7d7
  100
AcDbEntity
  8
NOCUT
  100
AcDbLine
  10
-59.999
  20
8.3
  30
0
  11
-59.999
  21
0
  31
0
  0
LINE
  5
7d8
  100
AcDbEntity
  8
NOCUT
  100
AcDbLine
  10
-59.999
  20
0
  30
0
  11
0.001
  21
0
  31
0
  0
LINE
  5
7d9
  100
AcDbEntity
  8
CUT
  100
AcDbLine
  10
24.001
  20
0
  30
0
  11
24.001
  21
8.6
  31
0
  0
LINE
  5
7da
  100
AcDbEntity
  8
CUT
  100
AcDbLine
  10
24.001
  20
8.6
  30
0
  11
23.601
  21
9
  31
0
  0
LINE
  5
7db
  100
AcDbEntity
  8
CUT
  100
AcDbLine
  10
23.601
  20
9
  30
0
  11
0.001
  21
9
  31
0
  0
LINE
  5
7dc
  100
AcDbEntity
  8
CUT
  100
AcDbLine
  10
0.001
  20
9
  30
0
  11
0.001
  21
0
  31
0
  0
LINE
  5
7dd
  100
AcDbEntity
  8
CUT
  100
AcDbLine
  10
0.001
  20
0
  30
0
  11
24.001
  21
0
  31
0
  0
LINE
  5
7de
  100
AcDbEntity
  8
4
  100
AcDbLine
  10
-59.999
  20
0
  30
0
  11
24.001
  21
0
  31
0
  0
LINE
  5
7df
  100
AcDbEntity
  8
INFTOTAL
  100
AcDbLine
  10
-77.646356
  20
52.693934
  30
0
  11
46.595478
  21
52.693934
  31
0
  0
LINE
  5
7e0
  100
AcDbEntity
  8
INFTOTAL
  100
AcDbLine
  10
46.595478
  20
52.693934
  30
0
  11
46.595478
  21
-24.618734
  31
0
  0
LINE
  5
7e1
  100
AcDbEntity
  8
INFTOTAL
  100
AcDbLine
  10
46.595478
  20
-24.618734
  30
0
  11
-77.646356
  21
-24.618734
  31
0
  0
LINE
  5
7e2
  100
AcDbEntity
  8
INFTOTAL
  100
AcDbLine
  10
-77.646356
  20
-24.618734
  30
0
  11
-77.646356
  21
52.693934
  31
0
  0
ENDSEC
  0
SECTION
  2
OBJECTS
  0
DICTIONARY
  5
7e3
  330
0
100
AcDbDictionary
281
    1
  3
ACAD_GROUP
  350
7e4
  0
DICTIONARY
  5
7e4
102
{ACAD_REACTORS
  330
7e3
102
}
  330
7e3
100
AcDbDictionary
281
    1
  0
ENDSEC
  0
EOF
