  0
SECTION
  2
HEADER
  9
$ACADVER
  1
AC1015
  9
$DWGCODEPAGE
  3
ansi_1252
  9
$HANDSEED
  5
106AB90
  9
$INSUNITS
  70
4
  0
ENDSEC
  0
SECTION
  2
TABLES
  0
TABLE
  2
VPORT
  5
2
  330
0
  100
AcDbSymbolTable
  70
    0
  0
ENDTAB
  0
TABLE
  2
LTYPE
  5
3
  330
0
  100
AcDbSymbolTable
  70
    4
  0
LTYPE
  5
4
  330
3
  100
AcDbSymbolTableRecord
  100
AcDbLinetypeTableRecord
  2
ByBlock
  70
    0
  3

  72
65
  73
    0
  40
0
  0
LTYPE
  5
5
  330
3
  100
AcDbSymbolTableRecord
  100
AcDbLinetypeTableRecord
  2
ByLayer
  70
    0
  3

  72
65
  73
    0
  40
0
  0
LTYPE
  5
6
  330
3
  100
AcDbSymbolTableRecord
  100
AcDbLinetypeTableRecord
  2
CONTINUOUS
  70
    0
  3
Solid Line
  72
65
  73
    0
  40
0
  0
LTYPE
  5
7
  330
3
  100
AcDbSymbolTableRecord
  100
AcDbLinetypeTableRecord
  2
DASH
  70
    0
  3
Hidden
  72
65
  73
2
  40
2.5
  49
1.5
  74
0
  49
-1
  74
0
  0
LTYPE
  5
8
  330
3
  100
AcDbSymbolTableRecord
  100
AcDbLinetypeTableRecord
  2
LONGDASHDASH
  70
    0
  3
__ . __
  72
65
  73
    4
  40
7
  49
4
  74
    0
  49
-1
  74
    0
  49
1
  74
    0
  49
-1
  74
    0
  0
ENDTAB
  0
TABLE
  2
LAYER
  5
9
  330
0
  100
AcDbSymbolTable
  70
    40
  0
LAYER
  5
a
  330
9
  100
AcDbSymbolTableRecord
  100
AcDbLayerTableRecord
  2
0
  70
    0
  62
    0
  6
CONTINUOUS
  390
0
  0
LAYER
  5
b
  330
9
  100
AcDbSymbolTableRecord
  100
AcDbLayerTableRecord
  2
DEFPOINT
  70
    0
  62
    0
  6
CONTINUOUS
  390
0
  0
LAYER
  5
c
  330
9
  100
AcDbSymbolTableRecord
  100
AcDbLayerTableRecord
  2
1
  70
    0
  62
    4
  6
CONTINUOUS
  370
50
  390
0
  0
LAYER
  5
d
  330
9
  100
AcDbSymbolTableRecord
  100
AcDbLayerTableRecord
  2
2
  70
    0
  62
    7
  6
CONTINUOUS
  370
25
  390
0
  0
LAYER
  5
e
  330
9
  100
AcDbSymbolTableRecord
  100
AcDbLayerTableRecord
  2
3
  70
    0
  62
    1
  6
DASH
  370
35
  390
0
  0
LAYER
  5
f
  330
9
  100
AcDbSymbolTableRecord
  100
AcDbLayerTableRecord
  2
4
  70
    0
  62
    2
  6
LONGDASHDASH
  370
25
  390
0
  0
LAYER
  5
10
  330
9
  100
AcDbSymbolTableRecord
  100
AcDbLayerTableRecord
  2
6
  70
    0
  62
    5
  6
CONTINUOUS
  390
0
  0
LAYER
  5
11
  330
9
  100
AcDbSymbolTableRecord
  100
AcDbLayerTableRecord
  2
7
  70
    0
  62
    5
  6
CONTINUOUS
  370
25
  390
0
  0
LAYER
  5
12
  330
9
  100
AcDbSymbolTableRecord
  100
AcDbLayerTableRecord
  2
11
  70
    0
  62
    4
  6
CONTINUOUS
  370
25
  390
0
  0
LAYER
  5
13
  330
9
  100
AcDbSymbolTableRecord
  100
AcDbLayerTableRecord
  2
SK1
  70
    0
  62
    4
  6
CONTINUOUS
  370
50
  390
0
  0
LAYER
  5
14
  330
9
  100
AcDbSymbolTableRecord
  100
AcDbLayerTableRecord
  2
SK2
  70
    0
  62
    7
  6
CONTINUOUS
  370
25
  390
0
  0
LAYER
  5
15
  330
9
  100
AcDbSymbolTableRecord
  100
AcDbLayerTableRecord
  2
SK3
  70
    0
  62
    1
  6
DASH
  370
35
  390
0
  0
LAYER
  5
16
  330
9
  100
AcDbSymbolTableRecord
  100
AcDbLayerTableRecord
  2
SK4
  70
    0
  62
    2
  6
LONGDASHDASH
  370
25
  390
0
  0
LAYER
  5
17
  330
9
  100
AcDbSymbolTableRecord
  100
AcDbLayerTableRecord
  2
SK6
  70
    0
  62
    5
  6
CONTINUOUS
  390
0
  0
LAYER
  5
18
  330
9
  100
AcDbSymbolTableRecord
  100
AcDbLayerTableRecord
  2
SK7
  70
    0
  62
    5
  6
CONTINUOUS
  370
25
  390
0
  0
LAYER
  5
19
  330
9
  100
AcDbSymbolTableRecord
  100
AcDbLayerTableRecord
  2
SK11
  70
    0
  62
    4
  6
CONTINUOUS
  370
25
  390
0
  0
LAYER
  5
1a
  330
9
  100
AcDbSymbolTableRecord
  100
AcDbLayerTableRecord
  2
SKVIEW1
  70
    0
  62
    4
  6
CONTINUOUS
  370
50
  390
0
  0
LAYER
  5
1b
  330
9
  100
AcDbSymbolTableRecord
  100
AcDbLayerTableRecord
  2
SKVIEW2
  70
    0
  62
    7
  6
CONTINUOUS
  370
25
  390
0
  0
LAYER
  5
1c
  330
9
  100
AcDbSymbolTableRecord
  100
AcDbLayerTableRecord
  2
SKVIEW3
  70
    0
  62
    1
  6
DASH
  370
35
  390
0
  0
LAYER
  5
1d
  330
9
  100
AcDbSymbolTableRecord
  100
AcDbLayerTableRecord
  2
SKVIEW4
  70
    0
  62
    2
  6
LONGDASHDASH
  370
25
  390
0
  0
LAYER
  5
1e
  330
9
  100
AcDbSymbolTableRecord
  100
AcDbLayerTableRecord
  2
SKVIEW6
  70
    0
  62
    5
  6
CONTINUOUS
  390
0
  0
LAYER
  5
1f
  330
9
  100
AcDbSymbolTableRecord
  100
AcDbLayerTableRecord
  2
SKVIEW7
  70
    0
  62
    5
  6
CONTINUOUS
  370
25
  390
0
  0
LAYER
  5
20
  330
9
  100
AcDbSymbolTableRecord
  100
AcDbLayerTableRecord
  2
SKVIEW11
  70
    0
  62
    4
  6
CONTINUOUS
  370
25
  390
0
  0
LAYER
  5
21
  330
9
  100
AcDbSymbolTableRecord
  100
AcDbLayerTableRecord
  2
NOCUT
  70
    0
  62
    7
  6
CONTINUOUS
  370
25
  390
0
  0
LAYER
  5
22
  330
9
  100
AcDbSymbolTableRecord
  100
AcDbLayerTableRecord
  2
CUT
  70
    0
  62
    1
  6
CONTINUOUS
  370
25
  390
0
  0
LAYER
  5
23
  330
9
  100
AcDbSymbolTableRecord
  100
AcDbLayerTableRecord
  2
FRAME50
  70
    0
  62
    7
  6
CONTINUOUS
  390
0
  0
LAYER
  5
24
  330
9
  100
AcDbSymbolTableRecord
  100
AcDbLayerTableRecord
  2
53
  70
    0
  62
    5
  6
CONTINUOUS
  390
0
  0
LAYER
  5
25
  330
9
  100
AcDbSymbolTableRecord
  100
AcDbLayerTableRecord
  2
INFTEXT
  70
    0
  62
    5
  6
CONTINUOUS
  390
0
  0
LAYER
  5
26
  330
9
  100
AcDbSymbolTableRecord
  100
AcDbLayerTableRecord
  2
INFTOTAL
  70
    0
  62
    9
  6
CONTINUOUS
  370
18
  390
0
  0
ENDTAB
  0
TABLE
  2
STYLE
  5
27
  330
0
  100
AcDbSymbolTable
  70
    1
  0
STYLE
  5
28
  330
27
  100
AcDbSymbolTableRecord
  100
AcDbTextStyleTableRecord
  2
Monospac821 BT
  70
    0
  40
    3.5
  41
1
  50
0
  71
0
  42
3
  3

  4

  1001
ACAD
  1000
Monospac821 BT
  1071
256
  0
ENDTAB
  0
TABLE
  2
VIEW
  5
29
  330
0
  100
AcDbSymbolTable
  70
    0
  0
ENDTAB
  0
TABLE
  2
UCS
  5
2a
  330
0
  100
AcDbSymbolTable
  70
    0
  0
ENDTAB
  0
TABLE
  2
APPID
  5
2b
  330
0
  100
AcDbSymbolTable
  70
    1
  0
APPID
  5
2c
  330
2b
  100
AcDbSymbolTableRecord
  100
AcDbRegAppTableRecord
  2
ACAD
  70
    0
  0
ENDTAB
  0
TABLE
  2
DIMSTYLE
  5
2d
  330
0
  100
AcDbSymbolTable
  70
    1
  100
AcDbDimStyleTable
  0
DIMSTYLE
  105
2e
  330
2d
  100
AcDbSymbolTableRecord
  100
AcDbDimStyleTableRecord
  2
STANDARD
  70
    0
  41
    3
  42
0.5
  44
1
  73
0
  77
1
  78
1
  140
3.5
  141
2.5
  143
0.03937
  147
0.8
  172
1
  174
1
  178
0
  179
1
  271
2
  279
1
  284
1
  340
28
  0
ENDTAB
  0
TABLE
  2
BLOCK_RECORD
  5
2f
  330
0
  100
AcDbSymbolTable
  70
    2
  0
BLOCK_RECORD
  5
30
  330
2f
  100
AcDbSymbolTableRecord
  100
AcDbBlockTableRecord
  2
*Model_Space
  0
BLOCK_RECORD
  5
31
  330
2f
  100
AcDbSymbolTableRecord
  100
AcDbBlockTableRecord
  2
*Paper_Space
  0
BLOCK_RECORD
  5
744
  330
2f
  100
AcDbSymbolTableRecord
  100
AcDbBlockTableRecord
  2
*D743
  340
0
  0
BLOCK_RECORD
  5
752
  330
2f
  100
AcDbSymbolTableRecord
  100
AcDbBlockTableRecord
  2
*D751
  340
0
  0
BLOCK_RECORD
  5
760
  330
2f
  100
AcDbSymbolTableRecord
  100
AcDbBlockTableRecord
  2
*D75f
  340
0
  0
BLOCK_RECORD
  5
76e
  330
2f
  100
AcDbSymbolTableRecord
  100
AcDbBlockTableRecord
  2
*D76d
  340
0
  0
BLOCK_RECORD
  5
77c
  330
2f
  100
AcDbSymbolTableRecord
  100
AcDbBlockTableRecord
  2
*D77b
  340
0
  0
ENDTAB
  0
ENDSEC
  0
SECTION
  2
BLOCKS
  0
BLOCK
  5
32
  330
30
  100
AcDbEntity
  8
0
  100
AcDbBlockBegin
  2
*Model_Space
  70
    0
  10
0
  20
0
  30
0
  3
*Model_Space
  1

  0
ENDBLK
  5
33
  330
30
  100
AcDbEntity
  8
0
  100
AcDbBlockEnd
  0
BLOCK
  5
34
  330
31
  100
AcDbEntity
  8
0
  100
AcDbBlockBegin
  2
*Paper_Space
  70
    0
  10
0
  20
0
  30
0
  3
*Paper_Space
  1

  0
ENDBLK
  5
35
  330
31
  100
AcDbEntity
  8
0
  100
AcDbBlockEnd
  0
BLOCK
  5
742
  330
744
  100
AcDbEntity
  8
SK2
  100
AcDbBlockBegin
  2
*D743
  70
1
  10
0
  20
0
  30
0
  3
*D743
  1

  0
LINE
  5
745
  330
744
  100
AcDbEntity
  8
SK2
  100
AcDbLine
  10
17.86602
  20
0
  30
0
  11
17.86602
  21
47.046578
  31
0
  0
LINE
  5
746
  330
744
  100
AcDbEntity
  8
SK2
  100
AcDbLine
  10
-55.13398
  20
5.3
  30
0
  11
-55.13398
  21
47.046578
  31
0
  0
LINE
  5
747
  330
744
  100
AcDbEntity
  8
SK2
  100
AcDbLine
  10
17.86602
  20
45.046578
  30
0
  11
-55.13398
  21
45.046578
  31
0
  0
SOLID
  5
748
  330
744
  100
AcDbEntity
  8
SK2
  100
AcDbTrace
  10
17.86602
  20
45.046578
  30
0
  11
15.387408
  21
44.720263
  31
0
  12
15.387408
  22
45.372894
  32
0
  13
15.387408
  23
45.372894
  33
0
  0
SOLID
  5
749
  330
744
  100
AcDbEntity
  8
SK2
  100
AcDbTrace
  10
-55.13398
  20
45.046578
  30
0
  11
-52.655368
  21
45.372894
  31
0
  12
-52.655368
  22
44.720263
  32
0
  13
-52.655368
  23
44.720263
  33
0
  0
MTEXT
  5
74a
  330
744
  100
AcDbEntity
  8
SK2
  100
AcDbMText
  10
-18.63398
  20
45.046578
  30
0
  11
1
  21
0
  31
0
  40
2
  41
0
  71
8
  72
1
  1
73+2
  0
POINT
  5
74b
  330
744
  100
AcDbEntity
  8
SK2
  62
0
  100
AcDbPoint
  10
17.86602
  20
0
  30
0
  0
POINT
  5
74c
  330
744
  100
AcDbEntity
  8
SK2
  62
0
  100
AcDbPoint
  10
-55.13398
  20
5.3
  30
0
  0
POINT
  5
74d
  330
744
  100
AcDbEntity
  8
SK2
  62
0
  100
AcDbPoint
  10
-55.13398
  20
45.046578
  30
0
  0
ENDBLK
  5
74e
  330
744
  100
AcDbEntity
  8
SK2
  100
AcDbBlockEnd
  0
BLOCK
  5
750
  330
752
  100
AcDbEntity
  8
SK2
  100
AcDbBlockBegin
  2
*D751
  70
1
  10
0
  20
0
  30
0
  3
*D751
  1

  0
LINE
  5
753
  330
752
  100
AcDbEntity
  8
SK2
  100
AcDbLine
  10
-54.43398
  20
-6
  30
0
  11
-67.13398
  21
-6
  31
0
  0
LINE
  5
754
  330
752
  100
AcDbEntity
  8
SK2
  100
AcDbLine
  10
-54.43398
  20
6
  30
0
  11
-67.13398
  21
6
  31
0
  0
LINE
  5
755
  330
752
  100
AcDbEntity
  8
SK2
  100
AcDbLine
  10
-65.13398
  20
-6
  30
0
  11
-65.13398
  21
6
  31
0
  0
SOLID
  5
756
  330
752
  100
AcDbEntity
  8
SK2
  100
AcDbTrace
  10
-65.13398
  20
-6
  30
0
  11
-65.460296
  21
-3.521388
  31
0
  12
-64.807665
  22
-3.521388
  32
0
  13
-64.807665
  23
-3.521388
  33
0
  0
SOLID
  5
757
  330
752
  100
AcDbEntity
  8
SK2
  100
AcDbTrace
  10
-65.13398
  20
6
  30
0
  11
-64.807665
  21
3.521388
  31
0
  12
-65.460296
  22
3.521388
  32
0
  13
-65.460296
  23
3.521388
  33
0
  0
MTEXT
  5
758
  330
752
  100
AcDbEntity
  8
SK2
  100
AcDbMText
  10
-65.13398
  20
0
  30
0
  11
0
  21
1
  31
0
  40
2
  41
0
  71
8
  72
1
  1
Ø12h6
  0
POINT
  5
759
  330
752
  100
AcDbEntity
  8
SK2
  62
0
  100
AcDbPoint
  10
-54.43398
  20
-6
  30
0
  0
POINT
  5
75a
  330
752
  100
AcDbEntity
  8
SK2
  62
0
  100
AcDbPoint
  10
-54.43398
  20
6
  30
0
  0
POINT
  5
75b
  330
752
  100
AcDbEntity
  8
SK2
  62
0
  100
AcDbPoint
  10
-65.13398
  20
6
  30
0
  0
ENDBLK
  5
75c
  330
752
  100
AcDbEntity
  8
SK2
  100
AcDbBlockEnd
  0
BLOCK
  5
75e
  330
760
  100
AcDbEntity
  8
2
  100
AcDbBlockBegin
  2
*D75f
  70
1
  10
0
  20
0
  30
0
  3
*D75f
  1

  0
LINE
  5
761
  330
760
  100
AcDbEntity
  8
2
  100
AcDbLine
  10
17.86602
  20
5.2
  30
0
  11
17.86602
  21
13
  31
0
  0
LINE
  5
762
  330
760
  100
AcDbEntity
  8
2
  100
AcDbLine
  10
17.56602
  20
5.5
  30
0
  11
17.56602
  21
13
  31
0
  0
LINE
  5
763
  330
760
  100
AcDbEntity
  8
2
  100
AcDbLine
  10
34.749553
  20
11
  30
0
  11
17.56602
  21
11
  31
0
  0
SOLID
  5
764
  330
760
  100
AcDbEntity
  8
2
  100
AcDbTrace
  10
17.86602
  20
11
  30
0
  11
20.344632
  21
11.326315
  31
0
  12
20.344632
  22
10.673685
  32
0
  13
20.344632
  23
10.673685
  33
0
  0
SOLID
  5
765
  330
760
  100
AcDbEntity
  8
2
  100
AcDbTrace
  10
17.56602
  20
11
  30
0
  11
15.087408
  21
10.673685
  31
0
  12
15.087408
  22
11.326315
  32
0
  13
15.087408
  23
11.326315
  33
0
  0
MTEXT
  5
766
  330
760
  100
AcDbEntity
  8
2
  100
AcDbMText
  10
21.731791
  20
11
  30
0
  11
1
  21
-0
  31
0
  40
2
  41
0
  71
7
  72
1
  1
0.3 x 45°
  0
POINT
  5
767
  330
760
  100
AcDbEntity
  8
2
  62
0
  100
AcDbPoint
  10
17.86602
  20
5.2
  30
0
  0
POINT
  5
768
  330
760
  100
AcDbEntity
  8
2
  62
0
  100
AcDbPoint
  10
17.56602
  20
5.5
  30
0
  0
POINT
  5
769
  330
760
  100
AcDbEntity
  8
2
  62
0
  100
AcDbPoint
  10
17.56602
  20
11
  30
0
  0
ENDBLK
  5
76a
  330
760
  100
AcDbEntity
  8
2
  100
AcDbBlockEnd
  0
BLOCK
  5
76c
  330
76e
  100
AcDbEntity
  8
2
  100
AcDbBlockBegin
  2
*D76d
  70
1
  10
0
  20
0
  30
0
  3
*D76d
  1

  0
LINE
  5
76f
  330
76e
  100
AcDbEntity
  8
2
  100
AcDbLine
  10
17.56602
  20
-5.5
  30
0
  11
29.86602
  21
-5.5
  31
0
  0
LINE
  5
770
  330
76e
  100
AcDbEntity
  8
2
  100
AcDbLine
  10
17.56602
  20
5.5
  30
0
  11
29.86602
  21
5.5
  31
0
  0
LINE
  5
771
  330
76e
  100
AcDbEntity
  8
2
  100
AcDbLine
  10
27.86602
  20
-15.59034
  30
0
  11
27.86602
  21
5.5
  31
0
  0
SOLID
  5
772
  330
76e
  100
AcDbEntity
  8
2
  100
AcDbTrace
  10
27.86602
  20
-5.5
  30
0
  11
27.539704
  21
-3.021388
  31
0
  12
28.192335
  22
-3.021388
  32
0
  13
28.192335
  23
-3.021388
  33
0
  0
SOLID
  5
773
  330
76e
  100
AcDbEntity
  8
2
  100
AcDbTrace
  10
27.86602
  20
5.5
  30
0
  11
28.192335
  21
3.021388
  31
0
  12
27.539704
  22
3.021388
  32
0
  13
27.539704
  23
3.021388
  33
0
  0
MTEXT
  5
774
  330
76e
  100
AcDbEntity
  8
2
  100
AcDbMText
  10
27.86602
  20
-11.235282
  30
0
  11
0
  21
1
  31
0
  40
2
  41
0
  71
8
  72
1
  1
Ø11h10
  0
POINT
  5
775
  330
76e
  100
AcDbEntity
  8
2
  62
0
  100
AcDbPoint
  10
17.56602
  20
-5.5
  30
0
  0
POINT
  5
776
  330
76e
  100
AcDbEntity
  8
2
  62
0
  100
AcDbPoint
  10
17.56602
  20
5.5
  30
0
  0
POINT
  5
777
  330
76e
  100
AcDbEntity
  8
2
  62
0
  100
AcDbPoint
  10
27.86602
  20
5.5
  30
0
  0
ENDBLK
  5
778
  330
76e
  100
AcDbEntity
  8
2
  100
AcDbBlockEnd
  0
BLOCK
  5
77a
  330
77c
  100
AcDbEntity
  8
2
  100
AcDbBlockBegin
  2
*D77b
  70
1
  10
0
  20
0
  30
0
  3
*D77b
  1

  0
LINE
  5
77d
  330
77c
  100
AcDbEntity
  8
2
  100
AcDbLine
  10
17.86602
  20
0
  30
0
  11
17.86602
  21
22.550831
  31
0
  0
LINE
  5
77e
  330
77c
  100
AcDbEntity
  8
2
  100
AcDbLine
  10
1.86602
  20
5.5
  30
0
  11
1.86602
  21
22.550831
  31
0
  0
LINE
  5
77f
  330
77c
  100
AcDbEntity
  8
2
  100
AcDbLine
  10
17.86602
  20
20.550831
  30
0
  11
1.86602
  21
20.550831
  31
0
  0
SOLID
  5
780
  330
77c
  100
AcDbEntity
  8
2
  100
AcDbTrace
  10
17.86602
  20
20.550831
  30
0
  11
15.387408
  21
20.224515
  31
0
  12
15.387408
  22
20.877146
  32
0
  13
15.387408
  23
20.877146
  33
0
  0
SOLID
  5
781
  330
77c
  100
AcDbEntity
  8
2
  100
AcDbTrace
  10
1.86602
  20
20.550831
  30
0
  11
4.344632
  21
20.877146
  31
0
  12
4.344632
  22
20.224515
  32
0
  13
4.344632
  23
20.224515
  33
0
  0
MTEXT
  5
782
  330
77c
  100
AcDbEntity
  8
2
  100
AcDbMText
  10
9.86602
  20
20.550831
  30
0
  11
1
  21
-0
  31
0
  40
2
  41
0
  71
8
  72
1
  1
16
  0
POINT
  5
783
  330
77c
  100
AcDbEntity
  8
2
  62
0
  100
AcDbPoint
  10
17.86602
  20
0
  30
0
  0
POINT
  5
784
  330
77c
  100
AcDbEntity
  8
2
  62
0
  100
AcDbPoint
  10
1.86602
  20
5.5
  30
0
  0
POINT
  5
785
  330
77c
  100
AcDbEntity
  8
2
  62
0
  100
AcDbPoint
  10
1.86602
  20
20.550831
  30
0
  0
ENDBLK
  5
786
  330
77c
  100
AcDbEntity
  8
2
  100
AcDbBlockEnd
  0
ENDSEC
  0
SECTION
  2
ENTITIES
  0
DIMENSION
  5
74f
  100
AcDbEntity
  8
SK2
  100
AcDbDimension
  2
*D743
  10
-55.13398
  20
45.046578
  30
0
  11
-18.63398
  21
45.046578
  31
0
  70
160
  1
<>+2
  71
5
  3
STANDARD
  42
73
  100
AcDbAlignedDimension
  13
17.86602
  23
0
  33
0
  14
-55.13398
  24
5.3
  34
0
  50
0
  100
AcDbRotatedDimension
  0
DIMENSION
  5
75d
  100
AcDbEntity
  8
SK2
  100
AcDbDimension
  2
*D751
  10
-65.13398
  20
6
  30
0
  11
-65.13398
  21
0
  31
0
  70
160
  1
%%c<>h6
  71
5
  3
STANDARD
  42
12
  100
AcDbAlignedDimension
  13
-54.43398
  23
-6
  33
0
  14
-54.43398
  24
6
  34
0
  50
-90
  100
AcDbRotatedDimension
  0
DIMENSION
  5
76b
  100
AcDbEntity
  8
2
  100
AcDbDimension
  2
*D75f
  10
17.56602
  20
11
  30
0
  11
21.731791
  21
11
  31
0
  70
160
  1
<>
  71
5
  3
STANDARD
  42
0.3
  100
AcDbAlignedDimension
  13
17.86602
  23
5.2
  33
0
  14
17.56602
  24
5.5
  34
0
  50
0
  100
AcDbRotatedDimension
  0
DIMENSION
  5
779
  100
AcDbEntity
  8
2
  100
AcDbDimension
  2
*D76d
  10
27.86602
  20
5.5
  30
0
  11
27.86602
  21
-11.235282
  31
0
  70
160
  1
%%c<>h10
  71
5
  3
STANDARD
  42
11
  100
AcDbAlignedDimension
  13
17.56602
  23
-5.5
  33
0
  14
17.56602
  24
5.5
  34
0
  50
-90
  100
AcDbRotatedDimension
  0
DIMENSION
  5
787
  100
AcDbEntity
  8
2
  100
AcDbDimension
  2
*D77b
  10
1.86602
  20
20.550831
  30
0
  11
9.86602
  21
20.550831
  31
0
  70
160
  1
<>
  71
5
  3
STANDARD
  42
16
  100
AcDbAlignedDimension
  13
17.86602
  23
0
  33
0
  14
1.86602
  24
5.5
  34
0
  50
0
  100
AcDbRotatedDimension
  0
LINE
  5
36
  100
AcDbEntity
  8
1
  100
AcDbLine
  10
17.86602
  20
0
  30
0
  11
17.86602
  21
5.2
  31
0
  0
LINE
  5
37
  100
AcDbEntity
  8
1
  100
AcDbLine
  10
17.86602
  20
5.2
  30
0
  11
17.56602
  21
5.5
  31
0
  0
LINE
  5
38
  100
AcDbEntity
  8
1
  100
AcDbLine
  10
17.56602
  20
5.5
  30
0
  11
1.86602
  21
5.5
  31
0
  0
LINE
  5
39
  100
AcDbEntity
  8
1
  100
AcDbLine
  10
1.86602
  20
5.5
  30
0
  11
0
  21
6
  31
0
  0
LINE
  5
3a
  100
AcDbEntity
  8
1
  100
AcDbLine
  10
0
  20
6
  30
0
  11
0
  21
-6
  31
0
  0
LINE
  5
3b
  100
AcDbEntity
  8
1
  100
AcDbLine
  10
0
  20
-6
  30
0
  11
1.86602
  21
-5.5
  31
0
  0
LINE
  5
3c
  100
AcDbEntity
  8
1
  100
AcDbLine
  10
1.86602
  20
-5.5
  30
0
  11
17.56602
  21
-5.5
  31
0
  0
LINE
  5
3d
  100
AcDbEntity
  8
1
  100
AcDbLine
  10
17.56602
  20
-5.5
  30
0
  11
17.86602
  21
-5.2
  31
0
  0
LINE
  5
3e
  100
AcDbEntity
  8
1
  100
AcDbLine
  10
17.86602
  20
-5.2
  30
0
  11
17.86602
  21
0
  31
0
  0
LINE
  5
3f
  100
AcDbEntity
  8
1
  100
AcDbLine
  10
0
  20
6
  30
0
  11
0
  21
-6
  31
0
  0
LINE
  5
40
  100
AcDbEntity
  8
1
  100
AcDbLine
  10
0
  20
-6
  30
0
  11
0
  21
6
  31
0
  0
LINE
  5
41
  100
AcDbEntity
  8
1
  100
AcDbLine
  10
1.90602
  20
2.889619
  30
0
  11
1.96202
  21
2.856757
  31
0
  0
LINE
  5
42
  100
AcDbEntity
  8
1
  100
AcDbLine
  10
1.96202
  20
2.856757
  30
0
  11
2.01802
  21
2.823749
  31
0
  0
LINE
  5
43
  100
AcDbEntity
  8
1
  100
AcDbLine
  10
2.01802
  20
2.823749
  30
0
  11
2.07402
  21
2.790598
  31
0
  0
LINE
  5
44
  100
AcDbEntity
  8
1
  100
AcDbLine
  10
2.07402
  20
2.790598
  30
0
  11
2.13002
  21
2.757306
  31
0
  0
LINE
  5
45
  100
AcDbEntity
  8
1
  100
AcDbLine
  10
2.13002
  20
2.757306
  30
0
  11
2.18602
  21
2.723873
  31
0
  0
LINE
  5
46
  100
AcDbEntity
  8
1
  100
AcDbLine
  10
2.18602
  20
2.723873
  30
0
  11
2.24202
  21
2.690302
  31
0
  0
LINE
  5
47
  100
AcDbEntity
  8
1
  100
AcDbLine
  10
2.24202
  20
2.690302
  30
0
  11
2.29802
  21
2.656593
  31
0
  0
LINE
  5
48
  100
AcDbEntity
  8
1
  100
AcDbLine
  10
2.29802
  20
2.656593
  30
0
  11
2.35402
  21
2.62275
  31
0
  0
LINE
  5
49
  100
AcDbEntity
  8
1
  100
AcDbLine
  10
2.35402
  20
2.62275
  30
0
  11
2.41002
  21
2.588774
  31
0
  0
LINE
  5
4a
  100
AcDbEntity
  8
1
  100
AcDbLine
  10
2.41002
  20
2.588774
  30
0
  11
2.46602
  21
2.554666
  31
0
  0
LINE
  5
4b
  100
AcDbEntity
  8
1
  100
AcDbLine
  10
2.46602
  20
2.554666
  30
0
  11
2.52202
  21
2.520428
  31
0
  0
LINE
  5
4c
  100
AcDbEntity
  8
1
  100
AcDbLine
  10
2.52202
  20
2.520428
  30
0
  11
2.57802
  21
2.486062
  31
0
  0
LINE
  5
4d
  100
AcDbEntity
  8
1
  100
AcDbLine
  10
2.57802
  20
2.486062
  30
0
  11
2.63402
  21
2.45157
  31
0
  0
LINE
  5
4e
  100
AcDbEntity
  8
1
  100
AcDbLine
  10
2.63402
  20
2.45157
  30
0
  11
2.69002
  21
2.416953
  31
0
  0
LINE
  5
4f
  100
AcDbEntity
  8
1
  100
AcDbLine
  10
2.69002
  20
2.416953
  30
0
  11
2.74602
  21
2.382213
  31
0
  0
LINE
  5
50
  100
AcDbEntity
  8
1
  100
AcDbLine
  10
2.74602
  20
2.382213
  30
0
  11
2.80202
  21
2.347352
  31
0
  0
LINE
  5
51
  100
AcDbEntity
  8
1
  100
AcDbLine
  10
2.80202
  20
2.347352
  30
0
  11
2.85802
  21
2.312372
  31
0
  0
LINE
  5
52
  100
AcDbEntity
  8
1
  100
AcDbLine
  10
2.85802
  20
2.312372
  30
0
  11
2.91402
  21
2.277275
  31
0
  0
LINE
  5
53
  100
AcDbEntity
  8
1
  100
AcDbLine
  10
2.91402
  20
2.277275
  30
0
  11
2.97002
  21
2.242061
  31
0
  0
LINE
  5
54
  100
AcDbEntity
  8
1
  100
AcDbLine
  10
2.97002
  20
2.242061
  30
0
  11
3.02602
  21
2.206734
  31
0
  0
LINE
  5
55
  100
AcDbEntity
  8
1
  100
AcDbLine
  10
3.02602
  20
2.206734
  30
0
  11
3.08202
  21
2.171294
  31
0
  0
LINE
  5
56
  100
AcDbEntity
  8
1
  100
AcDbLine
  10
3.08202
  20
2.171294
  30
0
  11
3.13802
  21
2.135744
  31
0
  0
LINE
  5
57
  100
AcDbEntity
  8
1
  100
AcDbLine
  10
3.13802
  20
2.135744
  30
0
  11
3.19402
  21
2.100086
  31
0
  0
LINE
  5
58
  100
AcDbEntity
  8
1
  100
AcDbLine
  10
3.19402
  20
2.100086
  30
0
  11
3.25002
  21
2.06432
  31
0
  0
LINE
  5
59
  100
AcDbEntity
  8
1
  100
AcDbLine
  10
3.25002
  20
2.06432
  30
0
  11
3.30602
  21
2.02845
  31
0
  0
LINE
  5
5a
  100
AcDbEntity
  8
1
  100
AcDbLine
  10
3.30602
  20
2.02845
  30
0
  11
3.36202
  21
1.992477
  31
0
  0
LINE
  5
5b
  100
AcDbEntity
  8
1
  100
AcDbLine
  10
3.36202
  20
1.992477
  30
0
  11
3.41802
  21
1.956403
  31
0
  0
LINE
  5
5c
  100
AcDbEntity
  8
1
  100
AcDbLine
  10
3.41802
  20
1.956403
  30
0
  11
3.47402
  21
1.920229
  31
0
  0
LINE
  5
5d
  100
AcDbEntity
  8
1
  100
AcDbLine
  10
3.47402
  20
1.920229
  30
0
  11
3.53002
  21
1.883957
  31
0
  0
LINE
  5
5e
  100
AcDbEntity
  8
1
  100
AcDbLine
  10
3.53002
  20
1.883957
  30
0
  11
3.58602
  21
1.84759
  31
0
  0
LINE
  5
5f
  100
AcDbEntity
  8
1
  100
AcDbLine
  10
3.58602
  20
1.84759
  30
0
  11
3.64202
  21
1.811129
  31
0
  0
LINE
  5
60
  100
AcDbEntity
  8
1
  100
AcDbLine
  10
3.64202
  20
1.811129
  30
0
  11
3.69802
  21
1.774575
  31
0
  0
LINE
  5
61
  100
AcDbEntity
  8
1
  100
AcDbLine
  10
3.69802
  20
1.774575
  30
0
  11
3.75402
  21
1.737932
  31
0
  0
LINE
  5
62
  100
AcDbEntity
  8
1
  100
AcDbLine
  10
3.75402
  20
1.737932
  30
0
  11
3.81002
  21
1.7012
  31
0
  0
LINE
  5
63
  100
AcDbEntity
  8
1
  100
AcDbLine
  10
3.81002
  20
1.7012
  30
0
  11
3.86602
  21
1.664382
  31
0
  0
LINE
  5
64
  100
AcDbEntity
  8
1
  100
AcDbLine
  10
3.86602
  20
1.664382
  30
0
  11
3.92202
  21
1.627479
  31
0
  0
LINE
  5
65
  100
AcDbEntity
  8
1
  100
AcDbLine
  10
3.92202
  20
1.627479
  30
0
  11
3.97802
  21
1.590493
  31
0
  0
LINE
  5
66
  100
AcDbEntity
  8
1
  100
AcDbLine
  10
3.97802
  20
1.590493
  30
0
  11
4.03402
  21
1.553427
  31
0
  0
LINE
  5
67
  100
AcDbEntity
  8
1
  100
AcDbLine
  10
4.03402
  20
1.553427
  30
0
  11
4.09002
  21
1.516281
  31
0
  0
LINE
  5
68
  100
AcDbEntity
  8
1
  100
AcDbLine
  10
4.09002
  20
1.516281
  30
0
  11
4.14602
  21
1.479059
  31
0
  0
LINE
  5
69
  100
AcDbEntity
  8
1
  100
AcDbLine
  10
4.14602
  20
1.479059
  30
0
  11
4.20202
  21
1.441761
  31
0
  0
LINE
  5
6a
  100
AcDbEntity
  8
1
  100
AcDbLine
  10
4.20202
  20
1.441761
  30
0
  11
4.25802
  21
1.40439
  31
0
  0
LINE
  5
6b
  100
AcDbEntity
  8
1
  100
AcDbLine
  10
4.25802
  20
1.40439
  30
0
  11
4.31402
  21
1.366948
  31
0
  0
LINE
  5
6c
  100
AcDbEntity
  8
1
  100
AcDbLine
  10
4.31402
  20
1.366948
  30
0
  11
4.37002
  21
1.329436
  31
0
  0
LINE
  5
6d
  100
AcDbEntity
  8
1
  100
AcDbLine
  10
4.37002
  20
1.329436
  30
0
  11
4.42602
  21
1.291857
  31
0
  0
LINE
  5
6e
  100
AcDbEntity
  8
1
  100
AcDbLine
  10
4.42602
  20
1.291857
  30
0
  11
4.48202
  21
1.254212
  31
0
  0
LINE
  5
6f
  100
AcDbEntity
  8
1
  100
AcDbLine
  10
4.48202
  20
1.254212
  30
0
  11
4.53802
  21
1.216503
  31
0
  0
LINE
  5
70
  100
AcDbEntity
  8
1
  100
AcDbLine
  10
4.53802
  20
1.216503
  30
0
  11
4.59402
  21
1.178732
  31
0
  0
LINE
  5
71
  100
AcDbEntity
  8
1
  100
AcDbLine
  10
4.59402
  20
1.178732
  30
0
  11
4.65002
  21
1.140902
  31
0
  0
LINE
  5
72
  100
AcDbEntity
  8
1
  100
AcDbLine
  10
4.65002
  20
1.140902
  30
0
  11
4.70602
  21
1.103013
  31
0
  0
LINE
  5
73
  100
AcDbEntity
  8
1
  100
AcDbLine
  10
4.70602
  20
1.103013
  30
0
  11
4.76202
  21
1.065069
  31
0
  0
LINE
  5
74
  100
AcDbEntity
  8
1
  100
AcDbLine
  10
4.76202
  20
1.065069
  30
0
  11
4.81802
  21
1.02707
  31
0
  0
LINE
  5
75
  100
AcDbEntity
  8
1
  100
AcDbLine
  10
4.81802
  20
1.02707
  30
0
  11
4.87402
  21
0.989019
  31
0
  0
LINE
  5
76
  100
AcDbEntity
  8
1
  100
AcDbLine
  10
4.87402
  20
0.989019
  30
0
  11
4.93002
  21
0.950918
  31
0
  0
LINE
  5
77
  100
AcDbEntity
  8
1
  100
AcDbLine
  10
4.93002
  20
0.950918
  30
0
  11
4.98602
  21
0.912768
  31
0
  0
LINE
  5
78
  100
AcDbEntity
  8
1
  100
AcDbLine
  10
4.98602
  20
0.912768
  30
0
  11
5.04202
  21
0.874572
  31
0
  0
LINE
  5
79
  100
AcDbEntity
  8
1
  100
AcDbLine
  10
5.04202
  20
0.874572
  30
0
  11
5.09802
  21
0.836332
  31
0
  0
LINE
  5
7a
  100
AcDbEntity
  8
1
  100
AcDbLine
  10
5.09802
  20
0.836332
  30
0
  11
5.15402
  21
0.798049
  31
0
  0
LINE
  5
7b
  100
AcDbEntity
  8
1
  100
AcDbLine
  10
5.15402
  20
0.798049
  30
0
  11
5.21002
  21
0.759726
  31
0
  0
LINE
  5
7c
  100
AcDbEntity
  8
1
  100
AcDbLine
  10
5.21002
  20
0.759726
  30
0
  11
5.26602
  21
0.721364
  31
0
  0
LINE
  5
7d
  100
AcDbEntity
  8
1
  100
AcDbLine
  10
5.26602
  20
0.721364
  30
0
  11
5.32202
  21
0.682965
  31
0
  0
LINE
  5
7e
  100
AcDbEntity
  8
1
  100
AcDbLine
  10
5.32202
  20
0.682965
  30
0
  11
5.37802
  21
0.644532
  31
0
  0
LINE
  5
7f
  100
AcDbEntity
  8
1
  100
AcDbLine
  10
5.37802
  20
0.644532
  30
0
  11
5.43402
  21
0.606065
  31
0
  0
LINE
  5
80
  100
AcDbEntity
  8
1
  100
AcDbLine
  10
5.43402
  20
0.606065
  30
0
  11
5.49002
  21
0.567568
  31
0
  0
LINE
  5
81
  100
AcDbEntity
  8
1
  100
AcDbLine
  10
5.49002
  20
0.567568
  30
0
  11
5.54602
  21
0.529043
  31
0
  0
LINE
  5
82
  100
AcDbEntity
  8
1
  100
AcDbLine
  10
5.54602
  20
0.529043
  30
0
  11
5.60202
  21
0.49049
  31
0
  0
LINE
  5
83
  100
AcDbEntity
  8
1
  100
AcDbLine
  10
5.60202
  20
0.49049
  30
0
  11
5.65802
  21
0.451912
  31
0
  0
LINE
  5
84
  100
AcDbEntity
  8
1
  100
AcDbLine
  10
5.65802
  20
0.451912
  30
0
  11
5.71402
  21
0.413312
  31
0
  0
LINE
  5
85
  100
AcDbEntity
  8
1
  100
AcDbLine
  10
5.71402
  20
0.413312
  30
0
  11
5.77002
  21
0.37469
  31
0
  0
LINE
  5
86
  100
AcDbEntity
  8
1
  100
AcDbLine
  10
5.77002
  20
0.37469
  30
0
  11
5.82602
  21
0.336049
  31
0
  0
LINE
  5
87
  100
AcDbEntity
  8
1
  100
AcDbLine
  10
5.82602
  20
0.336049
  30
0
  11
5.88202
  21
0.297391
  31
0
  0
LINE
  5
88
  100
AcDbEntity
  8
1
  100
AcDbLine
  10
5.88202
  20
0.297391
  30
0
  11
5.93802
  21
0.258719
  31
0
  0
LINE
  5
89
  100
AcDbEntity
  8
1
  100
AcDbLine
  10
5.93802
  20
0.258719
  30
0
  11
5.99402
  21
0.220032
  31
0
  0
LINE
  5
8a
  100
AcDbEntity
  8
1
  100
AcDbLine
  10
5.99402
  20
0.220032
  30
0
  11
6.05002
  21
0.181335
  31
0
  0
LINE
  5
8b
  100
AcDbEntity
  8
1
  100
AcDbLine
  10
6.05002
  20
0.181335
  30
0
  11
6.10602
  21
0.142629
  31
0
  0
LINE
  5
8c
  100
AcDbEntity
  8
1
  100
AcDbLine
  10
6.10602
  20
0.142629
  30
0
  11
6.16202
  21
0.103915
  31
0
  0
LINE
  5
8d
  100
AcDbEntity
  8
1
  100
AcDbLine
  10
6.16202
  20
0.103915
  30
0
  11
6.21802
  21
0.065196
  31
0
  0
LINE
  5
8e
  100
AcDbEntity
  8
1
  100
AcDbLine
  10
6.21802
  20
0.065196
  30
0
  11
6.27402
  21
0.026474
  31
0
  0
LINE
  5
8f
  100
AcDbEntity
  8
1
  100
AcDbLine
  10
6.27402
  20
0.026474
  30
0
  11
6.33002
  21
-0.01225
  31
0
  0
LINE
  5
90
  100
AcDbEntity
  8
1
  100
AcDbLine
  10
6.33002
  20
-0.01225
  30
0
  11
6.38602
  21
-0.050973
  31
0
  0
LINE
  5
91
  100
AcDbEntity
  8
1
  100
AcDbLine
  10
6.38602
  20
-0.050973
  30
0
  11
6.44202
  21
-0.089693
  31
0
  0
LINE
  5
92
  100
AcDbEntity
  8
1
  100
AcDbLine
  10
6.44202
  20
-0.089693
  30
0
  11
6.49802
  21
-0.128409
  31
0
  0
LINE
  5
93
  100
AcDbEntity
  8
1
  100
AcDbLine
  10
6.49802
  20
-0.128409
  30
0
  11
6.55402
  21
-0.167118
  31
0
  0
LINE
  5
94
  100
AcDbEntity
  8
1
  100
AcDbLine
  10
6.55402
  20
-0.167118
  30
0
  11
6.61002
  21
-0.205819
  31
0
  0
LINE
  5
95
  100
AcDbEntity
  8
1
  100
AcDbLine
  10
6.61002
  20
-0.205819
  30
0
  11
6.66602
  21
-0.24451
  31
0
  0
LINE
  5
96
  100
AcDbEntity
  8
1
  100
AcDbLine
  10
6.66602
  20
-0.24451
  30
0
  11
6.72202
  21
-0.283187
  31
0
  0
LINE
  5
97
  100
AcDbEntity
  8
1
  100
AcDbLine
  10
6.72202
  20
-0.283187
  30
0
  11
6.77802
  21
-0.321851
  31
0
  0
LINE
  5
98
  100
AcDbEntity
  8
1
  100
AcDbLine
  10
6.77802
  20
-0.321851
  30
0
  11
6.83402
  21
-0.360498
  31
0
  0
LINE
  5
99
  100
AcDbEntity
  8
1
  100
AcDbLine
  10
6.83402
  20
-0.360498
  30
0
  11
6.89002
  21
-0.399127
  31
0
  0
LINE
  5
9a
  100
AcDbEntity
  8
1
  100
AcDbLine
  10
6.89002
  20
-0.399127
  30
0
  11
6.94602
  21
-0.437736
  31
0
  0
LINE
  5
9b
  100
AcDbEntity
  8
1
  100
AcDbLine
  10
6.94602
  20
-0.437736
  30
0
  11
7.00202
  21
-0.476322
  31
0
  0
LINE
  5
9c
  100
AcDbEntity
  8
1
  100
AcDbLine
  10
7.00202
  20
-0.476322
  30
0
  11
7.05802
  21
-0.514884
  31
0
  0
LINE
  5
9d
  100
AcDbEntity
  8
1
  100
AcDbLine
  10
7.05802
  20
-0.514884
  30
0
  11
7.11402
  21
-0.55342
  31
0
  0
LINE
  5
9e
  100
AcDbEntity
  8
1
  100
AcDbLine
  10
7.11402
  20
-0.55342
  30
0
  11
7.17002
  21
-0.591928
  31
0
  0
LINE
  5
9f
  100
AcDbEntity
  8
1
  100
AcDbLine
  10
7.17002
  20
-0.591928
  30
0
  11
7.22602
  21
-0.630406
  31
0
  0
LINE
  5
a0
  100
AcDbEntity
  8
1
  100
AcDbLine
  10
7.22602
  20
-0.630406
  30
0
  11
7.28202
  21
-0.668851
  31
0
  0
LINE
  5
a1
  100
AcDbEntity
  8
1
  100
AcDbLine
  10
7.28202
  20
-0.668851
  30
0
  11
7.33802
  21
-0.707263
  31
0
  0
LINE
  5
a2
  100
AcDbEntity
  8
1
  100
AcDbLine
  10
7.33802
  20
-0.707263
  30
0
  11
7.39402
  21
-0.745639
  31
0
  0
LINE
  5
a3
  100
AcDbEntity
  8
1
  100
AcDbLine
  10
7.39402
  20
-0.745639
  30
0
  11
7.45002
  21
-0.783977
  31
0
  0
LINE
  5
a4
  100
AcDbEntity
  8
1
  100
AcDbLine
  10
7.45002
  20
-0.783977
  30
0
  11
7.50602
  21
-0.822275
  31
0
  0
LINE
  5
a5
  100
AcDbEntity
  8
1
  100
AcDbLine
  10
7.50602
  20
-0.822275
  30
0
  11
7.56202
  21
-0.860531
  31
0
  0
LINE
  5
a6
  100
AcDbEntity
  8
1
  100
AcDbLine
  10
7.56202
  20
-0.860531
  30
0
  11
7.61802
  21
-0.898743
  31
0
  0
LINE
  5
a7
  100
AcDbEntity
  8
1
  100
AcDbLine
  10
7.61802
  20
-0.898743
  30
0
  11
7.67402
  21
-0.93691
  31
0
  0
LINE
  5
a8
  100
AcDbEntity
  8
1
  100
AcDbLine
  10
7.67402
  20
-0.93691
  30
0
  11
7.73002
  21
-0.975029
  31
0
  0
LINE
  5
a9
  100
AcDbEntity
  8
1
  100
AcDbLine
  10
7.73002
  20
-0.975029
  30
0
  11
7.78602
  21
-1.013099
  31
0
  0
LINE
  5
aa
  100
AcDbEntity
  8
1
  100
AcDbLine
  10
7.78602
  20
-1.013099
  30
0
  11
7.84202
  21
-1.051117
  31
0
  0
LINE
  5
ab
  100
AcDbEntity
  8
1
  100
AcDbLine
  10
7.84202
  20
-1.051117
  30
0
  11
7.89802
  21
-1.089082
  31
0
  0
LINE
  5
ac
  100
AcDbEntity
  8
1
  100
AcDbLine
  10
7.89802
  20
-1.089082
  30
0
  11
7.95402
  21
-1.126991
  31
0
  0
LINE
  5
ad
  100
AcDbEntity
  8
1
  100
AcDbLine
  10
7.95402
  20
-1.126991
  30
0
  11
8.01002
  21
-1.164843
  31
0
  0
LINE
  5
ae
  100
AcDbEntity
  8
1
  100
AcDbLine
  10
8.01002
  20
-1.164843
  30
0
  11
8.06602
  21
-1.202636
  31
0
  0
LINE
  5
af
  100
AcDbEntity
  8
1
  100
AcDbLine
  10
8.06602
  20
-1.202636
  30
0
  11
8.12202
  21
-1.240368
  31
0
  0
LINE
  5
b0
  100
AcDbEntity
  8
1
  100
AcDbLine
  10
8.12202
  20
-1.240368
  30
0
  11
8.17802
  21
-1.278036
  31
0
  0
LINE
  5
b1
  100
AcDbEntity
  8
1
  100
AcDbLine
  10
8.17802
  20
-1.278036
  30
0
  11
8.23402
  21
-1.31564
  31
0
  0
LINE
  5
b2
  100
AcDbEntity
  8
1
  100
AcDbLine
  10
8.23402
  20
-1.31564
  30
0
  11
8.29002
  21
-1.353177
  31
0
  0
LINE
  5
b3
  100
AcDbEntity
  8
1
  100
AcDbLine
  10
8.29002
  20
-1.353177
  30
0
  11
8.34602
  21
-1.390645
  31
0
  0
LINE
  5
b4
  100
AcDbEntity
  8
1
  100
AcDbLine
  10
8.34602
  20
-1.390645
  30
0
  11
8.40202
  21
-1.428042
  31
0
  0
LINE
  5
b5
  100
AcDbEntity
  8
1
  100
AcDbLine
  10
8.40202
  20
-1.428042
  30
0
  11
8.45802
  21
-1.465367
  31
0
  0
LINE
  5
b6
  100
AcDbEntity
  8
1
  100
AcDbLine
  10
8.45802
  20
-1.465367
  30
0
  11
8.51402
  21
-1.502617
  31
0
  0
LINE
  5
b7
  100
AcDbEntity
  8
1
  100
AcDbLine
  10
8.51402
  20
-1.502617
  30
0
  11
8.57002
  21
-1.539791
  31
0
  0
LINE
  5
b8
  100
AcDbEntity
  8
1
  100
AcDbLine
  10
8.57002
  20
-1.539791
  30
0
  11
8.62602
  21
-1.576887
  31
0
  0
LINE
  5
b9
  100
AcDbEntity
  8
1
  100
AcDbLine
  10
8.62602
  20
-1.576887
  30
0
  11
8.68202
  21
-1.613902
  31
0
  0
LINE
  5
ba
  100
AcDbEntity
  8
1
  100
AcDbLine
  10
8.68202
  20
-1.613902
  30
0
  11
8.73802
  21
-1.650836
  31
0
  0
LINE
  5
bb
  100
AcDbEntity
  8
1
  100
AcDbLine
  10
8.73802
  20
-1.650836
  30
0
  11
8.79402
  21
-1.687686
  31
0
  0
LINE
  5
bc
  100
AcDbEntity
  8
1
  100
AcDbLine
  10
8.79402
  20
-1.687686
  30
0
  11
8.85002
  21
-1.724449
  31
0
  0
LINE
  5
bd
  100
AcDbEntity
  8
1
  100
AcDbLine
  10
8.85002
  20
-1.724449
  30
0
  11
8.90602
  21
-1.761125
  31
0
  0
LINE
  5
be
  100
AcDbEntity
  8
1
  100
AcDbLine
  10
8.90602
  20
-1.761125
  30
0
  11
8.96202
  21
-1.797712
  31
0
  0
LINE
  5
bf
  100
AcDbEntity
  8
1
  100
AcDbLine
  10
8.96202
  20
-1.797712
  30
0
  11
9.01802
  21
-1.834207
  31
0
  0
LINE
  5
c0
  100
AcDbEntity
  8
1
  100
AcDbLine
  10
9.01802
  20
-1.834207
  30
0
  11
9.07402
  21
-1.870609
  31
0
  0
LINE
  5
c1
  100
AcDbEntity
  8
1
  100
AcDbLine
  10
9.07402
  20
-1.870609
  30
0
  11
9.13002
  21
-1.906916
  31
0
  0
LINE
  5
c2
  100
AcDbEntity
  8
1
  100
AcDbLine
  10
9.13002
  20
-1.906916
  30
0
  11
9.18602
  21
-1.943126
  31
0
  0
LINE
  5
c3
  100
AcDbEntity
  8
1
  100
AcDbLine
  10
9.18602
  20
-1.943126
  30
0
  11
9.24202
  21
-1.979238
  31
0
  0
LINE
  5
c4
  100
AcDbEntity
  8
1
  100
AcDbLine
  10
9.24202
  20
-1.979238
  30
0
  11
9.29802
  21
-2.015248
  31
0
  0
LINE
  5
c5
  100
AcDbEntity
  8
1
  100
AcDbLine
  10
9.29802
  20
-2.015248
  30
0
  11
9.35402
  21
-2.051157
  31
0
  0
LINE
  5
c6
  100
AcDbEntity
  8
1
  100
AcDbLine
  10
9.35402
  20
-2.051157
  30
0
  11
9.41002
  21
-2.086961
  31
0
  0
LINE
  5
c7
  100
AcDbEntity
  8
1
  100
AcDbLine
  10
9.41002
  20
-2.086961
  30
0
  11
9.46602
  21
-2.122658
  31
0
  0
LINE
  5
c8
  100
AcDbEntity
  8
1
  100
AcDbLine
  10
9.46602
  20
-2.122658
  30
0
  11
9.52202
  21
-2.158248
  31
0
  0
LINE
  5
c9
  100
AcDbEntity
  8
1
  100
AcDbLine
  10
9.52202
  20
-2.158248
  30
0
  11
9.57802
  21
-2.193729
  31
0
  0
LINE
  5
ca
  100
AcDbEntity
  8
1
  100
AcDbLine
  10
9.57802
  20
-2.193729
  30
0
  11
9.63402
  21
-2.229098
  31
0
  0
LINE
  5
cb
  100
AcDbEntity
  8
1
  100
AcDbLine
  10
9.63402
  20
-2.229098
  30
0
  11
9.69002
  21
-2.264353
  31
0
  0
LINE
  5
cc
  100
AcDbEntity
  8
1
  100
AcDbLine
  10
9.69002
  20
-2.264353
  30
0
  11
9.74602
  21
-2.299493
  31
0
  0
LINE
  5
cd
  100
AcDbEntity
  8
1
  100
AcDbLine
  10
9.74602
  20
-2.299493
  30
0
  11
9.80202
  21
-2.334517
  31
0
  0
LINE
  5
ce
  100
AcDbEntity
  8
1
  100
AcDbLine
  10
9.80202
  20
-2.334517
  30
0
  11
9.85802
  21
-2.369422
  31
0
  0
LINE
  5
cf
  100
AcDbEntity
  8
1
  100
AcDbLine
  10
9.85802
  20
-2.369422
  30
0
  11
9.91402
  21
-2.404206
  31
0
  0
LINE
  5
d0
  100
AcDbEntity
  8
1
  100
AcDbLine
  10
9.91402
  20
-2.404206
  30
0
  11
9.97002
  21
-2.438869
  31
0
  0
LINE
  5
d1
  100
AcDbEntity
  8
1
  100
AcDbLine
  10
9.97002
  20
-2.438869
  30
0
  11
10.02602
  21
-2.473407
  31
0
  0
LINE
  5
d2
  100
AcDbEntity
  8
1
  100
AcDbLine
  10
10.02602
  20
-2.473407
  30
0
  11
10.08202
  21
-2.507819
  31
0
  0
LINE
  5
d3
  100
AcDbEntity
  8
1
  100
AcDbLine
  10
10.08202
  20
-2.507819
  30
0
  11
10.13802
  21
-2.542104
  31
0
  0
LINE
  5
d4
  100
AcDbEntity
  8
1
  100
AcDbLine
  10
10.13802
  20
-2.542104
  30
0
  11
10.19402
  21
-2.57626
  31
0
  0
LINE
  5
d5
  100
AcDbEntity
  8
1
  100
AcDbLine
  10
10.19402
  20
-2.57626
  30
0
  11
10.25002
  21
-2.610285
  31
0
  0
LINE
  5
d6
  100
AcDbEntity
  8
1
  100
AcDbLine
  10
10.25002
  20
-2.610285
  30
0
  11
10.30602
  21
-2.644178
  31
0
  0
LINE
  5
d7
  100
AcDbEntity
  8
1
  100
AcDbLine
  10
10.30602
  20
-2.644178
  30
0
  11
10.36202
  21
-2.677935
  31
0
  0
LINE
  5
d8
  100
AcDbEntity
  8
1
  100
AcDbLine
  10
10.36202
  20
-2.677935
  30
0
  11
10.41802
  21
-2.711557
  31
0
  0
LINE
  5
d9
  100
AcDbEntity
  8
1
  100
AcDbLine
  10
10.41802
  20
-2.711557
  30
0
  11
10.47402
  21
-2.745041
  31
0
  0
LINE
  5
da
  100
AcDbEntity
  8
1
  100
AcDbLine
  10
10.47402
  20
-2.745041
  30
0
  11
10.53002
  21
-2.778386
  31
0
  0
LINE
  5
db
  100
AcDbEntity
  8
1
  100
AcDbLine
  10
10.53002
  20
-2.778386
  30
0
  11
10.58602
  21
-2.811589
  31
0
  0
LINE
  5
dc
  100
AcDbEntity
  8
1
  100
AcDbLine
  10
10.58602
  20
-2.811589
  30
0
  11
10.64202
  21
-2.844649
  31
0
  0
LINE
  5
dd
  100
AcDbEntity
  8
1
  100
AcDbLine
  10
10.64202
  20
-2.844649
  30
0
  11
10.69802
  21
-2.877565
  31
0
  0
LINE
  5
de
  100
AcDbEntity
  8
1
  100
AcDbLine
  10
10.69802
  20
-2.877565
  30
0
  11
10.75402
  21
-2.910334
  31
0
  0
LINE
  5
df
  100
AcDbEntity
  8
1
  100
AcDbLine
  10
10.75402
  20
-2.910334
  30
0
  11
10.81002
  21
-2.942956
  31
0
  0
LINE
  5
e0
  100
AcDbEntity
  8
1
  100
AcDbLine
  10
10.81002
  20
-2.942956
  30
0
  11
10.86602
  21
-2.975428
  31
0
  0
LINE
  5
e1
  100
AcDbEntity
  8
1
  100
AcDbLine
  10
10.86602
  20
-2.975428
  30
0
  11
10.92202
  21
-3.007748
  31
0
  0
LINE
  5
e2
  100
AcDbEntity
  8
1
  100
AcDbLine
  10
10.92202
  20
-3.007748
  30
0
  11
10.97802
  21
-3.039916
  31
0
  0
LINE
  5
e3
  100
AcDbEntity
  8
1
  100
AcDbLine
  10
10.97802
  20
-3.039916
  30
0
  11
11.03402
  21
-3.071929
  31
0
  0
LINE
  5
e4
  100
AcDbEntity
  8
1
  100
AcDbLine
  10
11.03402
  20
-3.071929
  30
0
  11
11.09002
  21
-3.103786
  31
0
  0
LINE
  5
e5
  100
AcDbEntity
  8
1
  100
AcDbLine
  10
11.09002
  20
-3.103786
  30
0
  11
11.14602
  21
-3.135486
  31
0
  0
LINE
  5
e6
  100
AcDbEntity
  8
1
  100
AcDbLine
  10
11.14602
  20
-3.135486
  30
0
  11
11.20202
  21
-3.167026
  31
0
  0
LINE
  5
e7
  100
AcDbEntity
  8
1
  100
AcDbLine
  10
11.20202
  20
-3.167026
  30
0
  11
11.25802
  21
-3.198405
  31
0
  0
LINE
  5
e8
  100
AcDbEntity
  8
1
  100
AcDbLine
  10
11.25802
  20
-3.198405
  30
0
  11
11.31402
  21
-3.229621
  31
0
  0
LINE
  5
e9
  100
AcDbEntity
  8
1
  100
AcDbLine
  10
11.31402
  20
-3.229621
  30
0
  11
11.37002
  21
-3.260674
  31
0
  0
LINE
  5
ea
  100
AcDbEntity
  8
1
  100
AcDbLine
  10
11.37002
  20
-3.260674
  30
0
  11
11.42602
  21
-3.29156
  31
0
  0
LINE
  5
eb
  100
AcDbEntity
  8
1
  100
AcDbLine
  10
11.42602
  20
-3.29156
  30
0
  11
11.48202
  21
-3.32228
  31
0
  0
LINE
  5
ec
  100
AcDbEntity
  8
1
  100
AcDbLine
  10
11.48202
  20
-3.32228
  30
0
  11
11.53802
  21
-3.35283
  31
0
  0
LINE
  5
ed
  100
AcDbEntity
  8
1
  100
AcDbLine
  10
11.53802
  20
-3.35283
  30
0
  11
11.59402
  21
-3.38321
  31
0
  0
LINE
  5
ee
  100
AcDbEntity
  8
1
  100
AcDbLine
  10
11.59402
  20
-3.38321
  30
0
  11
11.65002
  21
-3.413418
  31
0
  0
LINE
  5
ef
  100
AcDbEntity
  8
1
  100
AcDbLine
  10
11.65002
  20
-3.413418
  30
0
  11
11.70602
  21
-3.443453
  31
0
  0
LINE
  5
f0
  100
AcDbEntity
  8
1
  100
AcDbLine
  10
11.70602
  20
-3.443453
  30
0
  11
11.76202
  21
-3.473312
  31
0
  0
LINE
  5
f1
  100
AcDbEntity
  8
1
  100
AcDbLine
  10
11.76202
  20
-3.473312
  30
0
  11
11.81802
  21
-3.502995
  31
0
  0
LINE
  5
f2
  100
AcDbEntity
  8
1
  100
AcDbLine
  10
11.81802
  20
-3.502995
  30
0
  11
11.87402
  21
-3.5325
  31
0
  0
LINE
  5
f3
  100
AcDbEntity
  8
1
  100
AcDbLine
  10
11.87402
  20
-3.5325
  30
0
  11
11.93002
  21
-3.561826
  31
0
  0
LINE
  5
f4
  100
AcDbEntity
  8
1
  100
AcDbLine
  10
11.93002
  20
-3.561826
  30
0
  11
11.98602
  21
-3.59097
  31
0
  0
LINE
  5
f5
  100
AcDbEntity
  8
1
  100
AcDbLine
  10
11.98602
  20
-3.59097
  30
0
  11
12.04202
  21
-3.619932
  31
0
  0
LINE
  5
f6
  100
AcDbEntity
  8
1
  100
AcDbLine
  10
12.04202
  20
-3.619932
  30
0
  11
12.09802
  21
-3.64871
  31
0
  0
LINE
  5
f7
  100
AcDbEntity
  8
1
  100
AcDbLine
  10
12.09802
  20
-3.64871
  30
0
  11
12.15402
  21
-3.677302
  31
0
  0
LINE
  5
f8
  100
AcDbEntity
  8
1
  100
AcDbLine
  10
12.15402
  20
-3.677302
  30
0
  11
12.21002
  21
-3.705707
  31
0
  0
LINE
  5
f9
  100
AcDbEntity
  8
1
  100
AcDbLine
  10
12.21002
  20
-3.705707
  30
0
  11
12.26602
  21
-3.733924
  31
0
  0
LINE
  5
fa
  100
AcDbEntity
  8
1
  100
AcDbLine
  10
12.26602
  20
-3.733924
  30
0
  11
12.32202
  21
-3.761952
  31
0
  0
LINE
  5
fb
  100
AcDbEntity
  8
1
  100
AcDbLine
  10
12.32202
  20
-3.761952
  30
0
  11
12.37802
  21
-3.789788
  31
0
  0
LINE
  5
fc
  100
AcDbEntity
  8
1
  100
AcDbLine
  10
12.37802
  20
-3.789788
  30
0
  11
12.43402
  21
-3.817431
  31
0
  0
LINE
  5
fd
  100
AcDbEntity
  8
1
  100
AcDbLine
  10
12.43402
  20
-3.817431
  30
0
  11
12.49002
  21
-3.844881
  31
0
  0
LINE
  5
fe
  100
AcDbEntity
  8
1
  100
AcDbLine
  10
12.49002
  20
-3.844881
  30
0
  11
12.54602
  21
-3.872135
  31
0
  0
LINE
  5
ff
  100
AcDbEntity
  8
1
  100
AcDbLine
  10
12.54602
  20
-3.872135
  30
0
  11
12.60202
  21
-3.899192
  31
0
  0
LINE
  5
100
  100
AcDbEntity
  8
1
  100
AcDbLine
  10
12.60202
  20
-3.899192
  30
0
  11
12.65802
  21
-3.926051
  31
0
  0
LINE
  5
101
  100
AcDbEntity
  8
1
  100
AcDbLine
  10
12.65802
  20
-3.926051
  30
0
  11
12.71402
  21
-3.952711
  31
0
  0
LINE
  5
102
  100
AcDbEntity
  8
1
  100
AcDbLine
  10
12.71402
  20
-3.952711
  30
0
  11
12.77002
  21
-3.979169
  31
0
  0
LINE
  5
103
  100
AcDbEntity
  8
1
  100
AcDbLine
  10
12.77002
  20
-3.979169
  30
0
  11
12.82602
  21
-4.005425
  31
0
  0
LINE
  5
104
  100
AcDbEntity
  8
1
  100
AcDbLine
  10
12.82602
  20
-4.005425
  30
0
  11
12.88202
  21
-4.031478
  31
0
  0
LINE
  5
105
  100
AcDbEntity
  8
1
  100
AcDbLine
  10
12.88202
  20
-4.031478
  30
0
  11
12.93802
  21
-4.057326
  31
0
  0
LINE
  5
106
  100
AcDbEntity
  8
1
  100
AcDbLine
  10
12.93802
  20
-4.057326
  30
0
  11
12.99402
  21
-4.082968
  31
0
  0
LINE
  5
107
  100
AcDbEntity
  8
1
  100
AcDbLine
  10
12.99402
  20
-4.082968
  30
0
  11
13.05002
  21
-4.108402
  31
0
  0
LINE
  5
108
  100
AcDbEntity
  8
1
  100
AcDbLine
  10
13.05002
  20
-4.108402
  30
0
  11
13.10602
  21
-4.133627
  31
0
  0
LINE
  5
109
  100
AcDbEntity
  8
1
  100
AcDbLine
  10
13.10602
  20
-4.133627
  30
0
  11
13.16202
  21
-4.158642
  31
0
  0
LINE
  5
10a
  100
AcDbEntity
  8
1
  100
AcDbLine
  10
13.16202
  20
-4.158642
  30
0
  11
13.21802
  21
-4.183446
  31
0
  0
LINE
  5
10b
  100
AcDbEntity
  8
1
  100
AcDbLine
  10
13.21802
  20
-4.183446
  30
0
  11
13.27402
  21
-4.208037
  31
0
  0
LINE
  5
10c
  100
AcDbEntity
  8
1
  100
AcDbLine
  10
13.27402
  20
-4.208037
  30
0
  11
13.33002
  21
-4.232414
  31
0
  0
LINE
  5
10d
  100
AcDbEntity
  8
1
  100
AcDbLine
  10
13.33002
  20
-4.232414
  30
0
  11
13.38602
  21
-4.256576
  31
0
  0
LINE
  5
10e
  100
AcDbEntity
  8
1
  100
AcDbLine
  10
13.38602
  20
-4.256576
  30
0
  11
13.44202
  21
-4.280522
  31
0
  0
LINE
  5
10f
  100
AcDbEntity
  8
1
  100
AcDbLine
  10
13.44202
  20
-4.280522
  30
0
  11
13.49802
  21
-4.30425
  31
0
  0
LINE
  5
110
  100
AcDbEntity
  8
1
  100
AcDbLine
  10
13.49802
  20
-4.30425
  30
0
  11
13.55402
  21
-4.32776
  31
0
  0
LINE
  5
111
  100
AcDbEntity
  8
1
  100
AcDbLine
  10
13.55402
  20
-4.32776
  30
0
  11
13.61002
  21
-4.351049
  31
0
  0
LINE
  5
112
  100
AcDbEntity
  8
1
  100
AcDbLine
  10
13.61002
  20
-4.351049
  30
0
  11
13.66602
  21
-4.374117
  31
0
  0
LINE
  5
113
  100
AcDbEntity
  8
1
  100
AcDbLine
  10
13.66602
  20
-4.374117
  30
0
  11
13.72202
  21
-4.396963
  31
0
  0
LINE
  5
114
  100
AcDbEntity
  8
1
  100
AcDbLine
  10
13.72202
  20
-4.396963
  30
0
  11
13.77802
  21
-4.419586
  31
0
  0
LINE
  5
115
  100
AcDbEntity
  8
1
  100
AcDbLine
  10
13.77802
  20
-4.419586
  30
0
  11
13.83402
  21
-4.441984
  31
0
  0
LINE
  5
116
  100
AcDbEntity
  8
1
  100
AcDbLine
  10
13.83402
  20
-4.441984
  30
0
  11
13.89002
  21
-4.464156
  31
0
  0
LINE
  5
117
  100
AcDbEntity
  8
1
  100
AcDbLine
  10
13.89002
  20
-4.464156
  30
0
  11
13.94602
  21
-4.486101
  31
0
  0
LINE
  5
118
  100
AcDbEntity
  8
1
  100
AcDbLine
  10
13.94602
  20
-4.486101
  30
0
  11
14.00202
  21
-4.507818
  31
0
  0
LINE
  5
119
  100
AcDbEntity
  8
1
  100
AcDbLine
  10
14.00202
  20
-4.507818
  30
0
  11
14.05802
  21
-4.529306
  31
0
  0
LINE
  5
11a
  100
AcDbEntity
  8
1
  100
AcDbLine
  10
14.05802
  20
-4.529306
  30
0
  11
14.11402
  21
-4.550564
  31
0
  0
LINE
  5
11b
  100
AcDbEntity
  8
1
  100
AcDbLine
  10
14.11402
  20
-4.550564
  30
0
  11
14.17002
  21
-4.57159
  31
0
  0
LINE
  5
11c
  100
AcDbEntity
  8
1
  100
AcDbLine
  10
14.17002
  20
-4.57159
  30
0
  11
14.22602
  21
-4.592384
  31
0
  0
LINE
  5
11d
  100
AcDbEntity
  8
1
  100
AcDbLine
  10
14.22602
  20
-4.592384
  30
0
  11
14.28202
  21
-4.612945
  31
0
  0
LINE
  5
11e
  100
AcDbEntity
  8
1
  100
AcDbLine
  10
14.28202
  20
-4.612945
  30
0
  11
14.33802
  21
-4.633271
  31
0
  0
LINE
  5
11f
  100
AcDbEntity
  8
1
  100
AcDbLine
  10
14.33802
  20
-4.633271
  30
0
  11
14.39402
  21
-4.653362
  31
0
  0
LINE
  5
120
  100
AcDbEntity
  8
1
  100
AcDbLine
  10
14.39402
  20
-4.653362
  30
0
  11
14.45002
  21
-4.673216
  31
0
  0
LINE
  5
121
  100
AcDbEntity
  8
1
  100
AcDbLine
  10
14.45002
  20
-4.673216
  30
0
  11
14.50602
  21
-4.692833
  31
0
  0
LINE
  5
122
  100
AcDbEntity
  8
1
  100
AcDbLine
  10
14.50602
  20
-4.692833
  30
0
  11
14.56202
  21
-4.712211
  31
0
  0
LINE
  5
123
  100
AcDbEntity
  8
1
  100
AcDbLine
  10
14.56202
  20
-4.712211
  30
0
  11
14.61802
  21
-4.73135
  31
0
  0
LINE
  5
124
  100
AcDbEntity
  8
1
  100
AcDbLine
  10
14.61802
  20
-4.73135
  30
0
  11
14.67402
  21
-4.750248
  31
0
  0
LINE
  5
125
  100
AcDbEntity
  8
1
  100
AcDbLine
  10
14.67402
  20
-4.750248
  30
0
  11
14.73002
  21
-4.768905
  31
0
  0
LINE
  5
126
  100
AcDbEntity
  8
1
  100
AcDbLine
  10
14.73002
  20
-4.768905
  30
0
  11
14.78602
  21
-4.787319
  31
0
  0
LINE
  5
127
  100
AcDbEntity
  8
1
  100
AcDbLine
  10
14.78602
  20
-4.787319
  30
0
  11
14.84202
  21
-4.80549
  31
0
  0
LINE
  5
128
  100
AcDbEntity
  8
1
  100
AcDbLine
  10
14.84202
  20
-4.80549
  30
0
  11
14.89802
  21
-4.823417
  31
0
  0
LINE
  5
129
  100
AcDbEntity
  8
1
  100
AcDbLine
  10
14.89802
  20
-4.823417
  30
0
  11
14.95402
  21
-4.841098
  31
0
  0
LINE
  5
12a
  100
AcDbEntity
  8
1
  100
AcDbLine
  10
14.95402
  20
-4.841098
  30
0
  11
15.01002
  21
-4.858534
  31
0
  0
LINE
  5
12b
  100
AcDbEntity
  8
1
  100
AcDbLine
  10
15.01002
  20
-4.858534
  30
0
  11
15.06602
  21
-4.875722
  31
0
  0
LINE
  5
12c
  100
AcDbEntity
  8
1
  100
AcDbLine
  10
15.06602
  20
-4.875722
  30
0
  11
15.12202
  21
-4.892663
  31
0
  0
LINE
  5
12d
  100
AcDbEntity
  8
1
  100
AcDbLine
  10
15.12202
  20
-4.892663
  30
0
  11
15.17802
  21
-4.909355
  31
0
  0
LINE
  5
12e
  100
AcDbEntity
  8
1
  100
AcDbLine
  10
15.17802
  20
-4.909355
  30
0
  11
15.23402
  21
-4.925798
  31
0
  0
LINE
  5
12f
  100
AcDbEntity
  8
1
  100
AcDbLine
  10
15.23402
  20
-4.925798
  30
0
  11
15.29002
  21
-4.94199
  31
0
  0
LINE
  5
130
  100
AcDbEntity
  8
1
  100
AcDbLine
  10
15.29002
  20
-4.94199
  30
0
  11
15.34602
  21
-4.957931
  31
0
  0
LINE
  5
131
  100
AcDbEntity
  8
1
  100
AcDbLine
  10
15.34602
  20
-4.957931
  30
0
  11
15.40202
  21
-4.97362
  31
0
  0
LINE
  5
132
  100
AcDbEntity
  8
1
  100
AcDbLine
  10
15.40202
  20
-4.97362
  30
0
  11
15.45802
  21
-4.989056
  31
0
  0
LINE
  5
133
  100
AcDbEntity
  8
1
  100
AcDbLine
  10
15.45802
  20
-4.989056
  30
0
  11
15.51402
  21
-5.004239
  31
0
  0
LINE
  5
134
  100
AcDbEntity
  8
1
  100
AcDbLine
  10
15.51402
  20
-5.004239
  30
0
  11
15.57002
  21
-5.019167
  31
0
  0
LINE
  5
135
  100
AcDbEntity
  8
1
  100
AcDbLine
  10
15.57002
  20
-5.019167
  30
0
  11
15.62602
  21
-5.03384
  31
0
  0
LINE
  5
136
  100
AcDbEntity
  8
1
  100
AcDbLine
  10
15.62602
  20
-5.03384
  30
0
  11
15.68202
  21
-5.048257
  31
0
  0
LINE
  5
137
  100
AcDbEntity
  8
1
  100
AcDbLine
  10
15.68202
  20
-5.048257
  30
0
  11
15.73802
  21
-5.062418
  31
0
  0
LINE
  5
138
  100
AcDbEntity
  8
1
  100
AcDbLine
  10
15.73802
  20
-5.062418
  30
0
  11
15.79402
  21
-5.076321
  31
0
  0
LINE
  5
139
  100
AcDbEntity
  8
1
  100
AcDbLine
  10
15.79402
  20
-5.076321
  30
0
  11
15.85002
  21
-5.089967
  31
0
  0
LINE
  5
13a
  100
AcDbEntity
  8
1
  100
AcDbLine
  10
15.85002
  20
-5.089967
  30
0
  11
15.90602
  21
-5.103353
  31
0
  0
LINE
  5
13b
  100
AcDbEntity
  8
1
  100
AcDbLine
  10
15.90602
  20
-5.103353
  30
0
  11
15.96202
  21
-5.11648
  31
0
  0
LINE
  5
13c
  100
AcDbEntity
  8
1
  100
AcDbLine
  10
15.96202
  20
-5.11648
  30
0
  11
16.01802
  21
-5.129348
  31
0
  0
LINE
  5
13d
  100
AcDbEntity
  8
1
  100
AcDbLine
  10
16.01802
  20
-5.129348
  30
0
  11
16.07402
  21
-5.141954
  31
0
  0
LINE
  5
13e
  100
AcDbEntity
  8
1
  100
AcDbLine
  10
16.07402
  20
-5.141954
  30
0
  11
16.13002
  21
-5.154299
  31
0
  0
LINE
  5
13f
  100
AcDbEntity
  8
1
  100
AcDbLine
  10
16.13002
  20
-5.154299
  30
0
  11
16.18602
  21
-5.166382
  31
0
  0
LINE
  5
140
  100
AcDbEntity
  8
1
  100
AcDbLine
  10
16.18602
  20
-5.166382
  30
0
  11
16.24202
  21
-5.178203
  31
0
  0
LINE
  5
141
  100
AcDbEntity
  8
1
  100
AcDbLine
  10
16.24202
  20
-5.178203
  30
0
  11
16.29802
  21
-5.18976
  31
0
  0
LINE
  5
142
  100
AcDbEntity
  8
1
  100
AcDbLine
  10
16.29802
  20
-5.18976
  30
0
  11
16.35402
  21
-5.201054
  31
0
  0
LINE
  5
143
  100
AcDbEntity
  8
1
  100
AcDbLine
  10
16.35402
  20
-5.201054
  30
0
  11
16.41002
  21
-5.212083
  31
0
  0
LINE
  5
144
  100
AcDbEntity
  8
1
  100
AcDbLine
  10
16.41002
  20
-5.212083
  30
0
  11
16.46602
  21
-5.222847
  31
0
  0
LINE
  5
145
  100
AcDbEntity
  8
1
  100
AcDbLine
  10
16.46602
  20
-5.222847
  30
0
  11
16.52202
  21
-5.233346
  31
0
  0
LINE
  5
146
  100
AcDbEntity
  8
1
  100
AcDbLine
  10
16.52202
  20
-5.233346
  30
0
  11
16.57802
  21
-5.243579
  31
0
  0
LINE
  5
147
  100
AcDbEntity
  8
1
  100
AcDbLine
  10
16.57802
  20
-5.243579
  30
0
  11
16.63402
  21
-5.253545
  31
0
  0
LINE
  5
148
  100
AcDbEntity
  8
1
  100
AcDbLine
  10
16.63402
  20
-5.253545
  30
0
  11
16.69002
  21
-5.263244
  31
0
  0
LINE
  5
149
  100
AcDbEntity
  8
1
  100
AcDbLine
  10
16.69002
  20
-5.263244
  30
0
  11
16.74602
  21
-5.272676
  31
0
  0
LINE
  5
14a
  100
AcDbEntity
  8
1
  100
AcDbLine
  10
16.74602
  20
-5.272676
  30
0
  11
16.80202
  21
-5.28184
  31
0
  0
LINE
  5
14b
  100
AcDbEntity
  8
1
  100
AcDbLine
  10
16.80202
  20
-5.28184
  30
0
  11
16.85802
  21
-5.290735
  31
0
  0
LINE
  5
14c
  100
AcDbEntity
  8
1
  100
AcDbLine
  10
16.85802
  20
-5.290735
  30
0
  11
16.91402
  21
-5.299361
  31
0
  0
LINE
  5
14d
  100
AcDbEntity
  8
1
  100
AcDbLine
  10
16.91402
  20
-5.299361
  30
0
  11
16.97002
  21
-5.307718
  31
0
  0
LINE
  5
14e
  100
AcDbEntity
  8
1
  100
AcDbLine
  10
16.97002
  20
-5.307718
  30
0
  11
17.02602
  21
-5.315806
  31
0
  0
LINE
  5
14f
  100
AcDbEntity
  8
1
  100
AcDbLine
  10
17.02602
  20
-5.315806
  30
0
  11
17.08202
  21
-5.323623
  31
0
  0
LINE
  5
150
  100
AcDbEntity
  8
1
  100
AcDbLine
  10
17.08202
  20
-5.323623
  30
0
  11
17.13802
  21
-5.331169
  31
0
  0
LINE
  5
151
  100
AcDbEntity
  8
1
  100
AcDbLine
  10
17.13802
  20
-5.331169
  30
0
  11
17.19402
  21
-5.338445
  31
0
  0
LINE
  5
152
  100
AcDbEntity
  8
1
  100
AcDbLine
  10
17.19402
  20
-5.338445
  30
0
  11
17.25002
  21
-5.345449
  31
0
  0
LINE
  5
153
  100
AcDbEntity
  8
1
  100
AcDbLine
  10
17.25002
  20
-5.345449
  30
0
  11
17.30602
  21
-5.352181
  31
0
  0
LINE
  5
154
  100
AcDbEntity
  8
1
  100
AcDbLine
  10
17.30602
  20
-5.352181
  30
0
  11
17.36202
  21
-5.358641
  31
0
  0
LINE
  5
155
  100
AcDbEntity
  8
1
  100
AcDbLine
  10
17.36202
  20
-5.358641
  30
0
  11
17.41802
  21
-5.364829
  31
0
  0
LINE
  5
156
  100
AcDbEntity
  8
1
  100
AcDbLine
  10
17.41802
  20
-5.364829
  30
0
  11
17.47402
  21
-5.370745
  31
0
  0
LINE
  5
157
  100
AcDbEntity
  8
1
  100
AcDbLine
  10
17.47402
  20
-5.370745
  30
0
  11
17.53002
  21
-5.376387
  31
0
  0
LINE
  5
158
  100
AcDbEntity
  8
1
  100
AcDbLine
  10
17.53002
  20
-5.376387
  30
0
  11
17.58602
  21
-5.361392
  31
0
  0
LINE
  5
159
  100
AcDbEntity
  8
1
  100
AcDbLine
  10
17.58602
  20
-5.361392
  30
0
  11
17.64202
  21
-5.309507
  31
0
  0
LINE
  5
15a
  100
AcDbEntity
  8
1
  100
AcDbLine
  10
17.64202
  20
-5.309507
  30
0
  11
17.69802
  21
-5.257411
  31
0
  0
LINE
  5
15b
  100
AcDbEntity
  8
1
  100
AcDbLine
  10
17.69802
  20
-5.257411
  30
0
  11
17.75402
  21
-5.205111
  31
0
  0
LINE
  5
15c
  100
AcDbEntity
  8
1
  100
AcDbLine
  10
17.75402
  20
-5.205111
  30
0
  11
17.81002
  21
-5.152615
  31
0
  0
LINE
  5
15d
  100
AcDbEntity
  8
1
  100
AcDbLine
  10
17.81002
  20
-5.152615
  30
0
  11
17.86602
  21
-5.099931
  31
0
  0
LINE
  5
15e
  100
AcDbEntity
  8
1
  100
AcDbLine
  10
17.86602
  20
-4.888664
  30
0
  11
17.81002
  21
-4.940404
  31
0
  0
LINE
  5
15f
  100
AcDbEntity
  8
1
  100
AcDbLine
  10
17.81002
  20
-4.940404
  30
0
  11
17.75402
  21
-4.991823
  31
0
  0
LINE
  5
160
  100
AcDbEntity
  8
1
  100
AcDbLine
  10
17.75402
  20
-4.991823
  30
0
  11
17.69802
  21
-5.042921
  31
0
  0
LINE
  5
161
  100
AcDbEntity
  8
1
  100
AcDbLine
  10
17.69802
  20
-5.042921
  30
0
  11
17.64202
  21
-5.093699
  31
0
  0
LINE
  5
162
  100
AcDbEntity
  8
1
  100
AcDbLine
  10
17.64202
  20
-5.093699
  30
0
  11
17.58602
  21
-5.144156
  31
0
  0
LINE
  5
163
  100
AcDbEntity
  8
1
  100
AcDbLine
  10
17.58602
  20
-5.144156
  30
0
  11
17.53002
  21
-5.153346
  31
0
  0
LINE
  5
164
  100
AcDbEntity
  8
1
  100
AcDbLine
  10
17.53002
  20
-5.153346
  30
0
  11
17.47402
  21
-5.139514
  31
0
  0
LINE
  5
165
  100
AcDbEntity
  8
1
  100
AcDbLine
  10
17.47402
  20
-5.139514
  30
0
  11
17.41802
  21
-5.125421
  31
0
  0
LINE
  5
166
  100
AcDbEntity
  8
1
  100
AcDbLine
  10
17.41802
  20
-5.125421
  30
0
  11
17.36202
  21
-5.111068
  31
0
  0
LINE
  5
167
  100
AcDbEntity
  8
1
  100
AcDbLine
  10
17.36202
  20
-5.111068
  30
0
  11
17.30602
  21
-5.096455
  31
0
  0
LINE
  5
168
  100
AcDbEntity
  8
1
  100
AcDbLine
  10
17.30602
  20
-5.096455
  30
0
  11
17.25002
  21
-5.081583
  31
0
  0
LINE
  5
169
  100
AcDbEntity
  8
1
  100
AcDbLine
  10
17.25002
  20
-5.081583
  30
0
  11
17.19402
  21
-5.066452
  31
0
  0
LINE
  5
16a
  100
AcDbEntity
  8
1
  100
AcDbLine
  10
17.19402
  20
-5.066452
  30
0
  11
17.13802
  21
-5.051064
  31
0
  0
LINE
  5
16b
  100
AcDbEntity
  8
1
  100
AcDbLine
  10
17.13802
  20
-5.051064
  30
0
  11
17.08202
  21
-5.03542
  31
0
  0
LINE
  5
16c
  100
AcDbEntity
  8
1
  100
AcDbLine
  10
17.08202
  20
-5.03542
  30
0
  11
17.02602
  21
-5.019519
  31
0
  0
LINE
  5
16d
  100
AcDbEntity
  8
1
  100
AcDbLine
  10
17.02602
  20
-5.019519
  30
0
  11
16.97002
  21
-5.003363
  31
0
  0
LINE
  5
16e
  100
AcDbEntity
  8
1
  100
AcDbLine
  10
16.97002
  20
-5.003363
  30
0
  11
16.91402
  21
-4.986953
  31
0
  0
LINE
  5
16f
  100
AcDbEntity
  8
1
  100
AcDbLine
  10
16.91402
  20
-4.986953
  30
0
  11
16.85802
  21
-4.97029
  31
0
  0
LINE
  5
170
  100
AcDbEntity
  8
1
  100
AcDbLine
  10
16.85802
  20
-4.97029
  30
0
  11
16.80202
  21
-4.953374
  31
0
  0
LINE
  5
171
  100
AcDbEntity
  8
1
  100
AcDbLine
  10
16.80202
  20
-4.953374
  30
0
  11
16.74602
  21
-4.936206
  31
0
  0
LINE
  5
172
  100
AcDbEntity
  8
1
  100
AcDbLine
  10
16.74602
  20
-4.936206
  30
0
  11
16.69002
  21
-4.918787
  31
0
  0
LINE
  5
173
  100
AcDbEntity
  8
1
  100
AcDbLine
  10
16.69002
  20
-4.918787
  30
0
  11
16.63402
  21
-4.901118
  31
0
  0
LINE
  5
174
  100
AcDbEntity
  8
1
  100
AcDbLine
  10
16.63402
  20
-4.901118
  30
0
  11
16.57802
  21
-4.8832
  31
0
  0
LINE
  5
175
  100
AcDbEntity
  8
1
  100
AcDbLine
  10
16.57802
  20
-4.8832
  30
0
  11
16.52202
  21
-4.865034
  31
0
  0
LINE
  5
176
  100
AcDbEntity
  8
1
  100
AcDbLine
  10
16.52202
  20
-4.865034
  30
0
  11
16.46602
  21
-4.84662
  31
0
  0
LINE
  5
177
  100
AcDbEntity
  8
1
  100
AcDbLine
  10
16.46602
  20
-4.84662
  30
0
  11
16.41002
  21
-4.827961
  31
0
  0
LINE
  5
178
  100
AcDbEntity
  8
1
  100
AcDbLine
  10
16.41002
  20
-4.827961
  30
0
  11
16.35402
  21
-4.809055
  31
0
  0
LINE
  5
179
  100
AcDbEntity
  8
1
  100
AcDbLine
  10
16.35402
  20
-4.809055
  30
0
  11
16.29802
  21
-4.789906
  31
0
  0
LINE
  5
17a
  100
AcDbEntity
  8
1
  100
AcDbLine
  10
16.29802
  20
-4.789906
  30
0
  11
16.24202
  21
-4.770513
  31
0
  0
LINE
  5
17b
  100
AcDbEntity
  8
1
  100
AcDbLine
  10
16.24202
  20
-4.770513
  30
0
  11
16.18602
  21
-4.750877
  31
0
  0
LINE
  5
17c
  100
AcDbEntity
  8
1
  100
AcDbLine
  10
16.18602
  20
-4.750877
  30
0
  11
16.13002
  21
-4.731
  31
0
  0
LINE
  5
17d
  100
AcDbEntity
  8
1
  100
AcDbLine
  10
16.13002
  20
-4.731
  30
0
  11
16.07402
  21
-4.710883
  31
0
  0
LINE
  5
17e
  100
AcDbEntity
  8
1
  100
AcDbLine
  10
16.07402
  20
-4.710883
  30
0
  11
16.01802
  21
-4.690526
  31
0
  0
LINE
  5
17f
  100
AcDbEntity
  8
1
  100
AcDbLine
  10
16.01802
  20
-4.690526
  30
0
  11
15.96202
  21
-4.66993
  31
0
  0
LINE
  5
180
  100
AcDbEntity
  8
1
  100
AcDbLine
  10
15.96202
  20
-4.66993
  30
0
  11
15.90602
  21
-4.649098
  31
0
  0
LINE
  5
181
  100
AcDbEntity
  8
1
  100
AcDbLine
  10
15.90602
  20
-4.649098
  30
0
  11
15.85002
  21
-4.628029
  31
0
  0
LINE
  5
182
  100
AcDbEntity
  8
1
  100
AcDbLine
  10
15.85002
  20
-4.628029
  30
0
  11
15.79402
  21
-4.606724
  31
0
  0
LINE
  5
183
  100
AcDbEntity
  8
1
  100
AcDbLine
  10
15.79402
  20
-4.606724
  30
0
  11
15.73802
  21
-4.585186
  31
0
  0
LINE
  5
184
  100
AcDbEntity
  8
1
  100
AcDbLine
  10
15.73802
  20
-4.585186
  30
0
  11
15.68202
  21
-4.563414
  31
0
  0
LINE
  5
185
  100
AcDbEntity
  8
1
  100
AcDbLine
  10
15.68202
  20
-4.563414
  30
0
  11
15.62602
  21
-4.541411
  31
0
  0
LINE
  5
186
  100
AcDbEntity
  8
1
  100
AcDbLine
  10
15.62602
  20
-4.541411
  30
0
  11
15.57002
  21
-4.519177
  31
0
  0
LINE
  5
187
  100
AcDbEntity
  8
1
  100
AcDbLine
  10
15.57002
  20
-4.519177
  30
0
  11
15.51402
  21
-4.496713
  31
0
  0
LINE
  5
188
  100
AcDbEntity
  8
1
  100
AcDbLine
  10
15.51402
  20
-4.496713
  30
0
  11
15.45802
  21
-4.47402
  31
0
  0
LINE
  5
189
  100
AcDbEntity
  8
1
  100
AcDbLine
  10
15.45802
  20
-4.47402
  30
0
  11
15.40202
  21
-4.4511
  31
0
  0
LINE
  5
18a
  100
AcDbEntity
  8
1
  100
AcDbLine
  10
15.40202
  20
-4.4511
  30
0
  11
15.34602
  21
-4.427954
  31
0
  0
LINE
  5
18b
  100
AcDbEntity
  8
1
  100
AcDbLine
  10
15.34602
  20
-4.427954
  30
0
  11
15.29002
  21
-4.404583
  31
0
  0
LINE
  5
18c
  100
AcDbEntity
  8
1
  100
AcDbLine
  10
15.29002
  20
-4.404583
  30
0
  11
15.23402
  21
-4.380988
  31
0
  0
LINE
  5
18d
  100
AcDbEntity
  8
1
  100
AcDbLine
  10
15.23402
  20
-4.380988
  30
0
  11
15.17802
  21
-4.35717
  31
0
  0
LINE
  5
18e
  100
AcDbEntity
  8
1
  100
AcDbLine
  10
15.17802
  20
-4.35717
  30
0
  11
15.12202
  21
-4.333131
  31
0
  0
LINE
  5
18f
  100
AcDbEntity
  8
1
  100
AcDbLine
  10
15.12202
  20
-4.333131
  30
0
  11
15.06602
  21
-4.308872
  31
0
  0
LINE
  5
190
  100
AcDbEntity
  8
1
  100
AcDbLine
  10
15.06602
  20
-4.308872
  30
0
  11
15.01002
  21
-4.284393
  31
0
  0
LINE
  5
191
  100
AcDbEntity
  8
1
  100
AcDbLine
  10
15.01002
  20
-4.284393
  30
0
  11
14.95402
  21
-4.259697
  31
0
  0
LINE
  5
192
  100
AcDbEntity
  8
1
  100
AcDbLine
  10
14.95402
  20
-4.259697
  30
0
  11
14.89802
  21
-4.234784
  31
0
  0
LINE
  5
193
  100
AcDbEntity
  8
1
  100
AcDbLine
  10
14.89802
  20
-4.234784
  30
0
  11
14.84202
  21
-4.209656
  31
0
  0
LINE
  5
194
  100
AcDbEntity
  8
1
  100
AcDbLine
  10
14.84202
  20
-4.209656
  30
0
  11
14.78602
  21
-4.184314
  31
0
  0
LINE
  5
195
  100
AcDbEntity
  8
1
  100
AcDbLine
  10
14.78602
  20
-4.184314
  30
0
  11
14.73002
  21
-4.158759
  31
0
  0
LINE
  5
196
  100
AcDbEntity
  8
1
  100
AcDbLine
  10
14.73002
  20
-4.158759
  30
0
  11
14.67402
  21
-4.132993
  31
0
  0
LINE
  5
197
  100
AcDbEntity
  8
1
  100
AcDbLine
  10
14.67402
  20
-4.132993
  30
0
  11
14.61802
  21
-4.107017
  31
0
  0
LINE
  5
198
  100
AcDbEntity
  8
1
  100
AcDbLine
  10
14.61802
  20
-4.107017
  30
0
  11
14.56202
  21
-4.080832
  31
0
  0
LINE
  5
199
  100
AcDbEntity
  8
1
  100
AcDbLine
  10
14.56202
  20
-4.080832
  30
0
  11
14.50602
  21
-4.05444
  31
0
  0
LINE
  5
19a
  100
AcDbEntity
  8
1
  100
AcDbLine
  10
14.50602
  20
-4.05444
  30
0
  11
14.45002
  21
-4.027842
  31
0
  0
LINE
  5
19b
  100
AcDbEntity
  8
1
  100
AcDbLine
  10
14.45002
  20
-4.027842
  30
0
  11
14.39402
  21
-4.001039
  31
0
  0
LINE
  5
19c
  100
AcDbEntity
  8
1
  100
AcDbLine
  10
14.39402
  20
-4.001039
  30
0
  11
14.33802
  21
-3.974032
  31
0
  0
LINE
  5
19d
  100
AcDbEntity
  8
1
  100
AcDbLine
  10
14.33802
  20
-3.974032
  30
0
  11
14.28202
  21
-3.946824
  31
0
  0
LINE
  5
19e
  100
AcDbEntity
  8
1
  100
AcDbLine
  10
14.28202
  20
-3.946824
  30
0
  11
14.22602
  21
-3.919415
  31
0
  0
LINE
  5
19f
  100
AcDbEntity
  8
1
  100
AcDbLine
  10
14.22602
  20
-3.919415
  30
0
  11
14.17002
  21
-3.891806
  31
0
  0
LINE
  5
1a0
  100
AcDbEntity
  8
1
  100
AcDbLine
  10
14.17002
  20
-3.891806
  30
0
  11
14.11402
  21
-3.864
  31
0
  0
LINE
  5
1a1
  100
AcDbEntity
  8
1
  100
AcDbLine
  10
14.11402
  20
-3.864
  30
0
  11
14.05802
  21
-3.835998
  31
0
  0
LINE
  5
1a2
  100
AcDbEntity
  8
1
  100
AcDbLine
  10
14.05802
  20
-3.835998
  30
0
  11
14.00202
  21
-3.8078
  31
0
  0
LINE
  5
1a3
  100
AcDbEntity
  8
1
  100
AcDbLine
  10
14.00202
  20
-3.8078
  30
0
  11
13.94602
  21
-3.77941
  31
0
  0
LINE
  5
1a4
  100
AcDbEntity
  8
1
  100
AcDbLine
  10
13.94602
  20
-3.77941
  30
0
  11
13.89002
  21
-3.750826
  31
0
  0
LINE
  5
1a5
  100
AcDbEntity
  8
1
  100
AcDbLine
  10
13.89002
  20
-3.750826
  30
0
  11
13.83402
  21
-3.722053
  31
0
  0
LINE
  5
1a6
  100
AcDbEntity
  8
1
  100
AcDbLine
  10
13.83402
  20
-3.722053
  30
0
  11
13.77802
  21
-3.69309
  31
0
  0
LINE
  5
1a7
  100
AcDbEntity
  8
1
  100
AcDbLine
  10
13.77802
  20
-3.69309
  30
0
  11
13.72202
  21
-3.663939
  31
0
  0
LINE
  5
1a8
  100
AcDbEntity
  8
1
  100
AcDbLine
  10
13.72202
  20
-3.663939
  30
0
  11
13.66602
  21
-3.634602
  31
0
  0
LINE
  5
1a9
  100
AcDbEntity
  8
1
  100
AcDbLine
  10
13.66602
  20
-3.634602
  30
0
  11
13.61002
  21
-3.605081
  31
0
  0
LINE
  5
1aa
  100
AcDbEntity
  8
1
  100
AcDbLine
  10
13.61002
  20
-3.605081
  30
0
  11
13.55402
  21
-3.575376
  31
0
  0
LINE
  5
1ab
  100
AcDbEntity
  8
1
  100
AcDbLine
  10
13.55402
  20
-3.575376
  30
0
  11
13.49802
  21
-3.545489
  31
0
  0
LINE
  5
1ac
  100
AcDbEntity
  8
1
  100
AcDbLine
  10
13.49802
  20
-3.545489
  30
0
  11
13.44202
  21
-3.515422
  31
0
  0
LINE
  5
1ad
  100
AcDbEntity
  8
1
  100
AcDbLine
  10
13.44202
  20
-3.515422
  30
0
  11
13.38602
  21
-3.485177
  31
0
  0
LINE
  5
1ae
  100
AcDbEntity
  8
1
  100
AcDbLine
  10
13.38602
  20
-3.485177
  30
0
  11
13.33002
  21
-3.454754
  31
0
  0
LINE
  5
1af
  100
AcDbEntity
  8
1
  100
AcDbLine
  10
13.33002
  20
-3.454754
  30
0
  11
13.27402
  21
-3.424156
  31
0
  0
LINE
  5
1b0
  100
AcDbEntity
  8
1
  100
AcDbLine
  10
13.27402
  20
-3.424156
  30
0
  11
13.21802
  21
-3.393384
  31
0
  0
LINE
  5
1b1
  100
AcDbEntity
  8
1
  100
AcDbLine
  10
13.21802
  20
-3.393384
  30
0
  11
13.16202
  21
-3.362439
  31
0
  0
LINE
  5
1b2
  100
AcDbEntity
  8
1
  100
AcDbLine
  10
13.16202
  20
-3.362439
  30
0
  11
13.10602
  21
-3.331324
  31
0
  0
LINE
  5
1b3
  100
AcDbEntity
  8
1
  100
AcDbLine
  10
13.10602
  20
-3.331324
  30
0
  11
13.05002
  21
-3.300039
  31
0
  0
LINE
  5
1b4
  100
AcDbEntity
  8
1
  100
AcDbLine
  10
13.05002
  20
-3.300039
  30
0
  11
12.99402
  21
-3.268586
  31
0
  0
LINE
  5
1b5
  100
AcDbEntity
  8
1
  100
AcDbLine
  10
12.99402
  20
-3.268586
  30
0
  11
12.93802
  21
-3.236967
  31
0
  0
LINE
  5
1b6
  100
AcDbEntity
  8
1
  100
AcDbLine
  10
12.93802
  20
-3.236967
  30
0
  11
12.88202
  21
-3.205184
  31
0
  0
LINE
  5
1b7
  100
AcDbEntity
  8
1
  100
AcDbLine
  10
12.88202
  20
-3.205184
  30
0
  11
12.82602
  21
-3.173237
  31
0
  0
LINE
  5
1b8
  100
AcDbEntity
  8
1
  100
AcDbLine
  10
12.82602
  20
-3.173237
  30
0
  11
12.77002
  21
-3.14113
  31
0
  0
LINE
  5
1b9
  100
AcDbEntity
  8
1
  100
AcDbLine
  10
12.77002
  20
-3.14113
  30
0
  11
12.71402
  21
-3.108863
  31
0
  0
LINE
  5
1ba
  100
AcDbEntity
  8
1
  100
AcDbLine
  10
12.71402
  20
-3.108863
  30
0
  11
12.65802
  21
-3.076437
  31
0
  0
LINE
  5
1bb
  100
AcDbEntity
  8
1
  100
AcDbLine
  10
12.65802
  20
-3.076437
  30
0
  11
12.60202
  21
-3.043856
  31
0
  0
LINE
  5
1bc
  100
AcDbEntity
  8
1
  100
AcDbLine
  10
12.60202
  20
-3.043856
  30
0
  11
12.54602
  21
-3.01112
  31
0
  0
LINE
  5
1bd
  100
AcDbEntity
  8
1
  100
AcDbLine
  10
12.54602
  20
-3.01112
  30
0
  11
12.49002
  21
-2.97823
  31
0
  0
LINE
  5
1be
  100
AcDbEntity
  8
1
  100
AcDbLine
  10
12.49002
  20
-2.97823
  30
0
  11
12.43402
  21
-2.945189
  31
0
  0
LINE
  5
1bf
  100
AcDbEntity
  8
1
  100
AcDbLine
  10
12.43402
  20
-2.945189
  30
0
  11
12.37802
  21
-2.911999
  31
0
  0
LINE
  5
1c0
  100
AcDbEntity
  8
1
  100
AcDbLine
  10
12.37802
  20
-2.911999
  30
0
  11
12.32202
  21
-2.878661
  31
0
  0
LINE
  5
1c1
  100
AcDbEntity
  8
1
  100
AcDbLine
  10
12.32202
  20
-2.878661
  30
0
  11
12.26602
  21
-2.845176
  31
0
  0
LINE
  5
1c2
  100
AcDbEntity
  8
1
  100
AcDbLine
  10
12.26602
  20
-2.845176
  30
0
  11
12.21002
  21
-2.811546
  31
0
  0
LINE
  5
1c3
  100
AcDbEntity
  8
1
  100
AcDbLine
  10
12.21002
  20
-2.811546
  30
0
  11
12.15402
  21
-2.777774
  31
0
  0
LINE
  5
1c4
  100
AcDbEntity
  8
1
  100
AcDbLine
  10
12.15402
  20
-2.777774
  30
0
  11
12.09802
  21
-2.743861
  31
0
  0
LINE
  5
1c5
  100
AcDbEntity
  8
1
  100
AcDbLine
  10
12.09802
  20
-2.743861
  30
0
  11
12.04202
  21
-2.709808
  31
0
  0
LINE
  5
1c6
  100
AcDbEntity
  8
1
  100
AcDbLine
  10
12.04202
  20
-2.709808
  30
0
  11
11.98602
  21
-2.675617
  31
0
  0
LINE
  5
1c7
  100
AcDbEntity
  8
1
  100
AcDbLine
  10
11.98602
  20
-2.675617
  30
0
  11
11.93002
  21
-2.64129
  31
0
  0
LINE
  5
1c8
  100
AcDbEntity
  8
1
  100
AcDbLine
  10
11.93002
  20
-2.64129
  30
0
  11
11.87402
  21
-2.606829
  31
0
  0
LINE
  5
1c9
  100
AcDbEntity
  8
1
  100
AcDbLine
  10
11.87402
  20
-2.606829
  30
0
  11
11.81802
  21
-2.572236
  31
0
  0
LINE
  5
1ca
  100
AcDbEntity
  8
1
  100
AcDbLine
  10
11.81802
  20
-2.572236
  30
0
  11
11.76202
  21
-2.537512
  31
0
  0
LINE
  5
1cb
  100
AcDbEntity
  8
1
  100
AcDbLine
  10
11.76202
  20
-2.537512
  30
0
  11
11.70602
  21
-2.502659
  31
0
  0
LINE
  5
1cc
  100
AcDbEntity
  8
1
  100
AcDbLine
  10
11.70602
  20
-2.502659
  30
0
  11
11.65002
  21
-2.467678
  31
0
  0
LINE
  5
1cd
  100
AcDbEntity
  8
1
  100
AcDbLine
  10
11.65002
  20
-2.467678
  30
0
  11
11.59402
  21
-2.432573
  31
0
  0
LINE
  5
1ce
  100
AcDbEntity
  8
1
  100
AcDbLine
  10
11.59402
  20
-2.432573
  30
0
  11
11.53802
  21
-2.397343
  31
0
  0
LINE
  5
1cf
  100
AcDbEntity
  8
1
  100
AcDbLine
  10
11.53802
  20
-2.397343
  30
0
  11
11.48202
  21
-2.361992
  31
0
  0
LINE
  5
1d0
  100
AcDbEntity
  8
1
  100
AcDbLine
  10
11.48202
  20
-2.361992
  30
0
  11
11.42602
  21
-2.326521
  31
0
  0
LINE
  5
1d1
  100
AcDbEntity
  8
1
  100
AcDbLine
  10
11.42602
  20
-2.326521
  30
0
  11
11.37002
  21
-2.290931
  31
0
  0
LINE
  5
1d2
  100
AcDbEntity
  8
1
  100
AcDbLine
  10
11.37002
  20
-2.290931
  30
0
  11
11.31402
  21
-2.255225
  31
0
  0
LINE
  5
1d3
  100
AcDbEntity
  8
1
  100
AcDbLine
  10
11.31402
  20
-2.255225
  30
0
  11
11.25802
  21
-2.219404
  31
0
  0
LINE
  5
1d4
  100
AcDbEntity
  8
1
  100
AcDbLine
  10
11.25802
  20
-2.219404
  30
0
  11
11.20202
  21
-2.183471
  31
0
  0
LINE
  5
1d5
  100
AcDbEntity
  8
1
  100
AcDbLine
  10
11.20202
  20
-2.183471
  30
0
  11
11.14602
  21
-2.147426
  31
0
  0
LINE
  5
1d6
  100
AcDbEntity
  8
1
  100
AcDbLine
  10
11.14602
  20
-2.147426
  30
0
  11
11.09002
  21
-2.111273
  31
0
  0
LINE
  5
1d7
  100
AcDbEntity
  8
1
  100
AcDbLine
  10
11.09002
  20
-2.111273
  30
0
  11
11.03402
  21
-2.075012
  31
0
  0
LINE
  5
1d8
  100
AcDbEntity
  8
1
  100
AcDbLine
  10
11.03402
  20
-2.075012
  30
0
  11
10.97802
  21
-2.038646
  31
0
  0
LINE
  5
1d9
  100
AcDbEntity
  8
1
  100
AcDbLine
  10
10.97802
  20
-2.038646
  30
0
  11
10.92202
  21
-2.002176
  31
0
  0
LINE
  5
1da
  100
AcDbEntity
  8
1
  100
AcDbLine
  10
10.92202
  20
-2.002176
  30
0
  11
10.86602
  21
-1.965604
  31
0
  0
LINE
  5
1db
  100
AcDbEntity
  8
1
  100
AcDbLine
  10
10.86602
  20
-1.965604
  30
0
  11
10.81002
  21
-1.928932
  31
0
  0
LINE
  5
1dc
  100
AcDbEntity
  8
1
  100
AcDbLine
  10
10.81002
  20
-1.928932
  30
0
  11
10.75402
  21
-1.892163
  31
0
  0
LINE
  5
1dd
  100
AcDbEntity
  8
1
  100
AcDbLine
  10
10.75402
  20
-1.892163
  30
0
  11
10.69802
  21
-1.855297
  31
0
  0
LINE
  5
1de
  100
AcDbEntity
  8
1
  100
AcDbLine
  10
10.69802
  20
-1.855297
  30
0
  11
10.64202
  21
-1.818337
  31
0
  0
LINE
  5
1df
  100
AcDbEntity
  8
1
  100
AcDbLine
  10
10.64202
  20
-1.818337
  30
0
  11
10.58602
  21
-1.781284
  31
0
  0
LINE
  5
1e0
  100
AcDbEntity
  8
1
  100
AcDbLine
  10
10.58602
  20
-1.781284
  30
0
  11
10.53002
  21
-1.744141
  31
0
  0
LINE
  5
1e1
  100
AcDbEntity
  8
1
  100
AcDbLine
  10
10.53002
  20
-1.744141
  30
0
  11
10.47402
  21
-1.706909
  31
0
  0
LINE
  5
1e2
  100
AcDbEntity
  8
1
  100
AcDbLine
  10
10.47402
  20
-1.706909
  30
0
  11
10.41802
  21
-1.66959
  31
0
  0
LINE
  5
1e3
  100
AcDbEntity
  8
1
  100
AcDbLine
  10
10.41802
  20
-1.66959
  30
0
  11
10.36202
  21
-1.632187
  31
0
  0
LINE
  5
1e4
  100
AcDbEntity
  8
1
  100
AcDbLine
  10
10.36202
  20
-1.632187
  30
0
  11
10.30602
  21
-1.594701
  31
0
  0
LINE
  5
1e5
  100
AcDbEntity
  8
1
  100
AcDbLine
  10
10.30602
  20
-1.594701
  30
0
  11
10.25002
  21
-1.557133
  31
0
  0
LINE
  5
1e6
  100
AcDbEntity
  8
1
  100
AcDbLine
  10
10.25002
  20
-1.557133
  30
0
  11
10.19402
  21
-1.519487
  31
0
  0
LINE
  5
1e7
  100
AcDbEntity
  8
1
  100
AcDbLine
  10
10.19402
  20
-1.519487
  30
0
  11
10.13802
  21
-1.481763
  31
0
  0
LINE
  5
1e8
  100
AcDbEntity
  8
1
  100
AcDbLine
  10
10.13802
  20
-1.481763
  30
0
  11
10.08202
  21
-1.443964
  31
0
  0
LINE
  5
1e9
  100
AcDbEntity
  8
1
  100
AcDbLine
  10
10.08202
  20
-1.443964
  30
0
  11
10.02602
  21
-1.406091
  31
0
  0
LINE
  5
1ea
  100
AcDbEntity
  8
1
  100
AcDbLine
  10
10.02602
  20
-1.406091
  30
0
  11
9.97002
  21
-1.368147
  31
0
  0
LINE
  5
1eb
  100
AcDbEntity
  8
1
  100
AcDbLine
  10
9.97002
  20
-1.368147
  30
0
  11
9.91402
  21
-1.330134
  31
0
  0
LINE
  5
1ec
  100
AcDbEntity
  8
1
  100
AcDbLine
  10
9.91402
  20
-1.330134
  30
0
  11
9.85802
  21
-1.292053
  31
0
  0
LINE
  5
1ed
  100
AcDbEntity
  8
1
  100
AcDbLine
  10
9.85802
  20
-1.292053
  30
0
  11
9.80202
  21
-1.253906
  31
0
  0
LINE
  5
1ee
  100
AcDbEntity
  8
1
  100
AcDbLine
  10
9.80202
  20
-1.253906
  30
0
  11
9.74602
  21
-1.215695
  31
0
  0
LINE
  5
1ef
  100
AcDbEntity
  8
1
  100
AcDbLine
  10
9.74602
  20
-1.215695
  30
0
  11
9.69002
  21
-1.177423
  31
0
  0
LINE
  5
1f0
  100
AcDbEntity
  8
1
  100
AcDbLine
  10
9.69002
  20
-1.177423
  30
0
  11
9.63402
  21
-1.139091
  31
0
  0
LINE
  5
1f1
  100
AcDbEntity
  8
1
  100
AcDbLine
  10
9.63402
  20
-1.139091
  30
0
  11
9.57802
  21
-1.100701
  31
0
  0
LINE
  5
1f2
  100
AcDbEntity
  8
1
  100
AcDbLine
  10
9.57802
  20
-1.100701
  30
0
  11
9.52202
  21
-1.062255
  31
0
  0
LINE
  5
1f3
  100
AcDbEntity
  8
1
  100
AcDbLine
  10
9.52202
  20
-1.062255
  30
0
  11
9.46602
  21
-1.023755
  31
0
  0
LINE
  5
1f4
  100
AcDbEntity
  8
1
  100
AcDbLine
  10
9.46602
  20
-1.023755
  30
0
  11
9.41002
  21
-0.985203
  31
0
  0
LINE
  5
1f5
  100
AcDbEntity
  8
1
  100
AcDbLine
  10
9.41002
  20
-0.985203
  30
0
  11
9.35402
  21
-0.946601
  31
0
  0
LINE
  5
1f6
  100
AcDbEntity
  8
1
  100
AcDbLine
  10
9.35402
  20
-0.946601
  30
0
  11
9.29802
  21
-0.90795
  31
0
  0
LINE
  5
1f7
  100
AcDbEntity
  8
1
  100
AcDbLine
  10
9.29802
  20
-0.90795
  30
0
  11
9.24202
  21
-0.869254
  31
0
  0
LINE
  5
1f8
  100
AcDbEntity
  8
1
  100
AcDbLine
  10
9.24202
  20
-0.869254
  30
0
  11
9.18602
  21
-0.830513
  31
0
  0
LINE
  5
1f9
  100
AcDbEntity
  8
1
  100
AcDbLine
  10
9.18602
  20
-0.830513
  30
0
  11
9.13002
  21
-0.791731
  31
0
  0
LINE
  5
1fa
  100
AcDbEntity
  8
1
  100
AcDbLine
  10
9.13002
  20
-0.791731
  30
0
  11
9.07402
  21
-0.752908
  31
0
  0
LINE
  5
1fb
  100
AcDbEntity
  8
1
  100
AcDbLine
  10
9.07402
  20
-0.752908
  30
0
  11
9.01802
  21
-0.714046
  31
0
  0
LINE
  5
1fc
  100
AcDbEntity
  8
1
  100
AcDbLine
  10
9.01802
  20
-0.714046
  30
0
  11
8.96202
  21
-0.675149
  31
0
  0
LINE
  5
1fd
  100
AcDbEntity
  8
1
  100
AcDbLine
  10
8.96202
  20
-0.675149
  30
0
  11
8.90602
  21
-0.636217
  31
0
  0
LINE
  5
1fe
  100
AcDbEntity
  8
1
  100
AcDbLine
  10
8.90602
  20
-0.636217
  30
0
  11
8.85002
  21
-0.597253
  31
0
  0
LINE
  5
1ff
  100
AcDbEntity
  8
1
  100
AcDbLine
  10
8.85002
  20
-0.597253
  30
0
  11
8.79402
  21
-0.558258
  31
0
  0
LINE
  5
200
  100
AcDbEntity
  8
1
  100
AcDbLine
  10
8.79402
  20
-0.558258
  30
0
  11
8.73802
  21
-0.519235
  31
0
  0
LINE
  5
201
  100
AcDbEntity
  8
1
  100
AcDbLine
  10
8.73802
  20
-0.519235
  30
0
  11
8.68202
  21
-0.480186
  31
0
  0
LINE
  5
202
  100
AcDbEntity
  8
1
  100
AcDbLine
  10
8.68202
  20
-0.480186
  30
0
  11
8.62602
  21
-0.441112
  31
0
  0
LINE
  5
203
  100
AcDbEntity
  8
1
  100
AcDbLine
  10
8.62602
  20
-0.441112
  30
0
  11
8.57002
  21
-0.402016
  31
0
  0
LINE
  5
204
  100
AcDbEntity
  8
1
  100
AcDbLine
  10
8.57002
  20
-0.402016
  30
0
  11
8.51402
  21
-0.362899
  31
0
  0
LINE
  5
205
  100
AcDbEntity
  8
1
  100
AcDbLine
  10
8.51402
  20
-0.362899
  30
0
  11
8.45802
  21
-0.323764
  31
0
  0
LINE
  5
206
  100
AcDbEntity
  8
1
  100
AcDbLine
  10
8.45802
  20
-0.323764
  30
0
  11
8.40202
  21
-0.284613
  31
0
  0
LINE
  5
207
  100
AcDbEntity
  8
1
  100
AcDbLine
  10
8.40202
  20
-0.284613
  30
0
  11
8.34602
  21
-0.245447
  31
0
  0
LINE
  5
208
  100
AcDbEntity
  8
1
  100
AcDbLine
  10
8.34602
  20
-0.245447
  30
0
  11
8.29002
  21
-0.206268
  31
0
  0
LINE
  5
209
  100
AcDbEntity
  8
1
  100
AcDbLine
  10
8.29002
  20
-0.206268
  30
0
  11
8.23402
  21
-0.167079
  31
0
  0
LINE
  5
20a
  100
AcDbEntity
  8
1
  100
AcDbLine
  10
8.23402
  20
-0.167079
  30
0
  11
8.17802
  21
-0.127882
  31
0
  0
LINE
  5
20b
  100
AcDbEntity
  8
1
  100
AcDbLine
  10
8.17802
  20
-0.127882
  30
0
  11
8.12202
  21
-0.088678
  31
0
  0
LINE
  5
20c
  100
AcDbEntity
  8
1
  100
AcDbLine
  10
8.12202
  20
-0.088678
  30
0
  11
8.06602
  21
-0.049469
  31
0
  0
LINE
  5
20d
  100
AcDbEntity
  8
1
  100
AcDbLine
  10
8.06602
  20
-0.049469
  30
0
  11
8.01002
  21
-0.010258
  31
0
  0
LINE
  5
20e
  100
AcDbEntity
  8
1
  100
AcDbLine
  10
8.01002
  20
-0.010258
  30
0
  11
7.95402
  21
0.028953
  31
0
  0
LINE
  5
20f
  100
AcDbEntity
  8
1
  100
AcDbLine
  10
7.95402
  20
0.028953
  30
0
  11
7.89802
  21
0.068163
  31
0
  0
LINE
  5
210
  100
AcDbEntity
  8
1
  100
AcDbLine
  10
7.89802
  20
0.068163
  30
0
  11
7.84202
  21
0.10737
  31
0
  0
LINE
  5
211
  100
AcDbEntity
  8
1
  100
AcDbLine
  10
7.84202
  20
0.10737
  30
0
  11
7.78602
  21
0.146571
  31
0
  0
LINE
  5
212
  100
AcDbEntity
  8
1
  100
AcDbLine
  10
7.78602
  20
0.146571
  30
0
  11
7.73002
  21
0.185764
  31
0
  0
LINE
  5
213
  100
AcDbEntity
  8
1
  100
AcDbLine
  10
7.73002
  20
0.185764
  30
0
  11
7.67402
  21
0.224949
  31
0
  0
LINE
  5
214
  100
AcDbEntity
  8
1
  100
AcDbLine
  10
7.67402
  20
0.224949
  30
0
  11
7.61802
  21
0.264121
  31
0
  0
LINE
  5
215
  100
AcDbEntity
  8
1
  100
AcDbLine
  10
7.61802
  20
0.264121
  30
0
  11
7.56202
  21
0.303281
  31
0
  0
LINE
  5
216
  100
AcDbEntity
  8
1
  100
AcDbLine
  10
7.56202
  20
0.303281
  30
0
  11
7.50602
  21
0.342425
  31
0
  0
LINE
  5
217
  100
AcDbEntity
  8
1
  100
AcDbLine
  10
7.50602
  20
0.342425
  30
0
  11
7.45002
  21
0.381551
  31
0
  0
LINE
  5
218
  100
AcDbEntity
  8
1
  100
AcDbLine
  10
7.45002
  20
0.381551
  30
0
  11
7.39402
  21
0.420658
  31
0
  0
LINE
  5
219
  100
AcDbEntity
  8
1
  100
AcDbLine
  10
7.39402
  20
0.420658
  30
0
  11
7.33802
  21
0.459744
  31
0
  0
LINE
  5
21a
  100
AcDbEntity
  8
1
  100
AcDbLine
  10
7.33802
  20
0.459744
  30
0
  11
7.28202
  21
0.498806
  31
0
  0
LINE
  5
21b
  100
AcDbEntity
  8
1
  100
AcDbLine
  10
7.28202
  20
0.498806
  30
0
  11
7.22602
  21
0.537843
  31
0
  0
LINE
  5
21c
  100
AcDbEntity
  8
1
  100
AcDbLine
  10
7.22602
  20
0.537843
  30
0
  11
7.17002
  21
0.576853
  31
0
  0
LINE
  5
21d
  100
AcDbEntity
  8
1
  100
AcDbLine
  10
7.17002
  20
0.576853
  30
0
  11
7.11402
  21
0.615833
  31
0
  0
LINE
  5
21e
  100
AcDbEntity
  8
1
  100
AcDbLine
  10
7.11402
  20
0.615833
  30
0
  11
7.05802
  21
0.654783
  31
0
  0
LINE
  5
21f
  100
AcDbEntity
  8
1
  100
AcDbLine
  10
7.05802
  20
0.654783
  30
0
  11
7.00202
  21
0.693698
  31
0
  0
LINE
  5
220
  100
AcDbEntity
  8
1
  100
AcDbLine
  10
7.00202
  20
0.693698
  30
0
  11
6.94602
  21
0.732579
  31
0
  0
LINE
  5
221
  100
AcDbEntity
  8
1
  100
AcDbLine
  10
6.94602
  20
0.732579
  30
0
  11
6.89002
  21
0.771422
  31
0
  0
LINE
  5
222
  100
AcDbEntity
  8
1
  100
AcDbLine
  10
6.89002
  20
0.771422
  30
0
  11
6.83402
  21
0.810226
  31
0
  0
LINE
  5
223
  100
AcDbEntity
  8
1
  100
AcDbLine
  10
6.83402
  20
0.810226
  30
0
  11
6.77802
  21
0.848989
  31
0
  0
LINE
  5
224
  100
AcDbEntity
  8
1
  100
AcDbLine
  10
6.77802
  20
0.848989
  30
0
  11
6.72202
  21
0.887709
  31
0
  0
LINE
  5
225
  100
AcDbEntity
  8
1
  100
AcDbLine
  10
6.72202
  20
0.887709
  30
0
  11
6.66602
  21
0.926383
  31
0
  0
LINE
  5
226
  100
AcDbEntity
  8
1
  100
AcDbLine
  10
6.66602
  20
0.926383
  30
0
  11
6.61002
  21
0.965011
  31
0
  0
LINE
  5
227
  100
AcDbEntity
  8
1
  100
AcDbLine
  10
6.61002
  20
0.965011
  30
0
  11
6.55402
  21
1.00359
  31
0
  0
LINE
  5
228
  100
AcDbEntity
  8
1
  100
AcDbLine
  10
6.55402
  20
1.00359
  30
0
  11
6.49802
  21
1.042117
  31
0
  0
LINE
  5
229
  100
AcDbEntity
  8
1
  100
AcDbLine
  10
6.49802
  20
1.042117
  30
0
  11
6.44202
  21
1.080591
  31
0
  0
LINE
  5
22a
  100
AcDbEntity
  8
1
  100
AcDbLine
  10
6.44202
  20
1.080591
  30
0
  11
6.38602
  21
1.119011
  31
0
  0
LINE
  5
22b
  100
AcDbEntity
  8
1
  100
AcDbLine
  10
6.38602
  20
1.119011
  30
0
  11
6.33002
  21
1.157374
  31
0
  0
LINE
  5
22c
  100
AcDbEntity
  8
1
  100
AcDbLine
  10
6.33002
  20
1.157374
  30
0
  11
6.27402
  21
1.195678
  31
0
  0
LINE
  5
22d
  100
AcDbEntity
  8
1
  100
AcDbLine
  10
6.27402
  20
1.195678
  30
0
  11
6.21802
  21
1.233921
  31
0
  0
LINE
  5
22e
  100
AcDbEntity
  8
1
  100
AcDbLine
  10
6.21802
  20
1.233921
  30
0
  11
6.16202
  21
1.272101
  31
0
  0
LINE
  5
22f
  100
AcDbEntity
  8
1
  100
AcDbLine
  10
6.16202
  20
1.272101
  30
0
  11
6.10602
  21
1.310217
  31
0
  0
LINE
  5
230
  100
AcDbEntity
  8
1
  100
AcDbLine
  10
6.10602
  20
1.310217
  30
0
  11
6.05002
  21
1.348266
  31
0
  0
LINE
  5
231
  100
AcDbEntity
  8
1
  100
AcDbLine
  10
6.05002
  20
1.348266
  30
0
  11
5.99402
  21
1.386247
  31
0
  0
LINE
  5
232
  100
AcDbEntity
  8
1
  100
AcDbLine
  10
5.99402
  20
1.386247
  30
0
  11
5.93802
  21
1.424157
  31
0
  0
LINE
  5
233
  100
AcDbEntity
  8
1
  100
AcDbLine
  10
5.93802
  20
1.424157
  30
0
  11
5.88202
  21
1.461995
  31
0
  0
LINE
  5
234
  100
AcDbEntity
  8
1
  100
AcDbLine
  10
5.88202
  20
1.461995
  30
0
  11
5.82602
  21
1.499758
  31
0
  0
LINE
  5
235
  100
AcDbEntity
  8
1
  100
AcDbLine
  10
5.82602
  20
1.499758
  30
0
  11
5.77002
  21
1.537445
  31
0
  0
LINE
  5
236
  100
AcDbEntity
  8
1
  100
AcDbLine
  10
5.77002
  20
1.537445
  30
0
  11
5.71402
  21
1.575054
  31
0
  0
LINE
  5
237
  100
AcDbEntity
  8
1
  100
AcDbLine
  10
5.71402
  20
1.575054
  30
0
  11
5.65802
  21
1.612583
  31
0
  0
LINE
  5
238
  100
AcDbEntity
  8
1
  100
AcDbLine
  10
5.65802
  20
1.612583
  30
0
  11
5.60202
  21
1.65003
  31
0
  0
LINE
  5
239
  100
AcDbEntity
  8
1
  100
AcDbLine
  10
5.60202
  20
1.65003
  30
0
  11
5.54602
  21
1.687394
  31
0
  0
LINE
  5
23a
  100
AcDbEntity
  8
1
  100
AcDbLine
  10
5.54602
  20
1.687394
  30
0
  11
5.49002
  21
1.724671
  31
0
  0
LINE
  5
23b
  100
AcDbEntity
  8
1
  100
AcDbLine
  10
5.49002
  20
1.724671
  30
0
  11
5.43402
  21
1.761861
  31
0
  0
LINE
  5
23c
  100
AcDbEntity
  8
1
  100
AcDbLine
  10
5.43402
  20
1.761861
  30
0
  11
5.37802
  21
1.798961
  31
0
  0
LINE
  5
23d
  100
AcDbEntity
  8
1
  100
AcDbLine
  10
5.37802
  20
1.798961
  30
0
  11
5.32202
  21
1.83597
  31
0
  0
LINE
  5
23e
  100
AcDbEntity
  8
1
  100
AcDbLine
  10
5.32202
  20
1.83597
  30
0
  11
5.26602
  21
1.872885
  31
0
  0
LINE
  5
23f
  100
AcDbEntity
  8
1
  100
AcDbLine
  10
5.26602
  20
1.872885
  30
0
  11
5.21002
  21
1.909705
  31
0
  0
LINE
  5
240
  100
AcDbEntity
  8
1
  100
AcDbLine
  10
5.21002
  20
1.909705
  30
0
  11
5.15402
  21
1.946429
  31
0
  0
LINE
  5
241
  100
AcDbEntity
  8
1
  100
AcDbLine
  10
5.15402
  20
1.946429
  30
0
  11
5.09802
  21
1.983053
  31
0
  0
LINE
  5
242
  100
AcDbEntity
  8
1
  100
AcDbLine
  10
5.09802
  20
1.983053
  30
0
  11
5.04202
  21
2.019576
  31
0
  0
LINE
  5
243
  100
AcDbEntity
  8
1
  100
AcDbLine
  10
5.04202
  20
2.019576
  30
0
  11
4.98602
  21
2.055997
  31
0
  0
LINE
  5
244
  100
AcDbEntity
  8
1
  100
AcDbLine
  10
4.98602
  20
2.055997
  30
0
  11
4.93002
  21
2.092313
  31
0
  0
LINE
  5
245
  100
AcDbEntity
  8
1
  100
AcDbLine
  10
4.93002
  20
2.092313
  30
0
  11
4.87402
  21
2.128523
  31
0
  0
LINE
  5
246
  100
AcDbEntity
  8
1
  100
AcDbLine
  10
4.87402
  20
2.128523
  30
0
  11
4.81802
  21
2.164625
  31
0
  0
LINE
  5
247
  100
AcDbEntity
  8
1
  100
AcDbLine
  10
4.81802
  20
2.164625
  30
0
  11
4.76202
  21
2.200617
  31
0
  0
LINE
  5
248
  100
AcDbEntity
  8
1
  100
AcDbLine
  10
4.76202
  20
2.200617
  30
0
  11
4.70602
  21
2.236497
  31
0
  0
LINE
  5
249
  100
AcDbEntity
  8
1
  100
AcDbLine
  10
4.70602
  20
2.236497
  30
0
  11
4.65002
  21
2.272263
  31
0
  0
LINE
  5
24a
  100
AcDbEntity
  8
1
  100
AcDbLine
  10
4.65002
  20
2.272263
  30
0
  11
4.59402
  21
2.307914
  31
0
  0
LINE
  5
24b
  100
AcDbEntity
  8
1
  100
AcDbLine
  10
4.59402
  20
2.307914
  30
0
  11
4.53802
  21
2.343447
  31
0
  0
LINE
  5
24c
  100
AcDbEntity
  8
1
  100
AcDbLine
  10
4.53802
  20
2.343447
  30
0
  11
4.48202
  21
2.378861
  31
0
  0
LINE
  5
24d
  100
AcDbEntity
  8
1
  100
AcDbLine
  10
4.48202
  20
2.378861
  30
0
  11
4.42602
  21
2.414155
  31
0
  0
LINE
  5
24e
  100
AcDbEntity
  8
1
  100
AcDbLine
  10
4.42602
  20
2.414155
  30
0
  11
4.37002
  21
2.449326
  31
0
  0
LINE
  5
24f
  100
AcDbEntity
  8
1
  100
AcDbLine
  10
4.37002
  20
2.449326
  30
0
  11
4.31402
  21
2.484372
  31
0
  0
LINE
  5
250
  100
AcDbEntity
  8
1
  100
AcDbLine
  10
4.31402
  20
2.484372
  30
0
  11
4.25802
  21
2.519292
  31
0
  0
LINE
  5
251
  100
AcDbEntity
  8
1
  100
AcDbLine
  10
4.25802
  20
2.519292
  30
0
  11
4.20202
  21
2.554083
  31
0
  0
LINE
  5
252
  100
AcDbEntity
  8
1
  100
AcDbLine
  10
4.20202
  20
2.554083
  30
0
  11
4.14602
  21
2.588746
  31
0
  0
LINE
  5
253
  100
AcDbEntity
  8
1
  100
AcDbLine
  10
4.14602
  20
2.588746
  30
0
  11
4.09002
  21
2.623276
  31
0
  0
LINE
  5
254
  100
AcDbEntity
  8
1
  100
AcDbLine
  10
4.09002
  20
2.623276
  30
0
  11
4.03402
  21
2.657673
  31
0
  0
LINE
  5
255
  100
AcDbEntity
  8
1
  100
AcDbLine
  10
4.03402
  20
2.657673
  30
0
  11
3.97802
  21
2.691935
  31
0
  0
LINE
  5
256
  100
AcDbEntity
  8
1
  100
AcDbLine
  10
3.97802
  20
2.691935
  30
0
  11
3.92202
  21
2.72606
  31
0
  0
LINE
  5
257
  100
AcDbEntity
  8
1
  100
AcDbLine
  10
3.92202
  20
2.72606
  30
0
  11
3.86602
  21
2.760047
  31
0
  0
LINE
  5
258
  100
AcDbEntity
  8
1
  100
AcDbLine
  10
3.86602
  20
2.760047
  30
0
  11
3.81002
  21
2.793893
  31
0
  0
LINE
  5
259
  100
AcDbEntity
  8
1
  100
AcDbLine
  10
3.81002
  20
2.793893
  30
0
  11
3.75402
  21
2.827598
  31
0
  0
LINE
  5
25a
  100
AcDbEntity
  8
1
  100
AcDbLine
  10
3.75402
  20
2.827598
  30
0
  11
3.69802
  21
2.861158
  31
0
  0
LINE
  5
25b
  100
AcDbEntity
  8
1
  100
AcDbLine
  10
3.69802
  20
2.861158
  30
0
  11
3.64202
  21
2.894574
  31
0
  0
LINE
  5
25c
  100
AcDbEntity
  8
1
  100
AcDbLine
  10
3.64202
  20
2.894574
  30
0
  11
3.58602
  21
2.927842
  31
0
  0
LINE
  5
25d
  100
AcDbEntity
  8
1
  100
AcDbLine
  10
3.58602
  20
2.927842
  30
0
  11
3.53002
  21
2.960961
  31
0
  0
LINE
  5
25e
  100
AcDbEntity
  8
1
  100
AcDbLine
  10
3.53002
  20
2.960961
  30
0
  11
3.47402
  21
2.99393
  31
0
  0
LINE
  5
25f
  100
AcDbEntity
  8
1
  100
AcDbLine
  10
3.47402
  20
2.99393
  30
0
  11
3.41802
  21
3.026746
  31
0
  0
LINE
  5
260
  100
AcDbEntity
  8
1
  100
AcDbLine
  10
3.41802
  20
3.026746
  30
0
  11
3.36202
  21
3.059409
  31
0
  0
LINE
  5
261
  100
AcDbEntity
  8
1
  100
AcDbLine
  10
3.36202
  20
3.059409
  30
0
  11
3.30602
  21
3.091916
  31
0
  0
LINE
  5
262
  100
AcDbEntity
  8
1
  100
AcDbLine
  10
3.30602
  20
3.091916
  30
0
  11
3.25002
  21
3.124267
  31
0
  0
LINE
  5
263
  100
AcDbEntity
  8
1
  100
AcDbLine
  10
3.25002
  20
3.124267
  30
0
  11
3.19402
  21
3.156458
  31
0
  0
LINE
  5
264
  100
AcDbEntity
  8
1
  100
AcDbLine
  10
3.19402
  20
3.156458
  30
0
  11
3.13802
  21
3.188489
  31
0
  0
LINE
  5
265
  100
AcDbEntity
  8
1
  100
AcDbLine
  10
3.13802
  20
3.188489
  30
0
  11
3.08202
  21
3.220357
  31
0
  0
LINE
  5
266
  100
AcDbEntity
  8
1
  100
AcDbLine
  10
3.08202
  20
3.220357
  30
0
  11
3.02602
  21
3.252063
  31
0
  0
LINE
  5
267
  100
AcDbEntity
  8
1
  100
AcDbLine
  10
3.02602
  20
3.252063
  30
0
  11
2.97002
  21
3.283602
  31
0
  0
LINE
  5
268
  100
AcDbEntity
  8
1
  100
AcDbLine
  10
2.97002
  20
3.283602
  30
0
  11
2.91402
  21
3.314975
  31
0
  0
LINE
  5
269
  100
AcDbEntity
  8
1
  100
AcDbLine
  10
2.91402
  20
3.314975
  30
0
  11
2.85802
  21
3.34618
  31
0
  0
LINE
  5
26a
  100
AcDbEntity
  8
1
  100
AcDbLine
  10
2.85802
  20
3.34618
  30
0
  11
2.80202
  21
3.377214
  31
0
  0
LINE
  5
26b
  100
AcDbEntity
  8
1
  100
AcDbLine
  10
2.80202
  20
3.377214
  30
0
  11
2.74602
  21
3.408077
  31
0
  0
LINE
  5
26c
  100
AcDbEntity
  8
1
  100
AcDbLine
  10
2.74602
  20
3.408077
  30
0
  11
2.69002
  21
3.438766
  31
0
  0
LINE
  5
26d
  100
AcDbEntity
  8
1
  100
AcDbLine
  10
2.69002
  20
3.438766
  30
0
  11
2.63402
  21
3.469281
  31
0
  0
LINE
  5
26e
  100
AcDbEntity
  8
1
  100
AcDbLine
  10
2.63402
  20
3.469281
  30
0
  11
2.57802
  21
3.499619
  31
0
  0
LINE
  5
26f
  100
AcDbEntity
  8
1
  100
AcDbLine
  10
2.57802
  20
3.499619
  30
0
  11
2.52202
  21
3.52978
  31
0
  0
LINE
  5
270
  100
AcDbEntity
  8
1
  100
AcDbLine
  10
2.52202
  20
3.52978
  30
0
  11
2.46602
  21
3.559761
  31
0
  0
LINE
  5
271
  100
AcDbEntity
  8
1
  100
AcDbLine
  10
2.46602
  20
3.559761
  30
0
  11
2.41002
  21
3.589561
  31
0
  0
LINE
  5
272
  100
AcDbEntity
  8
1
  100
AcDbLine
  10
2.41002
  20
3.589561
  30
0
  11
2.35402
  21
3.619179
  31
0
  0
LINE
  5
273
  100
AcDbEntity
  8
1
  100
AcDbLine
  10
2.35402
  20
3.619179
  30
0
  11
2.29802
  21
3.648612
  31
0
  0
LINE
  5
274
  100
AcDbEntity
  8
1
  100
AcDbLine
  10
2.29802
  20
3.648612
  30
0
  11
2.24202
  21
3.677861
  31
0
  0
LINE
  5
275
  100
AcDbEntity
  8
1
  100
AcDbLine
  10
2.24202
  20
3.677861
  30
0
  11
2.18602
  21
3.706922
  31
0
  0
LINE
  5
276
  100
AcDbEntity
  8
1
  100
AcDbLine
  10
2.18602
  20
3.706922
  30
0
  11
2.13002
  21
3.735795
  31
0
  0
LINE
  5
277
  100
AcDbEntity
  8
1
  100
AcDbLine
  10
2.13002
  20
3.735795
  30
0
  11
2.07402
  21
3.764478
  31
0
  0
LINE
  5
278
  100
AcDbEntity
  8
1
  100
AcDbLine
  10
2.07402
  20
3.764478
  30
0
  11
2.01802
  21
3.79297
  31
0
  0
LINE
  5
279
  100
AcDbEntity
  8
1
  100
AcDbLine
  10
2.01802
  20
3.79297
  30
0
  11
1.96202
  21
3.821268
  31
0
  0
LINE
  5
27a
  100
AcDbEntity
  8
1
  100
AcDbLine
  10
1.96202
  20
3.821268
  30
0
  11
1.90602
  21
3.849373
  31
0
  0
LINE
  5
27b
  100
AcDbEntity
  8
1
  100
AcDbLine
  10
1.90602
  20
3.849373
  30
0
  11
1.85002
  21
3.878549
  31
0
  0
LINE
  5
27c
  100
AcDbEntity
  8
1
  100
AcDbLine
  10
1.85002
  20
3.878549
  30
0
  11
1.79402
  21
3.910848
  31
0
  0
LINE
  5
27d
  100
AcDbEntity
  8
1
  100
AcDbLine
  10
1.79402
  20
3.910848
  30
0
  11
1.73802
  21
3.943228
  31
0
  0
LINE
  5
27e
  100
AcDbEntity
  8
1
  100
AcDbLine
  10
1.73802
  20
3.943228
  30
0
  11
1.68202
  21
3.97597
  31
0
  0
LINE
  5
27f
  100
AcDbEntity
  8
1
  100
AcDbLine
  10
1.68202
  20
3.97597
  30
0
  11
1.62602
  21
4.010026
  31
0
  0
LINE
  5
280
  100
AcDbEntity
  8
1
  100
AcDbLine
  10
1.62602
  20
4.010026
  30
0
  11
1.57002
  21
4.047677
  31
0
  0
LINE
  5
281
  100
AcDbEntity
  8
1
  100
AcDbLine
  10
1.57002
  20
4.047677
  30
0
  11
1.51402
  21
4.093388
  31
0
  0
LINE
  5
282
  100
AcDbEntity
  8
1
  100
AcDbLine
  10
1.51402
  20
4.093388
  30
0
  11
1.45802
  21
4.154805
  31
0
  0
LINE
  5
283
  100
AcDbEntity
  8
1
  100
AcDbLine
  10
1.45802
  20
4.154805
  30
0
  11
1.40202
  21
4.243639
  31
0
  0
LINE
  5
284
  100
AcDbEntity
  8
1
  100
AcDbLine
  10
1.40202
  20
4.243639
  30
0
  11
1.34602
  21
4.375932
  31
0
  0
LINE
  5
285
  100
AcDbEntity
  8
1
  100
AcDbLine
  10
1.34602
  20
4.375932
  30
0
  11
1.29002
  21
4.570427
  31
0
  0
LINE
  5
286
  100
AcDbEntity
  8
1
  100
AcDbLine
  10
1.29002
  20
4.570427
  30
0
  11
1.23402
  21
4.842319
  31
0
  0
LINE
  5
287
  100
AcDbEntity
  8
1
  100
AcDbLine
  10
1.23402
  20
4.842319
  30
0
  11
1.17802
  21
5.186732
  31
0
  0
LINE
  5
288
  100
AcDbEntity
  8
1
  100
AcDbLine
  10
1.17802
  20
5.186732
  30
0
  11
1.12202
  21
5.541198
  31
0
  0
LINE
  5
289
  100
AcDbEntity
  8
1
  100
AcDbLine
  10
1.12202
  20
5.541198
  30
0
  11
1.072638
  21
5.712587
  31
0
  0
LINE
  5
28a
  100
AcDbEntity
  8
1
  100
AcDbLine
  10
17.86602
  20
0.042186
  30
0
  11
17.81002
  21
0.071778
  31
0
  0
LINE
  5
28b
  100
AcDbEntity
  8
1
  100
AcDbLine
  10
17.81002
  20
0.071778
  30
0
  11
17.75402
  21
0.102167
  31
0
  0
LINE
  5
28c
  100
AcDbEntity
  8
1
  100
AcDbLine
  10
17.75402
  20
0.102167
  30
0
  11
17.69802
  21
0.133354
  31
0
  0
LINE
  5
28d
  100
AcDbEntity
  8
1
  100
AcDbLine
  10
17.69802
  20
0.133354
  30
0
  11
17.64202
  21
0.165336
  31
0
  0
LINE
  5
28e
  100
AcDbEntity
  8
1
  100
AcDbLine
  10
17.64202
  20
0.165336
  30
0
  11
17.58602
  21
0.198113
  31
0
  0
LINE
  5
28f
  100
AcDbEntity
  8
1
  100
AcDbLine
  10
17.58602
  20
0.198113
  30
0
  11
17.53002
  21
0.235198
  31
0
  0
LINE
  5
290
  100
AcDbEntity
  8
1
  100
AcDbLine
  10
17.53002
  20
0.235198
  30
0
  11
17.47402
  21
0.274367
  31
0
  0
LINE
  5
291
  100
AcDbEntity
  8
1
  100
AcDbLine
  10
17.47402
  20
0.274367
  30
0
  11
17.41802
  21
0.313523
  31
0
  0
LINE
  5
292
  100
AcDbEntity
  8
1
  100
AcDbLine
  10
17.41802
  20
0.313523
  30
0
  11
17.36202
  21
0.352662
  31
0
  0
LINE
  5
293
  100
AcDbEntity
  8
1
  100
AcDbLine
  10
17.36202
  20
0.352662
  30
0
  11
17.30602
  21
0.391784
  31
0
  0
LINE
  5
294
  100
AcDbEntity
  8
1
  100
AcDbLine
  10
17.30602
  20
0.391784
  30
0
  11
17.25002
  21
0.430886
  31
0
  0
LINE
  5
295
  100
AcDbEntity
  8
1
  100
AcDbLine
  10
17.25002
  20
0.430886
  30
0
  11
17.19402
  21
0.469966
  31
0
  0
LINE
  5
296
  100
AcDbEntity
  8
1
  100
AcDbLine
  10
17.19402
  20
0.469966
  30
0
  11
17.13802
  21
0.509022
  31
0
  0
LINE
  5
297
  100
AcDbEntity
  8
1
  100
AcDbLine
  10
17.13802
  20
0.509022
  30
0
  11
17.08202
  21
0.548052
  31
0
  0
LINE
  5
298
  100
AcDbEntity
  8
1
  100
AcDbLine
  10
17.08202
  20
0.548052
  30
0
  11
17.02602
  21
0.587054
  31
0
  0
LINE
  5
299
  100
AcDbEntity
  8
1
  100
AcDbLine
  10
17.02602
  20
0.587054
  30
0
  11
16.97002
  21
0.626026
  31
0
  0
LINE
  5
29a
  100
AcDbEntity
  8
1
  100
AcDbLine
  10
16.97002
  20
0.626026
  30
0
  11
16.91402
  21
0.664967
  31
0
  0
LINE
  5
29b
  100
AcDbEntity
  8
1
  100
AcDbLine
  10
16.91402
  20
0.664967
  30
0
  11
16.85802
  21
0.703874
  31
0
  0
LINE
  5
29c
  100
AcDbEntity
  8
1
  100
AcDbLine
  10
16.85802
  20
0.703874
  30
0
  11
16.80202
  21
0.742745
  31
0
  0
LINE
  5
29d
  100
AcDbEntity
  8
1
  100
AcDbLine
  10
16.80202
  20
0.742745
  30
0
  11
16.74602
  21
0.781578
  31
0
  0
LINE
  5
29e
  100
AcDbEntity
  8
1
  100
AcDbLine
  10
16.74602
  20
0.781578
  30
0
  11
16.69002
  21
0.820371
  31
0
  0
LINE
  5
29f
  100
AcDbEntity
  8
1
  100
AcDbLine
  10
16.69002
  20
0.820371
  30
0
  11
16.63402
  21
0.859123
  31
0
  0
LINE
  5
2a0
  100
AcDbEntity
  8
1
  100
AcDbLine
  10
16.63402
  20
0.859123
  30
0
  11
16.57802
  21
0.897831
  31
0
  0
LINE
  5
2a1
  100
AcDbEntity
  8
1
  100
AcDbLine
  10
16.57802
  20
0.897831
  30
0
  11
16.52202
  21
0.936494
  31
0
  0
LINE
  5
2a2
  100
AcDbEntity
  8
1
  100
AcDbLine
  10
16.52202
  20
0.936494
  30
0
  11
16.46602
  21
0.975109
  31
0
  0
LINE
  5
2a3
  100
AcDbEntity
  8
1
  100
AcDbLine
  10
16.46602
  20
0.975109
  30
0
  11
16.41002
  21
1.013674
  31
0
  0
LINE
  5
2a4
  100
AcDbEntity
  8
1
  100
AcDbLine
  10
16.41002
  20
1.013674
  30
0
  11
16.35402
  21
1.052188
  31
0
  0
LINE
  5
2a5
  100
AcDbEntity
  8
1
  100
AcDbLine
  10
16.35402
  20
1.052188
  30
0
  11
16.29802
  21
1.090648
  31
0
  0
LINE
  5
2a6
  100
AcDbEntity
  8
1
  100
AcDbLine
  10
16.29802
  20
1.090648
  30
0
  11
16.24202
  21
1.129053
  31
0
  0
LINE
  5
2a7
  100
AcDbEntity
  8
1
  100
AcDbLine
  10
16.24202
  20
1.129053
  30
0
  11
16.18602
  21
1.1674
  31
0
  0
LINE
  5
2a8
  100
AcDbEntity
  8
1
  100
AcDbLine
  10
16.18602
  20
1.1674
  30
0
  11
16.13002
  21
1.205689
  31
0
  0
LINE
  5
2a9
  100
AcDbEntity
  8
1
  100
AcDbLine
  10
16.13002
  20
1.205689
  30
0
  11
16.07402
  21
1.243915
  31
0
  0
LINE
  5
2aa
  100
AcDbEntity
  8
1
  100
AcDbLine
  10
16.07402
  20
1.243915
  30
0
  11
16.01802
  21
1.282079
  31
0
  0
LINE
  5
2ab
  100
AcDbEntity
  8
1
  100
AcDbLine
  10
16.01802
  20
1.282079
  30
0
  11
15.96202
  21
1.320178
  31
0
  0
LINE
  5
2ac
  100
AcDbEntity
  8
1
  100
AcDbLine
  10
15.96202
  20
1.320178
  30
0
  11
15.90602
  21
1.358209
  31
0
  0
LINE
  5
2ad
  100
AcDbEntity
  8
1
  100
AcDbLine
  10
15.90602
  20
1.358209
  30
0
  11
15.85002
  21
1.396171
  31
0
  0
LINE
  5
2ae
  100
AcDbEntity
  8
1
  100
AcDbLine
  10
15.85002
  20
1.396171
  30
0
  11
15.79402
  21
1.434063
  31
0
  0
LINE
  5
2af
  100
AcDbEntity
  8
1
  100
AcDbLine
  10
15.79402
  20
1.434063
  30
0
  11
15.73802
  21
1.471881
  31
0
  0
LINE
  5
2b0
  100
AcDbEntity
  8
1
  100
AcDbLine
  10
15.73802
  20
1.471881
  30
0
  11
15.68202
  21
1.509625
  31
0
  0
LINE
  5
2b1
  100
AcDbEntity
  8
1
  100
AcDbLine
  10
15.68202
  20
1.509625
  30
0
  11
15.62602
  21
1.547292
  31
0
  0
LINE
  5
2b2
  100
AcDbEntity
  8
1
  100
AcDbLine
  10
15.62602
  20
1.547292
  30
0
  11
15.57002
  21
1.58488
  31
0
  0
LINE
  5
2b3
  100
AcDbEntity
  8
1
  100
AcDbLine
  10
15.57002
  20
1.58488
  30
0
  11
15.51402
  21
1.622388
  31
0
  0
LINE
  5
2b4
  100
AcDbEntity
  8
1
  100
AcDbLine
  10
15.51402
  20
1.622388
  30
0
  11
15.45802
  21
1.659813
  31
0
  0
LINE
  5
2b5
  100
AcDbEntity
  8
1
  100
AcDbLine
  10
15.45802
  20
1.659813
  30
0
  11
15.40202
  21
1.697154
  31
0
  0
LINE
  5
2b6
  100
AcDbEntity
  8
1
  100
AcDbLine
  10
15.40202
  20
1.697154
  30
0
  11
15.34602
  21
1.734409
  31
0
  0
LINE
  5
2b7
  100
AcDbEntity
  8
1
  100
AcDbLine
  10
15.34602
  20
1.734409
  30
0
  11
15.29002
  21
1.771575
  31
0
  0
LINE
  5
2b8
  100
AcDbEntity
  8
1
  100
AcDbLine
  10
15.29002
  20
1.771575
  30
0
  11
15.23402
  21
1.808652
  31
0
  0
LINE
  5
2b9
  100
AcDbEntity
  8
1
  100
AcDbLine
  10
15.23402
  20
1.808652
  30
0
  11
15.17802
  21
1.845636
  31
0
  0
LINE
  5
2ba
  100
AcDbEntity
  8
1
  100
AcDbLine
  10
15.17802
  20
1.845636
  30
0
  11
15.12202
  21
1.882527
  31
0
  0
LINE
  5
2bb
  100
AcDbEntity
  8
1
  100
AcDbLine
  10
15.12202
  20
1.882527
  30
0
  11
15.06602
  21
1.919322
  31
0
  0
LINE
  5
2bc
  100
AcDbEntity
  8
1
  100
AcDbLine
  10
15.06602
  20
1.919322
  30
0
  11
15.01002
  21
1.95602
  31
0
  0
LINE
  5
2bd
  100
AcDbEntity
  8
1
  100
AcDbLine
  10
15.01002
  20
1.95602
  30
0
  11
14.95402
  21
1.992618
  31
0
  0
LINE
  5
2be
  100
AcDbEntity
  8
1
  100
AcDbLine
  10
14.95402
  20
1.992618
  30
0
  11
14.89802
  21
2.029114
  31
0
  0
LINE
  5
2bf
  100
AcDbEntity
  8
1
  100
AcDbLine
  10
14.89802
  20
2.029114
  30
0
  11
14.84202
  21
2.065508
  31
0
  0
LINE
  5
2c0
  100
AcDbEntity
  8
1
  100
AcDbLine
  10
14.84202
  20
2.065508
  30
0
  11
14.78602
  21
2.101797
  31
0
  0
LINE
  5
2c1
  100
AcDbEntity
  8
1
  100
AcDbLine
  10
14.78602
  20
2.101797
  30
0
  11
14.73002
  21
2.137979
  31
0
  0
LINE
  5
2c2
  100
AcDbEntity
  8
1
  100
AcDbLine
  10
14.73002
  20
2.137979
  30
0
  11
14.67402
  21
2.174052
  31
0
  0
LINE
  5
2c3
  100
AcDbEntity
  8
1
  100
AcDbLine
  10
14.67402
  20
2.174052
  30
0
  11
14.61802
  21
2.210014
  31
0
  0
LINE
  5
2c4
  100
AcDbEntity
  8
1
  100
AcDbLine
  10
14.61802
  20
2.210014
  30
0
  11
14.56202
  21
2.245865
  31
0
  0
LINE
  5
2c5
  100
AcDbEntity
  8
1
  100
AcDbLine
  10
14.56202
  20
2.245865
  30
0
  11
14.50602
  21
2.281601
  31
0
  0
LINE
  5
2c6
  100
AcDbEntity
  8
1
  100
AcDbLine
  10
14.50602
  20
2.281601
  30
0
  11
14.45002
  21
2.317221
  31
0
  0
LINE
  5
2c7
  100
AcDbEntity
  8
1
  100
AcDbLine
  10
14.45002
  20
2.317221
  30
0
  11
14.39402
  21
2.352724
  31
0
  0
LINE
  5
2c8
  100
AcDbEntity
  8
1
  100
AcDbLine
  10
14.39402
  20
2.352724
  30
0
  11
14.33802
  21
2.388106
  31
0
  0
LINE
  5
2c9
  100
AcDbEntity
  8
1
  100
AcDbLine
  10
14.33802
  20
2.388106
  30
0
  11
14.28202
  21
2.423368
  31
0
  0
LINE
  5
2ca
  100
AcDbEntity
  8
1
  100
AcDbLine
  10
14.28202
  20
2.423368
  30
0
  11
14.22602
  21
2.458506
  31
0
  0
LINE
  5
2cb
  100
AcDbEntity
  8
1
  100
AcDbLine
  10
14.22602
  20
2.458506
  30
0
  11
14.17002
  21
2.49352
  31
0
  0
LINE
  5
2cc
  100
AcDbEntity
  8
1
  100
AcDbLine
  10
14.17002
  20
2.49352
  30
0
  11
14.11402
  21
2.528406
  31
0
  0
LINE
  5
2cd
  100
AcDbEntity
  8
1
  100
AcDbLine
  10
14.11402
  20
2.528406
  30
0
  11
14.05802
  21
2.563164
  31
0
  0
LINE
  5
2ce
  100
AcDbEntity
  8
1
  100
AcDbLine
  10
14.05802
  20
2.563164
  30
0
  11
14.00202
  21
2.597792
  31
0
  0
LINE
  5
2cf
  100
AcDbEntity
  8
1
  100
AcDbLine
  10
14.00202
  20
2.597792
  30
0
  11
13.94602
  21
2.632288
  31
0
  0
LINE
  5
2d0
  100
AcDbEntity
  8
1
  100
AcDbLine
  10
13.94602
  20
2.632288
  30
0
  11
13.89002
  21
2.66665
  31
0
  0
LINE
  5
2d1
  100
AcDbEntity
  8
1
  100
AcDbLine
  10
13.89002
  20
2.66665
  30
0
  11
13.83402
  21
2.700876
  31
0
  0
LINE
  5
2d2
  100
AcDbEntity
  8
1
  100
AcDbLine
  10
13.83402
  20
2.700876
  30
0
  11
13.77802
  21
2.734965
  31
0
  0
LINE
  5
2d3
  100
AcDbEntity
  8
1
  100
AcDbLine
  10
13.77802
  20
2.734965
  30
0
  11
13.72202
  21
2.768915
  31
0
  0
LINE
  5
2d4
  100
AcDbEntity
  8
1
  100
AcDbLine
  10
13.72202
  20
2.768915
  30
0
  11
13.66602
  21
2.802725
  31
0
  0
LINE
  5
2d5
  100
AcDbEntity
  8
1
  100
AcDbLine
  10
13.66602
  20
2.802725
  30
0
  11
13.61002
  21
2.836392
  31
0
  0
LINE
  5
2d6
  100
AcDbEntity
  8
1
  100
AcDbLine
  10
13.61002
  20
2.836392
  30
0
  11
13.55402
  21
2.869914
  31
0
  0
LINE
  5
2d7
  100
AcDbEntity
  8
1
  100
AcDbLine
  10
13.55402
  20
2.869914
  30
0
  11
13.49802
  21
2.903291
  31
0
  0
LINE
  5
2d8
  100
AcDbEntity
  8
1
  100
AcDbLine
  10
13.49802
  20
2.903291
  30
0
  11
13.44202
  21
2.936521
  31
0
  0
LINE
  5
2d9
  100
AcDbEntity
  8
1
  100
AcDbLine
  10
13.44202
  20
2.936521
  30
0
  11
13.38602
  21
2.969601
  31
0
  0
LINE
  5
2da
  100
AcDbEntity
  8
1
  100
AcDbLine
  10
13.38602
  20
2.969601
  30
0
  11
13.33002
  21
3.00253
  31
0
  0
LINE
  5
2db
  100
AcDbEntity
  8
1
  100
AcDbLine
  10
13.33002
  20
3.00253
  30
0
  11
13.27402
  21
3.035306
  31
0
  0
LINE
  5
2dc
  100
AcDbEntity
  8
1
  100
AcDbLine
  10
13.27402
  20
3.035306
  30
0
  11
13.21802
  21
3.067929
  31
0
  0
LINE
  5
2dd
  100
AcDbEntity
  8
1
  100
AcDbLine
  10
13.21802
  20
3.067929
  30
0
  11
13.16202
  21
3.100395
  31
0
  0
LINE
  5
2de
  100
AcDbEntity
  8
1
  100
AcDbLine
  10
13.16202
  20
3.100395
  30
0
  11
13.10602
  21
3.132704
  31
0
  0
LINE
  5
2df
  100
AcDbEntity
  8
1
  100
AcDbLine
  10
13.10602
  20
3.132704
  30
0
  11
13.05002
  21
3.164853
  31
0
  0
LINE
  5
2e0
  100
AcDbEntity
  8
1
  100
AcDbLine
  10
13.05002
  20
3.164853
  30
0
  11
12.99402
  21
3.196842
  31
0
  0
LINE
  5
2e1
  100
AcDbEntity
  8
1
  100
AcDbLine
  10
12.99402
  20
3.196842
  30
0
  11
12.93802
  21
3.228668
  31
0
  0
LINE
  5
2e2
  100
AcDbEntity
  8
1
  100
AcDbLine
  10
12.93802
  20
3.228668
  30
0
  11
12.88202
  21
3.26033
  31
0
  0
LINE
  5
2e3
  100
AcDbEntity
  8
1
  100
AcDbLine
  10
12.88202
  20
3.26033
  30
0
  11
12.82602
  21
3.291826
  31
0
  0
LINE
  5
2e4
  100
AcDbEntity
  8
1
  100
AcDbLine
  10
12.82602
  20
3.291826
  30
0
  11
12.77002
  21
3.323155
  31
0
  0
LINE
  5
2e5
  100
AcDbEntity
  8
1
  100
AcDbLine
  10
12.77002
  20
3.323155
  30
0
  11
12.71402
  21
3.354315
  31
0
  0
LINE
  5
2e6
  100
AcDbEntity
  8
1
  100
AcDbLine
  10
12.71402
  20
3.354315
  30
0
  11
12.65802
  21
3.385305
  31
0
  0
LINE
  5
2e7
  100
AcDbEntity
  8
1
  100
AcDbLine
  10
12.65802
  20
3.385305
  30
0
  11
12.60202
  21
3.416122
  31
0
  0
LINE
  5
2e8
  100
AcDbEntity
  8
1
  100
AcDbLine
  10
12.60202
  20
3.416122
  30
0
  11
12.54602
  21
3.446766
  31
0
  0
LINE
  5
2e9
  100
AcDbEntity
  8
1
  100
AcDbLine
  10
12.54602
  20
3.446766
  30
0
  11
12.49002
  21
3.477235
  31
0
  0
LINE
  5
2ea
  100
AcDbEntity
  8
1
  100
AcDbLine
  10
12.49002
  20
3.477235
  30
0
  11
12.43402
  21
3.507527
  31
0
  0
LINE
  5
2eb
  100
AcDbEntity
  8
1
  100
AcDbLine
  10
12.43402
  20
3.507527
  30
0
  11
12.37802
  21
3.537641
  31
0
  0
LINE
  5
2ec
  100
AcDbEntity
  8
1
  100
AcDbLine
  10
12.37802
  20
3.537641
  30
0
  11
12.32202
  21
3.567575
  31
0
  0
LINE
  5
2ed
  100
AcDbEntity
  8
1
  100
AcDbLine
  10
12.32202
  20
3.567575
  30
0
  11
12.26602
  21
3.597327
  31
0
  0
LINE
  5
2ee
  100
AcDbEntity
  8
1
  100
AcDbLine
  10
12.26602
  20
3.597327
  30
0
  11
12.21002
  21
3.626897
  31
0
  0
LINE
  5
2ef
  100
AcDbEntity
  8
1
  100
AcDbLine
  10
12.21002
  20
3.626897
  30
0
  11
12.15402
  21
3.656282
  31
0
  0
LINE
  5
2f0
  100
AcDbEntity
  8
1
  100
AcDbLine
  10
12.15402
  20
3.656282
  30
0
  11
12.09802
  21
3.685482
  31
0
  0
LINE
  5
2f1
  100
AcDbEntity
  8
1
  100
AcDbLine
  10
12.09802
  20
3.685482
  30
0
  11
12.04202
  21
3.714494
  31
0
  0
LINE
  5
2f2
  100
AcDbEntity
  8
1
  100
AcDbLine
  10
12.04202
  20
3.714494
  30
0
  11
11.98602
  21
3.743317
  31
0
  0
LINE
  5
2f3
  100
AcDbEntity
  8
1
  100
AcDbLine
  10
11.98602
  20
3.743317
  30
0
  11
11.93002
  21
3.77195
  31
0
  0
LINE
  5
2f4
  100
AcDbEntity
  8
1
  100
AcDbLine
  10
11.93002
  20
3.77195
  30
0
  11
11.87402
  21
3.800392
  31
0
  0
LINE
  5
2f5
  100
AcDbEntity
  8
1
  100
AcDbLine
  10
11.87402
  20
3.800392
  30
0
  11
11.81802
  21
3.82864
  31
0
  0
LINE
  5
2f6
  100
AcDbEntity
  8
1
  100
AcDbLine
  10
11.81802
  20
3.82864
  30
0
  11
11.76202
  21
3.856693
  31
0
  0
LINE
  5
2f7
  100
AcDbEntity
  8
1
  100
AcDbLine
  10
11.76202
  20
3.856693
  30
0
  11
11.70602
  21
3.884551
  31
0
  0
LINE
  5
2f8
  100
AcDbEntity
  8
1
  100
AcDbLine
  10
11.70602
  20
3.884551
  30
0
  11
11.65002
  21
3.912211
  31
0
  0
LINE
  5
2f9
  100
AcDbEntity
  8
1
  100
AcDbLine
  10
11.65002
  20
3.912211
  30
0
  11
11.59402
  21
3.939673
  31
0
  0
LINE
  5
2fa
  100
AcDbEntity
  8
1
  100
AcDbLine
  10
11.59402
  20
3.939673
  30
0
  11
11.53802
  21
3.966934
  31
0
  0
LINE
  5
2fb
  100
AcDbEntity
  8
1
  100
AcDbLine
  10
11.53802
  20
3.966934
  30
0
  11
11.48202
  21
3.993993
  31
0
  0
LINE
  5
2fc
  100
AcDbEntity
  8
1
  100
AcDbLine
  10
11.48202
  20
3.993993
  30
0
  11
11.42602
  21
4.020849
  31
0
  0
LINE
  5
2fd
  100
AcDbEntity
  8
1
  100
AcDbLine
  10
11.42602
  20
4.020849
  30
0
  11
11.37002
  21
4.047501
  31
0
  0
LINE
  5
2fe
  100
AcDbEntity
  8
1
  100
AcDbLine
  10
11.37002
  20
4.047501
  30
0
  11
11.31402
  21
4.073948
  31
0
  0
LINE
  5
2ff
  100
AcDbEntity
  8
1
  100
AcDbLine
  10
11.31402
  20
4.073948
  30
0
  11
11.25802
  21
4.100187
  31
0
  0
LINE
  5
300
  100
AcDbEntity
  8
1
  100
AcDbLine
  10
11.25802
  20
4.100187
  30
0
  11
11.20202
  21
4.126218
  31
0
  0
LINE
  5
301
  100
AcDbEntity
  8
1
  100
AcDbLine
  10
11.20202
  20
4.126218
  30
0
  11
11.14602
  21
4.152039
  31
0
  0
LINE
  5
302
  100
AcDbEntity
  8
1
  100
AcDbLine
  10
11.14602
  20
4.152039
  30
0
  11
11.09002
  21
4.177649
  31
0
  0
LINE
  5
303
  100
AcDbEntity
  8
1
  100
AcDbLine
  10
11.09002
  20
4.177649
  30
0
  11
11.03402
  21
4.203047
  31
0
  0
LINE
  5
304
  100
AcDbEntity
  8
1
  100
AcDbLine
  10
11.03402
  20
4.203047
  30
0
  11
10.97802
  21
4.228231
  31
0
  0
LINE
  5
305
  100
AcDbEntity
  8
1
  100
AcDbLine
  10
10.97802
  20
4.228231
  30
0
  11
10.92202
  21
4.2532
  31
0
  0
LINE
  5
306
  100
AcDbEntity
  8
1
  100
AcDbLine
  10
10.92202
  20
4.2532
  30
0
  11
10.86602
  21
4.277953
  31
0
  0
LINE
  5
307
  100
AcDbEntity
  8
1
  100
AcDbLine
  10
10.86602
  20
4.277953
  30
0
  11
10.81002
  21
4.302489
  31
0
  0
LINE
  5
308
  100
AcDbEntity
  8
1
  100
AcDbLine
  10
10.81002
  20
4.302489
  30
0
  11
10.75402
  21
4.326806
  31
0
  0
LINE
  5
309
  100
AcDbEntity
  8
1
  100
AcDbLine
  10
10.75402
  20
4.326806
  30
0
  11
10.69802
  21
4.350903
  31
0
  0
LINE
  5
30a
  100
AcDbEntity
  8
1
  100
AcDbLine
  10
10.69802
  20
4.350903
  30
0
  11
10.64202
  21
4.374778
  31
0
  0
LINE
  5
30b
  100
AcDbEntity
  8
1
  100
AcDbLine
  10
10.64202
  20
4.374778
  30
0
  11
10.58602
  21
4.398432
  31
0
  0
LINE
  5
30c
  100
AcDbEntity
  8
1
  100
AcDbLine
  10
10.58602
  20
4.398432
  30
0
  11
10.53002
  21
4.421862
  31
0
  0
LINE
  5
30d
  100
AcDbEntity
  8
1
  100
AcDbLine
  10
10.53002
  20
4.421862
  30
0
  11
10.47402
  21
4.445067
  31
0
  0
LINE
  5
30e
  100
AcDbEntity
  8
1
  100
AcDbLine
  10
10.47402
  20
4.445067
  30
0
  11
10.41802
  21
4.468046
  31
0
  0
LINE
  5
30f
  100
AcDbEntity
  8
1
  100
AcDbLine
  10
10.41802
  20
4.468046
  30
0
  11
10.36202
  21
4.490798
  31
0
  0
LINE
  5
310
  100
AcDbEntity
  8
1
  100
AcDbLine
  10
10.36202
  20
4.490798
  30
0
  11
10.30602
  21
4.513322
  31
0
  0
LINE
  5
311
  100
AcDbEntity
  8
1
  100
AcDbLine
  10
10.30602
  20
4.513322
  30
0
  11
10.25002
  21
4.535616
  31
0
  0
LINE
  5
312
  100
AcDbEntity
  8
1
  100
AcDbLine
  10
10.25002
  20
4.535616
  30
0
  11
10.19402
  21
4.55768
  31
0
  0
LINE
  5
313
  100
AcDbEntity
  8
1
  100
AcDbLine
  10
10.19402
  20
4.55768
  30
0
  11
10.13802
  21
4.579513
  31
0
  0
LINE
  5
314
  100
AcDbEntity
  8
1
  100
AcDbLine
  10
10.13802
  20
4.579513
  30
0
  11
10.08202
  21
4.601112
  31
0
  0
LINE
  5
315
  100
AcDbEntity
  8
1
  100
AcDbLine
  10
10.08202
  20
4.601112
  30
0
  11
10.02602
  21
4.622478
  31
0
  0
LINE
  5
316
  100
AcDbEntity
  8
1
  100
AcDbLine
  10
10.02602
  20
4.622478
  30
0
  11
9.97002
  21
4.643608
  31
0
  0
LINE
  5
317
  100
AcDbEntity
  8
1
  100
AcDbLine
  10
9.97002
  20
4.643608
  30
0
  11
9.91402
  21
4.664503
  31
0
  0
LINE
  5
318
  100
AcDbEntity
  8
1
  100
AcDbLine
  10
9.91402
  20
4.664503
  30
0
  11
9.85802
  21
4.685161
  31
0
  0
LINE
  5
319
  100
AcDbEntity
  8
1
  100
AcDbLine
  10
9.85802
  20
4.685161
  30
0
  11
9.80202
  21
4.70558
  31
0
  0
LINE
  5
31a
  100
AcDbEntity
  8
1
  100
AcDbLine
  10
9.80202
  20
4.70558
  30
0
  11
9.74602
  21
4.72576
  31
0
  0
LINE
  5
31b
  100
AcDbEntity
  8
1
  100
AcDbLine
  10
9.74602
  20
4.72576
  30
0
  11
9.69002
  21
4.7457
  31
0
  0
LINE
  5
31c
  100
AcDbEntity
  8
1
  100
AcDbLine
  10
9.69002
  20
4.7457
  30
0
  11
9.63402
  21
4.765399
  31
0
  0
LINE
  5
31d
  100
AcDbEntity
  8
1
  100
AcDbLine
  10
9.63402
  20
4.765399
  30
0
  11
9.57802
  21
4.784856
  31
0
  0
LINE
  5
31e
  100
AcDbEntity
  8
1
  100
AcDbLine
  10
9.57802
  20
4.784856
  30
0
  11
9.52202
  21
4.804069
  31
0
  0
LINE
  5
31f
  100
AcDbEntity
  8
1
  100
AcDbLine
  10
9.52202
  20
4.804069
  30
0
  11
9.46602
  21
4.823038
  31
0
  0
LINE
  5
320
  100
AcDbEntity
  8
1
  100
AcDbLine
  10
9.46602
  20
4.823038
  30
0
  11
9.41002
  21
4.841762
  31
0
  0
LINE
  5
321
  100
AcDbEntity
  8
1
  100
AcDbLine
  10
9.41002
  20
4.841762
  30
0
  11
9.35402
  21
4.86024
  31
0
  0
LINE
  5
322
  100
AcDbEntity
  8
1
  100
AcDbLine
  10
9.35402
  20
4.86024
  30
0
  11
9.29802
  21
4.878471
  31
0
  0
LINE
  5
323
  100
AcDbEntity
  8
1
  100
AcDbLine
  10
9.29802
  20
4.878471
  30
0
  11
9.24202
  21
4.896454
  31
0
  0
LINE
  5
324
  100
AcDbEntity
  8
1
  100
AcDbLine
  10
9.24202
  20
4.896454
  30
0
  11
9.18602
  21
4.914188
  31
0
  0
LINE
  5
325
  100
AcDbEntity
  8
1
  100
AcDbLine
  10
9.18602
  20
4.914188
  30
0
  11
9.13002
  21
4.931673
  31
0
  0
LINE
  5
326
  100
AcDbEntity
  8
1
  100
AcDbLine
  10
9.13002
  20
4.931673
  30
0
  11
9.07402
  21
4.948906
  31
0
  0
LINE
  5
327
  100
AcDbEntity
  8
1
  100
AcDbLine
  10
9.07402
  20
4.948906
  30
0
  11
9.01802
  21
4.965889
  31
0
  0
LINE
  5
328
  100
AcDbEntity
  8
1
  100
AcDbLine
  10
9.01802
  20
4.965889
  30
0
  11
8.96202
  21
4.982618
  31
0
  0
LINE
  5
329
  100
AcDbEntity
  8
1
  100
AcDbLine
  10
8.96202
  20
4.982618
  30
0
  11
8.90602
  21
4.999095
  31
0
  0
LINE
  5
32a
  100
AcDbEntity
  8
1
  100
AcDbLine
  10
8.90602
  20
4.999095
  30
0
  11
8.85002
  21
5.015317
  31
0
  0
LINE
  5
32b
  100
AcDbEntity
  8
1
  100
AcDbLine
  10
8.85002
  20
5.015317
  30
0
  11
8.79402
  21
5.031285
  31
0
  0
LINE
  5
32c
  100
AcDbEntity
  8
1
  100
AcDbLine
  10
8.79402
  20
5.031285
  30
0
  11
8.73802
  21
5.046996
  31
0
  0
LINE
  5
32d
  100
AcDbEntity
  8
1
  100
AcDbLine
  10
8.73802
  20
5.046996
  30
0
  11
8.68202
  21
5.062451
  31
0
  0
LINE
  5
32e
  100
AcDbEntity
  8
1
  100
AcDbLine
  10
8.68202
  20
5.062451
  30
0
  11
8.62602
  21
5.077649
  31
0
  0
LINE
  5
32f
  100
AcDbEntity
  8
1
  100
AcDbLine
  10
8.62602
  20
5.077649
  30
0
  11
8.57002
  21
5.092589
  31
0
  0
LINE
  5
330
  100
AcDbEntity
  8
1
  100
AcDbLine
  10
8.57002
  20
5.092589
  30
0
  11
8.51402
  21
5.10727
  31
0
  0
LINE
  5
331
  100
AcDbEntity
  8
1
  100
AcDbLine
  10
8.51402
  20
5.10727
  30
0
  11
8.45802
  21
5.121691
  31
0
  0
LINE
  5
332
  100
AcDbEntity
  8
1
  100
AcDbLine
  10
8.45802
  20
5.121691
  30
0
  11
8.40202
  21
5.135852
  31
0
  0
LINE
  5
333
  100
AcDbEntity
  8
1
  100
AcDbLine
  10
8.40202
  20
5.135852
  30
0
  11
8.34602
  21
5.149752
  31
0
  0
LINE
  5
334
  100
AcDbEntity
  8
1
  100
AcDbLine
  10
8.34602
  20
5.149752
  30
0
  11
8.29002
  21
5.163391
  31
0
  0
LINE
  5
335
  100
AcDbEntity
  8
1
  100
AcDbLine
  10
8.29002
  20
5.163391
  30
0
  11
8.23402
  21
5.176766
  31
0
  0
LINE
  5
336
  100
AcDbEntity
  8
1
  100
AcDbLine
  10
8.23402
  20
5.176766
  30
0
  11
8.17802
  21
5.189879
  31
0
  0
LINE
  5
337
  100
AcDbEntity
  8
1
  100
AcDbLine
  10
8.17802
  20
5.189879
  30
0
  11
8.12202
  21
5.202728
  31
0
  0
LINE
  5
338
  100
AcDbEntity
  8
1
  100
AcDbLine
  10
8.12202
  20
5.202728
  30
0
  11
8.06602
  21
5.215312
  31
0
  0
LINE
  5
339
  100
AcDbEntity
  8
1
  100
AcDbLine
  10
8.06602
  20
5.215312
  30
0
  11
8.01002
  21
5.227632
  31
0
  0
LINE
  5
33a
  100
AcDbEntity
  8
1
  100
AcDbLine
  10
8.01002
  20
5.227632
  30
0
  11
7.95402
  21
5.239685
  31
0
  0
LINE
  5
33b
  100
AcDbEntity
  8
1
  100
AcDbLine
  10
7.95402
  20
5.239685
  30
0
  11
7.89802
  21
5.251473
  31
0
  0
LINE
  5
33c
  100
AcDbEntity
  8
1
  100
AcDbLine
  10
7.89802
  20
5.251473
  30
0
  11
7.84202
  21
5.262993
  31
0
  0
LINE
  5
33d
  100
AcDbEntity
  8
1
  100
AcDbLine
  10
7.84202
  20
5.262993
  30
0
  11
7.78602
  21
5.274246
  31
0
  0
LINE
  5
33e
  100
AcDbEntity
  8
1
  100
AcDbLine
  10
7.78602
  20
5.274246
  30
0
  11
7.73002
  21
5.285231
  31
0
  0
LINE
  5
33f
  100
AcDbEntity
  8
1
  100
AcDbLine
  10
7.73002
  20
5.285231
  30
0
  11
7.67402
  21
5.295947
  31
0
  0
LINE
  5
340
  100
AcDbEntity
  8
1
  100
AcDbLine
  10
7.67402
  20
5.295947
  30
0
  11
7.61802
  21
5.306394
  31
0
  0
LINE
  5
341
  100
AcDbEntity
  8
1
  100
AcDbLine
  10
7.61802
  20
5.306394
  30
0
  11
7.56202
  21
5.316571
  31
0
  0
LINE
  5
342
  100
AcDbEntity
  8
1
  100
AcDbLine
  10
7.56202
  20
5.316571
  30
0
  11
7.50602
  21
5.326478
  31
0
  0
LINE
  5
343
  100
AcDbEntity
  8
1
  100
AcDbLine
  10
7.50602
  20
5.326478
  30
0
  11
7.45002
  21
5.336115
  31
0
  0
LINE
  5
344
  100
AcDbEntity
  8
1
  100
AcDbLine
  10
7.45002
  20
5.336115
  30
0
  11
7.39402
  21
5.34548
  31
0
  0
LINE
  5
345
  100
AcDbEntity
  8
1
  100
AcDbLine
  10
7.39402
  20
5.34548
  30
0
  11
7.33802
  21
5.354573
  31
0
  0
LINE
  5
346
  100
AcDbEntity
  8
1
  100
AcDbLine
  10
7.33802
  20
5.354573
  30
0
  11
7.28202
  21
5.363394
  31
0
  0
LINE
  5
347
  100
AcDbEntity
  8
1
  100
AcDbLine
  10
7.28202
  20
5.363394
  30
0
  11
7.22602
  21
5.371943
  31
0
  0
LINE
  5
348
  100
AcDbEntity
  8
1
  100
AcDbLine
  10
7.22602
  20
5.371943
  30
0
  11
7.17002
  21
5.380218
  31
0
  0
LINE
  5
349
  100
AcDbEntity
  8
1
  100
AcDbLine
  10
7.17002
  20
5.380218
  30
0
  11
7.11402
  21
5.388221
  31
0
  0
LINE
  5
34a
  100
AcDbEntity
  8
1
  100
AcDbLine
  10
7.11402
  20
5.388221
  30
0
  11
7.05802
  21
5.395949
  31
0
  0
LINE
  5
34b
  100
AcDbEntity
  8
1
  100
AcDbLine
  10
7.05802
  20
5.395949
  30
0
  11
7.00202
  21
5.403403
  31
0
  0
LINE
  5
34c
  100
AcDbEntity
  8
1
  100
AcDbLine
  10
7.00202
  20
5.403403
  30
0
  11
6.94602
  21
5.410582
  31
0
  0
LINE
  5
34d
  100
AcDbEntity
  8
1
  100
AcDbLine
  10
6.94602
  20
5.410582
  30
0
  11
6.89002
  21
5.417486
  31
0
  0
LINE
  5
34e
  100
AcDbEntity
  8
1
  100
AcDbLine
  10
6.89002
  20
5.417486
  30
0
  11
6.83402
  21
5.424115
  31
0
  0
LINE
  5
34f
  100
AcDbEntity
  8
1
  100
AcDbLine
  10
6.83402
  20
5.424115
  30
0
  11
6.77802
  21
5.430469
  31
0
  0
LINE
  5
350
  100
AcDbEntity
  8
1
  100
AcDbLine
  10
6.77802
  20
5.430469
  30
0
  11
6.72202
  21
5.436546
  31
0
  0
LINE
  5
351
  100
AcDbEntity
  8
1
  100
AcDbLine
  10
6.72202
  20
5.436546
  30
0
  11
6.66602
  21
5.442347
  31
0
  0
LINE
  5
352
  100
AcDbEntity
  8
1
  100
AcDbLine
  10
6.66602
  20
5.442347
  30
0
  11
6.61002
  21
5.447871
  31
0
  0
LINE
  5
353
  100
AcDbEntity
  8
1
  100
AcDbLine
  10
6.61002
  20
5.447871
  30
0
  11
6.55402
  21
5.453118
  31
0
  0
LINE
  5
354
  100
AcDbEntity
  8
1
  100
AcDbLine
  10
6.55402
  20
5.453118
  30
0
  11
6.49802
  21
5.458089
  31
0
  0
LINE
  5
355
  100
AcDbEntity
  8
1
  100
AcDbLine
  10
6.49802
  20
5.458089
  30
0
  11
6.44202
  21
5.462781
  31
0
  0
LINE
  5
356
  100
AcDbEntity
  8
1
  100
AcDbLine
  10
6.44202
  20
5.462781
  30
0
  11
6.38602
  21
5.467197
  31
0
  0
LINE
  5
357
  100
AcDbEntity
  8
1
  100
AcDbLine
  10
6.38602
  20
5.467197
  30
0
  11
6.33002
  21
5.471334
  31
0
  0
LINE
  5
358
  100
AcDbEntity
  8
1
  100
AcDbLine
  10
6.33002
  20
5.471334
  30
0
  11
6.27402
  21
5.475193
  31
0
  0
LINE
  5
359
  100
AcDbEntity
  8
1
  100
AcDbLine
  10
6.27402
  20
5.475193
  30
0
  11
6.21802
  21
5.478774
  31
0
  0
LINE
  5
35a
  100
AcDbEntity
  8
1
  100
AcDbLine
  10
6.21802
  20
5.478774
  30
0
  11
6.16202
  21
5.482076
  31
0
  0
LINE
  5
35b
  100
AcDbEntity
  8
1
  100
AcDbLine
  10
6.16202
  20
5.482076
  30
0
  11
6.10602
  21
5.4851
  31
0
  0
LINE
  5
35c
  100
AcDbEntity
  8
1
  100
AcDbLine
  10
6.10602
  20
5.4851
  30
0
  11
6.05002
  21
5.487845
  31
0
  0
LINE
  5
35d
  100
AcDbEntity
  8
1
  100
AcDbLine
  10
6.05002
  20
5.487845
  30
0
  11
5.99402
  21
5.490311
  31
0
  0
LINE
  5
35e
  100
AcDbEntity
  8
1
  100
AcDbLine
  10
5.99402
  20
5.490311
  30
0
  11
5.93802
  21
5.492498
  31
0
  0
LINE
  5
35f
  100
AcDbEntity
  8
1
  100
AcDbLine
  10
5.93802
  20
5.492498
  30
0
  11
5.88202
  21
5.494405
  31
0
  0
LINE
  5
360
  100
AcDbEntity
  8
1
  100
AcDbLine
  10
5.88202
  20
5.494405
  30
0
  11
5.82602
  21
5.496034
  31
0
  0
LINE
  5
361
  100
AcDbEntity
  8
1
  100
AcDbLine
  10
5.82602
  20
5.496034
  30
0
  11
5.77002
  21
5.497383
  31
0
  0
LINE
  5
362
  100
AcDbEntity
  8
1
  100
AcDbLine
  10
5.77002
  20
5.497383
  30
0
  11
5.71402
  21
5.498453
  31
0
  0
LINE
  5
363
  100
AcDbEntity
  8
1
  100
AcDbLine
  10
5.71402
  20
5.498453
  30
0
  11
5.65802
  21
5.499243
  31
0
  0
LINE
  5
364
  100
AcDbEntity
  8
1
  100
AcDbLine
  10
5.65802
  20
5.499243
  30
0
  11
5.60202
  21
5.499754
  31
0
  0
LINE
  5
365
  100
AcDbEntity
  8
1
  100
AcDbLine
  10
5.60202
  20
5.499754
  30
0
  11
5.54602
  21
5.499985
  31
0
  0
LINE
  5
366
  100
AcDbEntity
  8
1
  100
AcDbLine
  10
5.54602
  20
5.499985
  30
0
  11
5.527707
  21
5.5
  31
0
  0
LINE
  5
367
  100
AcDbEntity
  8
1
  100
AcDbLine
  10
17.86602
  20
0.583038
  30
0
  11
17.81002
  21
0.612067
  31
0
  0
LINE
  5
368
  100
AcDbEntity
  8
1
  100
AcDbLine
  10
17.81002
  20
0.612067
  30
0
  11
17.75402
  21
0.641874
  31
0
  0
LINE
  5
369
  100
AcDbEntity
  8
1
  100
AcDbLine
  10
17.75402
  20
0.641874
  30
0
  11
17.69802
  21
0.672458
  31
0
  0
LINE
  5
36a
  100
AcDbEntity
  8
1
  100
AcDbLine
  10
17.69802
  20
0.672458
  30
0
  11
17.64202
  21
0.703817
  31
0
  0
LINE
  5
36b
  100
AcDbEntity
  8
1
  100
AcDbLine
  10
17.64202
  20
0.703817
  30
0
  11
17.58602
  21
0.73595
  31
0
  0
LINE
  5
36c
  100
AcDbEntity
  8
1
  100
AcDbLine
  10
17.58602
  20
0.73595
  30
0
  11
17.53002
  21
0.772263
  31
0
  0
LINE
  5
36d
  100
AcDbEntity
  8
1
  100
AcDbLine
  10
17.53002
  20
0.772263
  30
0
  11
17.47402
  21
0.810573
  31
0
  0
LINE
  5
36e
  100
AcDbEntity
  8
1
  100
AcDbLine
  10
17.47402
  20
0.810573
  30
0
  11
17.41802
  21
0.848842
  31
0
  0
LINE
  5
36f
  100
AcDbEntity
  8
1
  100
AcDbLine
  10
17.41802
  20
0.848842
  30
0
  11
17.36202
  21
0.887068
  31
0
  0
LINE
  5
370
  100
AcDbEntity
  8
1
  100
AcDbLine
  10
17.36202
  20
0.887068
  30
0
  11
17.30602
  21
0.925249
  31
0
  0
LINE
  5
371
  100
AcDbEntity
  8
1
  100
AcDbLine
  10
17.30602
  20
0.925249
  30
0
  11
17.25002
  21
0.963383
  31
0
  0
LINE
  5
372
  100
AcDbEntity
  8
1
  100
AcDbLine
  10
17.25002
  20
0.963383
  30
0
  11
17.19402
  21
1.001468
  31
0
  0
LINE
  5
373
  100
AcDbEntity
  8
1
  100
AcDbLine
  10
17.19402
  20
1.001468
  30
0
  11
17.13802
  21
1.039502
  31
0
  0
LINE
  5
374
  100
AcDbEntity
  8
1
  100
AcDbLine
  10
17.13802
  20
1.039502
  30
0
  11
17.08202
  21
1.077483
  31
0
  0
LINE
  5
375
  100
AcDbEntity
  8
1
  100
AcDbLine
  10
17.08202
  20
1.077483
  30
0
  11
17.02602
  21
1.11541
  31
0
  0
LINE
  5
376
  100
AcDbEntity
  8
1
  100
AcDbLine
  10
17.02602
  20
1.11541
  30
0
  11
16.97002
  21
1.15328
  31
0
  0
LINE
  5
377
  100
AcDbEntity
  8
1
  100
AcDbLine
  10
16.97002
  20
1.15328
  30
0
  11
16.91402
  21
1.191091
  31
0
  0
LINE
  5
378
  100
AcDbEntity
  8
1
  100
AcDbLine
  10
16.91402
  20
1.191091
  30
0
  11
16.85802
  21
1.228841
  31
0
  0
LINE
  5
379
  100
AcDbEntity
  8
1
  100
AcDbLine
  10
16.85802
  20
1.228841
  30
0
  11
16.80202
  21
1.266529
  31
0
  0
LINE
  5
37a
  100
AcDbEntity
  8
1
  100
AcDbLine
  10
16.80202
  20
1.266529
  30
0
  11
16.74602
  21
1.304153
  31
0
  0
LINE
  5
37b
  100
AcDbEntity
  8
1
  100
AcDbLine
  10
16.74602
  20
1.304153
  30
0
  11
16.69002
  21
1.341711
  31
0
  0
LINE
  5
37c
  100
AcDbEntity
  8
1
  100
AcDbLine
  10
16.69002
  20
1.341711
  30
0
  11
16.63402
  21
1.3792
  31
0
  0
LINE
  5
37d
  100
AcDbEntity
  8
1
  100
AcDbLine
  10
16.63402
  20
1.3792
  30
0
  11
16.57802
  21
1.416619
  31
0
  0
LINE
  5
37e
  100
AcDbEntity
  8
1
  100
AcDbLine
  10
16.57802
  20
1.416619
  30
0
  11
16.52202
  21
1.453966
  31
0
  0
LINE
  5
37f
  100
AcDbEntity
  8
1
  100
AcDbLine
  10
16.52202
  20
1.453966
  30
0
  11
16.46602
  21
1.49124
  31
0
  0
LINE
  5
380
  100
AcDbEntity
  8
1
  100
AcDbLine
  10
16.46602
  20
1.49124
  30
0
  11
16.41002
  21
1.528437
  31
0
  0
LINE
  5
381
  100
AcDbEntity
  8
1
  100
AcDbLine
  10
16.41002
  20
1.528437
  30
0
  11
16.35402
  21
1.565557
  31
0
  0
LINE
  5
382
  100
AcDbEntity
  8
1
  100
AcDbLine
  10
16.35402
  20
1.565557
  30
0
  11
16.29802
  21
1.602597
  31
0
  0
LINE
  5
383
  100
AcDbEntity
  8
1
  100
AcDbLine
  10
16.29802
  20
1.602597
  30
0
  11
16.24202
  21
1.639556
  31
0
  0
LINE
  5
384
  100
AcDbEntity
  8
1
  100
AcDbLine
  10
16.24202
  20
1.639556
  30
0
  11
16.18602
  21
1.676431
  31
0
  0
LINE
  5
385
  100
AcDbEntity
  8
1
  100
AcDbLine
  10
16.18602
  20
1.676431
  30
0
  11
16.13002
  21
1.713222
  31
0
  0
LINE
  5
386
  100
AcDbEntity
  8
1
  100
AcDbLine
  10
16.13002
  20
1.713222
  30
0
  11
16.07402
  21
1.749925
  31
0
  0
LINE
  5
387
  100
AcDbEntity
  8
1
  100
AcDbLine
  10
16.07402
  20
1.749925
  30
0
  11
16.01802
  21
1.786539
  31
0
  0
LINE
  5
388
  100
AcDbEntity
  8
1
  100
AcDbLine
  10
16.01802
  20
1.786539
  30
0
  11
15.96202
  21
1.823062
  31
0
  0
LINE
  5
389
  100
AcDbEntity
  8
1
  100
AcDbLine
  10
15.96202
  20
1.823062
  30
0
  11
15.90602
  21
1.859493
  31
0
  0
LINE
  5
38a
  100
AcDbEntity
  8
1
  100
AcDbLine
  10
15.90602
  20
1.859493
  30
0
  11
15.85002
  21
1.895829
  31
0
  0
LINE
  5
38b
  100
AcDbEntity
  8
1
  100
AcDbLine
  10
15.85002
  20
1.895829
  30
0
  11
15.79402
  21
1.932069
  31
0
  0
LINE
  5
38c
  100
AcDbEntity
  8
1
  100
AcDbLine
  10
15.79402
  20
1.932069
  30
0
  11
15.73802
  21
1.968211
  31
0
  0
LINE
  5
38d
  100
AcDbEntity
  8
1
  100
AcDbLine
  10
15.73802
  20
1.968211
  30
0
  11
15.68202
  21
2.004252
  31
0
  0
LINE
  5
38e
  100
AcDbEntity
  8
1
  100
AcDbLine
  10
15.68202
  20
2.004252
  30
0
  11
15.62602
  21
2.040192
  31
0
  0
LINE
  5
38f
  100
AcDbEntity
  8
1
  100
AcDbLine
  10
15.62602
  20
2.040192
  30
0
  11
15.57002
  21
2.076028
  31
0
  0
LINE
  5
390
  100
AcDbEntity
  8
1
  100
AcDbLine
  10
15.57002
  20
2.076028
  30
0
  11
15.51402
  21
2.111759
  31
0
  0
LINE
  5
391
  100
AcDbEntity
  8
1
  100
AcDbLine
  10
15.51402
  20
2.111759
  30
0
  11
15.45802
  21
2.147382
  31
0
  0
LINE
  5
392
  100
AcDbEntity
  8
1
  100
AcDbLine
  10
15.45802
  20
2.147382
  30
0
  11
15.40202
  21
2.182896
  31
0
  0
LINE
  5
393
  100
AcDbEntity
  8
1
  100
AcDbLine
  10
15.40202
  20
2.182896
  30
0
  11
15.34602
  21
2.218299
  31
0
  0
LINE
  5
394
  100
AcDbEntity
  8
1
  100
AcDbLine
  10
15.34602
  20
2.218299
  30
0
  11
15.29002
  21
2.253589
  31
0
  0
LINE
  5
395
  100
AcDbEntity
  8
1
  100
AcDbLine
  10
15.29002
  20
2.253589
  30
0
  11
15.23402
  21
2.288765
  31
0
  0
LINE
  5
396
  100
AcDbEntity
  8
1
  100
AcDbLine
  10
15.23402
  20
2.288765
  30
0
  11
15.17802
  21
2.323824
  31
0
  0
LINE
  5
397
  100
AcDbEntity
  8
1
  100
AcDbLine
  10
15.17802
  20
2.323824
  30
0
  11
15.12202
  21
2.358766
  31
0
  0
LINE
  5
398
  100
AcDbEntity
  8
1
  100
AcDbLine
  10
15.12202
  20
2.358766
  30
0
  11
15.06602
  21
2.393587
  31
0
  0
LINE
  5
399
  100
AcDbEntity
  8
1
  100
AcDbLine
  10
15.06602
  20
2.393587
  30
0
  11
15.01002
  21
2.428287
  31
0
  0
LINE
  5
39a
  100
AcDbEntity
  8
1
  100
AcDbLine
  10
15.01002
  20
2.428287
  30
0
  11
14.95402
  21
2.462863
  31
0
  0
LINE
  5
39b
  100
AcDbEntity
  8
1
  100
AcDbLine
  10
14.95402
  20
2.462863
  30
0
  11
14.89802
  21
2.497314
  31
0
  0
LINE
  5
39c
  100
AcDbEntity
  8
1
  100
AcDbLine
  10
14.89802
  20
2.497314
  30
0
  11
14.84202
  21
2.531639
  31
0
  0
LINE
  5
39d
  100
AcDbEntity
  8
1
  100
AcDbLine
  10
14.84202
  20
2.531639
  30
0
  11
14.78602
  21
2.565834
  31
0
  0
LINE
  5
39e
  100
AcDbEntity
  8
1
  100
AcDbLine
  10
14.78602
  20
2.565834
  30
0
  11
14.73002
  21
2.599899
  31
0
  0
LINE
  5
39f
  100
AcDbEntity
  8
1
  100
AcDbLine
  10
14.73002
  20
2.599899
  30
0
  11
14.67402
  21
2.633832
  31
0
  0
LINE
  5
3a0
  100
AcDbEntity
  8
1
  100
AcDbLine
  10
14.67402
  20
2.633832
  30
0
  11
14.61802
  21
2.667632
  31
0
  0
LINE
  5
3a1
  100
AcDbEntity
  8
1
  100
AcDbLine
  10
14.61802
  20
2.667632
  30
0
  11
14.56202
  21
2.701295
  31
0
  0
LINE
  5
3a2
  100
AcDbEntity
  8
1
  100
AcDbLine
  10
14.56202
  20
2.701295
  30
0
  11
14.50602
  21
2.734821
  31
0
  0
LINE
  5
3a3
  100
AcDbEntity
  8
1
  100
AcDbLine
  10
14.50602
  20
2.734821
  30
0
  11
14.45002
  21
2.768209
  31
0
  0
LINE
  5
3a4
  100
AcDbEntity
  8
1
  100
AcDbLine
  10
14.45002
  20
2.768209
  30
0
  11
14.39402
  21
2.801455
  31
0
  0
LINE
  5
3a5
  100
AcDbEntity
  8
1
  100
AcDbLine
  10
14.39402
  20
2.801455
  30
0
  11
14.33802
  21
2.834559
  31
0
  0
LINE
  5
3a6
  100
AcDbEntity
  8
1
  100
AcDbLine
  10
14.33802
  20
2.834559
  30
0
  11
14.28202
  21
2.867519
  31
0
  0
LINE
  5
3a7
  100
AcDbEntity
  8
1
  100
AcDbLine
  10
14.28202
  20
2.867519
  30
0
  11
14.22602
  21
2.900334
  31
0
  0
LINE
  5
3a8
  100
AcDbEntity
  8
1
  100
AcDbLine
  10
14.22602
  20
2.900334
  30
0
  11
14.17002
  21
2.933
  31
0
  0
LINE
  5
3a9
  100
AcDbEntity
  8
1
  100
AcDbLine
  10
14.17002
  20
2.933
  30
0
  11
14.11402
  21
2.965518
  31
0
  0
LINE
  5
3aa
  100
AcDbEntity
  8
1
  100
AcDbLine
  10
14.11402
  20
2.965518
  30
0
  11
14.05802
  21
2.997885
  31
0
  0
LINE
  5
3ab
  100
AcDbEntity
  8
1
  100
AcDbLine
  10
14.05802
  20
2.997885
  30
0
  11
14.00202
  21
3.0301
  31
0
  0
LINE
  5
3ac
  100
AcDbEntity
  8
1
  100
AcDbLine
  10
14.00202
  20
3.0301
  30
0
  11
13.94602
  21
3.062161
  31
0
  0
LINE
  5
3ad
  100
AcDbEntity
  8
1
  100
AcDbLine
  10
13.94602
  20
3.062161
  30
0
  11
13.89002
  21
3.094066
  31
0
  0
LINE
  5
3ae
  100
AcDbEntity
  8
1
  100
AcDbLine
  10
13.89002
  20
3.094066
  30
0
  11
13.83402
  21
3.125814
  31
0
  0
LINE
  5
3af
  100
AcDbEntity
  8
1
  100
AcDbLine
  10
13.83402
  20
3.125814
  30
0
  11
13.77802
  21
3.157403
  31
0
  0
LINE
  5
3b0
  100
AcDbEntity
  8
1
  100
AcDbLine
  10
13.77802
  20
3.157403
  30
0
  11
13.72202
  21
3.188831
  31
0
  0
LINE
  5
3b1
  100
AcDbEntity
  8
1
  100
AcDbLine
  10
13.72202
  20
3.188831
  30
0
  11
13.66602
  21
3.220097
  31
0
  0
LINE
  5
3b2
  100
AcDbEntity
  8
1
  100
AcDbLine
  10
13.66602
  20
3.220097
  30
0
  11
13.61002
  21
3.2512
  31
0
  0
LINE
  5
3b3
  100
AcDbEntity
  8
1
  100
AcDbLine
  10
13.61002
  20
3.2512
  30
0
  11
13.55402
  21
3.282137
  31
0
  0
LINE
  5
3b4
  100
AcDbEntity
  8
1
  100
AcDbLine
  10
13.55402
  20
3.282137
  30
0
  11
13.49802
  21
3.312908
  31
0
  0
LINE
  5
3b5
  100
AcDbEntity
  8
1
  100
AcDbLine
  10
13.49802
  20
3.312908
  30
0
  11
13.44202
  21
3.34351
  31
0
  0
LINE
  5
3b6
  100
AcDbEntity
  8
1
  100
AcDbLine
  10
13.44202
  20
3.34351
  30
0
  11
13.38602
  21
3.373942
  31
0
  0
LINE
  5
3b7
  100
AcDbEntity
  8
1
  100
AcDbLine
  10
13.38602
  20
3.373942
  30
0
  11
13.33002
  21
3.404203
  31
0
  0
LINE
  5
3b8
  100
AcDbEntity
  8
1
  100
AcDbLine
  10
13.33002
  20
3.404203
  30
0
  11
13.27402
  21
3.434291
  31
0
  0
LINE
  5
3b9
  100
AcDbEntity
  8
1
  100
AcDbLine
  10
13.27402
  20
3.434291
  30
0
  11
13.21802
  21
3.464204
  31
0
  0
LINE
  5
3ba
  100
AcDbEntity
  8
1
  100
AcDbLine
  10
13.21802
  20
3.464204
  30
0
  11
13.16202
  21
3.493941
  31
0
  0
LINE
  5
3bb
  100
AcDbEntity
  8
1
  100
AcDbLine
  10
13.16202
  20
3.493941
  30
0
  11
13.10602
  21
3.523501
  31
0
  0
LINE
  5
3bc
  100
AcDbEntity
  8
1
  100
AcDbLine
  10
13.10602
  20
3.523501
  30
0
  11
13.05002
  21
3.552881
  31
0
  0
LINE
  5
3bd
  100
AcDbEntity
  8
1
  100
AcDbLine
  10
13.05002
  20
3.552881
  30
0
  11
12.99402
  21
3.582081
  31
0
  0
LINE
  5
3be
  100
AcDbEntity
  8
1
  100
AcDbLine
  10
12.99402
  20
3.582081
  30
0
  11
12.93802
  21
3.611099
  31
0
  0
LINE
  5
3bf
  100
AcDbEntity
  8
1
  100
AcDbLine
  10
12.93802
  20
3.611099
  30
0
  11
12.88202
  21
3.639933
  31
0
  0
LINE
  5
3c0
  100
AcDbEntity
  8
1
  100
AcDbLine
  10
12.88202
  20
3.639933
  30
0
  11
12.82602
  21
3.668582
  31
0
  0
LINE
  5
3c1
  100
AcDbEntity
  8
1
  100
AcDbLine
  10
12.82602
  20
3.668582
  30
0
  11
12.77002
  21
3.697045
  31
0
  0
LINE
  5
3c2
  100
AcDbEntity
  8
1
  100
AcDbLine
  10
12.77002
  20
3.697045
  30
0
  11
12.71402
  21
3.72532
  31
0
  0
LINE
  5
3c3
  100
AcDbEntity
  8
1
  100
AcDbLine
  10
12.71402
  20
3.72532
  30
0
  11
12.65802
  21
3.753405
  31
0
  0
LINE
  5
3c4
  100
AcDbEntity
  8
1
  100
AcDbLine
  10
12.65802
  20
3.753405
  30
0
  11
12.60202
  21
3.7813
  31
0
  0
LINE
  5
3c5
  100
AcDbEntity
  8
1
  100
AcDbLine
  10
12.60202
  20
3.7813
  30
0
  11
12.54602
  21
3.809003
  31
0
  0
LINE
  5
3c6
  100
AcDbEntity
  8
1
  100
AcDbLine
  10
12.54602
  20
3.809003
  30
0
  11
12.49002
  21
3.836511
  31
0
  0
LINE
  5
3c7
  100
AcDbEntity
  8
1
  100
AcDbLine
  10
12.49002
  20
3.836511
  30
0
  11
12.43402
  21
3.863825
  31
0
  0
LINE
  5
3c8
  100
AcDbEntity
  8
1
  100
AcDbLine
  10
12.43402
  20
3.863825
  30
0
  11
12.37802
  21
3.890943
  31
0
  0
LINE
  5
3c9
  100
AcDbEntity
  8
1
  100
AcDbLine
  10
12.37802
  20
3.890943
  30
0
  11
12.32202
  21
3.917863
  31
0
  0
LINE
  5
3ca
  100
AcDbEntity
  8
1
  100
AcDbLine
  10
12.32202
  20
3.917863
  30
0
  11
12.26602
  21
3.944583
  31
0
  0
LINE
  5
3cb
  100
AcDbEntity
  8
1
  100
AcDbLine
  10
12.26602
  20
3.944583
  30
0
  11
12.21002
  21
3.971103
  31
0
  0
LINE
  5
3cc
  100
AcDbEntity
  8
1
  100
AcDbLine
  10
12.21002
  20
3.971103
  30
0
  11
12.15402
  21
3.997422
  31
0
  0
LINE
  5
3cd
  100
AcDbEntity
  8
1
  100
AcDbLine
  10
12.15402
  20
3.997422
  30
0
  11
12.09802
  21
4.023537
  31
0
  0
LINE
  5
3ce
  100
AcDbEntity
  8
1
  100
AcDbLine
  10
12.09802
  20
4.023537
  30
0
  11
12.04202
  21
4.049447
  31
0
  0
LINE
  5
3cf
  100
AcDbEntity
  8
1
  100
AcDbLine
  10
12.04202
  20
4.049447
  30
0
  11
11.98602
  21
4.075152
  31
0
  0
LINE
  5
3d0
  100
AcDbEntity
  8
1
  100
AcDbLine
  10
11.98602
  20
4.075152
  30
0
  11
11.93002
  21
4.10065
  31
0
  0
LINE
  5
3d1
  100
AcDbEntity
  8
1
  100
AcDbLine
  10
11.93002
  20
4.10065
  30
0
  11
11.87402
  21
4.125939
  31
0
  0
LINE
  5
3d2
  100
AcDbEntity
  8
1
  100
AcDbLine
  10
11.87402
  20
4.125939
  30
0
  11
11.81802
  21
4.151018
  31
0
  0
LINE
  5
3d3
  100
AcDbEntity
  8
1
  100
AcDbLine
  10
11.81802
  20
4.151018
  30
0
  11
11.76202
  21
4.175887
  31
0
  0
LINE
  5
3d4
  100
AcDbEntity
  8
1
  100
AcDbLine
  10
11.76202
  20
4.175887
  30
0
  11
11.70602
  21
4.200543
  31
0
  0
LINE
  5
3d5
  100
AcDbEntity
  8
1
  100
AcDbLine
  10
11.70602
  20
4.200543
  30
0
  11
11.65002
  21
4.224986
  31
0
  0
LINE
  5
3d6
  100
AcDbEntity
  8
1
  100
AcDbLine
  10
11.65002
  20
4.224986
  30
0
  11
11.59402
  21
4.249214
  31
0
  0
LINE
  5
3d7
  100
AcDbEntity
  8
1
  100
AcDbLine
  10
11.59402
  20
4.249214
  30
0
  11
11.53802
  21
4.273226
  31
0
  0
LINE
  5
3d8
  100
AcDbEntity
  8
1
  100
AcDbLine
  10
11.53802
  20
4.273226
  30
0
  11
11.48202
  21
4.297021
  31
0
  0
LINE
  5
3d9
  100
AcDbEntity
  8
1
  100
AcDbLine
  10
11.48202
  20
4.297021
  30
0
  11
11.42602
  21
4.320597
  31
0
  0
LINE
  5
3da
  100
AcDbEntity
  8
1
  100
AcDbLine
  10
11.42602
  20
4.320597
  30
0
  11
11.37002
  21
4.343954
  31
0
  0
LINE
  5
3db
  100
AcDbEntity
  8
1
  100
AcDbLine
  10
11.37002
  20
4.343954
  30
0
  11
11.31402
  21
4.36709
  31
0
  0
LINE
  5
3dc
  100
AcDbEntity
  8
1
  100
AcDbLine
  10
11.31402
  20
4.36709
  30
0
  11
11.25802
  21
4.390004
  31
0
  0
LINE
  5
3dd
  100
AcDbEntity
  8
1
  100
AcDbLine
  10
11.25802
  20
4.390004
  30
0
  11
11.20202
  21
4.412695
  31
0
  0
LINE
  5
3de
  100
AcDbEntity
  8
1
  100
AcDbLine
  10
11.20202
  20
4.412695
  30
0
  11
11.14602
  21
4.435161
  31
0
  0
LINE
  5
3df
  100
AcDbEntity
  8
1
  100
AcDbLine
  10
11.14602
  20
4.435161
  30
0
  11
11.09002
  21
4.457403
  31
0
  0
LINE
  5
3e0
  100
AcDbEntity
  8
1
  100
AcDbLine
  10
11.09002
  20
4.457403
  30
0
  11
11.03402
  21
4.479417
  31
0
  0
LINE
  5
3e1
  100
AcDbEntity
  8
1
  100
AcDbLine
  10
11.03402
  20
4.479417
  30
0
  11
10.97802
  21
4.501204
  31
0
  0
LINE
  5
3e2
  100
AcDbEntity
  8
1
  100
AcDbLine
  10
10.97802
  20
4.501204
  30
0
  11
10.92202
  21
4.522762
  31
0
  0
LINE
  5
3e3
  100
AcDbEntity
  8
1
  100
AcDbLine
  10
10.92202
  20
4.522762
  30
0
  11
10.86602
  21
4.544091
  31
0
  0
LINE
  5
3e4
  100
AcDbEntity
  8
1
  100
AcDbLine
  10
10.86602
  20
4.544091
  30
0
  11
10.81002
  21
4.565188
  31
0
  0
LINE
  5
3e5
  100
AcDbEntity
  8
1
  100
AcDbLine
  10
10.81002
  20
4.565188
  30
0
  11
10.75402
  21
4.586053
  31
0
  0
LINE
  5
3e6
  100
AcDbEntity
  8
1
  100
AcDbLine
  10
10.75402
  20
4.586053
  30
0
  11
10.69802
  21
4.606685
  31
0
  0
LINE
  5
3e7
  100
AcDbEntity
  8
1
  100
AcDbLine
  10
10.69802
  20
4.606685
  30
0
  11
10.64202
  21
4.627083
  31
0
  0
LINE
  5
3e8
  100
AcDbEntity
  8
1
  100
AcDbLine
  10
10.64202
  20
4.627083
  30
0
  11
10.58602
  21
4.647246
  31
0
  0
LINE
  5
3e9
  100
AcDbEntity
  8
1
  100
AcDbLine
  10
10.58602
  20
4.647246
  30
0
  11
10.53002
  21
4.667173
  31
0
  0
LINE
  5
3ea
  100
AcDbEntity
  8
1
  100
AcDbLine
  10
10.53002
  20
4.667173
  30
0
  11
10.47402
  21
4.686862
  31
0
  0
LINE
  5
3eb
  100
AcDbEntity
  8
1
  100
AcDbLine
  10
10.47402
  20
4.686862
  30
0
  11
10.41802
  21
4.706313
  31
0
  0
LINE
  5
3ec
  100
AcDbEntity
  8
1
  100
AcDbLine
  10
10.41802
  20
4.706313
  30
0
  11
10.36202
  21
4.725525
  31
0
  0
LINE
  5
3ed
  100
AcDbEntity
  8
1
  100
AcDbLine
  10
10.36202
  20
4.725525
  30
0
  11
10.30602
  21
4.744497
  31
0
  0
LINE
  5
3ee
  100
AcDbEntity
  8
1
  100
AcDbLine
  10
10.30602
  20
4.744497
  30
0
  11
10.25002
  21
4.763228
  31
0
  0
LINE
  5
3ef
  100
AcDbEntity
  8
1
  100
AcDbLine
  10
10.25002
  20
4.763228
  30
0
  11
10.19402
  21
4.781716
  31
0
  0
LINE
  5
3f0
  100
AcDbEntity
  8
1
  100
AcDbLine
  10
10.19402
  20
4.781716
  30
0
  11
10.13802
  21
4.799962
  31
0
  0
LINE
  5
3f1
  100
AcDbEntity
  8
1
  100
AcDbLine
  10
10.13802
  20
4.799962
  30
0
  11
10.08202
  21
4.817963
  31
0
  0
LINE
  5
3f2
  100
AcDbEntity
  8
1
  100
AcDbLine
  10
10.08202
  20
4.817963
  30
0
  11
10.02602
  21
4.83572
  31
0
  0
LINE
  5
3f3
  100
AcDbEntity
  8
1
  100
AcDbLine
  10
10.02602
  20
4.83572
  30
0
  11
9.97002
  21
4.853231
  31
0
  0
LINE
  5
3f4
  100
AcDbEntity
  8
1
  100
AcDbLine
  10
9.97002
  20
4.853231
  30
0
  11
9.91402
  21
4.870495
  31
0
  0
LINE
  5
3f5
  100
AcDbEntity
  8
1
  100
AcDbLine
  10
9.91402
  20
4.870495
  30
0
  11
9.85802
  21
4.887511
  31
0
  0
LINE
  5
3f6
  100
AcDbEntity
  8
1
  100
AcDbLine
  10
9.85802
  20
4.887511
  30
0
  11
9.80202
  21
4.90428
  31
0
  0
LINE
  5
3f7
  100
AcDbEntity
  8
1
  100
AcDbLine
  10
9.80202
  20
4.90428
  30
0
  11
9.74602
  21
4.920799
  31
0
  0
LINE
  5
3f8
  100
AcDbEntity
  8
1
  100
AcDbLine
  10
9.74602
  20
4.920799
  30
0
  11
9.69002
  21
4.937067
  31
0
  0
LINE
  5
3f9
  100
AcDbEntity
  8
1
  100
AcDbLine
  10
9.69002
  20
4.937067
  30
0
  11
9.63402
  21
4.953085
  31
0
  0
LINE
  5
3fa
  100
AcDbEntity
  8
1
  100
AcDbLine
  10
9.63402
  20
4.953085
  30
0
  11
9.57802
  21
4.968851
  31
0
  0
LINE
  5
3fb
  100
AcDbEntity
  8
1
  100
AcDbLine
  10
9.57802
  20
4.968851
  30
0
  11
9.52202
  21
4.984365
  31
0
  0
LINE
  5
3fc
  100
AcDbEntity
  8
1
  100
AcDbLine
  10
9.52202
  20
4.984365
  30
0
  11
9.46602
  21
4.999625
  31
0
  0
LINE
  5
3fd
  100
AcDbEntity
  8
1
  100
AcDbLine
  10
9.46602
  20
4.999625
  30
0
  11
9.41002
  21
5.014631
  31
0
  0
LINE
  5
3fe
  100
AcDbEntity
  8
1
  100
AcDbLine
  10
9.41002
  20
5.014631
  30
0
  11
9.35402
  21
5.029382
  31
0
  0
LINE
  5
3ff
  100
AcDbEntity
  8
1
  100
AcDbLine
  10
9.35402
  20
5.029382
  30
0
  11
9.29802
  21
5.043878
  31
0
  0
LINE
  5
400
  100
AcDbEntity
  8
1
  100
AcDbLine
  10
9.29802
  20
5.043878
  30
0
  11
9.24202
  21
5.058117
  31
0
  0
LINE
  5
401
  100
AcDbEntity
  8
1
  100
AcDbLine
  10
9.24202
  20
5.058117
  30
0
  11
9.18602
  21
5.072099
  31
0
  0
LINE
  5
402
  100
AcDbEntity
  8
1
  100
AcDbLine
  10
9.18602
  20
5.072099
  30
0
  11
9.13002
  21
5.085823
  31
0
  0
LINE
  5
403
  100
AcDbEntity
  8
1
  100
AcDbLine
  10
9.13002
  20
5.085823
  30
0
  11
9.07402
  21
5.099289
  31
0
  0
LINE
  5
404
  100
AcDbEntity
  8
1
  100
AcDbLine
  10
9.07402
  20
5.099289
  30
0
  11
9.01802
  21
5.112496
  31
0
  0
LINE
  5
405
  100
AcDbEntity
  8
1
  100
AcDbLine
  10
9.01802
  20
5.112496
  30
0
  11
8.96202
  21
5.125442
  31
0
  0
LINE
  5
406
  100
AcDbEntity
  8
1
  100
AcDbLine
  10
8.96202
  20
5.125442
  30
0
  11
8.90602
  21
5.138129
  31
0
  0
LINE
  5
407
  100
AcDbEntity
  8
1
  100
AcDbLine
  10
8.90602
  20
5.138129
  30
0
  11
8.85002
  21
5.150554
  31
0
  0
LINE
  5
408
  100
AcDbEntity
  8
1
  100
AcDbLine
  10
8.85002
  20
5.150554
  30
0
  11
8.79402
  21
5.162717
  31
0
  0
LINE
  5
409
  100
AcDbEntity
  8
1
  100
AcDbLine
  10
8.79402
  20
5.162717
  30
0
  11
8.73802
  21
5.174618
  31
0
  0
LINE
  5
40a
  100
AcDbEntity
  8
1
  100
AcDbLine
  10
8.73802
  20
5.174618
  30
0
  11
8.68202
  21
5.186256
  31
0
  0
LINE
  5
40b
  100
AcDbEntity
  8
1
  100
AcDbLine
  10
8.68202
  20
5.186256
  30
0
  11
8.62602
  21
5.19763
  31
0
  0
LINE
  5
40c
  100
AcDbEntity
  8
1
  100
AcDbLine
  10
8.62602
  20
5.19763
  30
0
  11
8.57002
  21
5.20874
  31
0
  0
LINE
  5
40d
  100
AcDbEntity
  8
1
  100
AcDbLine
  10
8.57002
  20
5.20874
  30
0
  11
8.51402
  21
5.219585
  31
0
  0
LINE
  5
40e
  100
AcDbEntity
  8
1
  100
AcDbLine
  10
8.51402
  20
5.219585
  30
0
  11
8.45802
  21
5.230165
  31
0
  0
LINE
  5
40f
  100
AcDbEntity
  8
1
  100
AcDbLine
  10
8.45802
  20
5.230165
  30
0
  11
8.40202
  21
5.240479
  31
0
  0
LINE
  5
410
  100
AcDbEntity
  8
1
  100
AcDbLine
  10
8.40202
  20
5.240479
  30
0
  11
8.34602
  21
5.250527
  31
0
  0
LINE
  5
411
  100
AcDbEntity
  8
1
  100
AcDbLine
  10
8.34602
  20
5.250527
  30
0
  11
8.29002
  21
5.260308
  31
0
  0
LINE
  5
412
  100
AcDbEntity
  8
1
  100
AcDbLine
  10
8.29002
  20
5.260308
  30
0
  11
8.23402
  21
5.269822
  31
0
  0
LINE
  5
413
  100
AcDbEntity
  8
1
  100
AcDbLine
  10
8.23402
  20
5.269822
  30
0
  11
8.17802
  21
5.279067
  31
0
  0
LINE
  5
414
  100
AcDbEntity
  8
1
  100
AcDbLine
  10
8.17802
  20
5.279067
  30
0
  11
8.12202
  21
5.288045
  31
0
  0
LINE
  5
415
  100
AcDbEntity
  8
1
  100
AcDbLine
  10
8.12202
  20
5.288045
  30
0
  11
8.06602
  21
5.296753
  31
0
  0
LINE
  5
416
  100
AcDbEntity
  8
1
  100
AcDbLine
  10
8.06602
  20
5.296753
  30
0
  11
8.01002
  21
5.305193
  31
0
  0
LINE
  5
417
  100
AcDbEntity
  8
1
  100
AcDbLine
  10
8.01002
  20
5.305193
  30
0
  11
7.95402
  21
5.313362
  31
0
  0
LINE
  5
418
  100
AcDbEntity
  8
1
  100
AcDbLine
  10
7.95402
  20
5.313362
  30
0
  11
7.89802
  21
5.321262
  31
0
  0
LINE
  5
419
  100
AcDbEntity
  8
1
  100
AcDbLine
  10
7.89802
  20
5.321262
  30
0
  11
7.84202
  21
5.328891
  31
0
  0
LINE
  5
41a
  100
AcDbEntity
  8
1
  100
AcDbLine
  10
7.84202
  20
5.328891
  30
0
  11
7.78602
  21
5.33625
  31
0
  0
LINE
  5
41b
  100
AcDbEntity
  8
1
  100
AcDbLine
  10
7.78602
  20
5.33625
  30
0
  11
7.73002
  21
5.343337
  31
0
  0
LINE
  5
41c
  100
AcDbEntity
  8
1
  100
AcDbLine
  10
7.73002
  20
5.343337
  30
0
  11
7.67402
  21
5.350152
  31
0
  0
LINE
  5
41d
  100
AcDbEntity
  8
1
  100
AcDbLine
  10
7.67402
  20
5.350152
  30
0
  11
7.61802
  21
5.356696
  31
0
  0
LINE
  5
41e
  100
AcDbEntity
  8
1
  100
AcDbLine
  10
7.61802
  20
5.356696
  30
0
  11
7.56202
  21
5.362967
  31
0
  0
LINE
  5
41f
  100
AcDbEntity
  8
1
  100
AcDbLine
  10
7.56202
  20
5.362967
  30
0
  11
7.50602
  21
5.368966
  31
0
  0
LINE
  5
420
  100
AcDbEntity
  8
1
  100
AcDbLine
  10
7.50602
  20
5.368966
  30
0
  11
7.45002
  21
5.374692
  31
0
  0
LINE
  5
421
  100
AcDbEntity
  8
1
  100
AcDbLine
  10
7.45002
  20
5.374692
  30
0
  11
7.39402
  21
5.380144
  31
0
  0
LINE
  5
422
  100
AcDbEntity
  8
1
  100
AcDbLine
  10
7.39402
  20
5.380144
  30
0
  11
7.33802
  21
5.385323
  31
0
  0
LINE
  5
423
  100
AcDbEntity
  8
1
  100
AcDbLine
  10
7.33802
  20
5.385323
  30
0
  11
7.28202
  21
5.390229
  31
0
  0
LINE
  5
424
  100
AcDbEntity
  8
1
  100
AcDbLine
  10
7.28202
  20
5.390229
  30
0
  11
7.22602
  21
5.39486
  31
0
  0
LINE
  5
425
  100
AcDbEntity
  8
1
  100
AcDbLine
  10
7.22602
  20
5.39486
  30
0
  11
7.17002
  21
5.399218
  31
0
  0
LINE
  5
426
  100
AcDbEntity
  8
1
  100
AcDbLine
  10
7.17002
  20
5.399218
  30
0
  11
7.11402
  21
5.4033
  31
0
  0
LINE
  5
427
  100
AcDbEntity
  8
1
  100
AcDbLine
  10
7.11402
  20
5.4033
  30
0
  11
7.05802
  21
5.407109
  31
0
  0
LINE
  5
428
  100
AcDbEntity
  8
1
  100
AcDbLine
  10
7.05802
  20
5.407109
  30
0
  11
7.00202
  21
5.410642
  31
0
  0
LINE
  5
429
  100
AcDbEntity
  8
1
  100
AcDbLine
  10
7.00202
  20
5.410642
  30
0
  11
6.94602
  21
5.4139
  31
0
  0
LINE
  5
42a
  100
AcDbEntity
  8
1
  100
AcDbLine
  10
6.94602
  20
5.4139
  30
0
  11
6.89002
  21
5.416883
  31
0
  0
LINE
  5
42b
  100
AcDbEntity
  8
1
  100
AcDbLine
  10
6.89002
  20
5.416883
  30
0
  11
6.83402
  21
5.419591
  31
0
  0
LINE
  5
42c
  100
AcDbEntity
  8
1
  100
AcDbLine
  10
6.83402
  20
5.419591
  30
0
  11
6.77802
  21
5.422024
  31
0
  0
LINE
  5
42d
  100
AcDbEntity
  8
1
  100
AcDbLine
  10
6.77802
  20
5.422024
  30
0
  11
6.72202
  21
5.42418
  31
0
  0
LINE
  5
42e
  100
AcDbEntity
  8
1
  100
AcDbLine
  10
6.72202
  20
5.42418
  30
0
  11
6.66602
  21
5.426062
  31
0
  0
LINE
  5
42f
  100
AcDbEntity
  8
1
  100
AcDbLine
  10
6.66602
  20
5.426062
  30
0
  11
6.61002
  21
5.427667
  31
0
  0
LINE
  5
430
  100
AcDbEntity
  8
1
  100
AcDbLine
  10
6.61002
  20
5.427667
  30
0
  11
6.55402
  21
5.428996
  31
0
  0
LINE
  5
431
  100
AcDbEntity
  8
1
  100
AcDbLine
  10
6.55402
  20
5.428996
  30
0
  11
6.49802
  21
5.43005
  31
0
  0
LINE
  5
432
  100
AcDbEntity
  8
1
  100
AcDbLine
  10
6.49802
  20
5.43005
  30
0
  11
6.44202
  21
5.430827
  31
0
  0
LINE
  5
433
  100
AcDbEntity
  8
1
  100
AcDbLine
  10
6.44202
  20
5.430827
  30
0
  11
6.38602
  21
5.431329
  31
0
  0
LINE
  5
434
  100
AcDbEntity
  8
1
  100
AcDbLine
  10
6.38602
  20
5.431329
  30
0
  11
6.33002
  21
5.431554
  31
0
  0
LINE
  5
435
  100
AcDbEntity
  8
1
  100
AcDbLine
  10
6.33002
  20
5.431554
  30
0
  11
6.312305
  21
5.5
  31
0
  0
LINE
  5
436
  100
AcDbEntity
  8
1
  100
AcDbLine
  10
7.995369
  20
5.5
  30
0
  11
8.01002
  21
5.49999
  31
0
  0
LINE
  5
437
  100
AcDbEntity
  8
1
  100
AcDbLine
  10
8.01002
  20
5.49999
  30
0
  11
8.06602
  21
5.499778
  31
0
  0
LINE
  5
438
  100
AcDbEntity
  8
1
  100
AcDbLine
  10
8.06602
  20
5.499778
  30
0
  11
8.12202
  21
5.499285
  31
0
  0
LINE
  5
439
  100
AcDbEntity
  8
1
  100
AcDbLine
  10
8.12202
  20
5.499285
  30
0
  11
8.17802
  21
5.498513
  31
0
  0
LINE
  5
43a
  100
AcDbEntity
  8
1
  100
AcDbLine
  10
8.17802
  20
5.498513
  30
0
  11
8.23402
  21
5.497462
  31
0
  0
LINE
  5
43b
  100
AcDbEntity
  8
1
  100
AcDbLine
  10
8.23402
  20
5.497462
  30
0
  11
8.29002
  21
5.496131
  31
0
  0
LINE
  5
43c
  100
AcDbEntity
  8
1
  100
AcDbLine
  10
8.29002
  20
5.496131
  30
0
  11
8.34602
  21
5.494521
  31
0
  0
LINE
  5
43d
  100
AcDbEntity
  8
1
  100
AcDbLine
  10
8.34602
  20
5.494521
  30
0
  11
8.40202
  21
5.492631
  31
0
  0
LINE
  5
43e
  100
AcDbEntity
  8
1
  100
AcDbLine
  10
8.40202
  20
5.492631
  30
0
  11
8.45802
  21
5.490462
  31
0
  0
LINE
  5
43f
  100
AcDbEntity
  8
1
  100
AcDbLine
  10
8.45802
  20
5.490462
  30
0
  11
8.51402
  21
5.488015
  31
0
  0
LINE
  5
440
  100
AcDbEntity
  8
1
  100
AcDbLine
  10
8.51402
  20
5.488015
  30
0
  11
8.57002
  21
5.485288
  31
0
  0
LINE
  5
441
  100
AcDbEntity
  8
1
  100
AcDbLine
  10
8.57002
  20
5.485288
  30
0
  11
8.62602
  21
5.482282
  31
0
  0
LINE
  5
442
  100
AcDbEntity
  8
1
  100
AcDbLine
  10
8.62602
  20
5.482282
  30
0
  11
8.68202
  21
5.478998
  31
0
  0
LINE
  5
443
  100
AcDbEntity
  8
1
  100
AcDbLine
  10
8.68202
  20
5.478998
  30
0
  11
8.73802
  21
5.475436
  31
0
  0
LINE
  5
444
  100
AcDbEntity
  8
1
  100
AcDbLine
  10
8.73802
  20
5.475436
  30
0
  11
8.79402
  21
5.471595
  31
0
  0
LINE
  5
445
  100
AcDbEntity
  8
1
  100
AcDbLine
  10
8.79402
  20
5.471595
  30
0
  11
8.85002
  21
5.467476
  31
0
  0
LINE
  5
446
  100
AcDbEntity
  8
1
  100
AcDbLine
  10
8.85002
  20
5.467476
  30
0
  11
8.90602
  21
5.463079
  31
0
  0
LINE
  5
447
  100
AcDbEntity
  8
1
  100
AcDbLine
  10
8.90602
  20
5.463079
  30
0
  11
8.96202
  21
5.458404
  31
0
  0
LINE
  5
448
  100
AcDbEntity
  8
1
  100
AcDbLine
  10
8.96202
  20
5.458404
  30
0
  11
9.01802
  21
5.453452
  31
0
  0
LINE
  5
449
  100
AcDbEntity
  8
1
  100
AcDbLine
  10
9.01802
  20
5.453452
  30
0
  11
9.07402
  21
5.448223
  31
0
  0
LINE
  5
44a
  100
AcDbEntity
  8
1
  100
AcDbLine
  10
9.07402
  20
5.448223
  30
0
  11
9.13002
  21
5.442716
  31
0
  0
LINE
  5
44b
  100
AcDbEntity
  8
1
  100
AcDbLine
  10
9.13002
  20
5.442716
  30
0
  11
9.18602
  21
5.436934
  31
0
  0
LINE
  5
44c
  100
AcDbEntity
  8
1
  100
AcDbLine
  10
9.18602
  20
5.436934
  30
0
  11
9.24202
  21
5.430874
  31
0
  0
LINE
  5
44d
  100
AcDbEntity
  8
1
  100
AcDbLine
  10
9.24202
  20
5.430874
  30
0
  11
9.29802
  21
5.424539
  31
0
  0
LINE
  5
44e
  100
AcDbEntity
  8
1
  100
AcDbLine
  10
9.29802
  20
5.424539
  30
0
  11
9.35402
  21
5.417928
  31
0
  0
LINE
  5
44f
  100
AcDbEntity
  8
1
  100
AcDbLine
  10
9.35402
  20
5.417928
  30
0
  11
9.41002
  21
5.411042
  31
0
  0
LINE
  5
450
  100
AcDbEntity
  8
1
  100
AcDbLine
  10
9.41002
  20
5.411042
  30
0
  11
9.46602
  21
5.403881
  31
0
  0
LINE
  5
451
  100
AcDbEntity
  8
1
  100
AcDbLine
  10
9.46602
  20
5.403881
  30
0
  11
9.52202
  21
5.396445
  31
0
  0
LINE
  5
452
  100
AcDbEntity
  8
1
  100
AcDbLine
  10
9.52202
  20
5.396445
  30
0
  11
9.57802
  21
5.388734
  31
0
  0
LINE
  5
453
  100
AcDbEntity
  8
1
  100
AcDbLine
  10
9.57802
  20
5.388734
  30
0
  11
9.63402
  21
5.38075
  31
0
  0
LINE
  5
454
  100
AcDbEntity
  8
1
  100
AcDbLine
  10
9.63402
  20
5.38075
  30
0
  11
9.69002
  21
5.372492
  31
0
  0
LINE
  5
455
  100
AcDbEntity
  8
1
  100
AcDbLine
  10
9.69002
  20
5.372492
  30
0
  11
9.74602
  21
5.363962
  31
0
  0
LINE
  5
456
  100
AcDbEntity
  8
1
  100
AcDbLine
  10
9.74602
  20
5.363962
  30
0
  11
9.80202
  21
5.355158
  31
0
  0
LINE
  5
457
  100
AcDbEntity
  8
1
  100
AcDbLine
  10
9.80202
  20
5.355158
  30
0
  11
9.85802
  21
5.346083
  31
0
  0
LINE
  5
458
  100
AcDbEntity
  8
1
  100
AcDbLine
  10
9.85802
  20
5.346083
  30
0
  11
9.91402
  21
5.336735
  31
0
  0
LINE
  5
459
  100
AcDbEntity
  8
1
  100
AcDbLine
  10
9.91402
  20
5.336735
  30
0
  11
9.97002
  21
5.327117
  31
0
  0
LINE
  5
45a
  100
AcDbEntity
  8
1
  100
AcDbLine
  10
9.97002
  20
5.327117
  30
0
  11
10.02602
  21
5.317227
  31
0
  0
LINE
  5
45b
  100
AcDbEntity
  8
1
  100
AcDbLine
  10
10.02602
  20
5.317227
  30
0
  11
10.08202
  21
5.307068
  31
0
  0
LINE
  5
45c
  100
AcDbEntity
  8
1
  100
AcDbLine
  10
10.08202
  20
5.307068
  30
0
  11
10.13802
  21
5.296638
  31
0
  0
LINE
  5
45d
  100
AcDbEntity
  8
1
  100
AcDbLine
  10
10.13802
  20
5.296638
  30
0
  11
10.19402
  21
5.28594
  31
0
  0
LINE
  5
45e
  100
AcDbEntity
  8
1
  100
AcDbLine
  10
10.19402
  20
5.28594
  30
0
  11
10.25002
  21
5.274973
  31
0
  0
LINE
  5
45f
  100
AcDbEntity
  8
1
  100
AcDbLine
  10
10.25002
  20
5.274973
  30
0
  11
10.30602
  21
5.263737
  31
0
  0
LINE
  5
460
  100
AcDbEntity
  8
1
  100
AcDbLine
  10
10.30602
  20
5.263737
  30
0
  11
10.36202
  21
5.252234
  31
0
  0
LINE
  5
461
  100
AcDbEntity
  8
1
  100
AcDbLine
  10
10.36202
  20
5.252234
  30
0
  11
10.41802
  21
5.240464
  31
0
  0
LINE
  5
462
  100
AcDbEntity
  8
1
  100
AcDbLine
  10
10.41802
  20
5.240464
  30
0
  11
10.47402
  21
5.228428
  31
0
  0
LINE
  5
463
  100
AcDbEntity
  8
1
  100
AcDbLine
  10
10.47402
  20
5.228428
  30
0
  11
10.53002
  21
5.216126
  31
0
  0
LINE
  5
464
  100
AcDbEntity
  8
1
  100
AcDbLine
  10
10.53002
  20
5.216126
  30
0
  11
10.58602
  21
5.203559
  31
0
  0
LINE
  5
465
  100
AcDbEntity
  8
1
  100
AcDbLine
  10
10.58602
  20
5.203559
  30
0
  11
10.64202
  21
5.190728
  31
0
  0
LINE
  5
466
  100
AcDbEntity
  8
1
  100
AcDbLine
  10
10.64202
  20
5.190728
  30
0
  11
10.69802
  21
5.177632
  31
0
  0
LINE
  5
467
  100
AcDbEntity
  8
1
  100
AcDbLine
  10
10.69802
  20
5.177632
  30
0
  11
10.75402
  21
5.164274
  31
0
  0
LINE
  5
468
  100
AcDbEntity
  8
1
  100
AcDbLine
  10
10.75402
  20
5.164274
  30
0
  11
10.81002
  21
5.150652
  31
0
  0
LINE
  5
469
  100
AcDbEntity
  8
1
  100
AcDbLine
  10
10.81002
  20
5.150652
  30
0
  11
10.86602
  21
5.13677
  31
0
  0
LINE
  5
46a
  100
AcDbEntity
  8
1
  100
AcDbLine
  10
10.86602
  20
5.13677
  30
0
  11
10.92202
  21
5.122626
  31
0
  0
LINE
  5
46b
  100
AcDbEntity
  8
1
  100
AcDbLine
  10
10.92202
  20
5.122626
  30
0
  11
10.97802
  21
5.108221
  31
0
  0
LINE
  5
46c
  100
AcDbEntity
  8
1
  100
AcDbLine
  10
10.97802
  20
5.108221
  30
0
  11
11.03402
  21
5.093557
  31
0
  0
LINE
  5
46d
  100
AcDbEntity
  8
1
  100
AcDbLine
  10
11.03402
  20
5.093557
  30
0
  11
11.09002
  21
5.078634
  31
0
  0
LINE
  5
46e
  100
AcDbEntity
  8
1
  100
AcDbLine
  10
11.09002
  20
5.078634
  30
0
  11
11.14602
  21
5.063453
  31
0
  0
LINE
  5
46f
  100
AcDbEntity
  8
1
  100
AcDbLine
  10
11.14602
  20
5.063453
  30
0
  11
11.20202
  21
5.048015
  31
0
  0
LINE
  5
470
  100
AcDbEntity
  8
1
  100
AcDbLine
  10
11.20202
  20
5.048015
  30
0
  11
11.25802
  21
5.03232
  31
0
  0
LINE
  5
471
  100
AcDbEntity
  8
1
  100
AcDbLine
  10
11.25802
  20
5.03232
  30
0
  11
11.31402
  21
5.016369
  31
0
  0
LINE
  5
472
  100
AcDbEntity
  8
1
  100
AcDbLine
  10
11.31402
  20
5.016369
  30
0
  11
11.37002
  21
5.000163
  31
0
  0
LINE
  5
473
  100
AcDbEntity
  8
1
  100
AcDbLine
  10
11.37002
  20
5.000163
  30
0
  11
11.42602
  21
4.983704
  31
0
  0
LINE
  5
474
  100
AcDbEntity
  8
1
  100
AcDbLine
  10
11.42602
  20
4.983704
  30
0
  11
11.48202
  21
4.96699
  31
0
  0
LINE
  5
475
  100
AcDbEntity
  8
1
  100
AcDbLine
  10
11.48202
  20
4.96699
  30
0
  11
11.53802
  21
4.950025
  31
0
  0
LINE
  5
476
  100
AcDbEntity
  8
1
  100
AcDbLine
  10
11.53802
  20
4.950025
  30
0
  11
11.59402
  21
4.932808
  31
0
  0
LINE
  5
477
  100
AcDbEntity
  8
1
  100
AcDbLine
  10
11.59402
  20
4.932808
  30
0
  11
11.65002
  21
4.91534
  31
0
  0
LINE
  5
478
  100
AcDbEntity
  8
1
  100
AcDbLine
  10
11.65002
  20
4.91534
  30
0
  11
11.70602
  21
4.897622
  31
0
  0
LINE
  5
479
  100
AcDbEntity
  8
1
  100
AcDbLine
  10
11.70602
  20
4.897622
  30
0
  11
11.76202
  21
4.879655
  31
0
  0
LINE
  5
47a
  100
AcDbEntity
  8
1
  100
AcDbLine
  10
11.76202
  20
4.879655
  30
0
  11
11.81802
  21
4.86144
  31
0
  0
LINE
  5
47b
  100
AcDbEntity
  8
1
  100
AcDbLine
  10
11.81802
  20
4.86144
  30
0
  11
11.87402
  21
4.842978
  31
0
  0
LINE
  5
47c
  100
AcDbEntity
  8
1
  100
AcDbLine
  10
11.87402
  20
4.842978
  30
0
  11
11.93002
  21
4.82427
  31
0
  0
LINE
  5
47d
  100
AcDbEntity
  8
1
  100
AcDbLine
  10
11.93002
  20
4.82427
  30
0
  11
11.98602
  21
4.805317
  31
0
  0
LINE
  5
47e
  100
AcDbEntity
  8
1
  100
AcDbLine
  10
11.98602
  20
4.805317
  30
0
  11
12.04202
  21
4.78612
  31
0
  0
LINE
  5
47f
  100
AcDbEntity
  8
1
  100
AcDbLine
  10
12.04202
  20
4.78612
  30
0
  11
12.09802
  21
4.766679
  31
0
  0
LINE
  5
480
  100
AcDbEntity
  8
1
  100
AcDbLine
  10
12.09802
  20
4.766679
  30
0
  11
12.15402
  21
4.746996
  31
0
  0
LINE
  5
481
  100
AcDbEntity
  8
1
  100
AcDbLine
  10
12.15402
  20
4.746996
  30
0
  11
12.21002
  21
4.727072
  31
0
  0
LINE
  5
482
  100
AcDbEntity
  8
1
  100
AcDbLine
  10
12.21002
  20
4.727072
  30
0
  11
12.26602
  21
4.706907
  31
0
  0
LINE
  5
483
  100
AcDbEntity
  8
1
  100
AcDbLine
  10
12.26602
  20
4.706907
  30
0
  11
12.32202
  21
4.686503
  31
0
  0
LINE
  5
484
  100
AcDbEntity
  8
1
  100
AcDbLine
  10
12.32202
  20
4.686503
  30
0
  11
12.37802
  21
4.665861
  31
0
  0
LINE
  5
485
  100
AcDbEntity
  8
1
  100
AcDbLine
  10
12.37802
  20
4.665861
  30
0
  11
12.43402
  21
4.644982
  31
0
  0
LINE
  5
486
  100
AcDbEntity
  8
1
  100
AcDbLine
  10
12.43402
  20
4.644982
  30
0
  11
12.49002
  21
4.623867
  31
0
  0
LINE
  5
487
  100
AcDbEntity
  8
1
  100
AcDbLine
  10
12.49002
  20
4.623867
  30
0
  11
12.54602
  21
4.602517
  31
0
  0
LINE
  5
488
  100
AcDbEntity
  8
1
  100
AcDbLine
  10
12.54602
  20
4.602517
  30
0
  11
12.60202
  21
4.580932
  31
0
  0
LINE
  5
489
  100
AcDbEntity
  8
1
  100
AcDbLine
  10
12.60202
  20
4.580932
  30
0
  11
12.65802
  21
4.559115
  31
0
  0
LINE
  5
48a
  100
AcDbEntity
  8
1
  100
AcDbLine
  10
12.65802
  20
4.559115
  30
0
  11
12.71402
  21
4.537067
  31
0
  0
LINE
  5
48b
  100
AcDbEntity
  8
1
  100
AcDbLine
  10
12.71402
  20
4.537067
  30
0
  11
12.77002
  21
4.514787
  31
0
  0
LINE
  5
48c
  100
AcDbEntity
  8
1
  100
AcDbLine
  10
12.77002
  20
4.514787
  30
0
  11
12.82602
  21
4.492278
  31
0
  0
LINE
  5
48d
  100
AcDbEntity
  8
1
  100
AcDbLine
  10
12.82602
  20
4.492278
  30
0
  11
12.88202
  21
4.469541
  31
0
  0
LINE
  5
48e
  100
AcDbEntity
  8
1
  100
AcDbLine
  10
12.88202
  20
4.469541
  30
0
  11
12.93802
  21
4.446577
  31
0
  0
LINE
  5
48f
  100
AcDbEntity
  8
1
  100
AcDbLine
  10
12.93802
  20
4.446577
  30
0
  11
12.99402
  21
4.423386
  31
0
  0
LINE
  5
490
  100
AcDbEntity
  8
1
  100
AcDbLine
  10
12.99402
  20
4.423386
  30
0
  11
13.05002
  21
4.399971
  31
0
  0
LINE
  5
491
  100
AcDbEntity
  8
1
  100
AcDbLine
  10
13.05002
  20
4.399971
  30
0
  11
13.10602
  21
4.376332
  31
0
  0
LINE
  5
492
  100
AcDbEntity
  8
1
  100
AcDbLine
  10
13.10602
  20
4.376332
  30
0
  11
13.16202
  21
4.352471
  31
0
  0
LINE
  5
493
  100
AcDbEntity
  8
1
  100
AcDbLine
  10
13.16202
  20
4.352471
  30
0
  11
13.21802
  21
4.328388
  31
0
  0
LINE
  5
494
  100
AcDbEntity
  8
1
  100
AcDbLine
  10
13.21802
  20
4.328388
  30
0
  11
13.27402
  21
4.304086
  31
0
  0
LINE
  5
495
  100
AcDbEntity
  8
1
  100
AcDbLine
  10
13.27402
  20
4.304086
  30
0
  11
13.33002
  21
4.279564
  31
0
  0
LINE
  5
496
  100
AcDbEntity
  8
1
  100
AcDbLine
  10
13.33002
  20
4.279564
  30
0
  11
13.38602
  21
4.254826
  31
0
  0
LINE
  5
497
  100
AcDbEntity
  8
1
  100
AcDbLine
  10
13.38602
  20
4.254826
  30
0
  11
13.44202
  21
4.229871
  31
0
  0
LINE
  5
498
  100
AcDbEntity
  8
1
  100
AcDbLine
  10
13.44202
  20
4.229871
  30
0
  11
13.49802
  21
4.2047
  31
0
  0
LINE
  5
499
  100
AcDbEntity
  8
1
  100
AcDbLine
  10
13.49802
  20
4.2047
  30
0
  11
13.55402
  21
4.179317
  31
0
  0
LINE
  5
49a
  100
AcDbEntity
  8
1
  100
AcDbLine
  10
13.55402
  20
4.179317
  30
0
  11
13.61002
  21
4.15372
  31
0
  0
LINE
  5
49b
  100
AcDbEntity
  8
1
  100
AcDbLine
  10
13.61002
  20
4.15372
  30
0
  11
13.66602
  21
4.127913
  31
0
  0
LINE
  5
49c
  100
AcDbEntity
  8
1
  100
AcDbLine
  10
13.66602
  20
4.127913
  30
0
  11
13.72202
  21
4.101896
  31
0
  0
LINE
  5
49d
  100
AcDbEntity
  8
1
  100
AcDbLine
  10
13.72202
  20
4.101896
  30
0
  11
13.77802
  21
4.07567
  31
0
  0
LINE
  5
49e
  100
AcDbEntity
  8
1
  100
AcDbLine
  10
13.77802
  20
4.07567
  30
0
  11
13.83402
  21
4.049237
  31
0
  0
LINE
  5
49f
  100
AcDbEntity
  8
1
  100
AcDbLine
  10
13.83402
  20
4.049237
  30
0
  11
13.89002
  21
4.022599
  31
0
  0
LINE
  5
4a0
  100
AcDbEntity
  8
1
  100
AcDbLine
  10
13.89002
  20
4.022599
  30
0
  11
13.94602
  21
3.995756
  31
0
  0
LINE
  5
4a1
  100
AcDbEntity
  8
1
  100
AcDbLine
  10
13.94602
  20
3.995756
  30
0
  11
14.00202
  21
3.96871
  31
0
  0
LINE
  5
4a2
  100
AcDbEntity
  8
1
  100
AcDbLine
  10
14.00202
  20
3.96871
  30
0
  11
14.05802
  21
3.941462
  31
0
  0
LINE
  5
4a3
  100
AcDbEntity
  8
1
  100
AcDbLine
  10
14.05802
  20
3.941462
  30
0
  11
14.11402
  21
3.914013
  31
0
  0
LINE
  5
4a4
  100
AcDbEntity
  8
1
  100
AcDbLine
  10
14.11402
  20
3.914013
  30
0
  11
14.17002
  21
3.886366
  31
0
  0
LINE
  5
4a5
  100
AcDbEntity
  8
1
  100
AcDbLine
  10
14.17002
  20
3.886366
  30
0
  11
14.22602
  21
3.858521
  31
0
  0
LINE
  5
4a6
  100
AcDbEntity
  8
1
  100
AcDbLine
  10
14.22602
  20
3.858521
  30
0
  11
14.28202
  21
3.830481
  31
0
  0
LINE
  5
4a7
  100
AcDbEntity
  8
1
  100
AcDbLine
  10
14.28202
  20
3.830481
  30
0
  11
14.33802
  21
3.802245
  31
0
  0
LINE
  5
4a8
  100
AcDbEntity
  8
1
  100
AcDbLine
  10
14.33802
  20
3.802245
  30
0
  11
14.39402
  21
3.773816
  31
0
  0
LINE
  5
4a9
  100
AcDbEntity
  8
1
  100
AcDbLine
  10
14.39402
  20
3.773816
  30
0
  11
14.45002
  21
3.745196
  31
0
  0
LINE
  5
4aa
  100
AcDbEntity
  8
1
  100
AcDbLine
  10
14.45002
  20
3.745196
  30
0
  11
14.50602
  21
3.716385
  31
0
  0
LINE
  5
4ab
  100
AcDbEntity
  8
1
  100
AcDbLine
  10
14.50602
  20
3.716385
  30
0
  11
14.56202
  21
3.687385
  31
0
  0
LINE
  5
4ac
  100
AcDbEntity
  8
1
  100
AcDbLine
  10
14.56202
  20
3.687385
  30
0
  11
14.61802
  21
3.658198
  31
0
  0
LINE
  5
4ad
  100
AcDbEntity
  8
1
  100
AcDbLine
  10
14.61802
  20
3.658198
  30
0
  11
14.67402
  21
3.628824
  31
0
  0
LINE
  5
4ae
  100
AcDbEntity
  8
1
  100
AcDbLine
  10
14.67402
  20
3.628824
  30
0
  11
14.73002
  21
3.599267
  31
0
  0
LINE
  5
4af
  100
AcDbEntity
  8
1
  100
AcDbLine
  10
14.73002
  20
3.599267
  30
0
  11
14.78602
  21
3.569526
  31
0
  0
LINE
  5
4b0
  100
AcDbEntity
  8
1
  100
AcDbLine
  10
14.78602
  20
3.569526
  30
0
  11
14.84202
  21
3.539604
  31
0
  0
LINE
  5
4b1
  100
AcDbEntity
  8
1
  100
AcDbLine
  10
14.84202
  20
3.539604
  30
0
  11
14.89802
  21
3.509502
  31
0
  0
LINE
  5
4b2
  100
AcDbEntity
  8
1
  100
AcDbLine
  10
14.89802
  20
3.509502
  30
0
  11
14.95402
  21
3.479222
  31
0
  0
LINE
  5
4b3
  100
AcDbEntity
  8
1
  100
AcDbLine
  10
14.95402
  20
3.479222
  30
0
  11
15.01002
  21
3.448764
  31
0
  0
LINE
  5
4b4
  100
AcDbEntity
  8
1
  100
AcDbLine
  10
15.01002
  20
3.448764
  30
0
  11
15.06602
  21
3.418132
  31
0
  0
LINE
  5
4b5
  100
AcDbEntity
  8
1
  100
AcDbLine
  10
15.06602
  20
3.418132
  30
0
  11
15.12202
  21
3.387326
  31
0
  0
LINE
  5
4b6
  100
AcDbEntity
  8
1
  100
AcDbLine
  10
15.12202
  20
3.387326
  30
0
  11
15.17802
  21
3.356347
  31
0
  0
LINE
  5
4b7
  100
AcDbEntity
  8
1
  100
AcDbLine
  10
15.17802
  20
3.356347
  30
0
  11
15.23402
  21
3.325198
  31
0
  0
LINE
  5
4b8
  100
AcDbEntity
  8
1
  100
AcDbLine
  10
15.23402
  20
3.325198
  30
0
  11
15.29002
  21
3.29388
  31
0
  0
LINE
  5
4b9
  100
AcDbEntity
  8
1
  100
AcDbLine
  10
15.29002
  20
3.29388
  30
0
  11
15.34602
  21
3.262395
  31
0
  0
LINE
  5
4ba
  100
AcDbEntity
  8
1
  100
AcDbLine
  10
15.34602
  20
3.262395
  30
0
  11
15.40202
  21
3.230744
  31
0
  0
LINE
  5
4bb
  100
AcDbEntity
  8
1
  100
AcDbLine
  10
15.40202
  20
3.230744
  30
0
  11
15.45802
  21
3.198928
  31
0
  0
LINE
  5
4bc
  100
AcDbEntity
  8
1
  100
AcDbLine
  10
15.45802
  20
3.198928
  30
0
  11
15.51402
  21
3.16695
  31
0
  0
LINE
  5
4bd
  100
AcDbEntity
  8
1
  100
AcDbLine
  10
15.51402
  20
3.16695
  30
0
  11
15.57002
  21
3.134811
  31
0
  0
LINE
  5
4be
  100
AcDbEntity
  8
1
  100
AcDbLine
  10
15.57002
  20
3.134811
  30
0
  11
15.62602
  21
3.102513
  31
0
  0
LINE
  5
4bf
  100
AcDbEntity
  8
1
  100
AcDbLine
  10
15.62602
  20
3.102513
  30
0
  11
15.68202
  21
3.070057
  31
0
  0
LINE
  5
4c0
  100
AcDbEntity
  8
1
  100
AcDbLine
  10
15.68202
  20
3.070057
  30
0
  11
15.73802
  21
3.037445
  31
0
  0
LINE
  5
4c1
  100
AcDbEntity
  8
1
  100
AcDbLine
  10
15.73802
  20
3.037445
  30
0
  11
15.79402
  21
3.004678
  31
0
  0
LINE
  5
4c2
  100
AcDbEntity
  8
1
  100
AcDbLine
  10
15.79402
  20
3.004678
  30
0
  11
15.85002
  21
2.971759
  31
0
  0
LINE
  5
4c3
  100
AcDbEntity
  8
1
  100
AcDbLine
  10
15.85002
  20
2.971759
  30
0
  11
15.90602
  21
2.938689
  31
0
  0
LINE
  5
4c4
  100
AcDbEntity
  8
1
  100
AcDbLine
  10
15.90602
  20
2.938689
  30
0
  11
15.96202
  21
2.905469
  31
0
  0
LINE
  5
4c5
  100
AcDbEntity
  8
1
  100
AcDbLine
  10
15.96202
  20
2.905469
  30
0
  11
16.01802
  21
2.872102
  31
0
  0
LINE
  5
4c6
  100
AcDbEntity
  8
1
  100
AcDbLine
  10
16.01802
  20
2.872102
  30
0
  11
16.07402
  21
2.838589
  31
0
  0
LINE
  5
4c7
  100
AcDbEntity
  8
1
  100
AcDbLine
  10
16.07402
  20
2.838589
  30
0
  11
16.13002
  21
2.804931
  31
0
  0
LINE
  5
4c8
  100
AcDbEntity
  8
1
  100
AcDbLine
  10
16.13002
  20
2.804931
  30
0
  11
16.18602
  21
2.771131
  31
0
  0
LINE
  5
4c9
  100
AcDbEntity
  8
1
  100
AcDbLine
  10
16.18602
  20
2.771131
  30
0
  11
16.24202
  21
2.73719
  31
0
  0
LINE
  5
4ca
  100
AcDbEntity
  8
1
  100
AcDbLine
  10
16.24202
  20
2.73719
  30
0
  11
16.29802
  21
2.70311
  31
0
  0
LINE
  5
4cb
  100
AcDbEntity
  8
1
  100
AcDbLine
  10
16.29802
  20
2.70311
  30
0
  11
16.35402
  21
2.668892
  31
0
  0
LINE
  5
4cc
  100
AcDbEntity
  8
1
  100
AcDbLine
  10
16.35402
  20
2.668892
  30
0
  11
16.41002
  21
2.634539
  31
0
  0
LINE
  5
4cd
  100
AcDbEntity
  8
1
  100
AcDbLine
  10
16.41002
  20
2.634539
  30
0
  11
16.46602
  21
2.600052
  31
0
  0
LINE
  5
4ce
  100
AcDbEntity
  8
1
  100
AcDbLine
  10
16.46602
  20
2.600052
  30
0
  11
16.52202
  21
2.565433
  31
0
  0
LINE
  5
4cf
  100
AcDbEntity
  8
1
  100
AcDbLine
  10
16.52202
  20
2.565433
  30
0
  11
16.57802
  21
2.530683
  31
0
  0
LINE
  5
4d0
  100
AcDbEntity
  8
1
  100
AcDbLine
  10
16.57802
  20
2.530683
  30
0
  11
16.63402
  21
2.495805
  31
0
  0
LINE
  5
4d1
  100
AcDbEntity
  8
1
  100
AcDbLine
  10
16.63402
  20
2.495805
  30
0
  11
16.69002
  21
2.4608
  31
0
  0
LINE
  5
4d2
  100
AcDbEntity
  8
1
  100
AcDbLine
  10
16.69002
  20
2.4608
  30
0
  11
16.74602
  21
2.42567
  31
0
  0
LINE
  5
4d3
  100
AcDbEntity
  8
1
  100
AcDbLine
  10
16.74602
  20
2.42567
  30
0
  11
16.80202
  21
2.390416
  31
0
  0
LINE
  5
4d4
  100
AcDbEntity
  8
1
  100
AcDbLine
  10
16.80202
  20
2.390416
  30
0
  11
16.85802
  21
2.355041
  31
0
  0
LINE
  5
4d5
  100
AcDbEntity
  8
1
  100
AcDbLine
  10
16.85802
  20
2.355041
  30
0
  11
16.91402
  21
2.319547
  31
0
  0
LINE
  5
4d6
  100
AcDbEntity
  8
1
  100
AcDbLine
  10
16.91402
  20
2.319547
  30
0
  11
16.97002
  21
2.283934
  31
0
  0
LINE
  5
4d7
  100
AcDbEntity
  8
1
  100
AcDbLine
  10
16.97002
  20
2.283934
  30
0
  11
17.02602
  21
2.248206
  31
0
  0
LINE
  5
4d8
  100
AcDbEntity
  8
1
  100
AcDbLine
  10
17.02602
  20
2.248206
  30
0
  11
17.08202
  21
2.212363
  31
0
  0
LINE
  5
4d9
  100
AcDbEntity
  8
1
  100
AcDbLine
  10
17.08202
  20
2.212363
  30
0
  11
17.13802
  21
2.176407
  31
0
  0
LINE
  5
4da
  100
AcDbEntity
  8
1
  100
AcDbLine
  10
17.13802
  20
2.176407
  30
0
  11
17.19402
  21
2.140341
  31
0
  0
LINE
  5
4db
  100
AcDbEntity
  8
1
  100
AcDbLine
  10
17.19402
  20
2.140341
  30
0
  11
17.25002
  21
2.104167
  31
0
  0
LINE
  5
4dc
  100
AcDbEntity
  8
1
  100
AcDbLine
  10
17.25002
  20
2.104167
  30
0
  11
17.30602
  21
2.067885
  31
0
  0
LINE
  5
4dd
  100
AcDbEntity
  8
1
  100
AcDbLine
  10
17.30602
  20
2.067885
  30
0
  11
17.36202
  21
2.031498
  31
0
  0
LINE
  5
4de
  100
AcDbEntity
  8
1
  100
AcDbLine
  10
17.36202
  20
2.031498
  30
0
  11
17.41802
  21
1.995008
  31
0
  0
LINE
  5
4df
  100
AcDbEntity
  8
1
  100
AcDbLine
  10
17.41802
  20
1.995008
  30
0
  11
17.47402
  21
1.958416
  31
0
  0
LINE
  5
4e0
  100
AcDbEntity
  8
1
  100
AcDbLine
  10
17.47402
  20
1.958416
  30
0
  11
17.53002
  21
1.921725
  31
0
  0
LINE
  5
4e1
  100
AcDbEntity
  8
1
  100
AcDbLine
  10
17.53002
  20
1.921725
  30
0
  11
17.58602
  21
1.888929
  31
0
  0
LINE
  5
4e2
  100
AcDbEntity
  8
1
  100
AcDbLine
  10
17.58602
  20
1.888929
  30
0
  11
17.64202
  21
1.863868
  31
0
  0
LINE
  5
4e3
  100
AcDbEntity
  8
1
  100
AcDbLine
  10
17.64202
  20
1.863868
  30
0
  11
17.69802
  21
1.839665
  31
0
  0
LINE
  5
4e4
  100
AcDbEntity
  8
1
  100
AcDbLine
  10
17.69802
  20
1.839665
  30
0
  11
17.75402
  21
1.816327
  31
0
  0
LINE
  5
4e5
  100
AcDbEntity
  8
1
  100
AcDbLine
  10
17.75402
  20
1.816327
  30
0
  11
17.81002
  21
1.793862
  31
0
  0
LINE
  5
4e6
  100
AcDbEntity
  8
1
  100
AcDbLine
  10
17.81002
  20
1.793862
  30
0
  11
17.86602
  21
1.772276
  31
0
  0
LINE
  5
4e7
  100
AcDbEntity
  8
1
  100
AcDbLine
  10
17.86602
  20
5.2
  30
0
  11
17.86602
  21
-5.2
  31
0
  0
LINE
  5
4e8
  100
AcDbEntity
  8
1
  100
AcDbLine
  10
17.86602
  20
-5.199829
  30
0
  11
17.81002
  21
-5.25551
  31
0
  0
LINE
  5
4e9
  100
AcDbEntity
  8
1
  100
AcDbLine
  10
17.81002
  20
-5.25551
  30
0
  11
17.75402
  21
-5.311017
  31
0
  0
LINE
  5
4ea
  100
AcDbEntity
  8
1
  100
AcDbLine
  10
17.75402
  20
-5.311017
  30
0
  11
17.69802
  21
-5.366343
  31
0
  0
LINE
  5
4eb
  100
AcDbEntity
  8
1
  100
AcDbLine
  10
17.69802
  20
-5.366343
  30
0
  11
17.64202
  21
-5.421479
  31
0
  0
LINE
  5
4ec
  100
AcDbEntity
  8
1
  100
AcDbLine
  10
17.64202
  20
-5.421479
  30
0
  11
17.58602
  21
-5.476418
  31
0
  0
LINE
  5
4ed
  100
AcDbEntity
  8
1
  100
AcDbLine
  10
17.58602
  20
-5.476418
  30
0
  11
17.53002
  21
-5.494969
  31
0
  0
LINE
  5
4ee
  100
AcDbEntity
  8
1
  100
AcDbLine
  10
17.53002
  20
-5.494969
  30
0
  11
17.47402
  21
-5.493152
  31
0
  0
LINE
  5
4ef
  100
AcDbEntity
  8
1
  100
AcDbLine
  10
17.47402
  20
-5.493152
  30
0
  11
17.41802
  21
-5.491057
  31
0
  0
LINE
  5
4f0
  100
AcDbEntity
  8
1
  100
AcDbLine
  10
17.41802
  20
-5.491057
  30
0
  11
17.36202
  21
-5.488682
  31
0
  0
LINE
  5
4f1
  100
AcDbEntity
  8
1
  100
AcDbLine
  10
17.36202
  20
-5.488682
  30
0
  11
17.30602
  21
-5.486028
  31
0
  0
LINE
  5
4f2
  100
AcDbEntity
  8
1
  100
AcDbLine
  10
17.30602
  20
-5.486028
  30
0
  11
17.25002
  21
-5.483096
  31
0
  0
LINE
  5
4f3
  100
AcDbEntity
  8
1
  100
AcDbLine
  10
17.25002
  20
-5.483096
  30
0
  11
17.19402
  21
-5.479884
  31
0
  0
LINE
  5
4f4
  100
AcDbEntity
  8
1
  100
AcDbLine
  10
17.19402
  20
-5.479884
  30
0
  11
17.13802
  21
-5.476395
  31
0
  0
LINE
  5
4f5
  100
AcDbEntity
  8
1
  100
AcDbLine
  10
17.13802
  20
-5.476395
  30
0
  11
17.08202
  21
-5.472626
  31
0
  0
LINE
  5
4f6
  100
AcDbEntity
  8
1
  100
AcDbLine
  10
17.08202
  20
-5.472626
  30
0
  11
17.02602
  21
-5.46858
  31
0
  0
LINE
  5
4f7
  100
AcDbEntity
  8
1
  100
AcDbLine
  10
17.02602
  20
-5.46858
  30
0
  11
16.97002
  21
-5.464256
  31
0
  0
LINE
  5
4f8
  100
AcDbEntity
  8
1
  100
AcDbLine
  10
16.97002
  20
-5.464256
  30
0
  11
16.91402
  21
-5.459654
  31
0
  0
LINE
  5
4f9
  100
AcDbEntity
  8
1
  100
AcDbLine
  10
16.91402
  20
-5.459654
  30
0
  11
16.85802
  21
-5.454774
  31
0
  0
LINE
  5
4fa
  100
AcDbEntity
  8
1
  100
AcDbLine
  10
16.85802
  20
-5.454774
  30
0
  11
16.80202
  21
-5.449617
  31
0
  0
LINE
  5
4fb
  100
AcDbEntity
  8
1
  100
AcDbLine
  10
16.80202
  20
-5.449617
  30
0
  11
16.74602
  21
-5.444184
  31
0
  0
LINE
  5
4fc
  100
AcDbEntity
  8
1
  100
AcDbLine
  10
16.74602
  20
-5.444184
  30
0
  11
16.69002
  21
-5.438473
  31
0
  0
LINE
  5
4fd
  100
AcDbEntity
  8
1
  100
AcDbLine
  10
16.69002
  20
-5.438473
  30
0
  11
16.63402
  21
-5.432486
  31
0
  0
LINE
  5
4fe
  100
AcDbEntity
  8
1
  100
AcDbLine
  10
16.63402
  20
-5.432486
  30
0
  11
16.57802
  21
-5.426223
  31
0
  0
LINE
  5
4ff
  100
AcDbEntity
  8
1
  100
AcDbLine
  10
16.57802
  20
-5.426223
  30
0
  11
16.52202
  21
-5.419684
  31
0
  0
LINE
  5
500
  100
AcDbEntity
  8
1
  100
AcDbLine
  10
16.52202
  20
-5.419684
  30
0
  11
16.46602
  21
-5.41287
  31
0
  0
LINE
  5
501
  100
AcDbEntity
  8
1
  100
AcDbLine
  10
16.46602
  20
-5.41287
  30
0
  11
16.41002
  21
-5.405781
  31
0
  0
LINE
  5
502
  100
AcDbEntity
  8
1
  100
AcDbLine
  10
16.41002
  20
-5.405781
  30
0
  11
16.35402
  21
-5.398417
  31
0
  0
LINE
  5
503
  100
AcDbEntity
  8
1
  100
AcDbLine
  10
16.35402
  20
-5.398417
  30
0
  11
16.29802
  21
-5.390778
  31
0
  0
LINE
  5
504
  100
AcDbEntity
  8
1
  100
AcDbLine
  10
16.29802
  20
-5.390778
  30
0
  11
16.24202
  21
-5.382865
  31
0
  0
LINE
  5
505
  100
AcDbEntity
  8
1
  100
AcDbLine
  10
16.24202
  20
-5.382865
  30
0
  11
16.18602
  21
-5.374679
  31
0
  0
LINE
  5
506
  100
AcDbEntity
  8
1
  100
AcDbLine
  10
16.18602
  20
-5.374679
  30
0
  11
16.13002
  21
-5.36622
  31
0
  0
LINE
  5
507
  100
AcDbEntity
  8
1
  100
AcDbLine
  10
16.13002
  20
-5.36622
  30
0
  11
16.07402
  21
-5.357488
  31
0
  0
LINE
  5
508
  100
AcDbEntity
  8
1
  100
AcDbLine
  10
16.07402
  20
-5.357488
  30
0
  11
16.01802
  21
-5.348483
  31
0
  0
LINE
  5
509
  100
AcDbEntity
  8
1
  100
AcDbLine
  10
16.01802
  20
-5.348483
  30
0
  11
15.96202
  21
-5.339207
  31
0
  0
LINE
  5
50a
  100
AcDbEntity
  8
1
  100
AcDbLine
  10
15.96202
  20
-5.339207
  30
0
  11
15.90602
  21
-5.329659
  31
0
  0
LINE
  5
50b
  100
AcDbEntity
  8
1
  100
AcDbLine
  10
15.90602
  20
-5.329659
  30
0
  11
15.85002
  21
-5.319841
  31
0
  0
LINE
  5
50c
  100
AcDbEntity
  8
1
  100
AcDbLine
  10
15.85002
  20
-5.319841
  30
0
  11
15.79402
  21
-5.309752
  31
0
  0
LINE
  5
50d
  100
AcDbEntity
  8
1
  100
AcDbLine
  10
15.79402
  20
-5.309752
  30
0
  11
15.73802
  21
-5.299393
  31
0
  0
LINE
  5
50e
  100
AcDbEntity
  8
1
  100
AcDbLine
  10
15.73802
  20
-5.299393
  30
0
  11
15.68202
  21
-5.288765
  31
0
  0
LINE
  5
50f
  100
AcDbEntity
  8
1
  100
AcDbLine
  10
15.68202
  20
-5.288765
  30
0
  11
15.62602
  21
-5.277868
  31
0
  0
LINE
  5
510
  100
AcDbEntity
  8
1
  100
AcDbLine
  10
15.62602
  20
-5.277868
  30
0
  11
15.57002
  21
-5.266702
  31
0
  0
LINE
  5
511
  100
AcDbEntity
  8
1
  100
AcDbLine
  10
15.57002
  20
-5.266702
  30
0
  11
15.51402
  21
-5.255269
  31
0
  0
LINE
  5
512
  100
AcDbEntity
  8
1
  100
AcDbLine
  10
15.51402
  20
-5.255269
  30
0
  11
15.45802
  21
-5.243569
  31
0
  0
LINE
  5
513
  100
AcDbEntity
  8
1
  100
AcDbLine
  10
15.45802
  20
-5.243569
  30
0
  11
15.40202
  21
-5.231603
  31
0
  0
LINE
  5
514
  100
AcDbEntity
  8
1
  100
AcDbLine
  10
15.40202
  20
-5.231603
  30
0
  11
15.34602
  21
-5.21937
  31
0
  0
LINE
  5
515
  100
AcDbEntity
  8
1
  100
AcDbLine
  10
15.34602
  20
-5.21937
  30
0
  11
15.29002
  21
-5.206872
  31
0
  0
LINE
  5
516
  100
AcDbEntity
  8
1
  100
AcDbLine
  10
15.29002
  20
-5.206872
  30
0
  11
15.23402
  21
-5.19411
  31
0
  0
LINE
  5
517
  100
AcDbEntity
  8
1
  100
AcDbLine
  10
15.23402
  20
-5.19411
  30
0
  11
15.17802
  21
-5.181084
  31
0
  0
LINE
  5
518
  100
AcDbEntity
  8
1
  100
AcDbLine
  10
15.17802
  20
-5.181084
  30
0
  11
15.12202
  21
-5.167794
  31
0
  0
LINE
  5
519
  100
AcDbEntity
  8
1
  100
AcDbLine
  10
15.12202
  20
-5.167794
  30
0
  11
15.06602
  21
-5.154241
  31
0
  0
LINE
  5
51a
  100
AcDbEntity
  8
1
  100
AcDbLine
  10
15.06602
  20
-5.154241
  30
0
  11
15.01002
  21
-5.140427
  31
0
  0
LINE
  5
51b
  100
AcDbEntity
  8
1
  100
AcDbLine
  10
15.01002
  20
-5.140427
  30
0
  11
14.95402
  21
-5.126351
  31
0
  0
LINE
  5
51c
  100
AcDbEntity
  8
1
  100
AcDbLine
  10
14.95402
  20
-5.126351
  30
0
  11
14.89802
  21
-5.112015
  31
0
  0
LINE
  5
51d
  100
AcDbEntity
  8
1
  100
AcDbLine
  10
14.89802
  20
-5.112015
  30
0
  11
14.84202
  21
-5.097419
  31
0
  0
LINE
  5
51e
  100
AcDbEntity
  8
1
  100
AcDbLine
  10
14.84202
  20
-5.097419
  30
0
  11
14.78602
  21
-5.082563
  31
0
  0
LINE
  5
51f
  100
AcDbEntity
  8
1
  100
AcDbLine
  10
14.78602
  20
-5.082563
  30
0
  11
14.73002
  21
-5.06745
  31
0
  0
LINE
  5
520
  100
AcDbEntity
  8
1
  100
AcDbLine
  10
14.73002
  20
-5.06745
  30
0
  11
14.67402
  21
-5.052079
  31
0
  0
LINE
  5
521
  100
AcDbEntity
  8
1
  100
AcDbLine
  10
14.67402
  20
-5.052079
  30
0
  11
14.61802
  21
-5.036451
  31
0
  0
LINE
  5
522
  100
AcDbEntity
  8
1
  100
AcDbLine
  10
14.61802
  20
-5.036451
  30
0
  11
14.56202
  21
-5.020567
  31
0
  0
LINE
  5
523
  100
AcDbEntity
  8
1
  100
AcDbLine
  10
14.56202
  20
-5.020567
  30
0
  11
14.50602
  21
-5.004428
  31
0
  0
LINE
  5
524
  100
AcDbEntity
  8
1
  100
AcDbLine
  10
14.50602
  20
-5.004428
  30
0
  11
14.45002
  21
-4.988034
  31
0
  0
LINE
  5
525
  100
AcDbEntity
  8
1
  100
AcDbLine
  10
14.45002
  20
-4.988034
  30
0
  11
14.39402
  21
-4.971387
  31
0
  0
LINE
  5
526
  100
AcDbEntity
  8
1
  100
AcDbLine
  10
14.39402
  20
-4.971387
  30
0
  11
14.33802
  21
-4.954488
  31
0
  0
LINE
  5
527
  100
AcDbEntity
  8
1
  100
AcDbLine
  10
14.33802
  20
-4.954488
  30
0
  11
14.28202
  21
-4.937336
  31
0
  0
LINE
  5
528
  100
AcDbEntity
  8
1
  100
AcDbLine
  10
14.28202
  20
-4.937336
  30
0
  11
14.22602
  21
-4.919934
  31
0
  0
LINE
  5
529
  100
AcDbEntity
  8
1
  100
AcDbLine
  10
14.22602
  20
-4.919934
  30
0
  11
14.17002
  21
-4.902281
  31
0
  0
LINE
  5
52a
  100
AcDbEntity
  8
1
  100
AcDbLine
  10
14.17002
  20
-4.902281
  30
0
  11
14.11402
  21
-4.884379
  31
0
  0
LINE
  5
52b
  100
AcDbEntity
  8
1
  100
AcDbLine
  10
14.11402
  20
-4.884379
  30
0
  11
14.05802
  21
-4.866229
  31
0
  0
LINE
  5
52c
  100
AcDbEntity
  8
1
  100
AcDbLine
  10
14.05802
  20
-4.866229
  30
0
  11
14.00202
  21
-4.847832
  31
0
  0
LINE
  5
52d
  100
AcDbEntity
  8
1
  100
AcDbLine
  10
14.00202
  20
-4.847832
  30
0
  11
13.94602
  21
-4.829188
  31
0
  0
LINE
  5
52e
  100
AcDbEntity
  8
1
  100
AcDbLine
  10
13.94602
  20
-4.829188
  30
0
  11
13.89002
  21
-4.810299
  31
0
  0
LINE
  5
52f
  100
AcDbEntity
  8
1
  100
AcDbLine
  10
13.89002
  20
-4.810299
  30
0
  11
13.83402
  21
-4.791166
  31
0
  0
LINE
  5
530
  100
AcDbEntity
  8
1
  100
AcDbLine
  10
13.83402
  20
-4.791166
  30
0
  11
13.77802
  21
-4.771788
  31
0
  0
LINE
  5
531
  100
AcDbEntity
  8
1
  100
AcDbLine
  10
13.77802
  20
-4.771788
  30
0
  11
13.72202
  21
-4.752169
  31
0
  0
LINE
  5
532
  100
AcDbEntity
  8
1
  100
AcDbLine
  10
13.72202
  20
-4.752169
  30
0
  11
13.66602
  21
-4.732307
  31
0
  0
LINE
  5
533
  100
AcDbEntity
  8
1
  100
AcDbLine
  10
13.66602
  20
-4.732307
  30
0
  11
13.61002
  21
-4.712206
  31
0
  0
LINE
  5
534
  100
AcDbEntity
  8
1
  100
AcDbLine
  10
13.61002
  20
-4.712206
  30
0
  11
13.55402
  21
-4.691864
  31
0
  0
LINE
  5
535
  100
AcDbEntity
  8
1
  100
AcDbLine
  10
13.55402
  20
-4.691864
  30
0
  11
13.49802
  21
-4.671285
  31
0
  0
LINE
  5
536
  100
AcDbEntity
  8
1
  100
AcDbLine
  10
13.49802
  20
-4.671285
  30
0
  11
13.44202
  21
-4.650467
  31
0
  0
LINE
  5
537
  100
AcDbEntity
  8
1
  100
AcDbLine
  10
13.44202
  20
-4.650467
  30
0
  11
13.38602
  21
-4.629414
  31
0
  0
LINE
  5
538
  100
AcDbEntity
  8
1
  100
AcDbLine
  10
13.38602
  20
-4.629414
  30
0
  11
13.33002
  21
-4.608125
  31
0
  0
LINE
  5
539
  100
AcDbEntity
  8
1
  100
AcDbLine
  10
13.33002
  20
-4.608125
  30
0
  11
13.27402
  21
-4.586602
  31
0
  0
LINE
  5
53a
  100
AcDbEntity
  8
1
  100
AcDbLine
  10
13.27402
  20
-4.586602
  30
0
  11
13.21802
  21
-4.564845
  31
0
  0
LINE
  5
53b
  100
AcDbEntity
  8
1
  100
AcDbLine
  10
13.21802
  20
-4.564845
  30
0
  11
13.16202
  21
-4.542857
  31
0
  0
LINE
  5
53c
  100
AcDbEntity
  8
1
  100
AcDbLine
  10
13.16202
  20
-4.542857
  30
0
  11
13.10602
  21
-4.520638
  31
0
  0
LINE
  5
53d
  100
AcDbEntity
  8
1
  100
AcDbLine
  10
13.10602
  20
-4.520638
  30
0
  11
13.05002
  21
-4.498189
  31
0
  0
LINE
  5
53e
  100
AcDbEntity
  8
1
  100
AcDbLine
  10
13.05002
  20
-4.498189
  30
0
  11
12.99402
  21
-4.475511
  31
0
  0
LINE
  5
53f
  100
AcDbEntity
  8
1
  100
AcDbLine
  10
12.99402
  20
-4.475511
  30
0
  11
12.93802
  21
-4.452606
  31
0
  0
LINE
  5
540
  100
AcDbEntity
  8
1
  100
AcDbLine
  10
12.93802
  20
-4.452606
  30
0
  11
12.88202
  21
-4.429475
  31
0
  0
LINE
  5
541
  100
AcDbEntity
  8
1
  100
AcDbLine
  10
12.88202
  20
-4.429475
  30
0
  11
12.82602
  21
-4.406118
  31
0
  0
LINE
  5
542
  100
AcDbEntity
  8
1
  100
AcDbLine
  10
12.82602
  20
-4.406118
  30
0
  11
12.77002
  21
-4.382538
  31
0
  0
LINE
  5
543
  100
AcDbEntity
  8
1
  100
AcDbLine
  10
12.77002
  20
-4.382538
  30
0
  11
12.71402
  21
-4.358735
  31
0
  0
LINE
  5
544
  100
AcDbEntity
  8
1
  100
AcDbLine
  10
12.71402
  20
-4.358735
  30
0
  11
12.65802
  21
-4.33471
  31
0
  0
LINE
  5
545
  100
AcDbEntity
  8
1
  100
AcDbLine
  10
12.65802
  20
-4.33471
  30
0
  11
12.60202
  21
-4.310465
  31
0
  0
LINE
  5
546
  100
AcDbEntity
  8
1
  100
AcDbLine
  10
12.60202
  20
-4.310465
  30
0
  11
12.54602
  21
-4.286001
  31
0
  0
LINE
  5
547
  100
AcDbEntity
  8
1
  100
AcDbLine
  10
12.54602
  20
-4.286001
  30
0
  11
12.49002
  21
-4.261319
  31
0
  0
LINE
  5
548
  100
AcDbEntity
  8
1
  100
AcDbLine
  10
12.49002
  20
-4.261319
  30
0
  11
12.43402
  21
-4.23642
  31
0
  0
LINE
  5
549
  100
AcDbEntity
  8
1
  100
AcDbLine
  10
12.43402
  20
-4.23642
  30
0
  11
12.37802
  21
-4.211306
  31
0
  0
LINE
  5
54a
  100
AcDbEntity
  8
1
  100
AcDbLine
  10
12.37802
  20
-4.211306
  30
0
  11
12.32202
  21
-4.185978
  31
0
  0
LINE
  5
54b
  100
AcDbEntity
  8
1
  100
AcDbLine
  10
12.32202
  20
-4.185978
  30
0
  11
12.26602
  21
-4.160437
  31
0
  0
LINE
  5
54c
  100
AcDbEntity
  8
1
  100
AcDbLine
  10
12.26602
  20
-4.160437
  30
0
  11
12.21002
  21
-4.134685
  31
0
  0
LINE
  5
54d
  100
AcDbEntity
  8
1
  100
AcDbLine
  10
12.21002
  20
-4.134685
  30
0
  11
12.15402
  21
-4.108723
  31
0
  0
LINE
  5
54e
  100
AcDbEntity
  8
1
  100
AcDbLine
  10
12.15402
  20
-4.108723
  30
0
  11
12.09802
  21
-4.082551
  31
0
  0
LINE
  5
54f
  100
AcDbEntity
  8
1
  100
AcDbLine
  10
12.09802
  20
-4.082551
  30
0
  11
12.04202
  21
-4.056173
  31
0
  0
LINE
  5
550
  100
AcDbEntity
  8
1
  100
AcDbLine
  10
12.04202
  20
-4.056173
  30
0
  11
11.98602
  21
-4.029588
  31
0
  0
LINE
  5
551
  100
AcDbEntity
  8
1
  100
AcDbLine
  10
11.98602
  20
-4.029588
  30
0
  11
11.93002
  21
-4.002798
  31
0
  0
LINE
  5
552
  100
AcDbEntity
  8
1
  100
AcDbLine
  10
11.93002
  20
-4.002798
  30
0
  11
11.87402
  21
-3.975805
  31
0
  0
LINE
  5
553
  100
AcDbEntity
  8
1
  100
AcDbLine
  10
11.87402
  20
-3.975805
  30
0
  11
11.81802
  21
-3.948609
  31
0
  0
LINE
  5
554
  100
AcDbEntity
  8
1
  100
AcDbLine
  10
11.81802
  20
-3.948609
  30
0
  11
11.76202
  21
-3.921214
  31
0
  0
LINE
  5
555
  100
AcDbEntity
  8
1
  100
AcDbLine
  10
11.76202
  20
-3.921214
  30
0
  11
11.70602
  21
-3.893618
  31
0
  0
LINE
  5
556
  100
AcDbEntity
  8
1
  100
AcDbLine
  10
11.70602
  20
-3.893618
  30
0
  11
11.65002
  21
-3.865825
  31
0
  0
LINE
  5
557
  100
AcDbEntity
  8
1
  100
AcDbLine
  10
11.65002
  20
-3.865825
  30
0
  11
11.59402
  21
-3.837835
  31
0
  0
LINE
  5
558
  100
AcDbEntity
  8
1
  100
AcDbLine
  10
11.59402
  20
-3.837835
  30
0
  11
11.53802
  21
-3.809651
  31
0
  0
LINE
  5
559
  100
AcDbEntity
  8
1
  100
AcDbLine
  10
11.53802
  20
-3.809651
  30
0
  11
11.48202
  21
-3.781272
  31
0
  0
LINE
  5
55a
  100
AcDbEntity
  8
1
  100
AcDbLine
  10
11.48202
  20
-3.781272
  30
0
  11
11.42602
  21
-3.752702
  31
0
  0
LINE
  5
55b
  100
AcDbEntity
  8
1
  100
AcDbLine
  10
11.42602
  20
-3.752702
  30
0
  11
11.37002
  21
-3.72394
  31
0
  0
LINE
  5
55c
  100
AcDbEntity
  8
1
  100
AcDbLine
  10
11.37002
  20
-3.72394
  30
0
  11
11.31402
  21
-3.69499
  31
0
  0
LINE
  5
55d
  100
AcDbEntity
  8
1
  100
AcDbLine
  10
11.31402
  20
-3.69499
  30
0
  11
11.25802
  21
-3.665851
  31
0
  0
LINE
  5
55e
  100
AcDbEntity
  8
1
  100
AcDbLine
  10
11.25802
  20
-3.665851
  30
0
  11
11.20202
  21
-3.636527
  31
0
  0
LINE
  5
55f
  100
AcDbEntity
  8
1
  100
AcDbLine
  10
11.20202
  20
-3.636527
  30
0
  11
11.14602
  21
-3.607017
  31
0
  0
LINE
  5
560
  100
AcDbEntity
  8
1
  100
AcDbLine
  10
11.14602
  20
-3.607017
  30
0
  11
11.09002
  21
-3.577324
  31
0
  0
LINE
  5
561
  100
AcDbEntity
  8
1
  100
AcDbLine
  10
11.09002
  20
-3.577324
  30
0
  11
11.03402
  21
-3.547449
  31
0
  0
LINE
  5
562
  100
AcDbEntity
  8
1
  100
AcDbLine
  10
11.03402
  20
-3.547449
  30
0
  11
10.97802
  21
-3.517394
  31
0
  0
LINE
  5
563
  100
AcDbEntity
  8
1
  100
AcDbLine
  10
10.97802
  20
-3.517394
  30
0
  11
10.92202
  21
-3.487161
  31
0
  0
LINE
  5
564
  100
AcDbEntity
  8
1
  100
AcDbLine
  10
10.92202
  20
-3.487161
  30
0
  11
10.86602
  21
-3.45675
  31
0
  0
LINE
  5
565
  100
AcDbEntity
  8
1
  100
AcDbLine
  10
10.86602
  20
-3.45675
  30
0
  11
10.81002
  21
-3.426163
  31
0
  0
LINE
  5
566
  100
AcDbEntity
  8
1
  100
AcDbLine
  10
10.81002
  20
-3.426163
  30
0
  11
10.75402
  21
-3.395402
  31
0
  0
LINE
  5
567
  100
AcDbEntity
  8
1
  100
AcDbLine
  10
10.75402
  20
-3.395402
  30
0
  11
10.69802
  21
-3.364468
  31
0
  0
LINE
  5
568
  100
AcDbEntity
  8
1
  100
AcDbLine
  10
10.69802
  20
-3.364468
  30
0
  11
10.64202
  21
-3.333364
  31
0
  0
LINE
  5
569
  100
AcDbEntity
  8
1
  100
AcDbLine
  10
10.64202
  20
-3.333364
  30
0
  11
10.58602
  21
-3.30209
  31
0
  0
LINE
  5
56a
  100
AcDbEntity
  8
1
  100
AcDbLine
  10
10.58602
  20
-3.30209
  30
0
  11
10.53002
  21
-3.270648
  31
0
  0
LINE
  5
56b
  100
AcDbEntity
  8
1
  100
AcDbLine
  10
10.53002
  20
-3.270648
  30
0
  11
10.47402
  21
-3.23904
  31
0
  0
LINE
  5
56c
  100
AcDbEntity
  8
1
  100
AcDbLine
  10
10.47402
  20
-3.23904
  30
0
  11
10.41802
  21
-3.207267
  31
0
  0
LINE
  5
56d
  100
AcDbEntity
  8
1
  100
AcDbLine
  10
10.41802
  20
-3.207267
  30
0
  11
10.36202
  21
-3.175332
  31
0
  0
LINE
  5
56e
  100
AcDbEntity
  8
1
  100
AcDbLine
  10
10.36202
  20
-3.175332
  30
0
  11
10.30602
  21
-3.143235
  31
0
  0
LINE
  5
56f
  100
AcDbEntity
  8
1
  100
AcDbLine
  10
10.30602
  20
-3.143235
  30
0
  11
10.25002
  21
-3.110978
  31
0
  0
LINE
  5
570
  100
AcDbEntity
  8
1
  100
AcDbLine
  10
10.25002
  20
-3.110978
  30
0
  11
10.19402
  21
-3.078563
  31
0
  0
LINE
  5
571
  100
AcDbEntity
  8
1
  100
AcDbLine
  10
10.19402
  20
-3.078563
  30
0
  11
10.13802
  21
-3.045992
  31
0
  0
LINE
  5
572
  100
AcDbEntity
  8
1
  100
AcDbLine
  10
10.13802
  20
-3.045992
  30
0
  11
10.08202
  21
-3.013265
  31
0
  0
LINE
  5
573
  100
AcDbEntity
  8
1
  100
AcDbLine
  10
10.08202
  20
-3.013265
  30
0
  11
10.02602
  21
-2.980386
  31
0
  0
LINE
  5
574
  100
AcDbEntity
  8
1
  100
AcDbLine
  10
10.02602
  20
-2.980386
  30
0
  11
9.97002
  21
-2.947355
  31
0
  0
LINE
  5
575
  100
AcDbEntity
  8
1
  100
AcDbLine
  10
9.97002
  20
-2.947355
  30
0
  11
9.91402
  21
-2.914174
  31
0
  0
LINE
  5
576
  100
AcDbEntity
  8
1
  100
AcDbLine
  10
9.91402
  20
-2.914174
  30
0
  11
9.85802
  21
-2.880845
  31
0
  0
LINE
  5
577
  100
AcDbEntity
  8
1
  100
AcDbLine
  10
9.85802
  20
-2.880845
  30
0
  11
9.80202
  21
-2.84737
  31
0
  0
LINE
  5
578
  100
AcDbEntity
  8
1
  100
AcDbLine
  10
9.80202
  20
-2.84737
  30
0
  11
9.74602
  21
-2.81375
  31
0
  0
LINE
  5
579
  100
AcDbEntity
  8
1
  100
AcDbLine
  10
9.74602
  20
-2.81375
  30
0
  11
9.69002
  21
-2.779987
  31
0
  0
LINE
  5
57a
  100
AcDbEntity
  8
1
  100
AcDbLine
  10
9.69002
  20
-2.779987
  30
0
  11
9.63402
  21
-2.746083
  31
0
  0
LINE
  5
57b
  100
AcDbEntity
  8
1
  100
AcDbLine
  10
9.63402
  20
-2.746083
  30
0
  11
9.57802
  21
-2.712039
  31
0
  0
LINE
  5
57c
  100
AcDbEntity
  8
1
  100
AcDbLine
  10
9.57802
  20
-2.712039
  30
0
  11
9.52202
  21
-2.677857
  31
0
  0
LINE
  5
57d
  100
AcDbEntity
  8
1
  100
AcDbLine
  10
9.52202
  20
-2.677857
  30
0
  11
9.46602
  21
-2.64354
  31
0
  0
LINE
  5
57e
  100
AcDbEntity
  8
1
  100
AcDbLine
  10
9.46602
  20
-2.64354
  30
0
  11
9.41002
  21
-2.609087
  31
0
  0
LINE
  5
57f
  100
AcDbEntity
  8
1
  100
AcDbLine
  10
9.41002
  20
-2.609087
  30
0
  11
9.35402
  21
-2.574503
  31
0
  0
LINE
  5
580
  100
AcDbEntity
  8
1
  100
AcDbLine
  10
9.35402
  20
-2.574503
  30
0
  11
9.29802
  21
-2.539787
  31
0
  0
LINE
  5
581
  100
AcDbEntity
  8
1
  100
AcDbLine
  10
9.29802
  20
-2.539787
  30
0
  11
9.24202
  21
-2.504942
  31
0
  0
LINE
  5
582
  100
AcDbEntity
  8
1
  100
AcDbLine
  10
9.24202
  20
-2.504942
  30
0
  11
9.18602
  21
-2.46997
  31
0
  0
LINE
  5
583
  100
AcDbEntity
  8
1
  100
AcDbLine
  10
9.18602
  20
-2.46997
  30
0
  11
9.13002
  21
-2.434872
  31
0
  0
LINE
  5
584
  100
AcDbEntity
  8
1
  100
AcDbLine
  10
9.13002
  20
-2.434872
  30
0
  11
9.07402
  21
-2.399651
  31
0
  0
LINE
  5
585
  100
AcDbEntity
  8
1
  100
AcDbLine
  10
9.07402
  20
-2.399651
  30
0
  11
9.01802
  21
-2.364308
  31
0
  0
LINE
  5
586
  100
AcDbEntity
  8
1
  100
AcDbLine
  10
9.01802
  20
-2.364308
  30
0
  11
8.96202
  21
-2.328844
  31
0
  0
LINE
  5
587
  100
AcDbEntity
  8
1
  100
AcDbLine
  10
8.96202
  20
-2.328844
  30
0
  11
8.90602
  21
-2.293262
  31
0
  0
LINE
  5
588
  100
AcDbEntity
  8
1
  100
AcDbLine
  10
8.90602
  20
-2.293262
  30
0
  11
8.85002
  21
-2.257564
  31
0
  0
LINE
  5
589
  100
AcDbEntity
  8
1
  100
AcDbLine
  10
8.85002
  20
-2.257564
  30
0
  11
8.79402
  21
-2.221751
  31
0
  0
LINE
  5
58a
  100
AcDbEntity
  8
1
  100
AcDbLine
  10
8.79402
  20
-2.221751
  30
0
  11
8.73802
  21
-2.185825
  31
0
  0
LINE
  5
58b
  100
AcDbEntity
  8
1
  100
AcDbLine
  10
8.73802
  20
-2.185825
  30
0
  11
8.68202
  21
-2.149787
  31
0
  0
LINE
  5
58c
  100
AcDbEntity
  8
1
  100
AcDbLine
  10
8.68202
  20
-2.149787
  30
0
  11
8.62602
  21
-2.113641
  31
0
  0
LINE
  5
58d
  100
AcDbEntity
  8
1
  100
AcDbLine
  10
8.62602
  20
-2.113641
  30
0
  11
8.57002
  21
-2.077387
  31
0
  0
LINE
  5
58e
  100
AcDbEntity
  8
1
  100
AcDbLine
  10
8.57002
  20
-2.077387
  30
0
  11
8.51402
  21
-2.041027
  31
0
  0
LINE
  5
58f
  100
AcDbEntity
  8
1
  100
AcDbLine
  10
8.51402
  20
-2.041027
  30
0
  11
8.45802
  21
-2.004564
  31
0
  0
LINE
  5
590
  100
AcDbEntity
  8
1
  100
AcDbLine
  10
8.45802
  20
-2.004564
  30
0
  11
8.40202
  21
-1.967999
  31
0
  0
LINE
  5
591
  100
AcDbEntity
  8
1
  100
AcDbLine
  10
8.40202
  20
-1.967999
  30
0
  11
8.34602
  21
-1.931334
  31
0
  0
LINE
  5
592
  100
AcDbEntity
  8
1
  100
AcDbLine
  10
8.34602
  20
-1.931334
  30
0
  11
8.29002
  21
-1.89457
  31
0
  0
LINE
  5
593
  100
AcDbEntity
  8
1
  100
AcDbLine
  10
8.29002
  20
-1.89457
  30
0
  11
8.23402
  21
-1.857711
  31
0
  0
LINE
  5
594
  100
AcDbEntity
  8
1
  100
AcDbLine
  10
8.23402
  20
-1.857711
  30
0
  11
8.17802
  21
-1.820757
  31
0
  0
LINE
  5
595
  100
AcDbEntity
  8
1
  100
AcDbLine
  10
8.17802
  20
-1.820757
  30
0
  11
8.12202
  21
-1.78371
  31
0
  0
LINE
  5
596
  100
AcDbEntity
  8
1
  100
AcDbLine
  10
8.12202
  20
-1.78371
  30
0
  11
8.06602
  21
-1.746573
  31
0
  0
LINE
  5
597
  100
AcDbEntity
  8
1
  100
AcDbLine
  10
8.06602
  20
-1.746573
  30
0
  11
8.01002
  21
-1.709347
  31
0
  0
LINE
  5
598
  100
AcDbEntity
  8
1
  100
AcDbLine
  10
8.01002
  20
-1.709347
  30
0
  11
7.95402
  21
-1.672034
  31
0
  0
LINE
  5
599
  100
AcDbEntity
  8
1
  100
AcDbLine
  10
7.95402
  20
-1.672034
  30
0
  11
7.89802
  21
-1.634636
  31
0
  0
LINE
  5
59a
  100
AcDbEntity
  8
1
  100
AcDbLine
  10
7.89802
  20
-1.634636
  30
0
  11
7.84202
  21
-1.597155
  31
0
  0
LINE
  5
59b
  100
AcDbEntity
  8
1
  100
AcDbLine
  10
7.84202
  20
-1.597155
  30
0
  11
7.78602
  21
-1.559593
  31
0
  0
LINE
  5
59c
  100
AcDbEntity
  8
1
  100
AcDbLine
  10
7.78602
  20
-1.559593
  30
0
  11
7.73002
  21
-1.521951
  31
0
  0
LINE
  5
59d
  100
AcDbEntity
  8
1
  100
AcDbLine
  10
7.73002
  20
-1.521951
  30
0
  11
7.67402
  21
-1.484232
  31
0
  0
LINE
  5
59e
  100
AcDbEntity
  8
1
  100
AcDbLine
  10
7.67402
  20
-1.484232
  30
0
  11
7.61802
  21
-1.446438
  31
0
  0
LINE
  5
59f
  100
AcDbEntity
  8
1
  100
AcDbLine
  10
7.61802
  20
-1.446438
  30
0
  11
7.56202
  21
-1.40857
  31
0
  0
LINE
  5
5a0
  100
AcDbEntity
  8
1
  100
AcDbLine
  10
7.56202
  20
-1.40857
  30
0
  11
7.50602
  21
-1.370631
  31
0
  0
LINE
  5
5a1
  100
AcDbEntity
  8
1
  100
AcDbLine
  10
7.50602
  20
-1.370631
  30
0
  11
7.45002
  21
-1.332622
  31
0
  0
LINE
  5
5a2
  100
AcDbEntity
  8
1
  100
AcDbLine
  10
7.45002
  20
-1.332622
  30
0
  11
7.39402
  21
-1.294545
  31
0
  0
LINE
  5
5a3
  100
AcDbEntity
  8
1
  100
AcDbLine
  10
7.39402
  20
-1.294545
  30
0
  11
7.33802
  21
-1.256403
  31
0
  0
LINE
  5
5a4
  100
AcDbEntity
  8
1
  100
AcDbLine
  10
7.33802
  20
-1.256403
  30
0
  11
7.28202
  21
-1.218196
  31
0
  0
LINE
  5
5a5
  100
AcDbEntity
  8
1
  100
AcDbLine
  10
7.28202
  20
-1.218196
  30
0
  11
7.22602
  21
-1.179928
  31
0
  0
LINE
  5
5a6
  100
AcDbEntity
  8
1
  100
AcDbLine
  10
7.22602
  20
-1.179928
  30
0
  11
7.17002
  21
-1.1416
  31
0
  0
LINE
  5
5a7
  100
AcDbEntity
  8
1
  100
AcDbLine
  10
7.17002
  20
-1.1416
  30
0
  11
7.11402
  21
-1.103213
  31
0
  0
LINE
  5
5a8
  100
AcDbEntity
  8
1
  100
AcDbLine
  10
7.11402
  20
-1.103213
  30
0
  11
7.05802
  21
-1.064771
  31
0
  0
LINE
  5
5a9
  100
AcDbEntity
  8
1
  100
AcDbLine
  10
7.05802
  20
-1.064771
  30
0
  11
7.00202
  21
-1.026274
  31
0
  0
LINE
  5
5aa
  100
AcDbEntity
  8
1
  100
AcDbLine
  10
7.00202
  20
-1.026274
  30
0
  11
6.94602
  21
-0.987726
  31
0
  0
LINE
  5
5ab
  100
AcDbEntity
  8
1
  100
AcDbLine
  10
6.94602
  20
-0.987726
  30
0
  11
6.89002
  21
-0.949127
  31
0
  0
LINE
  5
5ac
  100
AcDbEntity
  8
1
  100
AcDbLine
  10
6.89002
  20
-0.949127
  30
0
  11
6.83402
  21
-0.91048
  31
0
  0
LINE
  5
5ad
  100
AcDbEntity
  8
1
  100
AcDbLine
  10
6.83402
  20
-0.91048
  30
0
  11
6.77802
  21
-0.871786
  31
0
  0
LINE
  5
5ae
  100
AcDbEntity
  8
1
  100
AcDbLine
  10
6.77802
  20
-0.871786
  30
0
  11
6.72202
  21
-0.833048
  31
0
  0
LINE
  5
5af
  100
AcDbEntity
  8
1
  100
AcDbLine
  10
6.72202
  20
-0.833048
  30
0
  11
6.66602
  21
-0.794268
  31
0
  0
LINE
  5
5b0
  100
AcDbEntity
  8
1
  100
AcDbLine
  10
6.66602
  20
-0.794268
  30
0
  11
6.61002
  21
-0.755448
  31
0
  0
LINE
  5
5b1
  100
AcDbEntity
  8
1
  100
AcDbLine
  10
6.61002
  20
-0.755448
  30
0
  11
6.55402
  21
-0.716589
  31
0
  0
LINE
  5
5b2
  100
AcDbEntity
  8
1
  100
AcDbLine
  10
6.55402
  20
-0.716589
  30
0
  11
6.49802
  21
-0.677694
  31
0
  0
LINE
  5
5b3
  100
AcDbEntity
  8
1
  100
AcDbLine
  10
6.49802
  20
-0.677694
  30
0
  11
6.44202
  21
-0.638764
  31
0
  0
LINE
  5
5b4
  100
AcDbEntity
  8
1
  100
AcDbLine
  10
6.44202
  20
-0.638764
  30
0
  11
6.38602
  21
-0.599802
  31
0
  0
LINE
  5
5b5
  100
AcDbEntity
  8
1
  100
AcDbLine
  10
6.38602
  20
-0.599802
  30
0
  11
6.33002
  21
-0.560809
  31
0
  0
LINE
  5
5b6
  100
AcDbEntity
  8
1
  100
AcDbLine
  10
6.33002
  20
-0.560809
  30
0
  11
6.27402
  21
-0.521788
  31
0
  0
LINE
  5
5b7
  100
AcDbEntity
  8
1
  100
AcDbLine
  10
6.27402
  20
-0.521788
  30
0
  11
6.21802
  21
-0.48274
  31
0
  0
LINE
  5
5b8
  100
AcDbEntity
  8
1
  100
AcDbLine
  10
6.21802
  20
-0.48274
  30
0
  11
6.16202
  21
-0.443668
  31
0
  0
LINE
  5
5b9
  100
AcDbEntity
  8
1
  100
AcDbLine
  10
6.16202
  20
-0.443668
  30
0
  11
6.10602
  21
-0.404573
  31
0
  0
LINE
  5
5ba
  100
AcDbEntity
  8
1
  100
AcDbLine
  10
6.10602
  20
-0.404573
  30
0
  11
6.05002
  21
-0.365458
  31
0
  0
LINE
  5
5bb
  100
AcDbEntity
  8
1
  100
AcDbLine
  10
6.05002
  20
-0.365458
  30
0
  11
5.99402
  21
-0.326324
  31
0
  0
LINE
  5
5bc
  100
AcDbEntity
  8
1
  100
AcDbLine
  10
5.99402
  20
-0.326324
  30
0
  11
5.93802
  21
-0.287174
  31
0
  0
LINE
  5
5bd
  100
AcDbEntity
  8
1
  100
AcDbLine
  10
5.93802
  20
-0.287174
  30
0
  11
5.88202
  21
-0.248009
  31
0
  0
LINE
  5
5be
  100
AcDbEntity
  8
1
  100
AcDbLine
  10
5.88202
  20
-0.248009
  30
0
  11
5.82602
  21
-0.208831
  31
0
  0
LINE
  5
5bf
  100
AcDbEntity
  8
1
  100
AcDbLine
  10
5.82602
  20
-0.208831
  30
0
  11
5.77002
  21
-0.169643
  31
0
  0
LINE
  5
5c0
  100
AcDbEntity
  8
1
  100
AcDbLine
  10
5.77002
  20
-0.169643
  30
0
  11
5.71402
  21
-0.130446
  31
0
  0
LINE
  5
5c1
  100
AcDbEntity
  8
1
  100
AcDbLine
  10
5.71402
  20
-0.130446
  30
0
  11
5.65802
  21
-0.091242
  31
0
  0
LINE
  5
5c2
  100
AcDbEntity
  8
1
  100
AcDbLine
  10
5.65802
  20
-0.091242
  30
0
  11
5.60202
  21
-0.052034
  31
0
  0
LINE
  5
5c3
  100
AcDbEntity
  8
1
  100
AcDbLine
  10
5.60202
  20
-0.052034
  30
0
  11
5.54602
  21
-0.012823
  31
0
  0
LINE
  5
5c4
  100
AcDbEntity
  8
1
  100
AcDbLine
  10
5.54602
  20
-0.012823
  30
0
  11
5.49002
  21
0.026389
  31
0
  0
LINE
  5
5c5
  100
AcDbEntity
  8
1
  100
AcDbLine
  10
5.49002
  20
0.026389
  30
0
  11
5.43402
  21
0.065599
  31
0
  0
LINE
  5
5c6
  100
AcDbEntity
  8
1
  100
AcDbLine
  10
5.43402
  20
0.065599
  30
0
  11
5.37802
  21
0.104806
  31
0
  0
LINE
  5
5c7
  100
AcDbEntity
  8
1
  100
AcDbLine
  10
5.37802
  20
0.104806
  30
0
  11
5.32202
  21
0.144007
  31
0
  0
LINE
  5
5c8
  100
AcDbEntity
  8
1
  100
AcDbLine
  10
5.32202
  20
0.144007
  30
0
  11
5.26602
  21
0.183201
  31
0
  0
LINE
  5
5c9
  100
AcDbEntity
  8
1
  100
AcDbLine
  10
5.26602
  20
0.183201
  30
0
  11
5.21002
  21
0.222386
  31
0
  0
LINE
  5
5ca
  100
AcDbEntity
  8
1
  100
AcDbLine
  10
5.21002
  20
0.222386
  30
0
  11
5.15402
  21
0.26156
  31
0
  0
LINE
  5
5cb
  100
AcDbEntity
  8
1
  100
AcDbLine
  10
5.15402
  20
0.26156
  30
0
  11
5.09802
  21
0.30072
  31
0
  0
LINE
  5
5cc
  100
AcDbEntity
  8
1
  100
AcDbLine
  10
5.09802
  20
0.30072
  30
0
  11
5.04202
  21
0.339865
  31
0
  0
LINE
  5
5cd
  100
AcDbEntity
  8
1
  100
AcDbLine
  10
5.04202
  20
0.339865
  30
0
  11
4.98602
  21
0.378993
  31
0
  0
LINE
  5
5ce
  100
AcDbEntity
  8
1
  100
AcDbLine
  10
4.98602
  20
0.378993
  30
0
  11
4.93002
  21
0.418101
  31
0
  0
LINE
  5
5cf
  100
AcDbEntity
  8
1
  100
AcDbLine
  10
4.93002
  20
0.418101
  30
0
  11
4.87402
  21
0.457188
  31
0
  0
LINE
  5
5d0
  100
AcDbEntity
  8
1
  100
AcDbLine
  10
4.87402
  20
0.457188
  30
0
  11
4.81802
  21
0.496252
  31
0
  0
LINE
  5
5d1
  100
AcDbEntity
  8
1
  100
AcDbLine
  10
4.81802
  20
0.496252
  30
0
  11
4.76202
  21
0.535291
  31
0
  0
LINE
  5
5d2
  100
AcDbEntity
  8
1
  100
AcDbLine
  10
4.76202
  20
0.535291
  30
0
  11
4.70602
  21
0.574303
  31
0
  0
LINE
  5
5d3
  100
AcDbEntity
  8
1
  100
AcDbLine
  10
4.70602
  20
0.574303
  30
0
  11
4.65002
  21
0.613285
  31
0
  0
LINE
  5
5d4
  100
AcDbEntity
  8
1
  100
AcDbLine
  10
4.65002
  20
0.613285
  30
0
  11
4.59402
  21
0.652236
  31
0
  0
LINE
  5
5d5
  100
AcDbEntity
  8
1
  100
AcDbLine
  10
4.59402
  20
0.652236
  30
0
  11
4.53802
  21
0.691154
  31
0
  0
LINE
  5
5d6
  100
AcDbEntity
  8
1
  100
AcDbLine
  10
4.53802
  20
0.691154
  30
0
  11
4.48202
  21
0.730037
  31
0
  0
LINE
  5
5d7
  100
AcDbEntity
  8
1
  100
AcDbLine
  10
4.48202
  20
0.730037
  30
0
  11
4.42602
  21
0.768883
  31
0
  0
LINE
  5
5d8
  100
AcDbEntity
  8
1
  100
AcDbLine
  10
4.42602
  20
0.768883
  30
0
  11
4.37002
  21
0.80769
  31
0
  0
LINE
  5
5d9
  100
AcDbEntity
  8
1
  100
AcDbLine
  10
4.37002
  20
0.80769
  30
0
  11
4.31402
  21
0.846455
  31
0
  0
LINE
  5
5da
  100
AcDbEntity
  8
1
  100
AcDbLine
  10
4.31402
  20
0.846455
  30
0
  11
4.25802
  21
0.885178
  31
0
  0
LINE
  5
5db
  100
AcDbEntity
  8
1
  100
AcDbLine
  10
4.25802
  20
0.885178
  30
0
  11
4.20202
  21
0.923855
  31
0
  0
LINE
  5
5dc
  100
AcDbEntity
  8
1
  100
AcDbLine
  10
4.20202
  20
0.923855
  30
0
  11
4.14602
  21
0.962486
  31
0
  0
LINE
  5
5dd
  100
AcDbEntity
  8
1
  100
AcDbLine
  10
4.14602
  20
0.962486
  30
0
  11
4.09002
  21
1.001068
  31
0
  0
LINE
  5
5de
  100
AcDbEntity
  8
1
  100
AcDbLine
  10
4.09002
  20
1.001068
  30
0
  11
4.03402
  21
1.039599
  31
0
  0
LINE
  5
5df
  100
AcDbEntity
  8
1
  100
AcDbLine
  10
4.03402
  20
1.039599
  30
0
  11
3.97802
  21
1.078077
  31
0
  0
LINE
  5
5e0
  100
AcDbEntity
  8
1
  100
AcDbLine
  10
3.97802
  20
1.078077
  30
0
  11
3.92202
  21
1.1165
  31
0
  0
LINE
  5
5e1
  100
AcDbEntity
  8
1
  100
AcDbLine
  10
3.92202
  20
1.1165
  30
0
  11
3.86602
  21
1.154867
  31
0
  0
LINE
  5
5e2
  100
AcDbEntity
  8
1
  100
AcDbLine
  10
3.86602
  20
1.154867
  30
0
  11
3.81002
  21
1.193174
  31
0
  0
LINE
  5
5e3
  100
AcDbEntity
  8
1
  100
AcDbLine
  10
3.81002
  20
1.193174
  30
0
  11
3.75402
  21
1.231421
  31
0
  0
LINE
  5
5e4
  100
AcDbEntity
  8
1
  100
AcDbLine
  10
3.75402
  20
1.231421
  30
0
  11
3.69802
  21
1.269606
  31
0
  0
LINE
  5
5e5
  100
AcDbEntity
  8
1
  100
AcDbLine
  10
3.69802
  20
1.269606
  30
0
  11
3.64202
  21
1.307726
  31
0
  0
LINE
  5
5e6
  100
AcDbEntity
  8
1
  100
AcDbLine
  10
3.64202
  20
1.307726
  30
0
  11
3.58602
  21
1.34578
  31
0
  0
LINE
  5
5e7
  100
AcDbEntity
  8
1
  100
AcDbLine
  10
3.58602
  20
1.34578
  30
0
  11
3.53002
  21
1.383765
  31
0
  0
LINE
  5
5e8
  100
AcDbEntity
  8
1
  100
AcDbLine
  10
3.53002
  20
1.383765
  30
0
  11
3.47402
  21
1.42168
  31
0
  0
LINE
  5
5e9
  100
AcDbEntity
  8
1
  100
AcDbLine
  10
3.47402
  20
1.42168
  30
0
  11
3.41802
  21
1.459522
  31
0
  0
LINE
  5
5ea
  100
AcDbEntity
  8
1
  100
AcDbLine
  10
3.41802
  20
1.459522
  30
0
  11
3.36202
  21
1.49729
  31
0
  0
LINE
  5
5eb
  100
AcDbEntity
  8
1
  100
AcDbLine
  10
3.36202
  20
1.49729
  30
0
  11
3.30602
  21
1.534983
  31
0
  0
LINE
  5
5ec
  100
AcDbEntity
  8
1
  100
AcDbLine
  10
3.30602
  20
1.534983
  30
0
  11
3.25002
  21
1.572597
  31
0
  0
LINE
  5
5ed
  100
AcDbEntity
  8
1
  100
AcDbLine
  10
3.25002
  20
1.572597
  30
0
  11
3.19402
  21
1.610131
  31
0
  0
LINE
  5
5ee
  100
AcDbEntity
  8
1
  100
AcDbLine
  10
3.19402
  20
1.610131
  30
0
  11
3.13802
  21
1.647584
  31
0
  0
LINE
  5
5ef
  100
AcDbEntity
  8
1
  100
AcDbLine
  10
3.13802
  20
1.647584
  30
0
  11
3.08202
  21
1.684952
  31
0
  0
LINE
  5
5f0
  100
AcDbEntity
  8
1
  100
AcDbLine
  10
3.08202
  20
1.684952
  30
0
  11
3.02602
  21
1.722236
  31
0
  0
LINE
  5
5f1
  100
AcDbEntity
  8
1
  100
AcDbLine
  10
3.02602
  20
1.722236
  30
0
  11
2.97002
  21
1.759431
  31
0
  0
LINE
  5
5f2
  100
AcDbEntity
  8
1
  100
AcDbLine
  10
2.97002
  20
1.759431
  30
0
  11
2.91402
  21
1.796537
  31
0
  0
LINE
  5
5f3
  100
AcDbEntity
  8
1
  100
AcDbLine
  10
2.91402
  20
1.796537
  30
0
  11
2.85802
  21
1.833552
  31
0
  0
LINE
  5
5f4
  100
AcDbEntity
  8
1
  100
AcDbLine
  10
2.85802
  20
1.833552
  30
0
  11
2.80202
  21
1.870474
  31
0
  0
LINE
  5
5f5
  100
AcDbEntity
  8
1
  100
AcDbLine
  10
2.80202
  20
1.870474
  30
0
  11
2.74602
  21
1.9073
  31
0
  0
LINE
  5
5f6
  100
AcDbEntity
  8
1
  100
AcDbLine
  10
2.74602
  20
1.9073
  30
0
  11
2.69002
  21
1.94403
  31
0
  0
LINE
  5
5f7
  100
AcDbEntity
  8
1
  100
AcDbLine
  10
2.69002
  20
1.94403
  30
0
  11
2.63402
  21
1.980661
  31
0
  0
LINE
  5
5f8
  100
AcDbEntity
  8
1
  100
AcDbLine
  10
2.63402
  20
1.980661
  30
0
  11
2.57802
  21
2.017191
  31
0
  0
LINE
  5
5f9
  100
AcDbEntity
  8
1
  100
AcDbLine
  10
2.57802
  20
2.017191
  30
0
  11
2.52202
  21
2.053618
  31
0
  0
LINE
  5
5fa
  100
AcDbEntity
  8
1
  100
AcDbLine
  10
2.52202
  20
2.053618
  30
0
  11
2.46602
  21
2.089941
  31
0
  0
LINE
  5
5fb
  100
AcDbEntity
  8
1
  100
AcDbLine
  10
2.46602
  20
2.089941
  30
0
  11
2.41002
  21
2.126158
  31
0
  0
LINE
  5
5fc
  100
AcDbEntity
  8
1
  100
AcDbLine
  10
2.41002
  20
2.126158
  30
0
  11
2.35402
  21
2.162267
  31
0
  0
LINE
  5
5fd
  100
AcDbEntity
  8
1
  100
AcDbLine
  10
2.35402
  20
2.162267
  30
0
  11
2.29802
  21
2.198266
  31
0
  0
LINE
  5
5fe
  100
AcDbEntity
  8
1
  100
AcDbLine
  10
2.29802
  20
2.198266
  30
0
  11
2.24202
  21
2.234154
  31
0
  0
LINE
  5
5ff
  100
AcDbEntity
  8
1
  100
AcDbLine
  10
2.24202
  20
2.234154
  30
0
  11
2.18602
  21
2.269927
  31
0
  0
LINE
  5
600
  100
AcDbEntity
  8
1
  100
AcDbLine
  10
2.18602
  20
2.269927
  30
0
  11
2.13002
  21
2.305586
  31
0
  0
LINE
  5
601
  100
AcDbEntity
  8
1
  100
AcDbLine
  10
2.13002
  20
2.305586
  30
0
  11
2.07402
  21
2.341127
  31
0
  0
LINE
  5
602
  100
AcDbEntity
  8
1
  100
AcDbLine
  10
2.07402
  20
2.341127
  30
0
  11
2.01802
  21
2.376549
  31
0
  0
LINE
  5
603
  100
AcDbEntity
  8
1
  100
AcDbLine
  10
2.01802
  20
2.376549
  30
0
  11
1.96202
  21
2.41185
  31
0
  0
LINE
  5
604
  100
AcDbEntity
  8
1
  100
AcDbLine
  10
1.96202
  20
2.41185
  30
0
  11
1.90602
  21
2.447029
  31
0
  0
LINE
  5
605
  100
AcDbEntity
  8
1
  100
AcDbLine
  10
1.90602
  20
2.447029
  30
0
  11
1.85002
  21
2.48348
  31
0
  0
LINE
  5
606
  100
AcDbEntity
  8
1
  100
AcDbLine
  10
1.85002
  20
2.48348
  30
0
  11
1.79402
  21
2.52343
  31
0
  0
LINE
  5
607
  100
AcDbEntity
  8
1
  100
AcDbLine
  10
1.79402
  20
2.52343
  30
0
  11
1.73802
  21
2.563454
  31
0
  0
LINE
  5
608
  100
AcDbEntity
  8
1
  100
AcDbLine
  10
1.73802
  20
2.563454
  30
0
  11
1.68202
  21
2.603552
  31
0
  0
LINE
  5
609
  100
AcDbEntity
  8
1
  100
AcDbLine
  10
1.68202
  20
2.603552
  30
0
  11
1.62602
  21
2.643718
  31
0
  0
LINE
  5
60a
  100
AcDbEntity
  8
1
  100
AcDbLine
  10
1.62602
  20
2.643718
  30
0
  11
1.57002
  21
2.683939
  31
0
  0
LINE
  5
60b
  100
AcDbEntity
  8
1
  100
AcDbLine
  10
1.57002
  20
2.683939
  30
0
  11
1.51402
  21
2.724129
  31
0
  0
LINE
  5
60c
  100
AcDbEntity
  8
1
  100
AcDbLine
  10
1.51402
  20
2.724129
  30
0
  11
1.45802
  21
2.763878
  31
0
  0
LINE
  5
60d
  100
AcDbEntity
  8
1
  100
AcDbLine
  10
1.45802
  20
2.763878
  30
0
  11
1.40202
  21
2.801579
  31
0
  0
LINE
  5
60e
  100
AcDbEntity
  8
1
  100
AcDbLine
  10
1.40202
  20
2.801579
  30
0
  11
1.34602
  21
2.831938
  31
0
  0
LINE
  5
60f
  100
AcDbEntity
  8
1
  100
AcDbLine
  10
1.34602
  20
2.831938
  30
0
  11
1.29002
  21
2.839677
  31
0
  0
LINE
  5
610
  100
AcDbEntity
  8
1
  100
AcDbLine
  10
1.29002
  20
2.839677
  30
0
  11
1.23402
  21
2.784819
  31
0
  0
LINE
  5
611
  100
AcDbEntity
  8
1
  100
AcDbLine
  10
1.23402
  20
2.784819
  30
0
  11
1.17802
  21
2.56924
  31
0
  0
LINE
  5
612
  100
AcDbEntity
  8
1
  100
AcDbLine
  10
1.17802
  20
2.56924
  30
0
  11
1.12202
  21
1.958721
  31
0
  0
LINE
  5
613
  100
AcDbEntity
  8
1
  100
AcDbLine
  10
1.12202
  20
1.958721
  30
0
  11
1.06602
  21
0.414845
  31
0
  0
LINE
  5
614
  100
AcDbEntity
  8
1
  100
AcDbLine
  10
1.06602
  20
0.414845
  30
0
  11
1.06602
  21
0.178707
  31
0
  0
LINE
  5
615
  100
AcDbEntity
  8
1
  100
AcDbLine
  10
1.06602
  20
0.178707
  30
0
  11
1.12202
  21
-1.333331
  31
0
  0
LINE
  5
616
  100
AcDbEntity
  8
1
  100
AcDbLine
  10
1.12202
  20
-1.333331
  30
0
  11
1.17802
  21
-2.325863
  31
0
  0
LINE
  5
617
  100
AcDbEntity
  8
1
  100
AcDbLine
  10
1.17802
  20
-2.325863
  30
0
  11
1.23402
  21
-2.948459
  31
0
  0
LINE
  5
618
  100
AcDbEntity
  8
1
  100
AcDbLine
  10
1.23402
  20
-2.948459
  30
0
  11
1.29002
  21
-3.329076
  31
0
  0
LINE
  5
619
  100
AcDbEntity
  8
1
  100
AcDbLine
  10
1.29002
  20
-3.329076
  30
0
  11
1.34602
  21
-3.557148
  31
0
  0
LINE
  5
61a
  100
AcDbEntity
  8
1
  100
AcDbLine
  10
1.34602
  20
-3.557148
  30
0
  11
1.40202
  21
-3.691152
  31
0
  0
LINE
  5
61b
  100
AcDbEntity
  8
1
  100
AcDbLine
  10
1.40202
  20
-3.691152
  30
0
  11
1.45802
  21
-3.768569
  31
0
  0
LINE
  5
61c
  100
AcDbEntity
  8
1
  100
AcDbLine
  10
1.45802
  20
-3.768569
  30
0
  11
1.51402
  21
-3.81321
  31
0
  0
LINE
  5
61d
  100
AcDbEntity
  8
1
  100
AcDbLine
  10
1.51402
  20
-3.81321
  30
0
  11
1.57002
  21
-3.839928
  31
0
  0
LINE
  5
61e
  100
AcDbEntity
  8
1
  100
AcDbLine
  10
1.57002
  20
-3.839928
  30
0
  11
1.62602
  21
-3.857617
  31
0
  0
LINE
  5
61f
  100
AcDbEntity
  8
1
  100
AcDbLine
  10
1.62602
  20
-3.857617
  30
0
  11
1.68202
  21
-3.871231
  31
0
  0
LINE
  5
620
  100
AcDbEntity
  8
1
  100
AcDbLine
  10
1.68202
  20
-3.871231
  30
0
  11
1.73802
  21
-3.883221
  31
0
  0
LINE
  5
621
  100
AcDbEntity
  8
1
  100
AcDbLine
  10
1.73802
  20
-3.883221
  30
0
  11
1.79402
  21
-3.894593
  31
0
  0
LINE
  5
622
  100
AcDbEntity
  8
1
  100
AcDbLine
  10
1.79402
  20
-3.894593
  30
0
  11
1.85002
  21
-3.905641
  31
0
  0
LINE
  5
623
  100
AcDbEntity
  8
1
  100
AcDbLine
  10
1.85002
  20
-3.905641
  30
0
  11
1.90602
  21
-3.9284
  31
0
  0
LINE
  5
624
  100
AcDbEntity
  8
1
  100
AcDbLine
  10
1.90602
  20
-3.9284
  30
0
  11
1.96202
  21
-3.955744
  31
0
  0
LINE
  5
625
  100
AcDbEntity
  8
1
  100
AcDbLine
  10
1.96202
  20
-3.955744
  30
0
  11
2.01802
  21
-3.982886
  31
0
  0
LINE
  5
626
  100
AcDbEntity
  8
1
  100
AcDbLine
  10
2.01802
  20
-3.982886
  30
0
  11
2.07402
  21
-4.009826
  31
0
  0
LINE
  5
627
  100
AcDbEntity
  8
1
  100
AcDbLine
  10
2.07402
  20
-4.009826
  30
0
  11
2.13002
  21
-4.036563
  31
0
  0
LINE
  5
628
  100
AcDbEntity
  8
1
  100
AcDbLine
  10
2.13002
  20
-4.036563
  30
0
  11
2.18602
  21
-4.063094
  31
0
  0
LINE
  5
629
  100
AcDbEntity
  8
1
  100
AcDbLine
  10
2.18602
  20
-4.063094
  30
0
  11
2.24202
  21
-4.089418
  31
0
  0
LINE
  5
62a
  100
AcDbEntity
  8
1
  100
AcDbLine
  10
2.24202
  20
-4.089418
  30
0
  11
2.29802
  21
-4.115535
  31
0
  0
LINE
  5
62b
  100
AcDbEntity
  8
1
  100
AcDbLine
  10
2.29802
  20
-4.115535
  30
0
  11
2.35402
  21
-4.141443
  31
0
  0
LINE
  5
62c
  100
AcDbEntity
  8
1
  100
AcDbLine
  10
2.35402
  20
-4.141443
  30
0
  11
2.41002
  21
-4.16714
  31
0
  0
LINE
  5
62d
  100
AcDbEntity
  8
1
  100
AcDbLine
  10
2.41002
  20
-4.16714
  30
0
  11
2.46602
  21
-4.192625
  31
0
  0
LINE
  5
62e
  100
AcDbEntity
  8
1
  100
AcDbLine
  10
2.46602
  20
-4.192625
  30
0
  11
2.52202
  21
-4.217897
  31
0
  0
LINE
  5
62f
  100
AcDbEntity
  8
1
  100
AcDbLine
  10
2.52202
  20
-4.217897
  30
0
  11
2.57802
  21
-4.242955
  31
0
  0
LINE
  5
630
  100
AcDbEntity
  8
1
  100
AcDbLine
  10
2.57802
  20
-4.242955
  30
0
  11
2.63402
  21
-4.267797
  31
0
  0
LINE
  5
631
  100
AcDbEntity
  8
1
  100
AcDbLine
  10
2.63402
  20
-4.267797
  30
0
  11
2.69002
  21
-4.292422
  31
0
  0
LINE
  5
632
  100
AcDbEntity
  8
1
  100
AcDbLine
  10
2.69002
  20
-4.292422
  30
0
  11
2.74602
  21
-4.316829
  31
0
  0
LINE
  5
633
  100
AcDbEntity
  8
1
  100
AcDbLine
  10
2.74602
  20
-4.316829
  30
0
  11
2.80202
  21
-4.341017
  31
0
  0
LINE
  5
634
  100
AcDbEntity
  8
1
  100
AcDbLine
  10
2.80202
  20
-4.341017
  30
0
  11
2.85802
  21
-4.364983
  31
0
  0
LINE
  5
635
  100
AcDbEntity
  8
1
  100
AcDbLine
  10
2.85802
  20
-4.364983
  30
0
  11
2.91402
  21
-4.388729
  31
0
  0
LINE
  5
636
  100
AcDbEntity
  8
1
  100
AcDbLine
  10
2.91402
  20
-4.388729
  30
0
  11
2.97002
  21
-4.412251
  31
0
  0
LINE
  5
637
  100
AcDbEntity
  8
1
  100
AcDbLine
  10
2.97002
  20
-4.412251
  30
0
  11
3.02602
  21
-4.435548
  31
0
  0
LINE
  5
638
  100
AcDbEntity
  8
1
  100
AcDbLine
  10
3.02602
  20
-4.435548
  30
0
  11
3.08202
  21
-4.458621
  31
0
  0
LINE
  5
639
  100
AcDbEntity
  8
1
  100
AcDbLine
  10
3.08202
  20
-4.458621
  30
0
  11
3.13802
  21
-4.481466
  31
0
  0
LINE
  5
63a
  100
AcDbEntity
  8
1
  100
AcDbLine
  10
3.13802
  20
-4.481466
  30
0
  11
3.19402
  21
-4.504084
  31
0
  0
LINE
  5
63b
  100
AcDbEntity
  8
1
  100
AcDbLine
  10
3.19402
  20
-4.504084
  30
0
  11
3.25002
  21
-4.526473
  31
0
  0
LINE
  5
63c
  100
AcDbEntity
  8
1
  100
AcDbLine
  10
3.25002
  20
-4.526473
  30
0
  11
3.30602
  21
-4.548632
  31
0
  0
LINE
  5
63d
  100
AcDbEntity
  8
1
  100
AcDbLine
  10
3.30602
  20
-4.548632
  30
0
  11
3.36202
  21
-4.57056
  31
0
  0
LINE
  5
63e
  100
AcDbEntity
  8
1
  100
AcDbLine
  10
3.36202
  20
-4.57056
  30
0
  11
3.41802
  21
-4.592255
  31
0
  0
LINE
  5
63f
  100
AcDbEntity
  8
1
  100
AcDbLine
  10
3.41802
  20
-4.592255
  30
0
  11
3.47402
  21
-4.613717
  31
0
  0
LINE
  5
640
  100
AcDbEntity
  8
1
  100
AcDbLine
  10
3.47402
  20
-4.613717
  30
0
  11
3.53002
  21
-4.634944
  31
0
  0
LINE
  5
641
  100
AcDbEntity
  8
1
  100
AcDbLine
  10
3.53002
  20
-4.634944
  30
0
  11
3.58602
  21
-4.655936
  31
0
  0
LINE
  5
642
  100
AcDbEntity
  8
1
  100
AcDbLine
  10
3.58602
  20
-4.655936
  30
0
  11
3.64202
  21
-4.676691
  31
0
  0
LINE
  5
643
  100
AcDbEntity
  8
1
  100
AcDbLine
  10
3.64202
  20
-4.676691
  30
0
  11
3.69802
  21
-4.697209
  31
0
  0
LINE
  5
644
  100
AcDbEntity
  8
1
  100
AcDbLine
  10
3.69802
  20
-4.697209
  30
0
  11
3.75402
  21
-4.717488
  31
0
  0
LINE
  5
645
  100
AcDbEntity
  8
1
  100
AcDbLine
  10
3.75402
  20
-4.717488
  30
0
  11
3.81002
  21
-4.737527
  31
0
  0
LINE
  5
646
  100
AcDbEntity
  8
1
  100
AcDbLine
  10
3.81002
  20
-4.737527
  30
0
  11
3.86602
  21
-4.757325
  31
0
  0
LINE
  5
647
  100
AcDbEntity
  8
1
  100
AcDbLine
  10
3.86602
  20
-4.757325
  30
0
  11
3.92202
  21
-4.776881
  31
0
  0
LINE
  5
648
  100
AcDbEntity
  8
1
  100
AcDbLine
  10
3.92202
  20
-4.776881
  30
0
  11
3.97802
  21
-4.796195
  31
0
  0
LINE
  5
649
  100
AcDbEntity
  8
1
  100
AcDbLine
  10
3.97802
  20
-4.796195
  30
0
  11
4.03402
  21
-4.815265
  31
0
  0
LINE
  5
64a
  100
AcDbEntity
  8
1
  100
AcDbLine
  10
4.03402
  20
-4.815265
  30
0
  11
4.09002
  21
-4.83409
  31
0
  0
LINE
  5
64b
  100
AcDbEntity
  8
1
  100
AcDbLine
  10
4.09002
  20
-4.83409
  30
0
  11
4.14602
  21
-4.852669
  31
0
  0
LINE
  5
64c
  100
AcDbEntity
  8
1
  100
AcDbLine
  10
4.14602
  20
-4.852669
  30
0
  11
4.20202
  21
-4.871002
  31
0
  0
LINE
  5
64d
  100
AcDbEntity
  8
1
  100
AcDbLine
  10
4.20202
  20
-4.871002
  30
0
  11
4.25802
  21
-4.889087
  31
0
  0
LINE
  5
64e
  100
AcDbEntity
  8
1
  100
AcDbLine
  10
4.25802
  20
-4.889087
  30
0
  11
4.31402
  21
-4.906923
  31
0
  0
LINE
  5
64f
  100
AcDbEntity
  8
1
  100
AcDbLine
  10
4.31402
  20
-4.906923
  30
0
  11
4.37002
  21
-4.924511
  31
0
  0
LINE
  5
650
  100
AcDbEntity
  8
1
  100
AcDbLine
  10
4.37002
  20
-4.924511
  30
0
  11
4.42602
  21
-4.941847
  31
0
  0
LINE
  5
651
  100
AcDbEntity
  8
1
  100
AcDbLine
  10
4.42602
  20
-4.941847
  30
0
  11
4.48202
  21
-4.958933
  31
0
  0
LINE
  5
652
  100
AcDbEntity
  8
1
  100
AcDbLine
  10
4.48202
  20
-4.958933
  30
0
  11
4.53802
  21
-4.975767
  31
0
  0
LINE
  5
653
  100
AcDbEntity
  8
1
  100
AcDbLine
  10
4.53802
  20
-4.975767
  30
0
  11
4.59402
  21
-4.992348
  31
0
  0
LINE
  5
654
  100
AcDbEntity
  8
1
  100
AcDbLine
  10
4.59402
  20
-4.992348
  30
0
  11
4.65002
  21
-5.008675
  31
0
  0
LINE
  5
655
  100
AcDbEntity
  8
1
  100
AcDbLine
  10
4.65002
  20
-5.008675
  30
0
  11
4.70602
  21
-5.024747
  31
0
  0
LINE
  5
656
  100
AcDbEntity
  8
1
  100
AcDbLine
  10
4.70602
  20
-5.024747
  30
0
  11
4.76202
  21
-5.040564
  31
0
  0
LINE
  5
657
  100
AcDbEntity
  8
1
  100
AcDbLine
  10
4.76202
  20
-5.040564
  30
0
  11
4.81802
  21
-5.056125
  31
0
  0
LINE
  5
658
  100
AcDbEntity
  8
1
  100
AcDbLine
  10
4.81802
  20
-5.056125
  30
0
  11
4.87402
  21
-5.071429
  31
0
  0
LINE
  5
659
  100
AcDbEntity
  8
1
  100
AcDbLine
  10
4.87402
  20
-5.071429
  30
0
  11
4.93002
  21
-5.086475
  31
0
  0
LINE
  5
65a
  100
AcDbEntity
  8
1
  100
AcDbLine
  10
4.93002
  20
-5.086475
  30
0
  11
4.98602
  21
-5.101262
  31
0
  0
LINE
  5
65b
  100
AcDbEntity
  8
1
  100
AcDbLine
  10
4.98602
  20
-5.101262
  30
0
  11
5.04202
  21
-5.11579
  31
0
  0
LINE
  5
65c
  100
AcDbEntity
  8
1
  100
AcDbLine
  10
5.04202
  20
-5.11579
  30
0
  11
5.09802
  21
-5.130059
  31
0
  0
LINE
  5
65d
  100
AcDbEntity
  8
1
  100
AcDbLine
  10
5.09802
  20
-5.130059
  30
0
  11
5.15402
  21
-5.144066
  31
0
  0
LINE
  5
65e
  100
AcDbEntity
  8
1
  100
AcDbLine
  10
5.15402
  20
-5.144066
  30
0
  11
5.21002
  21
-5.157812
  31
0
  0
LINE
  5
65f
  100
AcDbEntity
  8
1
  100
AcDbLine
  10
5.21002
  20
-5.157812
  30
0
  11
5.26602
  21
-5.171296
  31
0
  0
LINE
  5
660
  100
AcDbEntity
  8
1
  100
AcDbLine
  10
5.26602
  20
-5.171296
  30
0
  11
5.32202
  21
-5.184517
  31
0
  0
LINE
  5
661
  100
AcDbEntity
  8
1
  100
AcDbLine
  10
5.32202
  20
-5.184517
  30
0
  11
5.37802
  21
-5.197474
  31
0
  0
LINE
  5
662
  100
AcDbEntity
  8
1
  100
AcDbLine
  10
5.37802
  20
-5.197474
  30
0
  11
5.43402
  21
-5.210168
  31
0
  0
LINE
  5
663
  100
AcDbEntity
  8
1
  100
AcDbLine
  10
5.43402
  20
-5.210168
  30
0
  11
5.49002
  21
-5.222596
  31
0
  0
LINE
  5
664
  100
AcDbEntity
  8
1
  100
AcDbLine
  10
5.49002
  20
-5.222596
  30
0
  11
5.54602
  21
-5.234759
  31
0
  0
LINE
  5
665
  100
AcDbEntity
  8
1
  100
AcDbLine
  10
5.54602
  20
-5.234759
  30
0
  11
5.60202
  21
-5.246656
  31
0
  0
LINE
  5
666
  100
AcDbEntity
  8
1
  100
AcDbLine
  10
5.60202
  20
-5.246656
  30
0
  11
5.65802
  21
-5.258286
  31
0
  0
LINE
  5
667
  100
AcDbEntity
  8
1
  100
AcDbLine
  10
5.65802
  20
-5.258286
  30
0
  11
5.71402
  21
-5.269649
  31
0
  0
LINE
  5
668
  100
AcDbEntity
  8
1
  100
AcDbLine
  10
5.71402
  20
-5.269649
  30
0
  11
5.77002
  21
-5.280744
  31
0
  0
LINE
  5
669
  100
AcDbEntity
  8
1
  100
AcDbLine
  10
5.77002
  20
-5.280744
  30
0
  11
5.82602
  21
-5.291571
  31
0
  0
LINE
  5
66a
  100
AcDbEntity
  8
1
  100
AcDbLine
  10
5.82602
  20
-5.291571
  30
0
  11
5.88202
  21
-5.302129
  31
0
  0
LINE
  5
66b
  100
AcDbEntity
  8
1
  100
AcDbLine
  10
5.88202
  20
-5.302129
  30
0
  11
5.93802
  21
-5.312417
  31
0
  0
LINE
  5
66c
  100
AcDbEntity
  8
1
  100
AcDbLine
  10
5.93802
  20
-5.312417
  30
0
  11
5.99402
  21
-5.322436
  31
0
  0
LINE
  5
66d
  100
AcDbEntity
  8
1
  100
AcDbLine
  10
5.99402
  20
-5.322436
  30
0
  11
6.05002
  21
-5.332183
  31
0
  0
LINE
  5
66e
  100
AcDbEntity
  8
1
  100
AcDbLine
  10
6.05002
  20
-5.332183
  30
0
  11
6.10602
  21
-5.34166
  31
0
  0
LINE
  5
66f
  100
AcDbEntity
  8
1
  100
AcDbLine
  10
6.10602
  20
-5.34166
  30
0
  11
6.16202
  21
-5.350865
  31
0
  0
LINE
  5
670
  100
AcDbEntity
  8
1
  100
AcDbLine
  10
6.16202
  20
-5.350865
  30
0
  11
6.21802
  21
-5.359798
  31
0
  0
LINE
  5
671
  100
AcDbEntity
  8
1
  100
AcDbLine
  10
6.21802
  20
-5.359798
  30
0
  11
6.27402
  21
-5.368459
  31
0
  0
LINE
  5
672
  100
AcDbEntity
  8
1
  100
AcDbLine
  10
6.27402
  20
-5.368459
  30
0
  11
6.33002
  21
-5.376847
  31
0
  0
LINE
  5
673
  100
AcDbEntity
  8
1
  100
AcDbLine
  10
6.33002
  20
-5.376847
  30
0
  11
6.38602
  21
-5.384962
  31
0
  0
LINE
  5
674
  100
AcDbEntity
  8
1
  100
AcDbLine
  10
6.38602
  20
-5.384962
  30
0
  11
6.44202
  21
-5.392803
  31
0
  0
LINE
  5
675
  100
AcDbEntity
  8
1
  100
AcDbLine
  10
6.44202
  20
-5.392803
  30
0
  11
6.49802
  21
-5.40037
  31
0
  0
LINE
  5
676
  100
AcDbEntity
  8
1
  100
AcDbLine
  10
6.49802
  20
-5.40037
  30
0
  11
6.55402
  21
-5.407662
  31
0
  0
LINE
  5
677
  100
AcDbEntity
  8
1
  100
AcDbLine
  10
6.55402
  20
-5.407662
  30
0
  11
6.61002
  21
-5.414679
  31
0
  0
LINE
  5
678
  100
AcDbEntity
  8
1
  100
AcDbLine
  10
6.61002
  20
-5.414679
  30
0
  11
6.66602
  21
-5.421422
  31
0
  0
LINE
  5
679
  100
AcDbEntity
  8
1
  100
AcDbLine
  10
6.66602
  20
-5.421422
  30
0
  11
6.72202
  21
-5.427888
  31
0
  0
LINE
  5
67a
  100
AcDbEntity
  8
1
  100
AcDbLine
  10
6.72202
  20
-5.427888
  30
0
  11
6.77802
  21
-5.434079
  31
0
  0
LINE
  5
67b
  100
AcDbEntity
  8
1
  100
AcDbLine
  10
6.77802
  20
-5.434079
  30
0
  11
6.83402
  21
-5.439994
  31
0
  0
LINE
  5
67c
  100
AcDbEntity
  8
1
  100
AcDbLine
  10
6.83402
  20
-5.439994
  30
0
  11
6.89002
  21
-5.445632
  31
0
  0
LINE
  5
67d
  100
AcDbEntity
  8
1
  100
AcDbLine
  10
6.89002
  20
-5.445632
  30
0
  11
6.94602
  21
-5.450993
  31
0
  0
LINE
  5
67e
  100
AcDbEntity
  8
1
  100
AcDbLine
  10
6.94602
  20
-5.450993
  30
0
  11
7.00202
  21
-5.456078
  31
0
  0
LINE
  5
67f
  100
AcDbEntity
  8
1
  100
AcDbLine
  10
7.00202
  20
-5.456078
  30
0
  11
7.05802
  21
-5.460885
  31
0
  0
LINE
  5
680
  100
AcDbEntity
  8
1
  100
AcDbLine
  10
7.05802
  20
-5.460885
  30
0
  11
7.11402
  21
-5.465414
  31
0
  0
LINE
  5
681
  100
AcDbEntity
  8
1
  100
AcDbLine
  10
7.11402
  20
-5.465414
  30
0
  11
7.17002
  21
-5.469665
  31
0
  0
LINE
  5
682
  100
AcDbEntity
  8
1
  100
AcDbLine
  10
7.17002
  20
-5.469665
  30
0
  11
7.22602
  21
-5.473639
  31
0
  0
LINE
  5
683
  100
AcDbEntity
  8
1
  100
AcDbLine
  10
7.22602
  20
-5.473639
  30
0
  11
7.28202
  21
-5.477334
  31
0
  0
LINE
  5
684
  100
AcDbEntity
  8
1
  100
AcDbLine
  10
7.28202
  20
-5.477334
  30
0
  11
7.33802
  21
-5.480751
  31
0
  0
LINE
  5
685
  100
AcDbEntity
  8
1
  100
AcDbLine
  10
7.33802
  20
-5.480751
  30
0
  11
7.39402
  21
-5.48389
  31
0
  0
LINE
  5
686
  100
AcDbEntity
  8
1
  100
AcDbLine
  10
7.39402
  20
-5.48389
  30
0
  11
7.45002
  21
-5.486749
  31
0
  0
LINE
  5
687
  100
AcDbEntity
  8
1
  100
AcDbLine
  10
7.45002
  20
-5.486749
  30
0
  11
7.50602
  21
-5.48933
  31
0
  0
LINE
  5
688
  100
AcDbEntity
  8
1
  100
AcDbLine
  10
7.50602
  20
-5.48933
  30
0
  11
7.56202
  21
-5.491632
  31
0
  0
LINE
  5
689
  100
AcDbEntity
  8
1
  100
AcDbLine
  10
7.56202
  20
-5.491632
  30
0
  11
7.61802
  21
-5.493655
  31
0
  0
LINE
  5
68a
  100
AcDbEntity
  8
1
  100
AcDbLine
  10
7.61802
  20
-5.493655
  30
0
  11
7.67402
  21
-5.495398
  31
0
  0
LINE
  5
68b
  100
AcDbEntity
  8
1
  100
AcDbLine
  10
7.67402
  20
-5.495398
  30
0
  11
7.73002
  21
-5.496862
  31
0
  0
LINE
  5
68c
  100
AcDbEntity
  8
1
  100
AcDbLine
  10
7.73002
  20
-5.496862
  30
0
  11
7.78602
  21
-5.498047
  31
0
  0
LINE
  5
68d
  100
AcDbEntity
  8
1
  100
AcDbLine
  10
7.78602
  20
-5.498047
  30
0
  11
7.84202
  21
-5.498952
  31
0
  0
LINE
  5
68e
  100
AcDbEntity
  8
1
  100
AcDbLine
  10
7.84202
  20
-5.498952
  30
0
  11
7.89802
  21
-5.499578
  31
0
  0
LINE
  5
68f
  100
AcDbEntity
  8
1
  100
AcDbLine
  10
7.89802
  20
-5.499578
  30
0
  11
7.95402
  21
-5.499924
  31
0
  0
LINE
  5
690
  100
AcDbEntity
  8
1
  100
AcDbLine
  10
7.95402
  20
-5.499924
  30
0
  11
7.995369
  21
-5.5
  31
0
  0
LINE
  5
691
  100
AcDbEntity
  8
1
  100
AcDbLine
  10
6.312305
  20
-5.5
  30
0
  11
6.27402
  21
-5.431503
  31
0
  0
LINE
  5
692
  100
AcDbEntity
  8
1
  100
AcDbLine
  10
6.27402
  20
-5.431503
  30
0
  11
6.21802
  21
-5.431176
  31
0
  0
LINE
  5
693
  100
AcDbEntity
  8
1
  100
AcDbLine
  10
6.21802
  20
-5.431176
  30
0
  11
6.16202
  21
-5.430574
  31
0
  0
LINE
  5
694
  100
AcDbEntity
  8
1
  100
AcDbLine
  10
6.16202
  20
-5.430574
  30
0
  11
6.10602
  21
-5.429695
  31
0
  0
LINE
  5
695
  100
AcDbEntity
  8
1
  100
AcDbLine
  10
6.10602
  20
-5.429695
  30
0
  11
6.05002
  21
-5.42854
  31
0
  0
LINE
  5
696
  100
AcDbEntity
  8
1
  100
AcDbLine
  10
6.05002
  20
-5.42854
  30
0
  11
5.99402
  21
-5.427109
  31
0
  0
LINE
  5
697
  100
AcDbEntity
  8
1
  100
AcDbLine
  10
5.99402
  20
-5.427109
  30
0
  11
5.93802
  21
-5.425403
  31
0
  0
LINE
  5
698
  100
AcDbEntity
  8
1
  100
AcDbLine
  10
5.93802
  20
-5.425403
  30
0
  11
5.88202
  21
-5.42342
  31
0
  0
LINE
  5
699
  100
AcDbEntity
  8
1
  100
AcDbLine
  10
5.88202
  20
-5.42342
  30
0
  11
5.82602
  21
-5.421162
  31
0
  0
LINE
  5
69a
  100
AcDbEntity
  8
1
  100
AcDbLine
  10
5.82602
  20
-5.421162
  30
0
  11
5.77002
  21
-5.418629
  31
0
  0
LINE
  5
69b
  100
AcDbEntity
  8
1
  100
AcDbLine
  10
5.77002
  20
-5.418629
  30
0
  11
5.71402
  21
-5.41582
  31
0
  0
LINE
  5
69c
  100
AcDbEntity
  8
1
  100
AcDbLine
  10
5.71402
  20
-5.41582
  30
0
  11
5.65802
  21
-5.412735
  31
0
  0
LINE
  5
69d
  100
AcDbEntity
  8
1
  100
AcDbLine
  10
5.65802
  20
-5.412735
  30
0
  11
5.60202
  21
-5.409376
  31
0
  0
LINE
  5
69e
  100
AcDbEntity
  8
1
  100
AcDbLine
  10
5.60202
  20
-5.409376
  30
0
  11
5.54602
  21
-5.405742
  31
0
  0
LINE
  5
69f
  100
AcDbEntity
  8
1
  100
AcDbLine
  10
5.54602
  20
-5.405742
  30
0
  11
5.49002
  21
-5.401833
  31
0
  0
LINE
  5
6a0
  100
AcDbEntity
  8
1
  100
AcDbLine
  10
5.49002
  20
-5.401833
  30
0
  11
5.43402
  21
-5.397649
  31
0
  0
LINE
  5
6a1
  100
AcDbEntity
  8
1
  100
AcDbLine
  10
5.43402
  20
-5.397649
  30
0
  11
5.37802
  21
-5.393191
  31
0
  0
LINE
  5
6a2
  100
AcDbEntity
  8
1
  100
AcDbLine
  10
5.37802
  20
-5.393191
  30
0
  11
5.32202
  21
-5.388459
  31
0
  0
LINE
  5
6a3
  100
AcDbEntity
  8
1
  100
AcDbLine
  10
5.32202
  20
-5.388459
  30
0
  11
5.26602
  21
-5.383453
  31
0
  0
LINE
  5
6a4
  100
AcDbEntity
  8
1
  100
AcDbLine
  10
5.26602
  20
-5.383453
  30
0
  11
5.21002
  21
-5.378173
  31
0
  0
LINE
  5
6a5
  100
AcDbEntity
  8
1
  100
AcDbLine
  10
5.21002
  20
-5.378173
  30
0
  11
5.15402
  21
-5.37262
  31
0
  0
LINE
  5
6a6
  100
AcDbEntity
  8
1
  100
AcDbLine
  10
5.15402
  20
-5.37262
  30
0
  11
5.09802
  21
-5.366794
  31
0
  0
LINE
  5
6a7
  100
AcDbEntity
  8
1
  100
AcDbLine
  10
5.09802
  20
-5.366794
  30
0
  11
5.04202
  21
-5.360695
  31
0
  0
LINE
  5
6a8
  100
AcDbEntity
  8
1
  100
AcDbLine
  10
5.04202
  20
-5.360695
  30
0
  11
4.98602
  21
-5.354324
  31
0
  0
LINE
  5
6a9
  100
AcDbEntity
  8
1
  100
AcDbLine
  10
4.98602
  20
-5.354324
  30
0
  11
4.93002
  21
-5.34768
  31
0
  0
LINE
  5
6aa
  100
AcDbEntity
  8
1
  100
AcDbLine
  10
4.93002
  20
-5.34768
  30
0
  11
4.87402
  21
-5.340765
  31
0
  0
LINE
  5
6ab
  100
AcDbEntity
  8
1
  100
AcDbLine
  10
4.87402
  20
-5.340765
  30
0
  11
4.81802
  21
-5.333578
  31
0
  0
LINE
  5
6ac
  100
AcDbEntity
  8
1
  100
AcDbLine
  10
4.81802
  20
-5.333578
  30
0
  11
4.76202
  21
-5.32612
  31
0
  0
LINE
  5
6ad
  100
AcDbEntity
  8
1
  100
AcDbLine
  10
4.76202
  20
-5.32612
  30
0
  11
4.70602
  21
-5.318392
  31
0
  0
LINE
  5
6ae
  100
AcDbEntity
  8
1
  100
AcDbLine
  10
4.70602
  20
-5.318392
  30
0
  11
4.65002
  21
-5.310393
  31
0
  0
LINE
  5
6af
  100
AcDbEntity
  8
1
  100
AcDbLine
  10
4.65002
  20
-5.310393
  30
0
  11
4.59402
  21
-5.302124
  31
0
  0
LINE
  5
6b0
  100
AcDbEntity
  8
1
  100
AcDbLine
  10
4.59402
  20
-5.302124
  30
0
  11
4.53802
  21
-5.293586
  31
0
  0
LINE
  5
6b1
  100
AcDbEntity
  8
1
  100
AcDbLine
  10
4.53802
  20
-5.293586
  30
0
  11
4.48202
  21
-5.284778
  31
0
  0
LINE
  5
6b2
  100
AcDbEntity
  8
1
  100
AcDbLine
  10
4.48202
  20
-5.284778
  30
0
  11
4.42602
  21
-5.275702
  31
0
  0
LINE
  5
6b3
  100
AcDbEntity
  8
1
  100
AcDbLine
  10
4.42602
  20
-5.275702
  30
0
  11
4.37002
  21
-5.266358
  31
0
  0
LINE
  5
6b4
  100
AcDbEntity
  8
1
  100
AcDbLine
  10
4.37002
  20
-5.266358
  30
0
  11
4.31402
  21
-5.256746
  31
0
  0
LINE
  5
6b5
  100
AcDbEntity
  8
1
  100
AcDbLine
  10
4.31402
  20
-5.256746
  30
0
  11
4.25802
  21
-5.246867
  31
0
  0
LINE
  5
6b6
  100
AcDbEntity
  8
1
  100
AcDbLine
  10
4.25802
  20
-5.246867
  30
0
  11
4.20202
  21
-5.236722
  31
0
  0
LINE
  5
6b7
  100
AcDbEntity
  8
1
  100
AcDbLine
  10
4.20202
  20
-5.236722
  30
0
  11
4.14602
  21
-5.22631
  31
0
  0
LINE
  5
6b8
  100
AcDbEntity
  8
1
  100
AcDbLine
  10
4.14602
  20
-5.22631
  30
0
  11
4.09002
  21
-5.215632
  31
0
  0
LINE
  5
6b9
  100
AcDbEntity
  8
1
  100
AcDbLine
  10
4.09002
  20
-5.215632
  30
0
  11
4.03402
  21
-5.20469
  31
0
  0
LINE
  5
6ba
  100
AcDbEntity
  8
1
  100
AcDbLine
  10
4.03402
  20
-5.20469
  30
0
  11
3.97802
  21
-5.193482
  31
0
  0
LINE
  5
6bb
  100
AcDbEntity
  8
1
  100
AcDbLine
  10
3.97802
  20
-5.193482
  30
0
  11
3.92202
  21
-5.182011
  31
0
  0
LINE
  5
6bc
  100
AcDbEntity
  8
1
  100
AcDbLine
  10
3.92202
  20
-5.182011
  30
0
  11
3.86602
  21
-5.170277
  31
0
  0
LINE
  5
6bd
  100
AcDbEntity
  8
1
  100
AcDbLine
  10
3.86602
  20
-5.170277
  30
0
  11
3.81002
  21
-5.158279
  31
0
  0
LINE
  5
6be
  100
AcDbEntity
  8
1
  100
AcDbLine
  10
3.81002
  20
-5.158279
  30
0
  11
3.75402
  21
-5.14602
  31
0
  0
LINE
  5
6bf
  100
AcDbEntity
  8
1
  100
AcDbLine
  10
3.75402
  20
-5.14602
  30
0
  11
3.69802
  21
-5.133499
  31
0
  0
LINE
  5
6c0
  100
AcDbEntity
  8
1
  100
AcDbLine
  10
3.69802
  20
-5.133499
  30
0
  11
3.64202
  21
-5.120717
  31
0
  0
LINE
  5
6c1
  100
AcDbEntity
  8
1
  100
AcDbLine
  10
3.64202
  20
-5.120717
  30
0
  11
3.58602
  21
-5.107675
  31
0
  0
LINE
  5
6c2
  100
AcDbEntity
  8
1
  100
AcDbLine
  10
3.58602
  20
-5.107675
  30
0
  11
3.53002
  21
-5.094373
  31
0
  0
LINE
  5
6c3
  100
AcDbEntity
  8
1
  100
AcDbLine
  10
3.53002
  20
-5.094373
  30
0
  11
3.47402
  21
-5.080812
  31
0
  0
LINE
  5
6c4
  100
AcDbEntity
  8
1
  100
AcDbLine
  10
3.47402
  20
-5.080812
  30
0
  11
3.41802
  21
-5.066993
  31
0
  0
LINE
  5
6c5
  100
AcDbEntity
  8
1
  100
AcDbLine
  10
3.41802
  20
-5.066993
  30
0
  11
3.36202
  21
-5.052916
  31
0
  0
LINE
  5
6c6
  100
AcDbEntity
  8
1
  100
AcDbLine
  10
3.36202
  20
-5.052916
  30
0
  11
3.30602
  21
-5.038583
  31
0
  0
LINE
  5
6c7
  100
AcDbEntity
  8
1
  100
AcDbLine
  10
3.30602
  20
-5.038583
  30
0
  11
3.25002
  21
-5.023993
  31
0
  0
LINE
  5
6c8
  100
AcDbEntity
  8
1
  100
AcDbLine
  10
3.25002
  20
-5.023993
  30
0
  11
3.19402
  21
-5.009148
  31
0
  0
LINE
  5
6c9
  100
AcDbEntity
  8
1
  100
AcDbLine
  10
3.19402
  20
-5.009148
  30
0
  11
3.13802
  21
-4.994049
  31
0
  0
LINE
  5
6ca
  100
AcDbEntity
  8
1
  100
AcDbLine
  10
3.13802
  20
-4.994049
  30
0
  11
3.08202
  21
-4.978696
  31
0
  0
LINE
  5
6cb
  100
AcDbEntity
  8
1
  100
AcDbLine
  10
3.08202
  20
-4.978696
  30
0
  11
3.02602
  21
-4.963089
  31
0
  0
LINE
  5
6cc
  100
AcDbEntity
  8
1
  100
AcDbLine
  10
3.02602
  20
-4.963089
  30
0
  11
2.97002
  21
-4.947231
  31
0
  0
LINE
  5
6cd
  100
AcDbEntity
  8
1
  100
AcDbLine
  10
2.97002
  20
-4.947231
  30
0
  11
2.91402
  21
-4.93112
  31
0
  0
LINE
  5
6ce
  100
AcDbEntity
  8
1
  100
AcDbLine
  10
2.91402
  20
-4.93112
  30
0
  11
2.85802
  21
-4.91476
  31
0
  0
LINE
  5
6cf
  100
AcDbEntity
  8
1
  100
AcDbLine
  10
2.85802
  20
-4.91476
  30
0
  11
2.80202
  21
-4.898149
  31
0
  0
LINE
  5
6d0
  100
AcDbEntity
  8
1
  100
AcDbLine
  10
2.80202
  20
-4.898149
  30
0
  11
2.74602
  21
-4.88129
  31
0
  0
LINE
  5
6d1
  100
AcDbEntity
  8
1
  100
AcDbLine
  10
2.74602
  20
-4.88129
  30
0
  11
2.69002
  21
-4.864182
  31
0
  0
LINE
  5
6d2
  100
AcDbEntity
  8
1
  100
AcDbLine
  10
2.69002
  20
-4.864182
  30
0
  11
2.63402
  21
-4.846827
  31
0
  0
LINE
  5
6d3
  100
AcDbEntity
  8
1
  100
AcDbLine
  10
2.63402
  20
-4.846827
  30
0
  11
2.57802
  21
-4.829226
  31
0
  0
LINE
  5
6d4
  100
AcDbEntity
  8
1
  100
AcDbLine
  10
2.57802
  20
-4.829226
  30
0
  11
2.52202
  21
-4.811379
  31
0
  0
LINE
  5
6d5
  100
AcDbEntity
  8
1
  100
AcDbLine
  10
2.52202
  20
-4.811379
  30
0
  11
2.46602
  21
-4.793288
  31
0
  0
LINE
  5
6d6
  100
AcDbEntity
  8
1
  100
AcDbLine
  10
2.46602
  20
-4.793288
  30
0
  11
2.41002
  21
-4.774953
  31
0
  0
LINE
  5
6d7
  100
AcDbEntity
  8
1
  100
AcDbLine
  10
2.41002
  20
-4.774953
  30
0
  11
2.35402
  21
-4.756376
  31
0
  0
LINE
  5
6d8
  100
AcDbEntity
  8
1
  100
AcDbLine
  10
2.35402
  20
-4.756376
  30
0
  11
2.29802
  21
-4.737556
  31
0
  0
LINE
  5
6d9
  100
AcDbEntity
  8
1
  100
AcDbLine
  10
2.29802
  20
-4.737556
  30
0
  11
2.24202
  21
-4.718496
  31
0
  0
LINE
  5
6da
  100
AcDbEntity
  8
1
  100
AcDbLine
  10
2.24202
  20
-4.718496
  30
0
  11
2.18602
  21
-4.699196
  31
0
  0
LINE
  5
6db
  100
AcDbEntity
  8
1
  100
AcDbLine
  10
2.18602
  20
-4.699196
  30
0
  11
2.13002
  21
-4.679657
  31
0
  0
LINE
  5
6dc
  100
AcDbEntity
  8
1
  100
AcDbLine
  10
2.13002
  20
-4.679657
  30
0
  11
2.07402
  21
-4.659881
  31
0
  0
LINE
  5
6dd
  100
AcDbEntity
  8
1
  100
AcDbLine
  10
2.07402
  20
-4.659881
  30
0
  11
2.01802
  21
-4.639867
  31
0
  0
LINE
  5
6de
  100
AcDbEntity
  8
1
  100
AcDbLine
  10
2.01802
  20
-4.639867
  30
0
  11
1.96202
  21
-4.619618
  31
0
  0
LINE
  5
6df
  100
AcDbEntity
  8
1
  100
AcDbLine
  10
1.96202
  20
-4.619618
  30
0
  11
1.90602
  21
-4.599134
  31
0
  0
LINE
  5
6e0
  100
AcDbEntity
  8
1
  100
AcDbLine
  10
1.86602
  20
-5.5
  30
0
  11
1.86602
  21
5.5
  31
0
  0
LINE
  5
6e1
  100
AcDbEntity
  8
1
  100
AcDbLine
  10
1.86602
  20
5.5
  30
0
  11
1.86602
  21
-5.5
  31
0
  0
LINE
  5
6e2
  100
AcDbEntity
  8
1
  100
AcDbLine
  10
1.072638
  20
-5.712587
  30
0
  11
1.06602
  21
-5.711565
  31
0
  0
LINE
  5
6e3
  100
AcDbEntity
  8
1
  100
AcDbLine
  10
1.06602
  20
-5.711565
  30
0
  11
1.06602
  21
-5.699282
  31
0
  0
LINE
  5
6e4
  100
AcDbEntity
  8
1
  100
AcDbLine
  10
1.06602
  20
-5.699282
  30
0
  11
1.12202
  21
-5.352201
  31
0
  0
LINE
  5
6e5
  100
AcDbEntity
  8
1
  100
AcDbLine
  10
1.12202
  20
-5.352201
  30
0
  11
1.17802
  21
-5.070586
  31
0
  0
LINE
  5
6e6
  100
AcDbEntity
  8
1
  100
AcDbLine
  10
1.17802
  20
-5.070586
  30
0
  11
1.23402
  21
-4.938243
  31
0
  0
LINE
  5
6e7
  100
AcDbEntity
  8
1
  100
AcDbLine
  10
1.23402
  20
-4.938243
  30
0
  11
1.29002
  21
-4.889559
  31
0
  0
LINE
  5
6e8
  100
AcDbEntity
  8
1
  100
AcDbLine
  10
1.29002
  20
-4.889559
  30
0
  11
1.34602
  21
-4.876701
  31
0
  0
LINE
  5
6e9
  100
AcDbEntity
  8
1
  100
AcDbLine
  10
1.34602
  20
-4.876701
  30
0
  11
1.40202
  21
-4.876908
  31
0
  0
LINE
  5
6ea
  100
AcDbEntity
  8
1
  100
AcDbLine
  10
1.40202
  20
-4.876908
  30
0
  11
1.45802
  21
-4.881136
  31
0
  0
LINE
  5
6eb
  100
AcDbEntity
  8
1
  100
AcDbLine
  10
1.45802
  20
-4.881136
  30
0
  11
1.51402
  21
-4.886258
  31
0
  0
LINE
  5
6ec
  100
AcDbEntity
  8
1
  100
AcDbLine
  10
1.51402
  20
-4.886258
  30
0
  11
1.57002
  21
-4.89134
  31
0
  0
LINE
  5
6ed
  100
AcDbEntity
  8
1
  100
AcDbLine
  10
1.57002
  20
-4.89134
  30
0
  11
1.62602
  21
-4.896149
  31
0
  0
LINE
  5
6ee
  100
AcDbEntity
  8
1
  100
AcDbLine
  10
1.62602
  20
-4.896149
  30
0
  11
1.68202
  21
-4.900641
  31
0
  0
LINE
  5
6ef
  100
AcDbEntity
  8
1
  100
AcDbLine
  10
1.68202
  20
-4.900641
  30
0
  11
1.73802
  21
-4.904809
  31
0
  0
LINE
  5
6f0
  100
AcDbEntity
  8
1
  100
AcDbLine
  10
1.73802
  20
-4.904809
  30
0
  11
1.79402
  21
-4.908655
  31
0
  0
LINE
  5
6f1
  100
AcDbEntity
  8
1
  100
AcDbLine
  10
1.79402
  20
-4.908655
  30
0
  11
1.85002
  21
-4.912179
  31
0
  0
LINE
  5
6f2
  100
AcDbEntity
  8
1
  100
AcDbLine
  10
1.85002
  20
-4.912179
  30
0
  11
1.90602
  21
-4.925652
  31
0
  0
LINE
  5
6f3
  100
AcDbEntity
  8
1
  100
AcDbLine
  10
1.90602
  20
-4.925652
  30
0
  11
1.96202
  21
-4.942973
  31
0
  0
LINE
  5
6f4
  100
AcDbEntity
  8
1
  100
AcDbLine
  10
1.96202
  20
-4.942973
  30
0
  11
2.01802
  21
-4.960042
  31
0
  0
LINE
  5
6f5
  100
AcDbEntity
  8
1
  100
AcDbLine
  10
2.01802
  20
-4.960042
  30
0
  11
2.07402
  21
-4.976859
  31
0
  0
LINE
  5
6f6
  100
AcDbEntity
  8
1
  100
AcDbLine
  10
2.07402
  20
-4.976859
  30
0
  11
2.13002
  21
-4.993423
  31
0
  0
LINE
  5
6f7
  100
AcDbEntity
  8
1
  100
AcDbLine
  10
2.13002
  20
-4.993423
  30
0
  11
2.18602
  21
-5.009734
  31
0
  0
LINE
  5
6f8
  100
AcDbEntity
  8
1
  100
AcDbLine
  10
2.18602
  20
-5.009734
  30
0
  11
2.24202
  21
-5.025789
  31
0
  0
LINE
  5
6f9
  100
AcDbEntity
  8
1
  100
AcDbLine
  10
2.24202
  20
-5.025789
  30
0
  11
2.29802
  21
-5.04159
  31
0
  0
LINE
  5
6fa
  100
AcDbEntity
  8
1
  100
AcDbLine
  10
2.29802
  20
-5.04159
  30
0
  11
2.35402
  21
-5.057134
  31
0
  0
LINE
  5
6fb
  100
AcDbEntity
  8
1
  100
AcDbLine
  10
2.35402
  20
-5.057134
  30
0
  11
2.41002
  21
-5.072421
  31
0
  0
LINE
  5
6fc
  100
AcDbEntity
  8
1
  100
AcDbLine
  10
2.41002
  20
-5.072421
  30
0
  11
2.46602
  21
-5.08745
  31
0
  0
LINE
  5
6fd
  100
AcDbEntity
  8
1
  100
AcDbLine
  10
2.46602
  20
-5.08745
  30
0
  11
2.52202
  21
-5.10222
  31
0
  0
LINE
  5
6fe
  100
AcDbEntity
  8
1
  100
AcDbLine
  10
2.52202
  20
-5.10222
  30
0
  11
2.57802
  21
-5.116732
  31
0
  0
LINE
  5
6ff
  100
AcDbEntity
  8
1
  100
AcDbLine
  10
2.57802
  20
-5.116732
  30
0
  11
2.63402
  21
-5.130983
  31
0
  0
LINE
  5
700
  100
AcDbEntity
  8
1
  100
AcDbLine
  10
2.63402
  20
-5.130983
  30
0
  11
2.69002
  21
-5.144973
  31
0
  0
LINE
  5
701
  100
AcDbEntity
  8
1
  100
AcDbLine
  10
2.69002
  20
-5.144973
  30
0
  11
2.74602
  21
-5.158702
  31
0
  0
LINE
  5
702
  100
AcDbEntity
  8
1
  100
AcDbLine
  10
2.74602
  20
-5.158702
  30
0
  11
2.80202
  21
-5.172169
  31
0
  0
LINE
  5
703
  100
AcDbEntity
  8
1
  100
AcDbLine
  10
2.80202
  20
-5.172169
  30
0
  11
2.85802
  21
-5.185372
  31
0
  0
LINE
  5
704
  100
AcDbEntity
  8
1
  100
AcDbLine
  10
2.85802
  20
-5.185372
  30
0
  11
2.91402
  21
-5.198313
  31
0
  0
LINE
  5
705
  100
AcDbEntity
  8
1
  100
AcDbLine
  10
2.91402
  20
-5.198313
  30
0
  11
2.97002
  21
-5.210989
  31
0
  0
LINE
  5
706
  100
AcDbEntity
  8
1
  100
AcDbLine
  10
2.97002
  20
-5.210989
  30
0
  11
3.02602
  21
-5.2234
  31
0
  0
LINE
  5
707
  100
AcDbEntity
  8
1
  100
AcDbLine
  10
3.02602
  20
-5.2234
  30
0
  11
3.08202
  21
-5.235545
  31
0
  0
LINE
  5
708
  100
AcDbEntity
  8
1
  100
AcDbLine
  10
3.08202
  20
-5.235545
  30
0
  11
3.13802
  21
-5.247425
  31
0
  0
LINE
  5
709
  100
AcDbEntity
  8
1
  100
AcDbLine
  10
3.13802
  20
-5.247425
  30
0
  11
3.19402
  21
-5.259038
  31
0
  0
LINE
  5
70a
  100
AcDbEntity
  8
1
  100
AcDbLine
  10
3.19402
  20
-5.259038
  30
0
  11
3.25002
  21
-5.270383
  31
0
  0
LINE
  5
70b
  100
AcDbEntity
  8
1
  100
AcDbLine
  10
3.25002
  20
-5.270383
  30
0
  11
3.30602
  21
-5.281461
  31
0
  0
LINE
  5
70c
  100
AcDbEntity
  8
1
  100
AcDbLine
  10
3.30602
  20
-5.281461
  30
0
  11
3.36202
  21
-5.29227
  31
0
  0
LINE
  5
70d
  100
AcDbEntity
  8
1
  100
AcDbLine
  10
3.36202
  20
-5.29227
  30
0
  11
3.41802
  21
-5.30281
  31
0
  0
LINE
  5
70e
  100
AcDbEntity
  8
1
  100
AcDbLine
  10
3.41802
  20
-5.30281
  30
0
  11
3.47402
  21
-5.313081
  31
0
  0
LINE
  5
70f
  100
AcDbEntity
  8
1
  100
AcDbLine
  10
3.47402
  20
-5.313081
  30
0
  11
3.53002
  21
-5.323081
  31
0
  0
LINE
  5
710
  100
AcDbEntity
  8
1
  100
AcDbLine
  10
3.53002
  20
-5.323081
  30
0
  11
3.58602
  21
-5.332811
  31
0
  0
LINE
  5
711
  100
AcDbEntity
  8
1
  100
AcDbLine
  10
3.58602
  20
-5.332811
  30
0
  11
3.64202
  21
-5.34227
  31
0
  0
LINE
  5
712
  100
AcDbEntity
  8
1
  100
AcDbLine
  10
3.64202
  20
-5.34227
  30
0
  11
3.69802
  21
-5.351458
  31
0
  0
LINE
  5
713
  100
AcDbEntity
  8
1
  100
AcDbLine
  10
3.69802
  20
-5.351458
  30
0
  11
3.75402
  21
-5.360373
  31
0
  0
LINE
  5
714
  100
AcDbEntity
  8
1
  100
AcDbLine
  10
3.75402
  20
-5.360373
  30
0
  11
3.81002
  21
-5.369016
  31
0
  0
LINE
  5
715
  100
AcDbEntity
  8
1
  100
AcDbLine
  10
3.81002
  20
-5.369016
  30
0
  11
3.86602
  21
-5.377386
  31
0
  0
LINE
  5
716
  100
AcDbEntity
  8
1
  100
AcDbLine
  10
3.86602
  20
-5.377386
  30
0
  11
3.92202
  21
-5.385483
  31
0
  0
LINE
  5
717
  100
AcDbEntity
  8
1
  100
AcDbLine
  10
3.92202
  20
-5.385483
  30
0
  11
3.97802
  21
-5.393306
  31
0
  0
LINE
  5
718
  100
AcDbEntity
  8
1
  100
AcDbLine
  10
3.97802
  20
-5.393306
  30
0
  11
4.03402
  21
-5.400855
  31
0
  0
LINE
  5
719
  100
AcDbEntity
  8
1
  100
AcDbLine
  10
4.03402
  20
-5.400855
  30
0
  11
4.09002
  21
-5.408129
  31
0
  0
LINE
  5
71a
  100
AcDbEntity
  8
1
  100
AcDbLine
  10
4.09002
  20
-5.408129
  30
0
  11
4.14602
  21
-5.415129
  31
0
  0
LINE
  5
71b
  100
AcDbEntity
  8
1
  100
AcDbLine
  10
4.14602
  20
-5.415129
  30
0
  11
4.20202
  21
-5.421853
  31
0
  0
LINE
  5
71c
  100
AcDbEntity
  8
1
  100
AcDbLine
  10
4.20202
  20
-5.421853
  30
0
  11
4.25802
  21
-5.428302
  31
0
  0
LINE
  5
71d
  100
AcDbEntity
  8
1
  100
AcDbLine
  10
4.25802
  20
-5.428302
  30
0
  11
4.31402
  21
-5.434475
  31
0
  0
LINE
  5
71e
  100
AcDbEntity
  8
1
  100
AcDbLine
  10
4.31402
  20
-5.434475
  30
0
  11
4.37002
  21
-5.440371
  31
0
  0
LINE
  5
71f
  100
AcDbEntity
  8
1
  100
AcDbLine
  10
4.37002
  20
-5.440371
  30
0
  11
4.42602
  21
-5.445991
  31
0
  0
LINE
  5
720
  100
AcDbEntity
  8
1
  100
AcDbLine
  10
4.42602
  20
-5.445991
  30
0
  11
4.48202
  21
-5.451334
  31
0
  0
LINE
  5
721
  100
AcDbEntity
  8
1
  100
AcDbLine
  10
4.48202
  20
-5.451334
  30
0
  11
4.53802
  21
-5.4564
  31
0
  0
LINE
  5
722
  100
AcDbEntity
  8
1
  100
AcDbLine
  10
4.53802
  20
-5.4564
  30
0
  11
4.59402
  21
-5.461189
  31
0
  0
LINE
  5
723
  100
AcDbEntity
  8
1
  100
AcDbLine
  10
4.59402
  20
-5.461189
  30
0
  11
4.65002
  21
-5.4657
  31
0
  0
LINE
  5
724
  100
AcDbEntity
  8
1
  100
AcDbLine
  10
4.65002
  20
-5.4657
  30
0
  11
4.70602
  21
-5.469934
  31
0
  0
LINE
  5
725
  100
AcDbEntity
  8
1
  100
AcDbLine
  10
4.70602
  20
-5.469934
  30
0
  11
4.76202
  21
-5.473889
  31
0
  0
LINE
  5
726
  100
AcDbEntity
  8
1
  100
AcDbLine
  10
4.76202
  20
-5.473889
  30
0
  11
4.81802
  21
-5.477566
  31
0
  0
LINE
  5
727
  100
AcDbEntity
  8
1
  100
AcDbLine
  10
4.81802
  20
-5.477566
  30
0
  11
4.87402
  21
-5.480965
  31
0
  0
LINE
  5
728
  100
AcDbEntity
  8
1
  100
AcDbLine
  10
4.87402
  20
-5.480965
  30
0
  11
4.93002
  21
-5.484085
  31
0
  0
LINE
  5
729
  100
AcDbEntity
  8
1
  100
AcDbLine
  10
4.93002
  20
-5.484085
  30
0
  11
4.98602
  21
-5.486927
  31
0
  0
LINE
  5
72a
  100
AcDbEntity
  8
1
  100
AcDbLine
  10
4.98602
  20
-5.486927
  30
0
  11
5.04202
  21
-5.489489
  31
0
  0
LINE
  5
72b
  100
AcDbEntity
  8
1
  100
AcDbLine
  10
5.04202
  20
-5.489489
  30
0
  11
5.09802
  21
-5.491773
  31
0
  0
LINE
  5
72c
  100
AcDbEntity
  8
1
  100
AcDbLine
  10
5.09802
  20
-5.491773
  30
0
  11
5.15402
  21
-5.493777
  31
0
  0
LINE
  5
72d
  100
AcDbEntity
  8
1
  100
AcDbLine
  10
5.15402
  20
-5.493777
  30
0
  11
5.21002
  21
-5.495502
  31
0
  0
LINE
  5
72e
  100
AcDbEntity
  8
1
  100
AcDbLine
  10
5.21002
  20
-5.495502
  30
0
  11
5.26602
  21
-5.496948
  31
0
  0
LINE
  5
72f
  100
AcDbEntity
  8
1
  100
AcDbLine
  10
5.26602
  20
-5.496948
  30
0
  11
5.32202
  21
-5.498114
  31
0
  0
LINE
  5
730
  100
AcDbEntity
  8
1
  100
AcDbLine
  10
5.32202
  20
-5.498114
  30
0
  11
5.37802
  21
-5.499001
  31
0
  0
LINE
  5
731
  100
AcDbEntity
  8
1
  100
AcDbLine
  10
5.37802
  20
-5.499001
  30
0
  11
5.43402
  21
-5.499609
  31
0
  0
LINE
  5
732
  100
AcDbEntity
  8
1
  100
AcDbLine
  10
5.43402
  20
-5.499609
  30
0
  11
5.49002
  21
-5.499937
  31
0
  0
LINE
  5
733
  100
AcDbEntity
  8
1
  100
AcDbLine
  10
5.49002
  20
-5.499937
  30
0
  11
5.527707
  21
-5.5
  31
0
  0
LINE
  5
734
  100
AcDbEntity
  8
1
  100
AcDbLine
  10
17.56602
  20
-5.5
  30
0
  11
17.56602
  21
5.5
  31
0
  0
LINE
  5
735
  100
AcDbEntity
  8
1
  100
AcDbLine
  10
17.56602
  20
5.5
  30
0
  11
17.56602
  21
-5.5
  31
0
  0
LINE
  5
736
  100
AcDbEntity
  8
SK1
  100
AcDbLine
  10
0
  20
6
  30
0
  11
-27.03398
  21
6
  31
0
  0
LINE
  5
737
  100
AcDbEntity
  8
SK1
  100
AcDbLine
  10
-27.03398
  20
6
  30
0
  11
-28.63398
  21
4.4
  31
0
  0
LINE
  5
738
  100
AcDbEntity
  8
SK1
  100
AcDbLine
  10
-28.63398
  20
4.4
  30
0
  11
-36.63398
  21
4.4
  31
0
  0
LINE
  5
739
  100
AcDbEntity
  8
SK1
  100
AcDbLine
  10
-36.63398
  20
4.4
  30
0
  11
-38.23398
  21
6
  31
0
  0
LINE
  5
73a
  100
AcDbEntity
  8
SK1
  100
AcDbLine
  10
-38.23398
  20
6
  30
0
  11
-54.43398
  21
6
  31
0
  0
LINE
  5
73b
  100
AcDbEntity
  8
SK1
  100
AcDbLine
  10
-54.43398
  20
6
  30
0
  11
-55.13398
  21
5.3
  31
0
  0
LINE
  5
73c
  100
AcDbEntity
  8
SK1
  100
AcDbLine
  10
0
  20
-6
  30
0
  11
-54.43398
  21
-6
  31
0
  0
LINE
  5
73d
  100
AcDbEntity
  8
SK1
  100
AcDbLine
  10
-54.43398
  20
-6
  30
0
  11
-55.13398
  21
-5.3
  31
0
  0
LINE
  5
73e
  100
AcDbEntity
  8
SK1
  100
AcDbLine
  10
0
  20
6
  30
0
  11
0
  21
-6
  31
0
  0
LINE
  5
73f
  100
AcDbEntity
  8
SK1
  100
AcDbLine
  10
0
  20
6
  30
0
  11
0
  21
-6
  31
0
  0
LINE
  5
740
  100
AcDbEntity
  8
SK1
  100
AcDbLine
  10
-54.43398
  20
6
  30
0
  11
-54.43398
  21
-6
  31
0
  0
LINE
  5
741
  100
AcDbEntity
  8
SK1
  100
AcDbLine
  10
-55.13398
  20
5.3
  30
0
  11
-55.13398
  21
-5.3
  31
0
  0
LINE
  5
788
  100
AcDbEntity
  8
NOCUT
  100
AcDbLine
  10
1.86602
  20
0
  30
0
  11
1.86602
  21
5.5
  31
0
  0
LINE
  5
789
  100
AcDbEntity
  8
NOCUT
  100
AcDbLine
  10
1.86602
  20
5.5
  30
0
  11
0
  21
6
  31
0
  0
LINE
  5
78a
  100
AcDbEntity
  8
NOCUT
  100
AcDbLine
  10
0
  20
6
  30
0
  11
-27.03398
  21
6
  31
0
  0
LINE
  5
78b
  100
AcDbEntity
  8
NOCUT
  100
AcDbLine
  10
-27.03398
  20
6
  30
0
  11
-28.63398
  21
4.4
  31
0
  0
LINE
  5
78c
  100
AcDbEntity
  8
NOCUT
  100
AcDbLine
  10
-28.63398
  20
4.4
  30
0
  11
-36.63398
  21
4.4
  31
0
  0
LINE
  5
78d
  100
AcDbEntity
  8
NOCUT
  100
AcDbLine
  10
-36.63398
  20
4.4
  30
0
  11
-38.23398
  21
6
  31
0
  0
LINE
  5
78e
  100
AcDbEntity
  8
NOCUT
  100
AcDbLine
  10
-38.23398
  20
6
  30
0
  11
-54.43398
  21
6
  31
0
  0
LINE
  5
78f
  100
AcDbEntity
  8
NOCUT
  100
AcDbLine
  10
-54.43398
  20
6
  30
0
  11
-55.13398
  21
5.3
  31
0
  0
LINE
  5
790
  100
AcDbEntity
  8
NOCUT
  100
AcDbLine
  10
-55.13398
  20
5.3
  30
0
  11
-55.13398
  21
0
  31
0
  0
LINE
  5
791
  100
AcDbEntity
  8
NOCUT
  100
AcDbLine
  10
-55.13398
  20
0
  30
0
  11
1.86602
  21
0
  31
0
  0
LINE
  5
792
  100
AcDbEntity
  8
CUT
  100
AcDbLine
  10
17.86602
  20
0
  30
0
  11
17.86602
  21
5.2
  31
0
  0
LINE
  5
793
  100
AcDbEntity
  8
CUT
  100
AcDbLine
  10
17.86602
  20
5.2
  30
0
  11
17.56602
  21
5.5
  31
0
  0
LINE
  5
794
  100
AcDbEntity
  8
CUT
  100
AcDbLine
  10
17.56602
  20
5.5
  30
0
  11
1.86602
  21
5.5
  31
0
  0
LINE
  5
795
  100
AcDbEntity
  8
CUT
  100
AcDbLine
  10
1.86602
  20
5.5
  30
0
  11
1.86602
  21
0
  31
0
  0
LINE
  5
796
  100
AcDbEntity
  8
CUT
  100
AcDbLine
  10
1.86602
  20
0
  30
0
  11
17.86602
  21
0
  31
0
  0
LINE
  5
797
  100
AcDbEntity
  8
4
  100
AcDbLine
  10
-55.13398
  20
0
  30
0
  11
17.86602
  21
0
  31
0
  0
LINE
  5
798
  100
AcDbEntity
  8
INFTOTAL
  100
AcDbLine
  10
-72.228157
  20
52.140755
  30
0
  11
39.843729
  21
52.140755
  31
0
  0
LINE
  5
799
  100
AcDbEntity
  8
INFTOTAL
  100
AcDbLine
  10
39.843729
  20
52.140755
  30
0
  11
39.843729
  21
-20.684517
  31
0
  0
LINE
  5
79a
  100
AcDbEntity
  8
INFTOTAL
  100
AcDbLine
  10
39.843729
  20
-20.684517
  30
0
  11
-72.228157
  21
-20.684517
  31
0
  0
LINE
  5
79b
  100
AcDbEntity
  8
INFTOTAL
  100
AcDbLine
  10
-72.228157
  20
-20.684517
  30
0
  11
-72.228157
  21
52.140755
  31
0
  0
ENDSEC
  0
SECTION
  2
OBJECTS
  0
DICTIONARY
  5
79c
  330
0
100
AcDbDictionary
281
    1
  3
ACAD_GROUP
  350
79d
  0
DICTIONARY
  5
79d
102
{ACAD_REACTORS
  330
79c
102
}
  330
79c
100
AcDbDictionary
281
    1
  0
ENDSEC
  0
EOF
