  0
SECTION
  2
HEADER
  9
$ACADVER
  1
AC1015
  9
$DWGCODEPAGE
  3
ansi_1252
  9
$HANDSEED
  5
106AB90
  9
$INSUNITS
  70
4
  0
ENDSEC
  0
SECTION
  2
TABLES
  0
TABLE
  2
VPORT
  5
2
  330
0
  100
AcDbSymbolTable
  70
    0
  0
ENDTAB
  0
TABLE
  2
LTYPE
  5
3
  330
0
  100
AcDbSymbolTable
  70
    4
  0
LTYPE
  5
4
  330
3
  100
AcDbSymbolTableRecord
  100
AcDbLinetypeTableRecord
  2
ByBlock
  70
    0
  3

  72
65
  73
    0
  40
0
  0
LTYPE
  5
5
  330
3
  100
AcDbSymbolTableRecord
  100
AcDbLinetypeTableRecord
  2
ByLayer
  70
    0
  3

  72
65
  73
    0
  40
0
  0
LTYPE
  5
6
  330
3
  100
AcDbSymbolTableRecord
  100
AcDbLinetypeTableRecord
  2
CONTINUOUS
  70
    0
  3
Solid Line
  72
65
  73
    0
  40
0
  0
LTYPE
  5
7
  330
3
  100
AcDbSymbolTableRecord
  100
AcDbLinetypeTableRecord
  2
DASH
  70
    0
  3
Hidden
  72
65
  73
2
  40
2.5
  49
1.5
  74
0
  49
-1
  74
0
  0
LTYPE
  5
8
  330
3
  100
AcDbSymbolTableRecord
  100
AcDbLinetypeTableRecord
  2
LONGDASHDASH
  70
    0
  3
__ . __
  72
65
  73
    4
  40
7
  49
4
  74
    0
  49
-1
  74
    0
  49
1
  74
    0
  49
-1
  74
    0
  0
ENDTAB
  0
TABLE
  2
LAYER
  5
9
  330
0
  100
AcDbSymbolTable
  70
    40
  0
LAYER
  5
a
  330
9
  100
AcDbSymbolTableRecord
  100
AcDbLayerTableRecord
  2
0
  70
    0
  62
    0
  6
CONTINUOUS
  390
0
  0
LAYER
  5
b
  330
9
  100
AcDbSymbolTableRecord
  100
AcDbLayerTableRecord
  2
DEFPOINT
  70
    0
  62
    0
  6
CONTINUOUS
  390
0
  0
LAYER
  5
c
  330
9
  100
AcDbSymbolTableRecord
  100
AcDbLayerTableRecord
  2
1
  70
    0
  62
    4
  6
CONTINUOUS
  370
50
  390
0
  0
LAYER
  5
d
  330
9
  100
AcDbSymbolTableRecord
  100
AcDbLayerTableRecord
  2
2
  70
    0
  62
    7
  6
CONTINUOUS
  370
25
  390
0
  0
LAYER
  5
e
  330
9
  100
AcDbSymbolTableRecord
  100
AcDbLayerTableRecord
  2
3
  70
    0
  62
    1
  6
DASH
  370
35
  390
0
  0
LAYER
  5
f
  330
9
  100
AcDbSymbolTableRecord
  100
AcDbLayerTableRecord
  2
4
  70
    0
  62
    2
  6
LONGDASHDASH
  370
25
  390
0
  0
LAYER
  5
10
  330
9
  100
AcDbSymbolTableRecord
  100
AcDbLayerTableRecord
  2
6
  70
    0
  62
    5
  6
CONTINUOUS
  390
0
  0
LAYER
  5
11
  330
9
  100
AcDbSymbolTableRecord
  100
AcDbLayerTableRecord
  2
7
  70
    0
  62
    5
  6
CONTINUOUS
  370
25
  390
0
  0
LAYER
  5
12
  330
9
  100
AcDbSymbolTableRecord
  100
AcDbLayerTableRecord
  2
11
  70
    0
  62
    4
  6
CONTINUOUS
  370
25
  390
0
  0
LAYER
  5
13
  330
9
  100
AcDbSymbolTableRecord
  100
AcDbLayerTableRecord
  2
SK1
  70
    0
  62
    4
  6
CONTINUOUS
  370
50
  390
0
  0
LAYER
  5
14
  330
9
  100
AcDbSymbolTableRecord
  100
AcDbLayerTableRecord
  2
SK2
  70
    0
  62
    7
  6
CONTINUOUS
  370
25
  390
0
  0
LAYER
  5
15
  330
9
  100
AcDbSymbolTableRecord
  100
AcDbLayerTableRecord
  2
SK3
  70
    0
  62
    1
  6
DASH
  370
35
  390
0
  0
LAYER
  5
16
  330
9
  100
AcDbSymbolTableRecord
  100
AcDbLayerTableRecord
  2
SK4
  70
    0
  62
    2
  6
LONGDASHDASH
  370
25
  390
0
  0
LAYER
  5
17
  330
9
  100
AcDbSymbolTableRecord
  100
AcDbLayerTableRecord
  2
SK6
  70
    0
  62
    5
  6
CONTINUOUS
  390
0
  0
LAYER
  5
18
  330
9
  100
AcDbSymbolTableRecord
  100
AcDbLayerTableRecord
  2
SK7
  70
    0
  62
    5
  6
CONTINUOUS
  370
25
  390
0
  0
LAYER
  5
19
  330
9
  100
AcDbSymbolTableRecord
  100
AcDbLayerTableRecord
  2
SK11
  70
    0
  62
    4
  6
CONTINUOUS
  370
25
  390
0
  0
LAYER
  5
1a
  330
9
  100
AcDbSymbolTableRecord
  100
AcDbLayerTableRecord
  2
SKVIEW1
  70
    0
  62
    4
  6
CONTINUOUS
  370
50
  390
0
  0
LAYER
  5
1b
  330
9
  100
AcDbSymbolTableRecord
  100
AcDbLayerTableRecord
  2
SKVIEW2
  70
    0
  62
    7
  6
CONTINUOUS
  370
25
  390
0
  0
LAYER
  5
1c
  330
9
  100
AcDbSymbolTableRecord
  100
AcDbLayerTableRecord
  2
SKVIEW3
  70
    0
  62
    1
  6
DASH
  370
35
  390
0
  0
LAYER
  5
1d
  330
9
  100
AcDbSymbolTableRecord
  100
AcDbLayerTableRecord
  2
SKVIEW4
  70
    0
  62
    2
  6
LONGDASHDASH
  370
25
  390
0
  0
LAYER
  5
1e
  330
9
  100
AcDbSymbolTableRecord
  100
AcDbLayerTableRecord
  2
SKVIEW6
  70
    0
  62
    5
  6
CONTINUOUS
  390
0
  0
LAYER
  5
1f
  330
9
  100
AcDbSymbolTableRecord
  100
AcDbLayerTableRecord
  2
SKVIEW7
  70
    0
  62
    5
  6
CONTINUOUS
  370
25
  390
0
  0
LAYER
  5
20
  330
9
  100
AcDbSymbolTableRecord
  100
AcDbLayerTableRecord
  2
SKVIEW11
  70
    0
  62
    4
  6
CONTINUOUS
  370
25
  390
0
  0
LAYER
  5
21
  330
9
  100
AcDbSymbolTableRecord
  100
AcDbLayerTableRecord
  2
NOCUT
  70
    0
  62
    7
  6
CONTINUOUS
  370
25
  390
0
  0
LAYER
  5
22
  330
9
  100
AcDbSymbolTableRecord
  100
AcDbLayerTableRecord
  2
CUT
  70
    0
  62
    1
  6
CONTINUOUS
  370
25
  390
0
  0
LAYER
  5
23
  330
9
  100
AcDbSymbolTableRecord
  100
AcDbLayerTableRecord
  2
FRAME50
  70
    0
  62
    7
  6
CONTINUOUS
  390
0
  0
LAYER
  5
24
  330
9
  100
AcDbSymbolTableRecord
  100
AcDbLayerTableRecord
  2
53
  70
    0
  62
    5
  6
CONTINUOUS
  390
0
  0
LAYER
  5
25
  330
9
  100
AcDbSymbolTableRecord
  100
AcDbLayerTableRecord
  2
INFTEXT
  70
    0
  62
    5
  6
CONTINUOUS
  390
0
  0
LAYER
  5
26
  330
9
  100
AcDbSymbolTableRecord
  100
AcDbLayerTableRecord
  2
INFTOTAL
  70
    0
  62
    9
  6
CONTINUOUS
  370
18
  390
0
  0
ENDTAB
  0
TABLE
  2
STYLE
  5
27
  330
0
  100
AcDbSymbolTable
  70
    1
  0
STYLE
  5
28
  330
27
  100
AcDbSymbolTableRecord
  100
AcDbTextStyleTableRecord
  2
Monospac821 BT
  70
    0
  40
    3.5
  41
1
  50
0
  71
0
  42
3
  3

  4

  1001
ACAD
  1000
Monospac821 BT
  1071
256
  0
ENDTAB
  0
TABLE
  2
VIEW
  5
29
  330
0
  100
AcDbSymbolTable
  70
    0
  0
ENDTAB
  0
TABLE
  2
UCS
  5
2a
  330
0
  100
AcDbSymbolTable
  70
    0
  0
ENDTAB
  0
TABLE
  2
APPID
  5
2b
  330
0
  100
AcDbSymbolTable
  70
    1
  0
APPID
  5
2c
  330
2b
  100
AcDbSymbolTableRecord
  100
AcDbRegAppTableRecord
  2
ACAD
  70
    0
  0
ENDTAB
  0
TABLE
  2
DIMSTYLE
  5
2d
  330
0
  100
AcDbSymbolTable
  70
    1
  100
AcDbDimStyleTable
  0
DIMSTYLE
  105
2e
  330
2d
  100
AcDbSymbolTableRecord
  100
AcDbDimStyleTableRecord
  2
STANDARD
  70
    0
  41
    3
  42
0.5
  44
1
  73
0
  77
1
  78
1
  140
3.5
  141
2.5
  143
0.03937
  147
0.8
  172
1
  174
1
  178
0
  179
1
  271
2
  279
1
  284
1
  340
28
  0
ENDTAB
  0
TABLE
  2
BLOCK_RECORD
  5
2f
  330
0
  100
AcDbSymbolTable
  70
    2
  0
BLOCK_RECORD
  5
30
  330
2f
  100
AcDbSymbolTableRecord
  100
AcDbBlockTableRecord
  2
*Model_Space
  0
BLOCK_RECORD
  5
31
  330
2f
  100
AcDbSymbolTableRecord
  100
AcDbBlockTableRecord
  2
*Paper_Space
  0
BLOCK_RECORD
  5
747
  330
2f
  100
AcDbSymbolTableRecord
  100
AcDbBlockTableRecord
  2
*D746
  340
0
  0
BLOCK_RECORD
  5
755
  330
2f
  100
AcDbSymbolTableRecord
  100
AcDbBlockTableRecord
  2
*D754
  340
0
  0
BLOCK_RECORD
  5
763
  330
2f
  100
AcDbSymbolTableRecord
  100
AcDbBlockTableRecord
  2
*D762
  340
0
  0
BLOCK_RECORD
  5
771
  330
2f
  100
AcDbSymbolTableRecord
  100
AcDbBlockTableRecord
  2
*D770
  340
0
  0
BLOCK_RECORD
  5
77f
  330
2f
  100
AcDbSymbolTableRecord
  100
AcDbBlockTableRecord
  2
*D77e
  340
0
  0
ENDTAB
  0
ENDSEC
  0
SECTION
  2
BLOCKS
  0
BLOCK
  5
32
  330
30
  100
AcDbEntity
  8
0
  100
AcDbBlockBegin
  2
*Model_Space
  70
    0
  10
0
  20
0
  30
0
  3
*Model_Space
  1

  0
ENDBLK
  5
33
  330
30
  100
AcDbEntity
  8
0
  100
AcDbBlockEnd
  0
BLOCK
  5
34
  330
31
  100
AcDbEntity
  8
0
  100
AcDbBlockBegin
  2
*Paper_Space
  70
    0
  10
0
  20
0
  30
0
  3
*Paper_Space
  1

  0
ENDBLK
  5
35
  330
31
  100
AcDbEntity
  8
0
  100
AcDbBlockEnd
  0
BLOCK
  5
745
  330
747
  100
AcDbEntity
  8
SK2
  100
AcDbBlockBegin
  2
*D746
  70
1
  10
0
  20
0
  30
0
  3
*D746
  1

  0
LINE
  5
748
  330
747
  100
AcDbEntity
  8
SK2
  100
AcDbLine
  10
12.531069
  20
0
  30
0
  11
12.531069
  21
47.046578
  31
0
  0
LINE
  5
749
  330
747
  100
AcDbEntity
  8
SK2
  100
AcDbLine
  10
-44.468931
  20
2.3
  30
0
  11
-44.468931
  21
47.046578
  31
0
  0
LINE
  5
74a
  330
747
  100
AcDbEntity
  8
SK2
  100
AcDbLine
  10
12.531069
  20
45.046578
  30
0
  11
-44.468931
  21
45.046578
  31
0
  0
SOLID
  5
74b
  330
747
  100
AcDbEntity
  8
SK2
  100
AcDbTrace
  10
12.531069
  20
45.046578
  30
0
  11
10.052457
  21
44.720263
  31
0
  12
10.052457
  22
45.372894
  32
0
  13
10.052457
  23
45.372894
  33
0
  0
SOLID
  5
74c
  330
747
  100
AcDbEntity
  8
SK2
  100
AcDbTrace
  10
-44.468931
  20
45.046578
  30
0
  11
-41.990319
  21
45.372894
  31
0
  12
-41.990319
  22
44.720263
  32
0
  13
-41.990319
  23
44.720263
  33
0
  0
MTEXT
  5
74d
  330
747
  100
AcDbEntity
  8
SK2
  100
AcDbMText
  10
-15.968931
  20
45.046578
  30
0
  11
1
  21
0
  31
0
  40
2
  41
0
  71
8
  72
1
  1
57+2
  0
POINT
  5
74e
  330
747
  100
AcDbEntity
  8
SK2
  62
0
  100
AcDbPoint
  10
12.531069
  20
0
  30
0
  0
POINT
  5
74f
  330
747
  100
AcDbEntity
  8
SK2
  62
0
  100
AcDbPoint
  10
-44.468931
  20
2.3
  30
0
  0
POINT
  5
750
  330
747
  100
AcDbEntity
  8
SK2
  62
0
  100
AcDbPoint
  10
-44.468931
  20
45.046578
  30
0
  0
ENDBLK
  5
751
  330
747
  100
AcDbEntity
  8
SK2
  100
AcDbBlockEnd
  0
BLOCK
  5
753
  330
755
  100
AcDbEntity
  8
SK2
  100
AcDbBlockBegin
  2
*D754
  70
1
  10
0
  20
0
  30
0
  3
*D754
  1

  0
LINE
  5
756
  330
755
  100
AcDbEntity
  8
SK2
  100
AcDbLine
  10
-43.768931
  20
-3
  30
0
  11
-56.468931
  21
-3
  31
0
  0
LINE
  5
757
  330
755
  100
AcDbEntity
  8
SK2
  100
AcDbLine
  10
-43.768931
  20
3
  30
0
  11
-56.468931
  21
3
  31
0
  0
LINE
  5
758
  330
755
  100
AcDbEntity
  8
SK2
  100
AcDbLine
  10
-54.468931
  20
-3.005367
  30
0
  11
-54.468931
  21
3.381038
  31
0
  0
SOLID
  5
759
  330
755
  100
AcDbEntity
  8
SK2
  100
AcDbTrace
  10
-54.468931
  20
-3
  30
0
  11
-54.795246
  21
-0.521388
  31
0
  12
-54.142615
  22
-0.521388
  32
0
  13
-54.142615
  23
-0.521388
  33
0
  0
SOLID
  5
75a
  330
755
  100
AcDbEntity
  8
SK2
  100
AcDbTrace
  10
-54.468931
  20
3
  30
0
  11
-54.142615
  21
0.521388
  31
0
  12
-54.795246
  22
0.521388
  32
0
  13
-54.795246
  23
0.521388
  33
0
  0
MTEXT
  5
75b
  330
755
  100
AcDbEntity
  8
SK2
  100
AcDbMText
  10
-54.468931
  20
0
  30
0
  11
0
  21
1
  31
0
  40
2
  41
0
  71
8
  72
1
  1
Ø6h6
  0
POINT
  5
75c
  330
755
  100
AcDbEntity
  8
SK2
  62
0
  100
AcDbPoint
  10
-43.768931
  20
-3
  30
0
  0
POINT
  5
75d
  330
755
  100
AcDbEntity
  8
SK2
  62
0
  100
AcDbPoint
  10
-43.768931
  20
3
  30
0
  0
POINT
  5
75e
  330
755
  100
AcDbEntity
  8
SK2
  62
0
  100
AcDbPoint
  10
-54.468931
  20
3.381038
  30
0
  0
ENDBLK
  5
75f
  330
755
  100
AcDbEntity
  8
SK2
  100
AcDbBlockEnd
  0
BLOCK
  5
761
  330
763
  100
AcDbEntity
  8
2
  100
AcDbBlockBegin
  2
*D762
  70
1
  10
0
  20
0
  30
0
  3
*D762
  1

  0
LINE
  5
764
  330
763
  100
AcDbEntity
  8
2
  100
AcDbLine
  10
12.511069
  20
-1.25
  30
0
  11
24.531069
  21
-1.25
  31
0
  0
LINE
  5
765
  330
763
  100
AcDbEntity
  8
2
  100
AcDbLine
  10
12.511069
  20
1.25
  30
0
  11
24.531069
  21
1.25
  31
0
  0
LINE
  5
766
  330
763
  100
AcDbEntity
  8
2
  100
AcDbLine
  10
22.531069
  20
-16.905188
  30
0
  11
22.531069
  21
1.25
  31
0
  0
SOLID
  5
767
  330
763
  100
AcDbEntity
  8
2
  100
AcDbTrace
  10
22.531069
  20
-1.25
  30
0
  11
22.857385
  21
-3.728612
  31
0
  12
22.204754
  22
-3.728612
  32
0
  13
22.204754
  23
-3.728612
  33
0
  0
SOLID
  5
768
  330
763
  100
AcDbEntity
  8
2
  100
AcDbTrace
  10
22.531069
  20
1.25
  30
0
  11
22.204754
  21
3.728612
  31
0
  12
22.857385
  22
3.728612
  32
0
  13
22.857385
  23
3.728612
  33
0
  0
MTEXT
  5
769
  330
763
  100
AcDbEntity
  8
2
  100
AcDbMText
  10
22.531069
  20
-6.985282
  30
0
  11
0
  21
1
  31
0
  40
2
  41
0
  71
9
  72
1
  1
Ø2.5h10
  0
POINT
  5
76a
  330
763
  100
AcDbEntity
  8
2
  62
0
  100
AcDbPoint
  10
12.511069
  20
-1.25
  30
0
  0
POINT
  5
76b
  330
763
  100
AcDbEntity
  8
2
  62
0
  100
AcDbPoint
  10
12.511069
  20
1.25
  30
0
  0
POINT
  5
76c
  330
763
  100
AcDbEntity
  8
2
  62
0
  100
AcDbPoint
  10
22.531069
  20
1.25
  30
0
  0
ENDBLK
  5
76d
  330
763
  100
AcDbEntity
  8
2
  100
AcDbBlockEnd
  0
BLOCK
  5
76f
  330
771
  100
AcDbEntity
  8
2
  100
AcDbBlockBegin
  2
*D770
  70
1
  10
0
  20
0
  30
0
  3
*D770
  1

  0
LINE
  5
772
  330
771
  100
AcDbEntity
  8
2
  100
AcDbLine
  10
12.531069
  20
0
  30
0
  11
12.531069
  21
22.550831
  31
0
  0
LINE
  5
773
  330
771
  100
AcDbEntity
  8
2
  100
AcDbLine
  10
6.531069
  20
1.25
  30
0
  11
6.531069
  21
22.550831
  31
0
  0
LINE
  5
774
  330
771
  100
AcDbEntity
  8
2
  100
AcDbLine
  10
12.531069
  20
20.550831
  30
0
  11
6.531069
  21
20.550831
  31
0
  0
SOLID
  5
775
  330
771
  100
AcDbEntity
  8
2
  100
AcDbTrace
  10
12.531069
  20
20.550831
  30
0
  11
10.052457
  21
20.224515
  31
0
  12
10.052457
  22
20.877146
  32
0
  13
10.052457
  23
20.877146
  33
0
  0
SOLID
  5
776
  330
771
  100
AcDbEntity
  8
2
  100
AcDbTrace
  10
6.531069
  20
20.550831
  30
0
  11
9.009681
  21
20.877146
  31
0
  12
9.009681
  22
20.224515
  32
0
  13
9.009681
  23
20.224515
  33
0
  0
MTEXT
  5
777
  330
771
  100
AcDbEntity
  8
2
  100
AcDbMText
  10
9.531069
  20
20.550831
  30
0
  11
1
  21
-0
  31
0
  40
2
  41
0
  71
8
  72
1
  1
6
  0
POINT
  5
778
  330
771
  100
AcDbEntity
  8
2
  62
0
  100
AcDbPoint
  10
12.531069
  20
0
  30
0
  0
POINT
  5
779
  330
771
  100
AcDbEntity
  8
2
  62
0
  100
AcDbPoint
  10
6.531069
  20
1.25
  30
0
  0
POINT
  5
77a
  330
771
  100
AcDbEntity
  8
2
  62
0
  100
AcDbPoint
  10
6.531069
  20
20.550831
  30
0
  0
ENDBLK
  5
77b
  330
771
  100
AcDbEntity
  8
2
  100
AcDbBlockEnd
  0
BLOCK
  5
77d
  330
77f
  100
AcDbEntity
  8
2
  100
AcDbBlockBegin
  2
*D77e
  70
1
  10
0
  20
0
  30
0
  3
*D77e
  1

  0
LINE
  5
780
  330
77f
  100
AcDbEntity
  8
2
  100
AcDbLine
  10
12.511069
  20
1.25
  30
0
  11
12.511069
  21
13.000439
  31
0
  0
LINE
  5
781
  330
77f
  100
AcDbEntity
  8
2
  100
AcDbLine
  10
12.531069
  20
1.23
  30
0
  11
12.531069
  21
13.000439
  31
0
  0
LINE
  5
782
  330
77f
  100
AcDbEntity
  8
2
  100
AcDbLine
  10
9.203936
  20
11.000439
  30
0
  11
24.230769
  21
11.000439
  31
0
  0
SOLID
  5
783
  330
77f
  100
AcDbEntity
  8
2
  100
AcDbTrace
  10
12.511069
  20
11.000439
  30
0
  11
10.032457
  21
10.674124
  31
0
  12
10.032457
  22
11.326755
  32
0
  13
10.032457
  23
11.326755
  33
0
  0
SOLID
  5
784
  330
77f
  100
AcDbEntity
  8
2
  100
AcDbTrace
  10
12.531069
  20
11.000439
  30
0
  11
15.009681
  21
11.326755
  31
0
  12
15.009681
  22
10.674124
  32
0
  13
15.009681
  23
10.674124
  33
0
  0
MTEXT
  5
785
  330
77f
  100
AcDbEntity
  8
2
  100
AcDbMText
  10
24.403193
  20
11.000439
  30
0
  11
1
  21
0
  31
0
  40
2
  41
0
  71
9
  72
1
  1
0.02 x 45°
  0
POINT
  5
786
  330
77f
  100
AcDbEntity
  8
2
  62
0
  100
AcDbPoint
  10
12.511069
  20
1.25
  30
0
  0
POINT
  5
787
  330
77f
  100
AcDbEntity
  8
2
  62
0
  100
AcDbPoint
  10
12.531069
  20
1.23
  30
0
  0
POINT
  5
788
  330
77f
  100
AcDbEntity
  8
2
  62
0
  100
AcDbPoint
  10
24.230769
  20
11.000439
  30
0
  0
ENDBLK
  5
789
  330
77f
  100
AcDbEntity
  8
2
  100
AcDbBlockEnd
  0
ENDSEC
  0
SECTION
  2
ENTITIES
  0
DIMENSION
  5
752
  100
AcDbEntity
  8
SK2
  100
AcDbDimension
  2
*D746
  10
-44.468931
  20
45.046578
  30
0
  11
-15.968931
  21
45.046578
  31
0
  70
160
  1
<>+2
  71
5
  3
STANDARD
  42
57
  100
AcDbAlignedDimension
  13
12.531069
  23
0
  33
0
  14
-44.468931
  24
2.3
  34
0
  50
0
  100
AcDbRotatedDimension
  0
DIMENSION
  5
760
  100
AcDbEntity
  8
SK2
  100
AcDbDimension
  2
*D754
  10
-54.468931
  20
3.381038
  30
0
  11
-54.468931
  21
0
  31
0
  70
160
  1
%%c<>h6
  71
5
  3
STANDARD
  42
6
  100
AcDbAlignedDimension
  13
-43.768931
  23
-3
  33
0
  14
-43.768931
  24
3
  34
0
  50
-90
  100
AcDbRotatedDimension
  0
DIMENSION
  5
76e
  100
AcDbEntity
  8
2
  100
AcDbDimension
  2
*D762
  10
22.531069
  20
1.25
  30
0
  11
22.531069
  21
-6.985282
  31
0
  70
160
  1
%%c<>h10
  71
5
  3
STANDARD
  42
2.5
  100
AcDbAlignedDimension
  13
12.511069
  23
-1.25
  33
0
  14
12.511069
  24
1.25
  34
0
  50
-90
  100
AcDbRotatedDimension
  0
DIMENSION
  5
77c
  100
AcDbEntity
  8
2
  100
AcDbDimension
  2
*D770
  10
6.531069
  20
20.550831
  30
0
  11
9.531069
  21
20.550831
  31
0
  70
160
  1
<>
  71
5
  3
STANDARD
  42
6
  100
AcDbAlignedDimension
  13
12.531069
  23
0
  33
0
  14
6.531069
  24
1.25
  34
0
  50
0
  100
AcDbRotatedDimension
  0
DIMENSION
  5
78a
  100
AcDbEntity
  8
2
  100
AcDbDimension
  2
*D77e
  10
24.230769
  20
11.000439
  30
0
  11
24.403193
  21
11.000439
  31
0
  70
160
  1
<>
  71
5
  3
STANDARD
  42
0.02
  100
AcDbAlignedDimension
  13
12.511069
  23
1.25
  33
0
  14
12.531069
  24
1.23
  34
0
  50
0
  100
AcDbRotatedDimension
  0
LINE
  5
36
  100
AcDbEntity
  8
1
  100
AcDbLine
  10
12.531069
  20
0
  30
0
  11
12.531069
  21
1.23
  31
0
  0
LINE
  5
37
  100
AcDbEntity
  8
1
  100
AcDbLine
  10
12.531069
  20
1.23
  30
0
  11
12.511069
  21
1.25
  31
0
  0
LINE
  5
38
  100
AcDbEntity
  8
1
  100
AcDbLine
  10
12.511069
  20
1.25
  30
0
  11
6.531069
  21
1.25
  31
0
  0
LINE
  5
39
  100
AcDbEntity
  8
1
  100
AcDbLine
  10
6.531069
  20
1.25
  30
0
  11
-0
  21
3
  31
0
  0
LINE
  5
3a
  100
AcDbEntity
  8
1
  100
AcDbLine
  10
-0
  20
3
  30
0
  11
-0
  21
-3
  31
0
  0
LINE
  5
3b
  100
AcDbEntity
  8
1
  100
AcDbLine
  10
-0
  20
-3
  30
0
  11
6.531069
  21
-1.25
  31
0
  0
LINE
  5
3c
  100
AcDbEntity
  8
1
  100
AcDbLine
  10
6.531069
  20
-1.25
  30
0
  11
12.511069
  21
-1.25
  31
0
  0
LINE
  5
3d
  100
AcDbEntity
  8
1
  100
AcDbLine
  10
12.511069
  20
-1.25
  30
0
  11
12.531069
  21
-1.23
  31
0
  0
LINE
  5
3e
  100
AcDbEntity
  8
1
  100
AcDbLine
  10
12.531069
  20
-1.23
  30
0
  11
12.531069
  21
0
  31
0
  0
LINE
  5
3f
  100
AcDbEntity
  8
1
  100
AcDbLine
  10
-0
  20
3
  30
0
  11
-0
  21
-3
  31
0
  0
LINE
  5
40
  100
AcDbEntity
  8
1
  100
AcDbLine
  10
0
  20
-3
  30
0
  11
0
  21
3
  31
0
  0
LINE
  5
41
  100
AcDbEntity
  8
1
  100
AcDbLine
  10
12.531069
  20
0.002811
  30
0
  11
12.510069
  21
0.014704
  31
0
  0
LINE
  5
42
  100
AcDbEntity
  8
1
  100
AcDbLine
  10
12.510069
  20
0.014704
  30
0
  11
12.489069
  21
0.029406
  31
0
  0
LINE
  5
43
  100
AcDbEntity
  8
1
  100
AcDbLine
  10
12.489069
  20
0.029406
  30
0
  11
12.468069
  21
0.044104
  31
0
  0
LINE
  5
44
  100
AcDbEntity
  8
1
  100
AcDbLine
  10
12.468069
  20
0.044104
  30
0
  11
12.447069
  21
0.058796
  31
0
  0
LINE
  5
45
  100
AcDbEntity
  8
1
  100
AcDbLine
  10
12.447069
  20
0.058796
  30
0
  11
12.426069
  21
0.073479
  31
0
  0
LINE
  5
46
  100
AcDbEntity
  8
1
  100
AcDbLine
  10
12.426069
  20
0.073479
  30
0
  11
12.405069
  21
0.088153
  31
0
  0
LINE
  5
47
  100
AcDbEntity
  8
1
  100
AcDbLine
  10
12.405069
  20
0.088153
  30
0
  11
12.384069
  21
0.102814
  31
0
  0
LINE
  5
48
  100
AcDbEntity
  8
1
  100
AcDbLine
  10
12.384069
  20
0.102814
  30
0
  11
12.363069
  21
0.117461
  31
0
  0
LINE
  5
49
  100
AcDbEntity
  8
1
  100
AcDbLine
  10
12.363069
  20
0.117461
  30
0
  11
12.342069
  21
0.132092
  31
0
  0
LINE
  5
4a
  100
AcDbEntity
  8
1
  100
AcDbLine
  10
12.342069
  20
0.132092
  30
0
  11
12.321069
  21
0.146705
  31
0
  0
LINE
  5
4b
  100
AcDbEntity
  8
1
  100
AcDbLine
  10
12.321069
  20
0.146705
  30
0
  11
12.300069
  21
0.161297
  31
0
  0
LINE
  5
4c
  100
AcDbEntity
  8
1
  100
AcDbLine
  10
12.300069
  20
0.161297
  30
0
  11
12.279069
  21
0.175867
  31
0
  0
LINE
  5
4d
  100
AcDbEntity
  8
1
  100
AcDbLine
  10
12.279069
  20
0.175867
  30
0
  11
12.258069
  21
0.190412
  31
0
  0
LINE
  5
4e
  100
AcDbEntity
  8
1
  100
AcDbLine
  10
12.258069
  20
0.190412
  30
0
  11
12.237069
  21
0.204932
  31
0
  0
LINE
  5
4f
  100
AcDbEntity
  8
1
  100
AcDbLine
  10
12.237069
  20
0.204932
  30
0
  11
12.216069
  21
0.219423
  31
0
  0
LINE
  5
50
  100
AcDbEntity
  8
1
  100
AcDbLine
  10
12.216069
  20
0.219423
  30
0
  11
12.195069
  21
0.233883
  31
0
  0
LINE
  5
51
  100
AcDbEntity
  8
1
  100
AcDbLine
  10
12.195069
  20
0.233883
  30
0
  11
12.174069
  21
0.248311
  31
0
  0
LINE
  5
52
  100
AcDbEntity
  8
1
  100
AcDbLine
  10
12.174069
  20
0.248311
  30
0
  11
12.153069
  21
0.262705
  31
0
  0
LINE
  5
53
  100
AcDbEntity
  8
1
  100
AcDbLine
  10
12.153069
  20
0.262705
  30
0
  11
12.132069
  21
0.277063
  31
0
  0
LINE
  5
54
  100
AcDbEntity
  8
1
  100
AcDbLine
  10
12.132069
  20
0.277063
  30
0
  11
12.111069
  21
0.291382
  31
0
  0
LINE
  5
55
  100
AcDbEntity
  8
1
  100
AcDbLine
  10
12.111069
  20
0.291382
  30
0
  11
12.090069
  21
0.30566
  31
0
  0
LINE
  5
56
  100
AcDbEntity
  8
1
  100
AcDbLine
  10
12.090069
  20
0.30566
  30
0
  11
12.069069
  21
0.319897
  31
0
  0
LINE
  5
57
  100
AcDbEntity
  8
1
  100
AcDbLine
  10
12.069069
  20
0.319897
  30
0
  11
12.048069
  21
0.334089
  31
0
  0
LINE
  5
58
  100
AcDbEntity
  8
1
  100
AcDbLine
  10
12.048069
  20
0.334089
  30
0
  11
12.027069
  21
0.348235
  31
0
  0
LINE
  5
59
  100
AcDbEntity
  8
1
  100
AcDbLine
  10
12.027069
  20
0.348235
  30
0
  11
12.006069
  21
0.362333
  31
0
  0
LINE
  5
5a
  100
AcDbEntity
  8
1
  100
AcDbLine
  10
12.006069
  20
0.362333
  30
0
  11
11.985069
  21
0.376381
  31
0
  0
LINE
  5
5b
  100
AcDbEntity
  8
1
  100
AcDbLine
  10
11.985069
  20
0.376381
  30
0
  11
11.964069
  21
0.390376
  31
0
  0
LINE
  5
5c
  100
AcDbEntity
  8
1
  100
AcDbLine
  10
11.964069
  20
0.390376
  30
0
  11
11.943069
  21
0.404318
  31
0
  0
LINE
  5
5d
  100
AcDbEntity
  8
1
  100
AcDbLine
  10
11.943069
  20
0.404318
  30
0
  11
11.922069
  21
0.418203
  31
0
  0
LINE
  5
5e
  100
AcDbEntity
  8
1
  100
AcDbLine
  10
11.922069
  20
0.418203
  30
0
  11
11.901069
  21
0.432031
  31
0
  0
LINE
  5
5f
  100
AcDbEntity
  8
1
  100
AcDbLine
  10
11.901069
  20
0.432031
  30
0
  11
11.880069
  21
0.445799
  31
0
  0
LINE
  5
60
  100
AcDbEntity
  8
1
  100
AcDbLine
  10
11.880069
  20
0.445799
  30
0
  11
11.859069
  21
0.459505
  31
0
  0
LINE
  5
61
  100
AcDbEntity
  8
1
  100
AcDbLine
  10
11.859069
  20
0.459505
  30
0
  11
11.838069
  21
0.473148
  31
0
  0
LINE
  5
62
  100
AcDbEntity
  8
1
  100
AcDbLine
  10
11.838069
  20
0.473148
  30
0
  11
11.817069
  21
0.486725
  31
0
  0
LINE
  5
63
  100
AcDbEntity
  8
1
  100
AcDbLine
  10
11.817069
  20
0.486725
  30
0
  11
11.796069
  21
0.500235
  31
0
  0
LINE
  5
64
  100
AcDbEntity
  8
1
  100
AcDbLine
  10
11.796069
  20
0.500235
  30
0
  11
11.775069
  21
0.513676
  31
0
  0
LINE
  5
65
  100
AcDbEntity
  8
1
  100
AcDbLine
  10
11.775069
  20
0.513676
  30
0
  11
11.754069
  21
0.527045
  31
0
  0
LINE
  5
66
  100
AcDbEntity
  8
1
  100
AcDbLine
  10
11.754069
  20
0.527045
  30
0
  11
11.733069
  21
0.540342
  31
0
  0
LINE
  5
67
  100
AcDbEntity
  8
1
  100
AcDbLine
  10
11.733069
  20
0.540342
  30
0
  11
11.712069
  21
0.553564
  31
0
  0
LINE
  5
68
  100
AcDbEntity
  8
1
  100
AcDbLine
  10
11.712069
  20
0.553564
  30
0
  11
11.691069
  21
0.566709
  31
0
  0
LINE
  5
69
  100
AcDbEntity
  8
1
  100
AcDbLine
  10
11.691069
  20
0.566709
  30
0
  11
11.670069
  21
0.579776
  31
0
  0
LINE
  5
6a
  100
AcDbEntity
  8
1
  100
AcDbLine
  10
11.670069
  20
0.579776
  30
0
  11
11.649069
  21
0.592762
  31
0
  0
LINE
  5
6b
  100
AcDbEntity
  8
1
  100
AcDbLine
  10
11.649069
  20
0.592762
  30
0
  11
11.628069
  21
0.605667
  31
0
  0
LINE
  5
6c
  100
AcDbEntity
  8
1
  100
AcDbLine
  10
11.628069
  20
0.605667
  30
0
  11
11.607069
  21
0.618488
  31
0
  0
LINE
  5
6d
  100
AcDbEntity
  8
1
  100
AcDbLine
  10
11.607069
  20
0.618488
  30
0
  11
11.586069
  21
0.631223
  31
0
  0
LINE
  5
6e
  100
AcDbEntity
  8
1
  100
AcDbLine
  10
11.586069
  20
0.631223
  30
0
  11
11.565069
  21
0.643871
  31
0
  0
LINE
  5
6f
  100
AcDbEntity
  8
1
  100
AcDbLine
  10
11.565069
  20
0.643871
  30
0
  11
11.544069
  21
0.65643
  31
0
  0
LINE
  5
70
  100
AcDbEntity
  8
1
  100
AcDbLine
  10
11.544069
  20
0.65643
  30
0
  11
11.523069
  21
0.668897
  31
0
  0
LINE
  5
71
  100
AcDbEntity
  8
1
  100
AcDbLine
  10
11.523069
  20
0.668897
  30
0
  11
11.502069
  21
0.681273
  31
0
  0
LINE
  5
72
  100
AcDbEntity
  8
1
  100
AcDbLine
  10
11.502069
  20
0.681273
  30
0
  11
11.481069
  21
0.693554
  31
0
  0
LINE
  5
73
  100
AcDbEntity
  8
1
  100
AcDbLine
  10
11.481069
  20
0.693554
  30
0
  11
11.460069
  21
0.705739
  31
0
  0
LINE
  5
74
  100
AcDbEntity
  8
1
  100
AcDbLine
  10
11.460069
  20
0.705739
  30
0
  11
11.439069
  21
0.717826
  31
0
  0
LINE
  5
75
  100
AcDbEntity
  8
1
  100
AcDbLine
  10
11.439069
  20
0.717826
  30
0
  11
11.418069
  21
0.729814
  31
0
  0
LINE
  5
76
  100
AcDbEntity
  8
1
  100
AcDbLine
  10
11.418069
  20
0.729814
  30
0
  11
11.397069
  21
0.741702
  31
0
  0
LINE
  5
77
  100
AcDbEntity
  8
1
  100
AcDbLine
  10
11.397069
  20
0.741702
  30
0
  11
11.376069
  21
0.753486
  31
0
  0
LINE
  5
78
  100
AcDbEntity
  8
1
  100
AcDbLine
  10
11.376069
  20
0.753486
  30
0
  11
11.355069
  21
0.765166
  31
0
  0
LINE
  5
79
  100
AcDbEntity
  8
1
  100
AcDbLine
  10
11.355069
  20
0.765166
  30
0
  11
11.334069
  21
0.776741
  31
0
  0
LINE
  5
7a
  100
AcDbEntity
  8
1
  100
AcDbLine
  10
11.334069
  20
0.776741
  30
0
  11
11.313069
  21
0.788207
  31
0
  0
LINE
  5
7b
  100
AcDbEntity
  8
1
  100
AcDbLine
  10
11.313069
  20
0.788207
  30
0
  11
11.292069
  21
0.799565
  31
0
  0
LINE
  5
7c
  100
AcDbEntity
  8
1
  100
AcDbLine
  10
11.292069
  20
0.799565
  30
0
  11
11.271069
  21
0.810812
  31
0
  0
LINE
  5
7d
  100
AcDbEntity
  8
1
  100
AcDbLine
  10
11.271069
  20
0.810812
  30
0
  11
11.250069
  21
0.821947
  31
0
  0
LINE
  5
7e
  100
AcDbEntity
  8
1
  100
AcDbLine
  10
11.250069
  20
0.821947
  30
0
  11
11.229069
  21
0.832969
  31
0
  0
LINE
  5
7f
  100
AcDbEntity
  8
1
  100
AcDbLine
  10
11.229069
  20
0.832969
  30
0
  11
11.208069
  21
0.843874
  31
0
  0
LINE
  5
80
  100
AcDbEntity
  8
1
  100
AcDbLine
  10
11.208069
  20
0.843874
  30
0
  11
11.187069
  21
0.854664
  31
0
  0
LINE
  5
81
  100
AcDbEntity
  8
1
  100
AcDbLine
  10
11.187069
  20
0.854664
  30
0
  11
11.166069
  21
0.865335
  31
0
  0
LINE
  5
82
  100
AcDbEntity
  8
1
  100
AcDbLine
  10
11.166069
  20
0.865335
  30
0
  11
11.145069
  21
0.875886
  31
0
  0
LINE
  5
83
  100
AcDbEntity
  8
1
  100
AcDbLine
  10
11.145069
  20
0.875886
  30
0
  11
11.124069
  21
0.886316
  31
0
  0
LINE
  5
84
  100
AcDbEntity
  8
1
  100
AcDbLine
  10
11.124069
  20
0.886316
  30
0
  11
11.103069
  21
0.896623
  31
0
  0
LINE
  5
85
  100
AcDbEntity
  8
1
  100
AcDbLine
  10
11.103069
  20
0.896623
  30
0
  11
11.082069
  21
0.906806
  31
0
  0
LINE
  5
86
  100
AcDbEntity
  8
1
  100
AcDbLine
  10
11.082069
  20
0.906806
  30
0
  11
11.061069
  21
0.916864
  31
0
  0
LINE
  5
87
  100
AcDbEntity
  8
1
  100
AcDbLine
  10
11.061069
  20
0.916864
  30
0
  11
11.040069
  21
0.926795
  31
0
  0
LINE
  5
88
  100
AcDbEntity
  8
1
  100
AcDbLine
  10
11.040069
  20
0.926795
  30
0
  11
11.019069
  21
0.936597
  31
0
  0
LINE
  5
89
  100
AcDbEntity
  8
1
  100
AcDbLine
  10
11.019069
  20
0.936597
  30
0
  11
10.998069
  21
0.94627
  31
0
  0
LINE
  5
8a
  100
AcDbEntity
  8
1
  100
AcDbLine
  10
10.998069
  20
0.94627
  30
0
  11
10.977069
  21
0.955812
  31
0
  0
LINE
  5
8b
  100
AcDbEntity
  8
1
  100
AcDbLine
  10
10.977069
  20
0.955812
  30
0
  11
10.956069
  21
0.965222
  31
0
  0
LINE
  5
8c
  100
AcDbEntity
  8
1
  100
AcDbLine
  10
10.956069
  20
0.965222
  30
0
  11
10.935069
  21
0.974499
  31
0
  0
LINE
  5
8d
  100
AcDbEntity
  8
1
  100
AcDbLine
  10
10.935069
  20
0.974499
  30
0
  11
10.914069
  21
0.98364
  31
0
  0
LINE
  5
8e
  100
AcDbEntity
  8
1
  100
AcDbLine
  10
10.914069
  20
0.98364
  30
0
  11
10.893069
  21
0.992645
  31
0
  0
LINE
  5
8f
  100
AcDbEntity
  8
1
  100
AcDbLine
  10
10.893069
  20
0.992645
  30
0
  11
10.872069
  21
1.001513
  31
0
  0
LINE
  5
90
  100
AcDbEntity
  8
1
  100
AcDbLine
  10
10.872069
  20
1.001513
  30
0
  11
10.851069
  21
1.010242
  31
0
  0
LINE
  5
91
  100
AcDbEntity
  8
1
  100
AcDbLine
  10
10.851069
  20
1.010242
  30
0
  11
10.830069
  21
1.018832
  31
0
  0
LINE
  5
92
  100
AcDbEntity
  8
1
  100
AcDbLine
  10
10.830069
  20
1.018832
  30
0
  11
10.809069
  21
1.027281
  31
0
  0
LINE
  5
93
  100
AcDbEntity
  8
1
  100
AcDbLine
  10
10.809069
  20
1.027281
  30
0
  11
10.788069
  21
1.035587
  31
0
  0
LINE
  5
94
  100
AcDbEntity
  8
1
  100
AcDbLine
  10
10.788069
  20
1.035587
  30
0
  11
10.767069
  21
1.04375
  31
0
  0
LINE
  5
95
  100
AcDbEntity
  8
1
  100
AcDbLine
  10
10.767069
  20
1.04375
  30
0
  11
10.746069
  21
1.051769
  31
0
  0
LINE
  5
96
  100
AcDbEntity
  8
1
  100
AcDbLine
  10
10.746069
  20
1.051769
  30
0
  11
10.725069
  21
1.059642
  31
0
  0
LINE
  5
97
  100
AcDbEntity
  8
1
  100
AcDbLine
  10
10.725069
  20
1.059642
  30
0
  11
10.704069
  21
1.067368
  31
0
  0
LINE
  5
98
  100
AcDbEntity
  8
1
  100
AcDbLine
  10
10.704069
  20
1.067368
  30
0
  11
10.683069
  21
1.074947
  31
0
  0
LINE
  5
99
  100
AcDbEntity
  8
1
  100
AcDbLine
  10
10.683069
  20
1.074947
  30
0
  11
10.662069
  21
1.082377
  31
0
  0
LINE
  5
9a
  100
AcDbEntity
  8
1
  100
AcDbLine
  10
10.662069
  20
1.082377
  30
0
  11
10.641069
  21
1.089657
  31
0
  0
LINE
  5
9b
  100
AcDbEntity
  8
1
  100
AcDbLine
  10
10.641069
  20
1.089657
  30
0
  11
10.620069
  21
1.096787
  31
0
  0
LINE
  5
9c
  100
AcDbEntity
  8
1
  100
AcDbLine
  10
10.620069
  20
1.096787
  30
0
  11
10.599069
  21
1.103765
  31
0
  0
LINE
  5
9d
  100
AcDbEntity
  8
1
  100
AcDbLine
  10
10.599069
  20
1.103765
  30
0
  11
10.578069
  21
1.11059
  31
0
  0
LINE
  5
9e
  100
AcDbEntity
  8
1
  100
AcDbLine
  10
10.578069
  20
1.11059
  30
0
  11
10.557069
  21
1.117261
  31
0
  0
LINE
  5
9f
  100
AcDbEntity
  8
1
  100
AcDbLine
  10
10.557069
  20
1.117261
  30
0
  11
10.536069
  21
1.123778
  31
0
  0
LINE
  5
a0
  100
AcDbEntity
  8
1
  100
AcDbLine
  10
10.536069
  20
1.123778
  30
0
  11
10.515069
  21
1.130139
  31
0
  0
LINE
  5
a1
  100
AcDbEntity
  8
1
  100
AcDbLine
  10
10.515069
  20
1.130139
  30
0
  11
10.494069
  21
1.136344
  31
0
  0
LINE
  5
a2
  100
AcDbEntity
  8
1
  100
AcDbLine
  10
10.494069
  20
1.136344
  30
0
  11
10.473069
  21
1.142391
  31
0
  0
LINE
  5
a3
  100
AcDbEntity
  8
1
  100
AcDbLine
  10
10.473069
  20
1.142391
  30
0
  11
10.452069
  21
1.148281
  31
0
  0
LINE
  5
a4
  100
AcDbEntity
  8
1
  100
AcDbLine
  10
10.452069
  20
1.148281
  30
0
  11
10.431069
  21
1.154011
  31
0
  0
LINE
  5
a5
  100
AcDbEntity
  8
1
  100
AcDbLine
  10
10.431069
  20
1.154011
  30
0
  11
10.410069
  21
1.159582
  31
0
  0
LINE
  5
a6
  100
AcDbEntity
  8
1
  100
AcDbLine
  10
10.410069
  20
1.159582
  30
0
  11
10.389069
  21
1.164993
  31
0
  0
LINE
  5
a7
  100
AcDbEntity
  8
1
  100
AcDbLine
  10
10.389069
  20
1.164993
  30
0
  11
10.368069
  21
1.170242
  31
0
  0
LINE
  5
a8
  100
AcDbEntity
  8
1
  100
AcDbLine
  10
10.368069
  20
1.170242
  30
0
  11
10.347069
  21
1.175329
  31
0
  0
LINE
  5
a9
  100
AcDbEntity
  8
1
  100
AcDbLine
  10
10.347069
  20
1.175329
  30
0
  11
10.326069
  21
1.180254
  31
0
  0
LINE
  5
aa
  100
AcDbEntity
  8
1
  100
AcDbLine
  10
10.326069
  20
1.180254
  30
0
  11
10.305069
  21
1.185015
  31
0
  0
LINE
  5
ab
  100
AcDbEntity
  8
1
  100
AcDbLine
  10
10.305069
  20
1.185015
  30
0
  11
10.284069
  21
1.189612
  31
0
  0
LINE
  5
ac
  100
AcDbEntity
  8
1
  100
AcDbLine
  10
10.284069
  20
1.189612
  30
0
  11
10.263069
  21
1.194045
  31
0
  0
LINE
  5
ad
  100
AcDbEntity
  8
1
  100
AcDbLine
  10
10.263069
  20
1.194045
  30
0
  11
10.242069
  21
1.198313
  31
0
  0
LINE
  5
ae
  100
AcDbEntity
  8
1
  100
AcDbLine
  10
10.242069
  20
1.198313
  30
0
  11
10.221069
  21
1.202414
  31
0
  0
LINE
  5
af
  100
AcDbEntity
  8
1
  100
AcDbLine
  10
10.221069
  20
1.202414
  30
0
  11
10.200069
  21
1.206349
  31
0
  0
LINE
  5
b0
  100
AcDbEntity
  8
1
  100
AcDbLine
  10
10.200069
  20
1.206349
  30
0
  11
10.179069
  21
1.210118
  31
0
  0
LINE
  5
b1
  100
AcDbEntity
  8
1
  100
AcDbLine
  10
10.179069
  20
1.210118
  30
0
  11
10.158069
  21
1.213719
  31
0
  0
LINE
  5
b2
  100
AcDbEntity
  8
1
  100
AcDbLine
  10
10.158069
  20
1.213719
  30
0
  11
10.137069
  21
1.217152
  31
0
  0
LINE
  5
b3
  100
AcDbEntity
  8
1
  100
AcDbLine
  10
10.137069
  20
1.217152
  30
0
  11
10.116069
  21
1.220416
  31
0
  0
LINE
  5
b4
  100
AcDbEntity
  8
1
  100
AcDbLine
  10
10.116069
  20
1.220416
  30
0
  11
10.095069
  21
1.223512
  31
0
  0
LINE
  5
b5
  100
AcDbEntity
  8
1
  100
AcDbLine
  10
10.095069
  20
1.223512
  30
0
  11
10.074069
  21
1.226438
  31
0
  0
LINE
  5
b6
  100
AcDbEntity
  8
1
  100
AcDbLine
  10
10.074069
  20
1.226438
  30
0
  11
10.053069
  21
1.229195
  31
0
  0
LINE
  5
b7
  100
AcDbEntity
  8
1
  100
AcDbLine
  10
10.053069
  20
1.229195
  30
0
  11
10.032069
  21
1.231781
  31
0
  0
LINE
  5
b8
  100
AcDbEntity
  8
1
  100
AcDbLine
  10
10.032069
  20
1.231781
  30
0
  11
10.011069
  21
1.234197
  31
0
  0
LINE
  5
b9
  100
AcDbEntity
  8
1
  100
AcDbLine
  10
10.011069
  20
1.234197
  30
0
  11
9.990069
  21
1.236443
  31
0
  0
LINE
  5
ba
  100
AcDbEntity
  8
1
  100
AcDbLine
  10
9.990069
  20
1.236443
  30
0
  11
9.969069
  21
1.238517
  31
0
  0
LINE
  5
bb
  100
AcDbEntity
  8
1
  100
AcDbLine
  10
9.969069
  20
1.238517
  30
0
  11
9.948069
  21
1.24042
  31
0
  0
LINE
  5
bc
  100
AcDbEntity
  8
1
  100
AcDbLine
  10
9.948069
  20
1.24042
  30
0
  11
9.927069
  21
1.242151
  31
0
  0
LINE
  5
bd
  100
AcDbEntity
  8
1
  100
AcDbLine
  10
9.927069
  20
1.242151
  30
0
  11
9.906069
  21
1.24371
  31
0
  0
LINE
  5
be
  100
AcDbEntity
  8
1
  100
AcDbLine
  10
9.906069
  20
1.24371
  30
0
  11
9.885069
  21
1.245097
  31
0
  0
LINE
  5
bf
  100
AcDbEntity
  8
1
  100
AcDbLine
  10
9.885069
  20
1.245097
  30
0
  11
9.864069
  21
1.246312
  31
0
  0
LINE
  5
c0
  100
AcDbEntity
  8
1
  100
AcDbLine
  10
9.864069
  20
1.246312
  30
0
  11
9.843069
  21
1.247355
  31
0
  0
LINE
  5
c1
  100
AcDbEntity
  8
1
  100
AcDbLine
  10
9.843069
  20
1.247355
  30
0
  11
9.822069
  21
1.248224
  31
0
  0
LINE
  5
c2
  100
AcDbEntity
  8
1
  100
AcDbLine
  10
9.822069
  20
1.248224
  30
0
  11
9.801069
  21
1.248922
  31
0
  0
LINE
  5
c3
  100
AcDbEntity
  8
1
  100
AcDbLine
  10
9.801069
  20
1.248922
  30
0
  11
9.780069
  21
1.249446
  31
0
  0
LINE
  5
c4
  100
AcDbEntity
  8
1
  100
AcDbLine
  10
9.780069
  20
1.249446
  30
0
  11
9.759069
  21
1.249797
  31
0
  0
LINE
  5
c5
  100
AcDbEntity
  8
1
  100
AcDbLine
  10
9.759069
  20
1.249797
  30
0
  11
9.738069
  21
1.249976
  31
0
  0
LINE
  5
c6
  100
AcDbEntity
  8
1
  100
AcDbLine
  10
9.738069
  20
1.249976
  30
0
  11
9.726907
  21
1.25
  31
0
  0
LINE
  5
c7
  100
AcDbEntity
  8
1
  100
AcDbLine
  10
12.531069
  20
0.125862
  30
0
  11
12.510069
  21
0.137541
  31
0
  0
LINE
  5
c8
  100
AcDbEntity
  8
1
  100
AcDbLine
  10
12.510069
  20
0.137541
  30
0
  11
12.489069
  21
0.151962
  31
0
  0
LINE
  5
c9
  100
AcDbEntity
  8
1
  100
AcDbLine
  10
12.489069
  20
0.151962
  30
0
  11
12.468069
  21
0.166362
  31
0
  0
LINE
  5
ca
  100
AcDbEntity
  8
1
  100
AcDbLine
  10
12.468069
  20
0.166362
  30
0
  11
12.447069
  21
0.180739
  31
0
  0
LINE
  5
cb
  100
AcDbEntity
  8
1
  100
AcDbLine
  10
12.447069
  20
0.180739
  30
0
  11
12.426069
  21
0.195092
  31
0
  0
LINE
  5
cc
  100
AcDbEntity
  8
1
  100
AcDbLine
  10
12.426069
  20
0.195092
  30
0
  11
12.405069
  21
0.209417
  31
0
  0
LINE
  5
cd
  100
AcDbEntity
  8
1
  100
AcDbLine
  10
12.405069
  20
0.209417
  30
0
  11
12.384069
  21
0.223713
  31
0
  0
LINE
  5
ce
  100
AcDbEntity
  8
1
  100
AcDbLine
  10
12.384069
  20
0.223713
  30
0
  11
12.363069
  21
0.237978
  31
0
  0
LINE
  5
cf
  100
AcDbEntity
  8
1
  100
AcDbLine
  10
12.363069
  20
0.237978
  30
0
  11
12.342069
  21
0.25221
  31
0
  0
LINE
  5
d0
  100
AcDbEntity
  8
1
  100
AcDbLine
  10
12.342069
  20
0.25221
  30
0
  11
12.321069
  21
0.266407
  31
0
  0
LINE
  5
d1
  100
AcDbEntity
  8
1
  100
AcDbLine
  10
12.321069
  20
0.266407
  30
0
  11
12.300069
  21
0.280568
  31
0
  0
LINE
  5
d2
  100
AcDbEntity
  8
1
  100
AcDbLine
  10
12.300069
  20
0.280568
  30
0
  11
12.279069
  21
0.294689
  31
0
  0
LINE
  5
d3
  100
AcDbEntity
  8
1
  100
AcDbLine
  10
12.279069
  20
0.294689
  30
0
  11
12.258069
  21
0.30877
  31
0
  0
LINE
  5
d4
  100
AcDbEntity
  8
1
  100
AcDbLine
  10
12.258069
  20
0.30877
  30
0
  11
12.237069
  21
0.322808
  31
0
  0
LINE
  5
d5
  100
AcDbEntity
  8
1
  100
AcDbLine
  10
12.237069
  20
0.322808
  30
0
  11
12.216069
  21
0.336802
  31
0
  0
LINE
  5
d6
  100
AcDbEntity
  8
1
  100
AcDbLine
  10
12.216069
  20
0.336802
  30
0
  11
12.195069
  21
0.350749
  31
0
  0
LINE
  5
d7
  100
AcDbEntity
  8
1
  100
AcDbLine
  10
12.195069
  20
0.350749
  30
0
  11
12.174069
  21
0.364647
  31
0
  0
LINE
  5
d8
  100
AcDbEntity
  8
1
  100
AcDbLine
  10
12.174069
  20
0.364647
  30
0
  11
12.153069
  21
0.378495
  31
0
  0
LINE
  5
d9
  100
AcDbEntity
  8
1
  100
AcDbLine
  10
12.153069
  20
0.378495
  30
0
  11
12.132069
  21
0.39229
  31
0
  0
LINE
  5
da
  100
AcDbEntity
  8
1
  100
AcDbLine
  10
12.132069
  20
0.39229
  30
0
  11
12.111069
  21
0.406032
  31
0
  0
LINE
  5
db
  100
AcDbEntity
  8
1
  100
AcDbLine
  10
12.111069
  20
0.406032
  30
0
  11
12.090069
  21
0.419717
  31
0
  0
LINE
  5
dc
  100
AcDbEntity
  8
1
  100
AcDbLine
  10
12.090069
  20
0.419717
  30
0
  11
12.069069
  21
0.433343
  31
0
  0
LINE
  5
dd
  100
AcDbEntity
  8
1
  100
AcDbLine
  10
12.069069
  20
0.433343
  30
0
  11
12.048069
  21
0.44691
  31
0
  0
LINE
  5
de
  100
AcDbEntity
  8
1
  100
AcDbLine
  10
12.048069
  20
0.44691
  30
0
  11
12.027069
  21
0.460416
  31
0
  0
LINE
  5
df
  100
AcDbEntity
  8
1
  100
AcDbLine
  10
12.027069
  20
0.460416
  30
0
  11
12.006069
  21
0.473857
  31
0
  0
LINE
  5
e0
  100
AcDbEntity
  8
1
  100
AcDbLine
  10
12.006069
  20
0.473857
  30
0
  11
11.985069
  21
0.487233
  31
0
  0
LINE
  5
e1
  100
AcDbEntity
  8
1
  100
AcDbLine
  10
11.985069
  20
0.487233
  30
0
  11
11.964069
  21
0.500541
  31
0
  0
LINE
  5
e2
  100
AcDbEntity
  8
1
  100
AcDbLine
  10
11.964069
  20
0.500541
  30
0
  11
11.943069
  21
0.51378
  31
0
  0
LINE
  5
e3
  100
AcDbEntity
  8
1
  100
AcDbLine
  10
11.943069
  20
0.51378
  30
0
  11
11.922069
  21
0.526948
  31
0
  0
LINE
  5
e4
  100
AcDbEntity
  8
1
  100
AcDbLine
  10
11.922069
  20
0.526948
  30
0
  11
11.901069
  21
0.540044
  31
0
  0
LINE
  5
e5
  100
AcDbEntity
  8
1
  100
AcDbLine
  10
11.901069
  20
0.540044
  30
0
  11
11.880069
  21
0.553064
  31
0
  0
LINE
  5
e6
  100
AcDbEntity
  8
1
  100
AcDbLine
  10
11.880069
  20
0.553064
  30
0
  11
11.859069
  21
0.566008
  31
0
  0
LINE
  5
e7
  100
AcDbEntity
  8
1
  100
AcDbLine
  10
11.859069
  20
0.566008
  30
0
  11
11.838069
  21
0.578873
  31
0
  0
LINE
  5
e8
  100
AcDbEntity
  8
1
  100
AcDbLine
  10
11.838069
  20
0.578873
  30
0
  11
11.817069
  21
0.591659
  31
0
  0
LINE
  5
e9
  100
AcDbEntity
  8
1
  100
AcDbLine
  10
11.817069
  20
0.591659
  30
0
  11
11.796069
  21
0.604362
  31
0
  0
LINE
  5
ea
  100
AcDbEntity
  8
1
  100
AcDbLine
  10
11.796069
  20
0.604362
  30
0
  11
11.775069
  21
0.616982
  31
0
  0
LINE
  5
eb
  100
AcDbEntity
  8
1
  100
AcDbLine
  10
11.775069
  20
0.616982
  30
0
  11
11.754069
  21
0.629517
  31
0
  0
LINE
  5
ec
  100
AcDbEntity
  8
1
  100
AcDbLine
  10
11.754069
  20
0.629517
  30
0
  11
11.733069
  21
0.641964
  31
0
  0
LINE
  5
ed
  100
AcDbEntity
  8
1
  100
AcDbLine
  10
11.733069
  20
0.641964
  30
0
  11
11.712069
  21
0.654323
  31
0
  0
LINE
  5
ee
  100
AcDbEntity
  8
1
  100
AcDbLine
  10
11.712069
  20
0.654323
  30
0
  11
11.691069
  21
0.666591
  31
0
  0
LINE
  5
ef
  100
AcDbEntity
  8
1
  100
AcDbLine
  10
11.691069
  20
0.666591
  30
0
  11
11.670069
  21
0.678767
  31
0
  0
LINE
  5
f0
  100
AcDbEntity
  8
1
  100
AcDbLine
  10
11.670069
  20
0.678767
  30
0
  11
11.649069
  21
0.690849
  31
0
  0
LINE
  5
f1
  100
AcDbEntity
  8
1
  100
AcDbLine
  10
11.649069
  20
0.690849
  30
0
  11
11.628069
  21
0.702835
  31
0
  0
LINE
  5
f2
  100
AcDbEntity
  8
1
  100
AcDbLine
  10
11.628069
  20
0.702835
  30
0
  11
11.607069
  21
0.714724
  31
0
  0
LINE
  5
f3
  100
AcDbEntity
  8
1
  100
AcDbLine
  10
11.607069
  20
0.714724
  30
0
  11
11.586069
  21
0.726514
  31
0
  0
LINE
  5
f4
  100
AcDbEntity
  8
1
  100
AcDbLine
  10
11.586069
  20
0.726514
  30
0
  11
11.565069
  21
0.738204
  31
0
  0
LINE
  5
f5
  100
AcDbEntity
  8
1
  100
AcDbLine
  10
11.565069
  20
0.738204
  30
0
  11
11.544069
  21
0.749791
  31
0
  0
LINE
  5
f6
  100
AcDbEntity
  8
1
  100
AcDbLine
  10
11.544069
  20
0.749791
  30
0
  11
11.523069
  21
0.761275
  31
0
  0
LINE
  5
f7
  100
AcDbEntity
  8
1
  100
AcDbLine
  10
11.523069
  20
0.761275
  30
0
  11
11.502069
  21
0.772653
  31
0
  0
LINE
  5
f8
  100
AcDbEntity
  8
1
  100
AcDbLine
  10
11.502069
  20
0.772653
  30
0
  11
11.481069
  21
0.783925
  31
0
  0
LINE
  5
f9
  100
AcDbEntity
  8
1
  100
AcDbLine
  10
11.481069
  20
0.783925
  30
0
  11
11.460069
  21
0.795088
  31
0
  0
LINE
  5
fa
  100
AcDbEntity
  8
1
  100
AcDbLine
  10
11.460069
  20
0.795088
  30
0
  11
11.439069
  21
0.806141
  31
0
  0
LINE
  5
fb
  100
AcDbEntity
  8
1
  100
AcDbLine
  10
11.439069
  20
0.806141
  30
0
  11
11.418069
  21
0.817082
  31
0
  0
LINE
  5
fc
  100
AcDbEntity
  8
1
  100
AcDbLine
  10
11.418069
  20
0.817082
  30
0
  11
11.397069
  21
0.827911
  31
0
  0
LINE
  5
fd
  100
AcDbEntity
  8
1
  100
AcDbLine
  10
11.397069
  20
0.827911
  30
0
  11
11.376069
  21
0.838624
  31
0
  0
LINE
  5
fe
  100
AcDbEntity
  8
1
  100
AcDbLine
  10
11.376069
  20
0.838624
  30
0
  11
11.355069
  21
0.849222
  31
0
  0
LINE
  5
ff
  100
AcDbEntity
  8
1
  100
AcDbLine
  10
11.355069
  20
0.849222
  30
0
  11
11.334069
  21
0.859702
  31
0
  0
LINE
  5
100
  100
AcDbEntity
  8
1
  100
AcDbLine
  10
11.334069
  20
0.859702
  30
0
  11
11.313069
  21
0.870063
  31
0
  0
LINE
  5
101
  100
AcDbEntity
  8
1
  100
AcDbLine
  10
11.313069
  20
0.870063
  30
0
  11
11.292069
  21
0.880304
  31
0
  0
LINE
  5
102
  100
AcDbEntity
  8
1
  100
AcDbLine
  10
11.292069
  20
0.880304
  30
0
  11
11.271069
  21
0.890423
  31
0
  0
LINE
  5
103
  100
AcDbEntity
  8
1
  100
AcDbLine
  10
11.271069
  20
0.890423
  30
0
  11
11.250069
  21
0.900419
  31
0
  0
LINE
  5
104
  100
AcDbEntity
  8
1
  100
AcDbLine
  10
11.250069
  20
0.900419
  30
0
  11
11.229069
  21
0.91029
  31
0
  0
LINE
  5
105
  100
AcDbEntity
  8
1
  100
AcDbLine
  10
11.229069
  20
0.91029
  30
0
  11
11.208069
  21
0.920036
  31
0
  0
LINE
  5
106
  100
AcDbEntity
  8
1
  100
AcDbLine
  10
11.208069
  20
0.920036
  30
0
  11
11.187069
  21
0.929654
  31
0
  0
LINE
  5
107
  100
AcDbEntity
  8
1
  100
AcDbLine
  10
11.187069
  20
0.929654
  30
0
  11
11.166069
  21
0.939143
  31
0
  0
LINE
  5
108
  100
AcDbEntity
  8
1
  100
AcDbLine
  10
11.166069
  20
0.939143
  30
0
  11
11.145069
  21
0.948502
  31
0
  0
LINE
  5
109
  100
AcDbEntity
  8
1
  100
AcDbLine
  10
11.145069
  20
0.948502
  30
0
  11
11.124069
  21
0.95773
  31
0
  0
LINE
  5
10a
  100
AcDbEntity
  8
1
  100
AcDbLine
  10
11.124069
  20
0.95773
  30
0
  11
11.103069
  21
0.966826
  31
0
  0
LINE
  5
10b
  100
AcDbEntity
  8
1
  100
AcDbLine
  10
11.103069
  20
0.966826
  30
0
  11
11.082069
  21
0.975788
  31
0
  0
LINE
  5
10c
  100
AcDbEntity
  8
1
  100
AcDbLine
  10
11.082069
  20
0.975788
  30
0
  11
11.061069
  21
0.984614
  31
0
  0
LINE
  5
10d
  100
AcDbEntity
  8
1
  100
AcDbLine
  10
11.061069
  20
0.984614
  30
0
  11
11.040069
  21
0.993305
  31
0
  0
LINE
  5
10e
  100
AcDbEntity
  8
1
  100
AcDbLine
  10
11.040069
  20
0.993305
  30
0
  11
11.019069
  21
1.001858
  31
0
  0
LINE
  5
10f
  100
AcDbEntity
  8
1
  100
AcDbLine
  10
11.019069
  20
1.001858
  30
0
  11
10.998069
  21
1.010272
  31
0
  0
LINE
  5
110
  100
AcDbEntity
  8
1
  100
AcDbLine
  10
10.998069
  20
1.010272
  30
0
  11
10.977069
  21
1.018547
  31
0
  0
LINE
  5
111
  100
AcDbEntity
  8
1
  100
AcDbLine
  10
10.977069
  20
1.018547
  30
0
  11
10.956069
  21
1.026681
  31
0
  0
LINE
  5
112
  100
AcDbEntity
  8
1
  100
AcDbLine
  10
10.956069
  20
1.026681
  30
0
  11
10.935069
  21
1.034672
  31
0
  0
LINE
  5
113
  100
AcDbEntity
  8
1
  100
AcDbLine
  10
10.935069
  20
1.034672
  30
0
  11
10.914069
  21
1.042521
  31
0
  0
LINE
  5
114
  100
AcDbEntity
  8
1
  100
AcDbLine
  10
10.914069
  20
1.042521
  30
0
  11
10.893069
  21
1.050225
  31
0
  0
LINE
  5
115
  100
AcDbEntity
  8
1
  100
AcDbLine
  10
10.893069
  20
1.050225
  30
0
  11
10.872069
  21
1.057784
  31
0
  0
LINE
  5
116
  100
AcDbEntity
  8
1
  100
AcDbLine
  10
10.872069
  20
1.057784
  30
0
  11
10.851069
  21
1.065196
  31
0
  0
LINE
  5
117
  100
AcDbEntity
  8
1
  100
AcDbLine
  10
10.851069
  20
1.065196
  30
0
  11
10.830069
  21
1.072461
  31
0
  0
LINE
  5
118
  100
AcDbEntity
  8
1
  100
AcDbLine
  10
10.830069
  20
1.072461
  30
0
  11
10.809069
  21
1.079578
  31
0
  0
LINE
  5
119
  100
AcDbEntity
  8
1
  100
AcDbLine
  10
10.809069
  20
1.079578
  30
0
  11
10.788069
  21
1.086545
  31
0
  0
LINE
  5
11a
  100
AcDbEntity
  8
1
  100
AcDbLine
  10
10.788069
  20
1.086545
  30
0
  11
10.767069
  21
1.093362
  31
0
  0
LINE
  5
11b
  100
AcDbEntity
  8
1
  100
AcDbLine
  10
10.767069
  20
1.093362
  30
0
  11
10.746069
  21
1.100027
  31
0
  0
LINE
  5
11c
  100
AcDbEntity
  8
1
  100
AcDbLine
  10
10.746069
  20
1.100027
  30
0
  11
10.725069
  21
1.106541
  31
0
  0
LINE
  5
11d
  100
AcDbEntity
  8
1
  100
AcDbLine
  10
10.725069
  20
1.106541
  30
0
  11
10.704069
  21
1.112901
  31
0
  0
LINE
  5
11e
  100
AcDbEntity
  8
1
  100
AcDbLine
  10
10.704069
  20
1.112901
  30
0
  11
10.683069
  21
1.119107
  31
0
  0
LINE
  5
11f
  100
AcDbEntity
  8
1
  100
AcDbLine
  10
10.683069
  20
1.119107
  30
0
  11
10.662069
  21
1.125159
  31
0
  0
LINE
  5
120
  100
AcDbEntity
  8
1
  100
AcDbLine
  10
10.662069
  20
1.125159
  30
0
  11
10.641069
  21
1.131054
  31
0
  0
LINE
  5
121
  100
AcDbEntity
  8
1
  100
AcDbLine
  10
10.641069
  20
1.131054
  30
0
  11
10.620069
  21
1.136794
  31
0
  0
LINE
  5
122
  100
AcDbEntity
  8
1
  100
AcDbLine
  10
10.620069
  20
1.136794
  30
0
  11
10.599069
  21
1.142376
  31
0
  0
LINE
  5
123
  100
AcDbEntity
  8
1
  100
AcDbLine
  10
10.599069
  20
1.142376
  30
0
  11
10.578069
  21
1.147799
  31
0
  0
LINE
  5
124
  100
AcDbEntity
  8
1
  100
AcDbLine
  10
10.578069
  20
1.147799
  30
0
  11
10.557069
  21
1.153064
  31
0
  0
LINE
  5
125
  100
AcDbEntity
  8
1
  100
AcDbLine
  10
10.557069
  20
1.153064
  30
0
  11
10.536069
  21
1.15817
  31
0
  0
LINE
  5
126
  100
AcDbEntity
  8
1
  100
AcDbLine
  10
10.536069
  20
1.15817
  30
0
  11
10.515069
  21
1.163115
  31
0
  0
LINE
  5
127
  100
AcDbEntity
  8
1
  100
AcDbLine
  10
10.515069
  20
1.163115
  30
0
  11
10.494069
  21
1.167899
  31
0
  0
LINE
  5
128
  100
AcDbEntity
  8
1
  100
AcDbLine
  10
10.494069
  20
1.167899
  30
0
  11
10.473069
  21
1.172522
  31
0
  0
LINE
  5
129
  100
AcDbEntity
  8
1
  100
AcDbLine
  10
10.473069
  20
1.172522
  30
0
  11
10.452069
  21
1.176982
  31
0
  0
LINE
  5
12a
  100
AcDbEntity
  8
1
  100
AcDbLine
  10
10.452069
  20
1.176982
  30
0
  11
10.431069
  21
1.18128
  31
0
  0
LINE
  5
12b
  100
AcDbEntity
  8
1
  100
AcDbLine
  10
10.431069
  20
1.18128
  30
0
  11
10.410069
  21
1.185414
  31
0
  0
LINE
  5
12c
  100
AcDbEntity
  8
1
  100
AcDbLine
  10
10.410069
  20
1.185414
  30
0
  11
10.389069
  21
1.189383
  31
0
  0
LINE
  5
12d
  100
AcDbEntity
  8
1
  100
AcDbLine
  10
10.389069
  20
1.189383
  30
0
  11
10.368069
  21
1.193189
  31
0
  0
LINE
  5
12e
  100
AcDbEntity
  8
1
  100
AcDbLine
  10
10.368069
  20
1.193189
  30
0
  11
10.347069
  21
1.196829
  31
0
  0
LINE
  5
12f
  100
AcDbEntity
  8
1
  100
AcDbLine
  10
10.347069
  20
1.196829
  30
0
  11
10.326069
  21
1.200304
  31
0
  0
LINE
  5
130
  100
AcDbEntity
  8
1
  100
AcDbLine
  10
10.326069
  20
1.200304
  30
0
  11
10.305069
  21
1.203612
  31
0
  0
LINE
  5
131
  100
AcDbEntity
  8
1
  100
AcDbLine
  10
10.305069
  20
1.203612
  30
0
  11
10.284069
  21
1.206754
  31
0
  0
LINE
  5
132
  100
AcDbEntity
  8
1
  100
AcDbLine
  10
10.284069
  20
1.206754
  30
0
  11
10.263069
  21
1.209729
  31
0
  0
LINE
  5
133
  100
AcDbEntity
  8
1
  100
AcDbLine
  10
10.263069
  20
1.209729
  30
0
  11
10.242069
  21
1.212537
  31
0
  0
LINE
  5
134
  100
AcDbEntity
  8
1
  100
AcDbLine
  10
10.242069
  20
1.212537
  30
0
  11
10.221069
  21
1.215177
  31
0
  0
LINE
  5
135
  100
AcDbEntity
  8
1
  100
AcDbLine
  10
10.221069
  20
1.215177
  30
0
  11
10.200069
  21
1.217649
  31
0
  0
LINE
  5
136
  100
AcDbEntity
  8
1
  100
AcDbLine
  10
10.200069
  20
1.217649
  30
0
  11
10.179069
  21
1.219952
  31
0
  0
LINE
  5
137
  100
AcDbEntity
  8
1
  100
AcDbLine
  10
10.179069
  20
1.219952
  30
0
  11
10.158069
  21
1.222086
  31
0
  0
LINE
  5
138
  100
AcDbEntity
  8
1
  100
AcDbLine
  10
10.158069
  20
1.222086
  30
0
  11
10.137069
  21
1.224051
  31
0
  0
LINE
  5
139
  100
AcDbEntity
  8
1
  100
AcDbLine
  10
10.137069
  20
1.224051
  30
0
  11
10.116069
  21
1.225847
  31
0
  0
LINE
  5
13a
  100
AcDbEntity
  8
1
  100
AcDbLine
  10
10.116069
  20
1.225847
  30
0
  11
10.095069
  21
1.227474
  31
0
  0
LINE
  5
13b
  100
AcDbEntity
  8
1
  100
AcDbLine
  10
10.095069
  20
1.227474
  30
0
  11
10.074069
  21
1.22893
  31
0
  0
LINE
  5
13c
  100
AcDbEntity
  8
1
  100
AcDbLine
  10
10.074069
  20
1.22893
  30
0
  11
10.053069
  21
1.230216
  31
0
  0
LINE
  5
13d
  100
AcDbEntity
  8
1
  100
AcDbLine
  10
10.053069
  20
1.230216
  30
0
  11
10.032069
  21
1.231332
  31
0
  0
LINE
  5
13e
  100
AcDbEntity
  8
1
  100
AcDbLine
  10
10.032069
  20
1.231332
  30
0
  11
10.011069
  21
1.232278
  31
0
  0
LINE
  5
13f
  100
AcDbEntity
  8
1
  100
AcDbLine
  10
10.011069
  20
1.232278
  30
0
  11
9.990069
  21
1.233053
  31
0
  0
LINE
  5
140
  100
AcDbEntity
  8
1
  100
AcDbLine
  10
9.990069
  20
1.233053
  30
0
  11
9.969069
  21
1.233658
  31
0
  0
LINE
  5
141
  100
AcDbEntity
  8
1
  100
AcDbLine
  10
9.969069
  20
1.233658
  30
0
  11
9.948069
  21
1.234092
  31
0
  0
LINE
  5
142
  100
AcDbEntity
  8
1
  100
AcDbLine
  10
9.948069
  20
1.234092
  30
0
  11
9.927069
  21
1.234355
  31
0
  0
LINE
  5
143
  100
AcDbEntity
  8
1
  100
AcDbLine
  10
9.927069
  20
1.234355
  30
0
  11
9.906069
  21
1.234447
  31
0
  0
LINE
  5
144
  100
AcDbEntity
  8
1
  100
AcDbLine
  10
9.906069
  20
1.234447
  30
0
  11
9.905225
  21
1.25
  31
0
  0
LINE
  5
145
  100
AcDbEntity
  8
1
  100
AcDbLine
  10
10.28774
  20
1.25
  30
0
  11
10.305069
  21
1.249941
  31
0
  0
LINE
  5
146
  100
AcDbEntity
  8
1
  100
AcDbLine
  10
10.305069
  20
1.249941
  30
0
  11
10.326069
  21
1.249712
  31
0
  0
LINE
  5
147
  100
AcDbEntity
  8
1
  100
AcDbLine
  10
10.326069
  20
1.249712
  30
0
  11
10.347069
  21
1.24931
  31
0
  0
LINE
  5
148
  100
AcDbEntity
  8
1
  100
AcDbLine
  10
10.347069
  20
1.24931
  30
0
  11
10.368069
  21
1.248735
  31
0
  0
LINE
  5
149
  100
AcDbEntity
  8
1
  100
AcDbLine
  10
10.368069
  20
1.248735
  30
0
  11
10.389069
  21
1.247987
  31
0
  0
LINE
  5
14a
  100
AcDbEntity
  8
1
  100
AcDbLine
  10
10.389069
  20
1.247987
  30
0
  11
10.410069
  21
1.247066
  31
0
  0
LINE
  5
14b
  100
AcDbEntity
  8
1
  100
AcDbLine
  10
10.410069
  20
1.247066
  30
0
  11
10.431069
  21
1.245973
  31
0
  0
LINE
  5
14c
  100
AcDbEntity
  8
1
  100
AcDbLine
  10
10.431069
  20
1.245973
  30
0
  11
10.452069
  21
1.244708
  31
0
  0
LINE
  5
14d
  100
AcDbEntity
  8
1
  100
AcDbLine
  10
10.452069
  20
1.244708
  30
0
  11
10.473069
  21
1.24327
  31
0
  0
LINE
  5
14e
  100
AcDbEntity
  8
1
  100
AcDbLine
  10
10.473069
  20
1.24327
  30
0
  11
10.494069
  21
1.24166
  31
0
  0
LINE
  5
14f
  100
AcDbEntity
  8
1
  100
AcDbLine
  10
10.494069
  20
1.24166
  30
0
  11
10.515069
  21
1.239879
  31
0
  0
LINE
  5
150
  100
AcDbEntity
  8
1
  100
AcDbLine
  10
10.515069
  20
1.239879
  30
0
  11
10.536069
  21
1.237925
  31
0
  0
LINE
  5
151
  100
AcDbEntity
  8
1
  100
AcDbLine
  10
10.536069
  20
1.237925
  30
0
  11
10.557069
  21
1.235801
  31
0
  0
LINE
  5
152
  100
AcDbEntity
  8
1
  100
AcDbLine
  10
10.557069
  20
1.235801
  30
0
  11
10.578069
  21
1.233506
  31
0
  0
LINE
  5
153
  100
AcDbEntity
  8
1
  100
AcDbLine
  10
10.578069
  20
1.233506
  30
0
  11
10.599069
  21
1.231039
  31
0
  0
LINE
  5
154
  100
AcDbEntity
  8
1
  100
AcDbLine
  10
10.599069
  20
1.231039
  30
0
  11
10.620069
  21
1.228403
  31
0
  0
LINE
  5
155
  100
AcDbEntity
  8
1
  100
AcDbLine
  10
10.620069
  20
1.228403
  30
0
  11
10.641069
  21
1.225596
  31
0
  0
LINE
  5
156
  100
AcDbEntity
  8
1
  100
AcDbLine
  10
10.641069
  20
1.225596
  30
0
  11
10.662069
  21
1.22262
  31
0
  0
LINE
  5
157
  100
AcDbEntity
  8
1
  100
AcDbLine
  10
10.662069
  20
1.22262
  30
0
  11
10.683069
  21
1.219475
  31
0
  0
LINE
  5
158
  100
AcDbEntity
  8
1
  100
AcDbLine
  10
10.683069
  20
1.219475
  30
0
  11
10.704069
  21
1.216161
  31
0
  0
LINE
  5
159
  100
AcDbEntity
  8
1
  100
AcDbLine
  10
10.704069
  20
1.216161
  30
0
  11
10.725069
  21
1.212679
  31
0
  0
LINE
  5
15a
  100
AcDbEntity
  8
1
  100
AcDbLine
  10
10.725069
  20
1.212679
  30
0
  11
10.746069
  21
1.209028
  31
0
  0
LINE
  5
15b
  100
AcDbEntity
  8
1
  100
AcDbLine
  10
10.746069
  20
1.209028
  30
0
  11
10.767069
  21
1.205211
  31
0
  0
LINE
  5
15c
  100
AcDbEntity
  8
1
  100
AcDbLine
  10
10.767069
  20
1.205211
  30
0
  11
10.788069
  21
1.201227
  31
0
  0
LINE
  5
15d
  100
AcDbEntity
  8
1
  100
AcDbLine
  10
10.788069
  20
1.201227
  30
0
  11
10.809069
  21
1.197076
  31
0
  0
LINE
  5
15e
  100
AcDbEntity
  8
1
  100
AcDbLine
  10
10.809069
  20
1.197076
  30
0
  11
10.830069
  21
1.19276
  31
0
  0
LINE
  5
15f
  100
AcDbEntity
  8
1
  100
AcDbLine
  10
10.830069
  20
1.19276
  30
0
  11
10.851069
  21
1.188279
  31
0
  0
LINE
  5
160
  100
AcDbEntity
  8
1
  100
AcDbLine
  10
10.851069
  20
1.188279
  30
0
  11
10.872069
  21
1.183634
  31
0
  0
LINE
  5
161
  100
AcDbEntity
  8
1
  100
AcDbLine
  10
10.872069
  20
1.183634
  30
0
  11
10.893069
  21
1.178824
  31
0
  0
LINE
  5
162
  100
AcDbEntity
  8
1
  100
AcDbLine
  10
10.893069
  20
1.178824
  30
0
  11
10.914069
  21
1.173852
  31
0
  0
LINE
  5
163
  100
AcDbEntity
  8
1
  100
AcDbLine
  10
10.914069
  20
1.173852
  30
0
  11
10.935069
  21
1.168717
  31
0
  0
LINE
  5
164
  100
AcDbEntity
  8
1
  100
AcDbLine
  10
10.935069
  20
1.168717
  30
0
  11
10.956069
  21
1.16342
  31
0
  0
LINE
  5
165
  100
AcDbEntity
  8
1
  100
AcDbLine
  10
10.956069
  20
1.16342
  30
0
  11
10.977069
  21
1.157963
  31
0
  0
LINE
  5
166
  100
AcDbEntity
  8
1
  100
AcDbLine
  10
10.977069
  20
1.157963
  30
0
  11
10.998069
  21
1.152345
  31
0
  0
LINE
  5
167
  100
AcDbEntity
  8
1
  100
AcDbLine
  10
10.998069
  20
1.152345
  30
0
  11
11.019069
  21
1.146567
  31
0
  0
LINE
  5
168
  100
AcDbEntity
  8
1
  100
AcDbLine
  10
11.019069
  20
1.146567
  30
0
  11
11.040069
  21
1.140631
  31
0
  0
LINE
  5
169
  100
AcDbEntity
  8
1
  100
AcDbLine
  10
11.040069
  20
1.140631
  30
0
  11
11.061069
  21
1.134538
  31
0
  0
LINE
  5
16a
  100
AcDbEntity
  8
1
  100
AcDbLine
  10
11.061069
  20
1.134538
  30
0
  11
11.082069
  21
1.128287
  31
0
  0
LINE
  5
16b
  100
AcDbEntity
  8
1
  100
AcDbLine
  10
11.082069
  20
1.128287
  30
0
  11
11.103069
  21
1.12188
  31
0
  0
LINE
  5
16c
  100
AcDbEntity
  8
1
  100
AcDbLine
  10
11.103069
  20
1.12188
  30
0
  11
11.124069
  21
1.115318
  31
0
  0
LINE
  5
16d
  100
AcDbEntity
  8
1
  100
AcDbLine
  10
11.124069
  20
1.115318
  30
0
  11
11.145069
  21
1.108601
  31
0
  0
LINE
  5
16e
  100
AcDbEntity
  8
1
  100
AcDbLine
  10
11.145069
  20
1.108601
  30
0
  11
11.166069
  21
1.101731
  31
0
  0
LINE
  5
16f
  100
AcDbEntity
  8
1
  100
AcDbLine
  10
11.166069
  20
1.101731
  30
0
  11
11.187069
  21
1.094709
  31
0
  0
LINE
  5
170
  100
AcDbEntity
  8
1
  100
AcDbLine
  10
11.187069
  20
1.094709
  30
0
  11
11.208069
  21
1.087535
  31
0
  0
LINE
  5
171
  100
AcDbEntity
  8
1
  100
AcDbLine
  10
11.208069
  20
1.087535
  30
0
  11
11.229069
  21
1.080211
  31
0
  0
LINE
  5
172
  100
AcDbEntity
  8
1
  100
AcDbLine
  10
11.229069
  20
1.080211
  30
0
  11
11.250069
  21
1.072737
  31
0
  0
LINE
  5
173
  100
AcDbEntity
  8
1
  100
AcDbLine
  10
11.250069
  20
1.072737
  30
0
  11
11.271069
  21
1.065114
  31
0
  0
LINE
  5
174
  100
AcDbEntity
  8
1
  100
AcDbLine
  10
11.271069
  20
1.065114
  30
0
  11
11.292069
  21
1.057345
  31
0
  0
LINE
  5
175
  100
AcDbEntity
  8
1
  100
AcDbLine
  10
11.292069
  20
1.057345
  30
0
  11
11.313069
  21
1.049429
  31
0
  0
LINE
  5
176
  100
AcDbEntity
  8
1
  100
AcDbLine
  10
11.313069
  20
1.049429
  30
0
  11
11.334069
  21
1.041368
  31
0
  0
LINE
  5
177
  100
AcDbEntity
  8
1
  100
AcDbLine
  10
11.334069
  20
1.041368
  30
0
  11
11.355069
  21
1.033162
  31
0
  0
LINE
  5
178
  100
AcDbEntity
  8
1
  100
AcDbLine
  10
11.355069
  20
1.033162
  30
0
  11
11.376069
  21
1.024814
  31
0
  0
LINE
  5
179
  100
AcDbEntity
  8
1
  100
AcDbLine
  10
11.376069
  20
1.024814
  30
0
  11
11.397069
  21
1.016324
  31
0
  0
LINE
  5
17a
  100
AcDbEntity
  8
1
  100
AcDbLine
  10
11.397069
  20
1.016324
  30
0
  11
11.418069
  21
1.007693
  31
0
  0
LINE
  5
17b
  100
AcDbEntity
  8
1
  100
AcDbLine
  10
11.418069
  20
1.007693
  30
0
  11
11.439069
  21
0.998923
  31
0
  0
LINE
  5
17c
  100
AcDbEntity
  8
1
  100
AcDbLine
  10
11.439069
  20
0.998923
  30
0
  11
11.460069
  21
0.990015
  31
0
  0
LINE
  5
17d
  100
AcDbEntity
  8
1
  100
AcDbLine
  10
11.460069
  20
0.990015
  30
0
  11
11.481069
  21
0.980969
  31
0
  0
LINE
  5
17e
  100
AcDbEntity
  8
1
  100
AcDbLine
  10
11.481069
  20
0.980969
  30
0
  11
11.502069
  21
0.971788
  31
0
  0
LINE
  5
17f
  100
AcDbEntity
  8
1
  100
AcDbLine
  10
11.502069
  20
0.971788
  30
0
  11
11.523069
  21
0.962472
  31
0
  0
LINE
  5
180
  100
AcDbEntity
  8
1
  100
AcDbLine
  10
11.523069
  20
0.962472
  30
0
  11
11.544069
  21
0.953024
  31
0
  0
LINE
  5
181
  100
AcDbEntity
  8
1
  100
AcDbLine
  10
11.544069
  20
0.953024
  30
0
  11
11.565069
  21
0.943443
  31
0
  0
LINE
  5
182
  100
AcDbEntity
  8
1
  100
AcDbLine
  10
11.565069
  20
0.943443
  30
0
  11
11.586069
  21
0.933732
  31
0
  0
LINE
  5
183
  100
AcDbEntity
  8
1
  100
AcDbLine
  10
11.586069
  20
0.933732
  30
0
  11
11.607069
  21
0.923891
  31
0
  0
LINE
  5
184
  100
AcDbEntity
  8
1
  100
AcDbLine
  10
11.607069
  20
0.923891
  30
0
  11
11.628069
  21
0.913923
  31
0
  0
LINE
  5
185
  100
AcDbEntity
  8
1
  100
AcDbLine
  10
11.628069
  20
0.913923
  30
0
  11
11.649069
  21
0.903828
  31
0
  0
LINE
  5
186
  100
AcDbEntity
  8
1
  100
AcDbLine
  10
11.649069
  20
0.903828
  30
0
  11
11.670069
  21
0.893609
  31
0
  0
LINE
  5
187
  100
AcDbEntity
  8
1
  100
AcDbLine
  10
11.670069
  20
0.893609
  30
0
  11
11.691069
  21
0.883265
  31
0
  0
LINE
  5
188
  100
AcDbEntity
  8
1
  100
AcDbLine
  10
11.691069
  20
0.883265
  30
0
  11
11.712069
  21
0.872799
  31
0
  0
LINE
  5
189
  100
AcDbEntity
  8
1
  100
AcDbLine
  10
11.712069
  20
0.872799
  30
0
  11
11.733069
  21
0.862213
  31
0
  0
LINE
  5
18a
  100
AcDbEntity
  8
1
  100
AcDbLine
  10
11.733069
  20
0.862213
  30
0
  11
11.754069
  21
0.851507
  31
0
  0
LINE
  5
18b
  100
AcDbEntity
  8
1
  100
AcDbLine
  10
11.754069
  20
0.851507
  30
0
  11
11.775069
  21
0.840683
  31
0
  0
LINE
  5
18c
  100
AcDbEntity
  8
1
  100
AcDbLine
  10
11.775069
  20
0.840683
  30
0
  11
11.796069
  21
0.829744
  31
0
  0
LINE
  5
18d
  100
AcDbEntity
  8
1
  100
AcDbLine
  10
11.796069
  20
0.829744
  30
0
  11
11.817069
  21
0.818689
  31
0
  0
LINE
  5
18e
  100
AcDbEntity
  8
1
  100
AcDbLine
  10
11.817069
  20
0.818689
  30
0
  11
11.838069
  21
0.807521
  31
0
  0
LINE
  5
18f
  100
AcDbEntity
  8
1
  100
AcDbLine
  10
11.838069
  20
0.807521
  30
0
  11
11.859069
  21
0.796241
  31
0
  0
LINE
  5
190
  100
AcDbEntity
  8
1
  100
AcDbLine
  10
11.859069
  20
0.796241
  30
0
  11
11.880069
  21
0.784851
  31
0
  0
LINE
  5
191
  100
AcDbEntity
  8
1
  100
AcDbLine
  10
11.880069
  20
0.784851
  30
0
  11
11.901069
  21
0.773352
  31
0
  0
LINE
  5
192
  100
AcDbEntity
  8
1
  100
AcDbLine
  10
11.901069
  20
0.773352
  30
0
  11
11.922069
  21
0.761747
  31
0
  0
LINE
  5
193
  100
AcDbEntity
  8
1
  100
AcDbLine
  10
11.922069
  20
0.761747
  30
0
  11
11.943069
  21
0.750036
  31
0
  0
LINE
  5
194
  100
AcDbEntity
  8
1
  100
AcDbLine
  10
11.943069
  20
0.750036
  30
0
  11
11.964069
  21
0.738221
  31
0
  0
LINE
  5
195
  100
AcDbEntity
  8
1
  100
AcDbLine
  10
11.964069
  20
0.738221
  30
0
  11
11.985069
  21
0.726304
  31
0
  0
LINE
  5
196
  100
AcDbEntity
  8
1
  100
AcDbLine
  10
11.985069
  20
0.726304
  30
0
  11
12.006069
  21
0.714287
  31
0
  0
LINE
  5
197
  100
AcDbEntity
  8
1
  100
AcDbLine
  10
12.006069
  20
0.714287
  30
0
  11
12.027069
  21
0.70217
  31
0
  0
LINE
  5
198
  100
AcDbEntity
  8
1
  100
AcDbLine
  10
12.027069
  20
0.70217
  30
0
  11
12.048069
  21
0.689957
  31
0
  0
LINE
  5
199
  100
AcDbEntity
  8
1
  100
AcDbLine
  10
12.048069
  20
0.689957
  30
0
  11
12.069069
  21
0.677648
  31
0
  0
LINE
  5
19a
  100
AcDbEntity
  8
1
  100
AcDbLine
  10
12.069069
  20
0.677648
  30
0
  11
12.090069
  21
0.665245
  31
0
  0
LINE
  5
19b
  100
AcDbEntity
  8
1
  100
AcDbLine
  10
12.090069
  20
0.665245
  30
0
  11
12.111069
  21
0.65275
  31
0
  0
LINE
  5
19c
  100
AcDbEntity
  8
1
  100
AcDbLine
  10
12.111069
  20
0.65275
  30
0
  11
12.132069
  21
0.640165
  31
0
  0
LINE
  5
19d
  100
AcDbEntity
  8
1
  100
AcDbLine
  10
12.132069
  20
0.640165
  30
0
  11
12.153069
  21
0.627492
  31
0
  0
LINE
  5
19e
  100
AcDbEntity
  8
1
  100
AcDbLine
  10
12.153069
  20
0.627492
  30
0
  11
12.174069
  21
0.614731
  31
0
  0
LINE
  5
19f
  100
AcDbEntity
  8
1
  100
AcDbLine
  10
12.174069
  20
0.614731
  30
0
  11
12.195069
  21
0.601886
  31
0
  0
LINE
  5
1a0
  100
AcDbEntity
  8
1
  100
AcDbLine
  10
12.195069
  20
0.601886
  30
0
  11
12.216069
  21
0.588957
  31
0
  0
LINE
  5
1a1
  100
AcDbEntity
  8
1
  100
AcDbLine
  10
12.216069
  20
0.588957
  30
0
  11
12.237069
  21
0.575946
  31
0
  0
LINE
  5
1a2
  100
AcDbEntity
  8
1
  100
AcDbLine
  10
12.237069
  20
0.575946
  30
0
  11
12.258069
  21
0.562856
  31
0
  0
LINE
  5
1a3
  100
AcDbEntity
  8
1
  100
AcDbLine
  10
12.258069
  20
0.562856
  30
0
  11
12.279069
  21
0.549688
  31
0
  0
LINE
  5
1a4
  100
AcDbEntity
  8
1
  100
AcDbLine
  10
12.279069
  20
0.549688
  30
0
  11
12.300069
  21
0.536444
  31
0
  0
LINE
  5
1a5
  100
AcDbEntity
  8
1
  100
AcDbLine
  10
12.300069
  20
0.536444
  30
0
  11
12.321069
  21
0.523126
  31
0
  0
LINE
  5
1a6
  100
AcDbEntity
  8
1
  100
AcDbLine
  10
12.321069
  20
0.523126
  30
0
  11
12.342069
  21
0.509736
  31
0
  0
LINE
  5
1a7
  100
AcDbEntity
  8
1
  100
AcDbLine
  10
12.342069
  20
0.509736
  30
0
  11
12.363069
  21
0.496274
  31
0
  0
LINE
  5
1a8
  100
AcDbEntity
  8
1
  100
AcDbLine
  10
12.363069
  20
0.496274
  30
0
  11
12.384069
  21
0.482745
  31
0
  0
LINE
  5
1a9
  100
AcDbEntity
  8
1
  100
AcDbLine
  10
12.384069
  20
0.482745
  30
0
  11
12.405069
  21
0.469148
  31
0
  0
LINE
  5
1aa
  100
AcDbEntity
  8
1
  100
AcDbLine
  10
12.405069
  20
0.469148
  30
0
  11
12.426069
  21
0.455486
  31
0
  0
LINE
  5
1ab
  100
AcDbEntity
  8
1
  100
AcDbLine
  10
12.426069
  20
0.455486
  30
0
  11
12.447069
  21
0.441762
  31
0
  0
LINE
  5
1ac
  100
AcDbEntity
  8
1
  100
AcDbLine
  10
12.447069
  20
0.441762
  30
0
  11
12.468069
  21
0.427976
  31
0
  0
LINE
  5
1ad
  100
AcDbEntity
  8
1
  100
AcDbLine
  10
12.468069
  20
0.427976
  30
0
  11
12.489069
  21
0.414131
  31
0
  0
LINE
  5
1ae
  100
AcDbEntity
  8
1
  100
AcDbLine
  10
12.489069
  20
0.414131
  30
0
  11
12.510069
  21
0.400229
  31
0
  0
LINE
  5
1af
  100
AcDbEntity
  8
1
  100
AcDbLine
  10
12.510069
  20
0.400229
  30
0
  11
12.531069
  21
0.391083
  31
0
  0
LINE
  5
1b0
  100
AcDbEntity
  8
1
  100
AcDbLine
  10
12.531069
  20
1.23
  30
0
  11
12.531069
  21
-1.23
  31
0
  0
LINE
  5
1b1
  100
AcDbEntity
  8
1
  100
AcDbLine
  10
12.531069
  20
-1.229997
  30
0
  11
12.510069
  21
-1.249914
  31
0
  0
LINE
  5
1b2
  100
AcDbEntity
  8
1
  100
AcDbLine
  10
12.510069
  20
-1.249914
  30
0
  11
12.489069
  21
-1.249654
  31
0
  0
LINE
  5
1b3
  100
AcDbEntity
  8
1
  100
AcDbLine
  10
12.489069
  20
-1.249654
  30
0
  11
12.468069
  21
-1.249222
  31
0
  0
LINE
  5
1b4
  100
AcDbEntity
  8
1
  100
AcDbLine
  10
12.468069
  20
-1.249222
  30
0
  11
12.447069
  21
-1.248616
  31
0
  0
LINE
  5
1b5
  100
AcDbEntity
  8
1
  100
AcDbLine
  10
12.447069
  20
-1.248616
  30
0
  11
12.426069
  21
-1.247838
  31
0
  0
LINE
  5
1b6
  100
AcDbEntity
  8
1
  100
AcDbLine
  10
12.426069
  20
-1.247838
  30
0
  11
12.405069
  21
-1.246888
  31
0
  0
LINE
  5
1b7
  100
AcDbEntity
  8
1
  100
AcDbLine
  10
12.405069
  20
-1.246888
  30
0
  11
12.384069
  21
-1.245765
  31
0
  0
LINE
  5
1b8
  100
AcDbEntity
  8
1
  100
AcDbLine
  10
12.384069
  20
-1.245765
  30
0
  11
12.363069
  21
-1.244469
  31
0
  0
LINE
  5
1b9
  100
AcDbEntity
  8
1
  100
AcDbLine
  10
12.363069
  20
-1.244469
  30
0
  11
12.342069
  21
-1.243001
  31
0
  0
LINE
  5
1ba
  100
AcDbEntity
  8
1
  100
AcDbLine
  10
12.342069
  20
-1.243001
  30
0
  11
12.321069
  21
-1.241361
  31
0
  0
LINE
  5
1bb
  100
AcDbEntity
  8
1
  100
AcDbLine
  10
12.321069
  20
-1.241361
  30
0
  11
12.300069
  21
-1.23955
  31
0
  0
LINE
  5
1bc
  100
AcDbEntity
  8
1
  100
AcDbLine
  10
12.300069
  20
-1.23955
  30
0
  11
12.279069
  21
-1.237567
  31
0
  0
LINE
  5
1bd
  100
AcDbEntity
  8
1
  100
AcDbLine
  10
12.279069
  20
-1.237567
  30
0
  11
12.258069
  21
-1.235412
  31
0
  0
LINE
  5
1be
  100
AcDbEntity
  8
1
  100
AcDbLine
  10
12.258069
  20
-1.235412
  30
0
  11
12.237069
  21
-1.233087
  31
0
  0
LINE
  5
1bf
  100
AcDbEntity
  8
1
  100
AcDbLine
  10
12.237069
  20
-1.233087
  30
0
  11
12.216069
  21
-1.230591
  31
0
  0
LINE
  5
1c0
  100
AcDbEntity
  8
1
  100
AcDbLine
  10
12.216069
  20
-1.230591
  30
0
  11
12.195069
  21
-1.227925
  31
0
  0
LINE
  5
1c1
  100
AcDbEntity
  8
1
  100
AcDbLine
  10
12.195069
  20
-1.227925
  30
0
  11
12.174069
  21
-1.225088
  31
0
  0
LINE
  5
1c2
  100
AcDbEntity
  8
1
  100
AcDbLine
  10
12.174069
  20
-1.225088
  30
0
  11
12.153069
  21
-1.222083
  31
0
  0
LINE
  5
1c3
  100
AcDbEntity
  8
1
  100
AcDbLine
  10
12.153069
  20
-1.222083
  30
0
  11
12.132069
  21
-1.218908
  31
0
  0
LINE
  5
1c4
  100
AcDbEntity
  8
1
  100
AcDbLine
  10
12.132069
  20
-1.218908
  30
0
  11
12.111069
  21
-1.215564
  31
0
  0
LINE
  5
1c5
  100
AcDbEntity
  8
1
  100
AcDbLine
  10
12.111069
  20
-1.215564
  30
0
  11
12.090069
  21
-1.212053
  31
0
  0
LINE
  5
1c6
  100
AcDbEntity
  8
1
  100
AcDbLine
  10
12.090069
  20
-1.212053
  30
0
  11
12.069069
  21
-1.208373
  31
0
  0
LINE
  5
1c7
  100
AcDbEntity
  8
1
  100
AcDbLine
  10
12.069069
  20
-1.208373
  30
0
  11
12.048069
  21
-1.204527
  31
0
  0
LINE
  5
1c8
  100
AcDbEntity
  8
1
  100
AcDbLine
  10
12.048069
  20
-1.204527
  30
0
  11
12.027069
  21
-1.200513
  31
0
  0
LINE
  5
1c9
  100
AcDbEntity
  8
1
  100
AcDbLine
  10
12.027069
  20
-1.200513
  30
0
  11
12.006069
  21
-1.196334
  31
0
  0
LINE
  5
1ca
  100
AcDbEntity
  8
1
  100
AcDbLine
  10
12.006069
  20
-1.196334
  30
0
  11
11.985069
  21
-1.191989
  31
0
  0
LINE
  5
1cb
  100
AcDbEntity
  8
1
  100
AcDbLine
  10
11.985069
  20
-1.191989
  30
0
  11
11.964069
  21
-1.187479
  31
0
  0
LINE
  5
1cc
  100
AcDbEntity
  8
1
  100
AcDbLine
  10
11.964069
  20
-1.187479
  30
0
  11
11.943069
  21
-1.182805
  31
0
  0
LINE
  5
1cd
  100
AcDbEntity
  8
1
  100
AcDbLine
  10
11.943069
  20
-1.182805
  30
0
  11
11.922069
  21
-1.177967
  31
0
  0
LINE
  5
1ce
  100
AcDbEntity
  8
1
  100
AcDbLine
  10
11.922069
  20
-1.177967
  30
0
  11
11.901069
  21
-1.172966
  31
0
  0
LINE
  5
1cf
  100
AcDbEntity
  8
1
  100
AcDbLine
  10
11.901069
  20
-1.172966
  30
0
  11
11.880069
  21
-1.167803
  31
0
  0
LINE
  5
1d0
  100
AcDbEntity
  8
1
  100
AcDbLine
  10
11.880069
  20
-1.167803
  30
0
  11
11.859069
  21
-1.162478
  31
0
  0
LINE
  5
1d1
  100
AcDbEntity
  8
1
  100
AcDbLine
  10
11.859069
  20
-1.162478
  30
0
  11
11.838069
  21
-1.156992
  31
0
  0
LINE
  5
1d2
  100
AcDbEntity
  8
1
  100
AcDbLine
  10
11.838069
  20
-1.156992
  30
0
  11
11.817069
  21
-1.151346
  31
0
  0
LINE
  5
1d3
  100
AcDbEntity
  8
1
  100
AcDbLine
  10
11.817069
  20
-1.151346
  30
0
  11
11.796069
  21
-1.145541
  31
0
  0
LINE
  5
1d4
  100
AcDbEntity
  8
1
  100
AcDbLine
  10
11.796069
  20
-1.145541
  30
0
  11
11.775069
  21
-1.139578
  31
0
  0
LINE
  5
1d5
  100
AcDbEntity
  8
1
  100
AcDbLine
  10
11.775069
  20
-1.139578
  30
0
  11
11.754069
  21
-1.133456
  31
0
  0
LINE
  5
1d6
  100
AcDbEntity
  8
1
  100
AcDbLine
  10
11.754069
  20
-1.133456
  30
0
  11
11.733069
  21
-1.127178
  31
0
  0
LINE
  5
1d7
  100
AcDbEntity
  8
1
  100
AcDbLine
  10
11.733069
  20
-1.127178
  30
0
  11
11.712069
  21
-1.120744
  31
0
  0
LINE
  5
1d8
  100
AcDbEntity
  8
1
  100
AcDbLine
  10
11.712069
  20
-1.120744
  30
0
  11
11.691069
  21
-1.114155
  31
0
  0
LINE
  5
1d9
  100
AcDbEntity
  8
1
  100
AcDbLine
  10
11.691069
  20
-1.114155
  30
0
  11
11.670069
  21
-1.107411
  31
0
  0
LINE
  5
1da
  100
AcDbEntity
  8
1
  100
AcDbLine
  10
11.670069
  20
-1.107411
  30
0
  11
11.649069
  21
-1.100515
  31
0
  0
LINE
  5
1db
  100
AcDbEntity
  8
1
  100
AcDbLine
  10
11.649069
  20
-1.100515
  30
0
  11
11.628069
  21
-1.093466
  31
0
  0
LINE
  5
1dc
  100
AcDbEntity
  8
1
  100
AcDbLine
  10
11.628069
  20
-1.093466
  30
0
  11
11.607069
  21
-1.086266
  31
0
  0
LINE
  5
1dd
  100
AcDbEntity
  8
1
  100
AcDbLine
  10
11.607069
  20
-1.086266
  30
0
  11
11.586069
  21
-1.078915
  31
0
  0
LINE
  5
1de
  100
AcDbEntity
  8
1
  100
AcDbLine
  10
11.586069
  20
-1.078915
  30
0
  11
11.565069
  21
-1.071415
  31
0
  0
LINE
  5
1df
  100
AcDbEntity
  8
1
  100
AcDbLine
  10
11.565069
  20
-1.071415
  30
0
  11
11.544069
  21
-1.063767
  31
0
  0
LINE
  5
1e0
  100
AcDbEntity
  8
1
  100
AcDbLine
  10
11.544069
  20
-1.063767
  30
0
  11
11.523069
  21
-1.055972
  31
0
  0
LINE
  5
1e1
  100
AcDbEntity
  8
1
  100
AcDbLine
  10
11.523069
  20
-1.055972
  30
0
  11
11.502069
  21
-1.04803
  31
0
  0
LINE
  5
1e2
  100
AcDbEntity
  8
1
  100
AcDbLine
  10
11.502069
  20
-1.04803
  30
0
  11
11.481069
  21
-1.039944
  31
0
  0
LINE
  5
1e3
  100
AcDbEntity
  8
1
  100
AcDbLine
  10
11.481069
  20
-1.039944
  30
0
  11
11.460069
  21
-1.031713
  31
0
  0
LINE
  5
1e4
  100
AcDbEntity
  8
1
  100
AcDbLine
  10
11.460069
  20
-1.031713
  30
0
  11
11.439069
  21
-1.02334
  31
0
  0
LINE
  5
1e5
  100
AcDbEntity
  8
1
  100
AcDbLine
  10
11.439069
  20
-1.02334
  30
0
  11
11.418069
  21
-1.014826
  31
0
  0
LINE
  5
1e6
  100
AcDbEntity
  8
1
  100
AcDbLine
  10
11.418069
  20
-1.014826
  30
0
  11
11.397069
  21
-1.00617
  31
0
  0
LINE
  5
1e7
  100
AcDbEntity
  8
1
  100
AcDbLine
  10
11.397069
  20
-1.00617
  30
0
  11
11.376069
  21
-0.997376
  31
0
  0
LINE
  5
1e8
  100
AcDbEntity
  8
1
  100
AcDbLine
  10
11.376069
  20
-0.997376
  30
0
  11
11.355069
  21
-0.988443
  31
0
  0
LINE
  5
1e9
  100
AcDbEntity
  8
1
  100
AcDbLine
  10
11.355069
  20
-0.988443
  30
0
  11
11.334069
  21
-0.979374
  31
0
  0
LINE
  5
1ea
  100
AcDbEntity
  8
1
  100
AcDbLine
  10
11.334069
  20
-0.979374
  30
0
  11
11.313069
  21
-0.97017
  31
0
  0
LINE
  5
1eb
  100
AcDbEntity
  8
1
  100
AcDbLine
  10
11.313069
  20
-0.97017
  30
0
  11
11.292069
  21
-0.960831
  31
0
  0
LINE
  5
1ec
  100
AcDbEntity
  8
1
  100
AcDbLine
  10
11.292069
  20
-0.960831
  30
0
  11
11.271069
  21
-0.951359
  31
0
  0
LINE
  5
1ed
  100
AcDbEntity
  8
1
  100
AcDbLine
  10
11.271069
  20
-0.951359
  30
0
  11
11.250069
  21
-0.941755
  31
0
  0
LINE
  5
1ee
  100
AcDbEntity
  8
1
  100
AcDbLine
  10
11.250069
  20
-0.941755
  30
0
  11
11.229069
  21
-0.932021
  31
0
  0
LINE
  5
1ef
  100
AcDbEntity
  8
1
  100
AcDbLine
  10
11.229069
  20
-0.932021
  30
0
  11
11.208069
  21
-0.922158
  31
0
  0
LINE
  5
1f0
  100
AcDbEntity
  8
1
  100
AcDbLine
  10
11.208069
  20
-0.922158
  30
0
  11
11.187069
  21
-0.912168
  31
0
  0
LINE
  5
1f1
  100
AcDbEntity
  8
1
  100
AcDbLine
  10
11.187069
  20
-0.912168
  30
0
  11
11.166069
  21
-0.902051
  31
0
  0
LINE
  5
1f2
  100
AcDbEntity
  8
1
  100
AcDbLine
  10
11.166069
  20
-0.902051
  30
0
  11
11.145069
  21
-0.89181
  31
0
  0
LINE
  5
1f3
  100
AcDbEntity
  8
1
  100
AcDbLine
  10
11.145069
  20
-0.89181
  30
0
  11
11.124069
  21
-0.881445
  31
0
  0
LINE
  5
1f4
  100
AcDbEntity
  8
1
  100
AcDbLine
  10
11.124069
  20
-0.881445
  30
0
  11
11.103069
  21
-0.870958
  31
0
  0
LINE
  5
1f5
  100
AcDbEntity
  8
1
  100
AcDbLine
  10
11.103069
  20
-0.870958
  30
0
  11
11.082069
  21
-0.86035
  31
0
  0
LINE
  5
1f6
  100
AcDbEntity
  8
1
  100
AcDbLine
  10
11.082069
  20
-0.86035
  30
0
  11
11.061069
  21
-0.849624
  31
0
  0
LINE
  5
1f7
  100
AcDbEntity
  8
1
  100
AcDbLine
  10
11.061069
  20
-0.849624
  30
0
  11
11.040069
  21
-0.83878
  31
0
  0
LINE
  5
1f8
  100
AcDbEntity
  8
1
  100
AcDbLine
  10
11.040069
  20
-0.83878
  30
0
  11
11.019069
  21
-0.82782
  31
0
  0
LINE
  5
1f9
  100
AcDbEntity
  8
1
  100
AcDbLine
  10
11.019069
  20
-0.82782
  30
0
  11
10.998069
  21
-0.816745
  31
0
  0
LINE
  5
1fa
  100
AcDbEntity
  8
1
  100
AcDbLine
  10
10.998069
  20
-0.816745
  30
0
  11
10.977069
  21
-0.805557
  31
0
  0
LINE
  5
1fb
  100
AcDbEntity
  8
1
  100
AcDbLine
  10
10.977069
  20
-0.805557
  30
0
  11
10.956069
  21
-0.794258
  31
0
  0
LINE
  5
1fc
  100
AcDbEntity
  8
1
  100
AcDbLine
  10
10.956069
  20
-0.794258
  30
0
  11
10.935069
  21
-0.782849
  31
0
  0
LINE
  5
1fd
  100
AcDbEntity
  8
1
  100
AcDbLine
  10
10.935069
  20
-0.782849
  30
0
  11
10.914069
  21
-0.771332
  31
0
  0
LINE
  5
1fe
  100
AcDbEntity
  8
1
  100
AcDbLine
  10
10.914069
  20
-0.771332
  30
0
  11
10.893069
  21
-0.759708
  31
0
  0
LINE
  5
1ff
  100
AcDbEntity
  8
1
  100
AcDbLine
  10
10.893069
  20
-0.759708
  30
0
  11
10.872069
  21
-0.747978
  31
0
  0
LINE
  5
200
  100
AcDbEntity
  8
1
  100
AcDbLine
  10
10.872069
  20
-0.747978
  30
0
  11
10.851069
  21
-0.736145
  31
0
  0
LINE
  5
201
  100
AcDbEntity
  8
1
  100
AcDbLine
  10
10.851069
  20
-0.736145
  30
0
  11
10.830069
  21
-0.724211
  31
0
  0
LINE
  5
202
  100
AcDbEntity
  8
1
  100
AcDbLine
  10
10.830069
  20
-0.724211
  30
0
  11
10.809069
  21
-0.712176
  31
0
  0
LINE
  5
203
  100
AcDbEntity
  8
1
  100
AcDbLine
  10
10.809069
  20
-0.712176
  30
0
  11
10.788069
  21
-0.700043
  31
0
  0
LINE
  5
204
  100
AcDbEntity
  8
1
  100
AcDbLine
  10
10.788069
  20
-0.700043
  30
0
  11
10.767069
  21
-0.687812
  31
0
  0
LINE
  5
205
  100
AcDbEntity
  8
1
  100
AcDbLine
  10
10.767069
  20
-0.687812
  30
0
  11
10.746069
  21
-0.675487
  31
0
  0
LINE
  5
206
  100
AcDbEntity
  8
1
  100
AcDbLine
  10
10.746069
  20
-0.675487
  30
0
  11
10.725069
  21
-0.663068
  31
0
  0
LINE
  5
207
  100
AcDbEntity
  8
1
  100
AcDbLine
  10
10.725069
  20
-0.663068
  30
0
  11
10.704069
  21
-0.650557
  31
0
  0
LINE
  5
208
  100
AcDbEntity
  8
1
  100
AcDbLine
  10
10.704069
  20
-0.650557
  30
0
  11
10.683069
  21
-0.637957
  31
0
  0
LINE
  5
209
  100
AcDbEntity
  8
1
  100
AcDbLine
  10
10.683069
  20
-0.637957
  30
0
  11
10.662069
  21
-0.625268
  31
0
  0
LINE
  5
20a
  100
AcDbEntity
  8
1
  100
AcDbLine
  10
10.662069
  20
-0.625268
  30
0
  11
10.641069
  21
-0.612492
  31
0
  0
LINE
  5
20b
  100
AcDbEntity
  8
1
  100
AcDbLine
  10
10.641069
  20
-0.612492
  30
0
  11
10.620069
  21
-0.599632
  31
0
  0
LINE
  5
20c
  100
AcDbEntity
  8
1
  100
AcDbLine
  10
10.620069
  20
-0.599632
  30
0
  11
10.599069
  21
-0.586689
  31
0
  0
LINE
  5
20d
  100
AcDbEntity
  8
1
  100
AcDbLine
  10
10.599069
  20
-0.586689
  30
0
  11
10.578069
  21
-0.573664
  31
0
  0
LINE
  5
20e
  100
AcDbEntity
  8
1
  100
AcDbLine
  10
10.578069
  20
-0.573664
  30
0
  11
10.557069
  21
-0.56056
  31
0
  0
LINE
  5
20f
  100
AcDbEntity
  8
1
  100
AcDbLine
  10
10.557069
  20
-0.56056
  30
0
  11
10.536069
  21
-0.547379
  31
0
  0
LINE
  5
210
  100
AcDbEntity
  8
1
  100
AcDbLine
  10
10.536069
  20
-0.547379
  30
0
  11
10.515069
  21
-0.534122
  31
0
  0
LINE
  5
211
  100
AcDbEntity
  8
1
  100
AcDbLine
  10
10.515069
  20
-0.534122
  30
0
  11
10.494069
  21
-0.520791
  31
0
  0
LINE
  5
212
  100
AcDbEntity
  8
1
  100
AcDbLine
  10
10.494069
  20
-0.520791
  30
0
  11
10.473069
  21
-0.507388
  31
0
  0
LINE
  5
213
  100
AcDbEntity
  8
1
  100
AcDbLine
  10
10.473069
  20
-0.507388
  30
0
  11
10.452069
  21
-0.493915
  31
0
  0
LINE
  5
214
  100
AcDbEntity
  8
1
  100
AcDbLine
  10
10.452069
  20
-0.493915
  30
0
  11
10.431069
  21
-0.480373
  31
0
  0
LINE
  5
215
  100
AcDbEntity
  8
1
  100
AcDbLine
  10
10.431069
  20
-0.480373
  30
0
  11
10.410069
  21
-0.466765
  31
0
  0
LINE
  5
216
  100
AcDbEntity
  8
1
  100
AcDbLine
  10
10.410069
  20
-0.466765
  30
0
  11
10.389069
  21
-0.453092
  31
0
  0
LINE
  5
217
  100
AcDbEntity
  8
1
  100
AcDbLine
  10
10.389069
  20
-0.453092
  30
0
  11
10.368069
  21
-0.439357
  31
0
  0
LINE
  5
218
  100
AcDbEntity
  8
1
  100
AcDbLine
  10
10.368069
  20
-0.439357
  30
0
  11
10.347069
  21
-0.42556
  31
0
  0
LINE
  5
219
  100
AcDbEntity
  8
1
  100
AcDbLine
  10
10.347069
  20
-0.42556
  30
0
  11
10.326069
  21
-0.411705
  31
0
  0
LINE
  5
21a
  100
AcDbEntity
  8
1
  100
AcDbLine
  10
10.326069
  20
-0.411705
  30
0
  11
10.305069
  21
-0.397793
  31
0
  0
LINE
  5
21b
  100
AcDbEntity
  8
1
  100
AcDbLine
  10
10.305069
  20
-0.397793
  30
0
  11
10.284069
  21
-0.383826
  31
0
  0
LINE
  5
21c
  100
AcDbEntity
  8
1
  100
AcDbLine
  10
10.284069
  20
-0.383826
  30
0
  11
10.263069
  21
-0.369806
  31
0
  0
LINE
  5
21d
  100
AcDbEntity
  8
1
  100
AcDbLine
  10
10.263069
  20
-0.369806
  30
0
  11
10.242069
  21
-0.355735
  31
0
  0
LINE
  5
21e
  100
AcDbEntity
  8
1
  100
AcDbLine
  10
10.242069
  20
-0.355735
  30
0
  11
10.221069
  21
-0.341614
  31
0
  0
LINE
  5
21f
  100
AcDbEntity
  8
1
  100
AcDbLine
  10
10.221069
  20
-0.341614
  30
0
  11
10.200069
  21
-0.327446
  31
0
  0
LINE
  5
220
  100
AcDbEntity
  8
1
  100
AcDbLine
  10
10.200069
  20
-0.327446
  30
0
  11
10.179069
  21
-0.313233
  31
0
  0
LINE
  5
221
  100
AcDbEntity
  8
1
  100
AcDbLine
  10
10.179069
  20
-0.313233
  30
0
  11
10.158069
  21
-0.298976
  31
0
  0
LINE
  5
222
  100
AcDbEntity
  8
1
  100
AcDbLine
  10
10.158069
  20
-0.298976
  30
0
  11
10.137069
  21
-0.284678
  31
0
  0
LINE
  5
223
  100
AcDbEntity
  8
1
  100
AcDbLine
  10
10.137069
  20
-0.284678
  30
0
  11
10.116069
  21
-0.270341
  31
0
  0
LINE
  5
224
  100
AcDbEntity
  8
1
  100
AcDbLine
  10
10.116069
  20
-0.270341
  30
0
  11
10.095069
  21
-0.255966
  31
0
  0
LINE
  5
225
  100
AcDbEntity
  8
1
  100
AcDbLine
  10
10.095069
  20
-0.255966
  30
0
  11
10.074069
  21
-0.241556
  31
0
  0
LINE
  5
226
  100
AcDbEntity
  8
1
  100
AcDbLine
  10
10.074069
  20
-0.241556
  30
0
  11
10.053069
  21
-0.227113
  31
0
  0
LINE
  5
227
  100
AcDbEntity
  8
1
  100
AcDbLine
  10
10.053069
  20
-0.227113
  30
0
  11
10.032069
  21
-0.212638
  31
0
  0
LINE
  5
228
  100
AcDbEntity
  8
1
  100
AcDbLine
  10
10.032069
  20
-0.212638
  30
0
  11
10.011069
  21
-0.198133
  31
0
  0
LINE
  5
229
  100
AcDbEntity
  8
1
  100
AcDbLine
  10
10.011069
  20
-0.198133
  30
0
  11
9.990069
  21
-0.183601
  31
0
  0
LINE
  5
22a
  100
AcDbEntity
  8
1
  100
AcDbLine
  10
9.990069
  20
-0.183601
  30
0
  11
9.969069
  21
-0.169044
  31
0
  0
LINE
  5
22b
  100
AcDbEntity
  8
1
  100
AcDbLine
  10
9.969069
  20
-0.169044
  30
0
  11
9.948069
  21
-0.154464
  31
0
  0
LINE
  5
22c
  100
AcDbEntity
  8
1
  100
AcDbLine
  10
9.948069
  20
-0.154464
  30
0
  11
9.927069
  21
-0.139861
  31
0
  0
LINE
  5
22d
  100
AcDbEntity
  8
1
  100
AcDbLine
  10
9.927069
  20
-0.139861
  30
0
  11
9.906069
  21
-0.12524
  31
0
  0
LINE
  5
22e
  100
AcDbEntity
  8
1
  100
AcDbLine
  10
9.906069
  20
-0.12524
  30
0
  11
9.885069
  21
-0.110601
  31
0
  0
LINE
  5
22f
  100
AcDbEntity
  8
1
  100
AcDbLine
  10
9.885069
  20
-0.110601
  30
0
  11
9.864069
  21
-0.095947
  31
0
  0
LINE
  5
230
  100
AcDbEntity
  8
1
  100
AcDbLine
  10
9.864069
  20
-0.095947
  30
0
  11
9.843069
  21
-0.08128
  31
0
  0
LINE
  5
231
  100
AcDbEntity
  8
1
  100
AcDbLine
  10
9.843069
  20
-0.08128
  30
0
  11
9.822069
  21
-0.066602
  31
0
  0
LINE
  5
232
  100
AcDbEntity
  8
1
  100
AcDbLine
  10
9.822069
  20
-0.066602
  30
0
  11
9.801069
  21
-0.051914
  31
0
  0
LINE
  5
233
  100
AcDbEntity
  8
1
  100
AcDbLine
  10
9.801069
  20
-0.051914
  30
0
  11
9.780069
  21
-0.037219
  31
0
  0
LINE
  5
234
  100
AcDbEntity
  8
1
  100
AcDbLine
  10
9.780069
  20
-0.037219
  30
0
  11
9.759069
  21
-0.022519
  31
0
  0
LINE
  5
235
  100
AcDbEntity
  8
1
  100
AcDbLine
  10
9.759069
  20
-0.022519
  30
0
  11
9.738069
  21
-0.007816
  31
0
  0
LINE
  5
236
  100
AcDbEntity
  8
1
  100
AcDbLine
  10
9.738069
  20
-0.007816
  30
0
  11
9.717069
  21
0.006889
  31
0
  0
LINE
  5
237
  100
AcDbEntity
  8
1
  100
AcDbLine
  10
9.717069
  20
0.006889
  30
0
  11
9.696069
  21
0.021592
  31
0
  0
LINE
  5
238
  100
AcDbEntity
  8
1
  100
AcDbLine
  10
9.696069
  20
0.021592
  30
0
  11
9.675069
  21
0.036292
  31
0
  0
LINE
  5
239
  100
AcDbEntity
  8
1
  100
AcDbLine
  10
9.675069
  20
0.036292
  30
0
  11
9.654069
  21
0.050988
  31
0
  0
LINE
  5
23a
  100
AcDbEntity
  8
1
  100
AcDbLine
  10
9.654069
  20
0.050988
  30
0
  11
9.633069
  21
0.065676
  31
0
  0
LINE
  5
23b
  100
AcDbEntity
  8
1
  100
AcDbLine
  10
9.633069
  20
0.065676
  30
0
  11
9.612069
  21
0.080355
  31
0
  0
LINE
  5
23c
  100
AcDbEntity
  8
1
  100
AcDbLine
  10
9.612069
  20
0.080355
  30
0
  11
9.591069
  21
0.095023
  31
0
  0
LINE
  5
23d
  100
AcDbEntity
  8
1
  100
AcDbLine
  10
9.591069
  20
0.095023
  30
0
  11
9.570069
  21
0.109678
  31
0
  0
LINE
  5
23e
  100
AcDbEntity
  8
1
  100
AcDbLine
  10
9.570069
  20
0.109678
  30
0
  11
9.549069
  21
0.124318
  31
0
  0
LINE
  5
23f
  100
AcDbEntity
  8
1
  100
AcDbLine
  10
9.549069
  20
0.124318
  30
0
  11
9.528069
  21
0.13894
  31
0
  0
LINE
  5
240
  100
AcDbEntity
  8
1
  100
AcDbLine
  10
9.528069
  20
0.13894
  30
0
  11
9.507069
  21
0.153543
  31
0
  0
LINE
  5
241
  100
AcDbEntity
  8
1
  100
AcDbLine
  10
9.507069
  20
0.153543
  30
0
  11
9.486069
  21
0.168125
  31
0
  0
LINE
  5
242
  100
AcDbEntity
  8
1
  100
AcDbLine
  10
9.486069
  20
0.168125
  30
0
  11
9.465069
  21
0.182684
  31
0
  0
LINE
  5
243
  100
AcDbEntity
  8
1
  100
AcDbLine
  10
9.465069
  20
0.182684
  30
0
  11
9.444069
  21
0.197218
  31
0
  0
LINE
  5
244
  100
AcDbEntity
  8
1
  100
AcDbLine
  10
9.444069
  20
0.197218
  30
0
  11
9.423069
  21
0.211724
  31
0
  0
LINE
  5
245
  100
AcDbEntity
  8
1
  100
AcDbLine
  10
9.423069
  20
0.211724
  30
0
  11
9.402069
  21
0.226201
  31
0
  0
LINE
  5
246
  100
AcDbEntity
  8
1
  100
AcDbLine
  10
9.402069
  20
0.226201
  30
0
  11
9.381069
  21
0.240646
  31
0
  0
LINE
  5
247
  100
AcDbEntity
  8
1
  100
AcDbLine
  10
9.381069
  20
0.240646
  30
0
  11
9.360069
  21
0.255059
  31
0
  0
LINE
  5
248
  100
AcDbEntity
  8
1
  100
AcDbLine
  10
9.360069
  20
0.255059
  30
0
  11
9.339069
  21
0.269436
  31
0
  0
LINE
  5
249
  100
AcDbEntity
  8
1
  100
AcDbLine
  10
9.339069
  20
0.269436
  30
0
  11
9.318069
  21
0.283776
  31
0
  0
LINE
  5
24a
  100
AcDbEntity
  8
1
  100
AcDbLine
  10
9.318069
  20
0.283776
  30
0
  11
9.297069
  21
0.298076
  31
0
  0
LINE
  5
24b
  100
AcDbEntity
  8
1
  100
AcDbLine
  10
9.297069
  20
0.298076
  30
0
  11
9.276069
  21
0.312335
  31
0
  0
LINE
  5
24c
  100
AcDbEntity
  8
1
  100
AcDbLine
  10
9.276069
  20
0.312335
  30
0
  11
9.255069
  21
0.326551
  31
0
  0
LINE
  5
24d
  100
AcDbEntity
  8
1
  100
AcDbLine
  10
9.255069
  20
0.326551
  30
0
  11
9.234069
  21
0.340722
  31
0
  0
LINE
  5
24e
  100
AcDbEntity
  8
1
  100
AcDbLine
  10
9.234069
  20
0.340722
  30
0
  11
9.213069
  21
0.354846
  31
0
  0
LINE
  5
24f
  100
AcDbEntity
  8
1
  100
AcDbLine
  10
9.213069
  20
0.354846
  30
0
  11
9.192069
  21
0.36892
  31
0
  0
LINE
  5
250
  100
AcDbEntity
  8
1
  100
AcDbLine
  10
9.192069
  20
0.36892
  30
0
  11
9.171069
  21
0.382944
  31
0
  0
LINE
  5
251
  100
AcDbEntity
  8
1
  100
AcDbLine
  10
9.171069
  20
0.382944
  30
0
  11
9.150069
  21
0.396914
  31
0
  0
LINE
  5
252
  100
AcDbEntity
  8
1
  100
AcDbLine
  10
9.150069
  20
0.396914
  30
0
  11
9.129069
  21
0.41083
  31
0
  0
LINE
  5
253
  100
AcDbEntity
  8
1
  100
AcDbLine
  10
9.129069
  20
0.41083
  30
0
  11
9.108069
  21
0.424689
  31
0
  0
LINE
  5
254
  100
AcDbEntity
  8
1
  100
AcDbLine
  10
9.108069
  20
0.424689
  30
0
  11
9.087069
  21
0.438489
  31
0
  0
LINE
  5
255
  100
AcDbEntity
  8
1
  100
AcDbLine
  10
9.087069
  20
0.438489
  30
0
  11
9.066069
  21
0.452228
  31
0
  0
LINE
  5
256
  100
AcDbEntity
  8
1
  100
AcDbLine
  10
9.066069
  20
0.452228
  30
0
  11
9.045069
  21
0.465905
  31
0
  0
LINE
  5
257
  100
AcDbEntity
  8
1
  100
AcDbLine
  10
9.045069
  20
0.465905
  30
0
  11
9.024069
  21
0.479517
  31
0
  0
LINE
  5
258
  100
AcDbEntity
  8
1
  100
AcDbLine
  10
9.024069
  20
0.479517
  30
0
  11
9.003069
  21
0.493063
  31
0
  0
LINE
  5
259
  100
AcDbEntity
  8
1
  100
AcDbLine
  10
9.003069
  20
0.493063
  30
0
  11
8.982069
  21
0.50654
  31
0
  0
LINE
  5
25a
  100
AcDbEntity
  8
1
  100
AcDbLine
  10
8.982069
  20
0.50654
  30
0
  11
8.961069
  21
0.519948
  31
0
  0
LINE
  5
25b
  100
AcDbEntity
  8
1
  100
AcDbLine
  10
8.961069
  20
0.519948
  30
0
  11
8.940069
  21
0.533284
  31
0
  0
LINE
  5
25c
  100
AcDbEntity
  8
1
  100
AcDbLine
  10
8.940069
  20
0.533284
  30
0
  11
8.919069
  21
0.546545
  31
0
  0
LINE
  5
25d
  100
AcDbEntity
  8
1
  100
AcDbLine
  10
8.919069
  20
0.546545
  30
0
  11
8.898069
  21
0.559732
  31
0
  0
LINE
  5
25e
  100
AcDbEntity
  8
1
  100
AcDbLine
  10
8.898069
  20
0.559732
  30
0
  11
8.877069
  21
0.57284
  31
0
  0
LINE
  5
25f
  100
AcDbEntity
  8
1
  100
AcDbLine
  10
8.877069
  20
0.57284
  30
0
  11
8.856069
  21
0.58587
  31
0
  0
LINE
  5
260
  100
AcDbEntity
  8
1
  100
AcDbLine
  10
8.856069
  20
0.58587
  30
0
  11
8.835069
  21
0.598818
  31
0
  0
LINE
  5
261
  100
AcDbEntity
  8
1
  100
AcDbLine
  10
8.835069
  20
0.598818
  30
0
  11
8.814069
  21
0.611684
  31
0
  0
LINE
  5
262
  100
AcDbEntity
  8
1
  100
AcDbLine
  10
8.814069
  20
0.611684
  30
0
  11
8.793069
  21
0.624465
  31
0
  0
LINE
  5
263
  100
AcDbEntity
  8
1
  100
AcDbLine
  10
8.793069
  20
0.624465
  30
0
  11
8.772069
  21
0.637159
  31
0
  0
LINE
  5
264
  100
AcDbEntity
  8
1
  100
AcDbLine
  10
8.772069
  20
0.637159
  30
0
  11
8.751069
  21
0.649765
  31
0
  0
LINE
  5
265
  100
AcDbEntity
  8
1
  100
AcDbLine
  10
8.751069
  20
0.649765
  30
0
  11
8.730069
  21
0.662282
  31
0
  0
LINE
  5
266
  100
AcDbEntity
  8
1
  100
AcDbLine
  10
8.730069
  20
0.662282
  30
0
  11
8.709069
  21
0.674707
  31
0
  0
LINE
  5
267
  100
AcDbEntity
  8
1
  100
AcDbLine
  10
8.709069
  20
0.674707
  30
0
  11
8.688069
  21
0.687038
  31
0
  0
LINE
  5
268
  100
AcDbEntity
  8
1
  100
AcDbLine
  10
8.688069
  20
0.687038
  30
0
  11
8.667069
  21
0.699274
  31
0
  0
LINE
  5
269
  100
AcDbEntity
  8
1
  100
AcDbLine
  10
8.667069
  20
0.699274
  30
0
  11
8.646069
  21
0.711414
  31
0
  0
LINE
  5
26a
  100
AcDbEntity
  8
1
  100
AcDbLine
  10
8.646069
  20
0.711414
  30
0
  11
8.625069
  21
0.723455
  31
0
  0
LINE
  5
26b
  100
AcDbEntity
  8
1
  100
AcDbLine
  10
8.625069
  20
0.723455
  30
0
  11
8.604069
  21
0.735396
  31
0
  0
LINE
  5
26c
  100
AcDbEntity
  8
1
  100
AcDbLine
  10
8.604069
  20
0.735396
  30
0
  11
8.583069
  21
0.747235
  31
0
  0
LINE
  5
26d
  100
AcDbEntity
  8
1
  100
AcDbLine
  10
8.583069
  20
0.747235
  30
0
  11
8.562069
  21
0.758971
  31
0
  0
LINE
  5
26e
  100
AcDbEntity
  8
1
  100
AcDbLine
  10
8.562069
  20
0.758971
  30
0
  11
8.541069
  21
0.770602
  31
0
  0
LINE
  5
26f
  100
AcDbEntity
  8
1
  100
AcDbLine
  10
8.541069
  20
0.770602
  30
0
  11
8.520069
  21
0.782126
  31
0
  0
LINE
  5
270
  100
AcDbEntity
  8
1
  100
AcDbLine
  10
8.520069
  20
0.782126
  30
0
  11
8.499069
  21
0.793542
  31
0
  0
LINE
  5
271
  100
AcDbEntity
  8
1
  100
AcDbLine
  10
8.499069
  20
0.793542
  30
0
  11
8.478069
  21
0.804848
  31
0
  0
LINE
  5
272
  100
AcDbEntity
  8
1
  100
AcDbLine
  10
8.478069
  20
0.804848
  30
0
  11
8.457069
  21
0.816043
  31
0
  0
LINE
  5
273
  100
AcDbEntity
  8
1
  100
AcDbLine
  10
8.457069
  20
0.816043
  30
0
  11
8.436069
  21
0.827125
  31
0
  0
LINE
  5
274
  100
AcDbEntity
  8
1
  100
AcDbLine
  10
8.436069
  20
0.827125
  30
0
  11
8.415069
  21
0.838092
  31
0
  0
LINE
  5
275
  100
AcDbEntity
  8
1
  100
AcDbLine
  10
8.415069
  20
0.838092
  30
0
  11
8.394069
  21
0.848944
  31
0
  0
LINE
  5
276
  100
AcDbEntity
  8
1
  100
AcDbLine
  10
8.394069
  20
0.848944
  30
0
  11
8.373069
  21
0.859677
  31
0
  0
LINE
  5
277
  100
AcDbEntity
  8
1
  100
AcDbLine
  10
8.373069
  20
0.859677
  30
0
  11
8.352069
  21
0.870292
  31
0
  0
LINE
  5
278
  100
AcDbEntity
  8
1
  100
AcDbLine
  10
8.352069
  20
0.870292
  30
0
  11
8.331069
  21
0.880787
  31
0
  0
LINE
  5
279
  100
AcDbEntity
  8
1
  100
AcDbLine
  10
8.331069
  20
0.880787
  30
0
  11
8.310069
  21
0.89116
  31
0
  0
LINE
  5
27a
  100
AcDbEntity
  8
1
  100
AcDbLine
  10
8.310069
  20
0.89116
  30
0
  11
8.289069
  21
0.901409
  31
0
  0
LINE
  5
27b
  100
AcDbEntity
  8
1
  100
AcDbLine
  10
8.289069
  20
0.901409
  30
0
  11
8.268069
  21
0.911534
  31
0
  0
LINE
  5
27c
  100
AcDbEntity
  8
1
  100
AcDbLine
  10
8.268069
  20
0.911534
  30
0
  11
8.247069
  21
0.921532
  31
0
  0
LINE
  5
27d
  100
AcDbEntity
  8
1
  100
AcDbLine
  10
8.247069
  20
0.921532
  30
0
  11
8.226069
  21
0.931403
  31
0
  0
LINE
  5
27e
  100
AcDbEntity
  8
1
  100
AcDbLine
  10
8.226069
  20
0.931403
  30
0
  11
8.205069
  21
0.941145
  31
0
  0
LINE
  5
27f
  100
AcDbEntity
  8
1
  100
AcDbLine
  10
8.205069
  20
0.941145
  30
0
  11
8.184069
  21
0.950757
  31
0
  0
LINE
  5
280
  100
AcDbEntity
  8
1
  100
AcDbLine
  10
8.184069
  20
0.950757
  30
0
  11
8.163069
  21
0.960237
  31
0
  0
LINE
  5
281
  100
AcDbEntity
  8
1
  100
AcDbLine
  10
8.163069
  20
0.960237
  30
0
  11
8.142069
  21
0.969585
  31
0
  0
LINE
  5
282
  100
AcDbEntity
  8
1
  100
AcDbLine
  10
8.142069
  20
0.969585
  30
0
  11
8.121069
  21
0.978798
  31
0
  0
LINE
  5
283
  100
AcDbEntity
  8
1
  100
AcDbLine
  10
8.121069
  20
0.978798
  30
0
  11
8.100069
  21
0.987876
  31
0
  0
LINE
  5
284
  100
AcDbEntity
  8
1
  100
AcDbLine
  10
8.100069
  20
0.987876
  30
0
  11
8.079069
  21
0.996817
  31
0
  0
LINE
  5
285
  100
AcDbEntity
  8
1
  100
AcDbLine
  10
8.079069
  20
0.996817
  30
0
  11
8.058069
  21
1.00562
  31
0
  0
LINE
  5
286
  100
AcDbEntity
  8
1
  100
AcDbLine
  10
8.058069
  20
1.00562
  30
0
  11
8.037069
  21
1.014284
  31
0
  0
LINE
  5
287
  100
AcDbEntity
  8
1
  100
AcDbLine
  10
8.037069
  20
1.014284
  30
0
  11
8.016069
  21
1.022808
  31
0
  0
LINE
  5
288
  100
AcDbEntity
  8
1
  100
AcDbLine
  10
8.016069
  20
1.022808
  30
0
  11
7.995069
  21
1.03119
  31
0
  0
LINE
  5
289
  100
AcDbEntity
  8
1
  100
AcDbLine
  10
7.995069
  20
1.03119
  30
0
  11
7.974069
  21
1.039429
  31
0
  0
LINE
  5
28a
  100
AcDbEntity
  8
1
  100
AcDbLine
  10
7.974069
  20
1.039429
  30
0
  11
7.953069
  21
1.047525
  31
0
  0
LINE
  5
28b
  100
AcDbEntity
  8
1
  100
AcDbLine
  10
7.953069
  20
1.047525
  30
0
  11
7.932069
  21
1.055475
  31
0
  0
LINE
  5
28c
  100
AcDbEntity
  8
1
  100
AcDbLine
  10
7.932069
  20
1.055475
  30
0
  11
7.911069
  21
1.06328
  31
0
  0
LINE
  5
28d
  100
AcDbEntity
  8
1
  100
AcDbLine
  10
7.911069
  20
1.06328
  30
0
  11
7.890069
  21
1.070937
  31
0
  0
LINE
  5
28e
  100
AcDbEntity
  8
1
  100
AcDbLine
  10
7.890069
  20
1.070937
  30
0
  11
7.869069
  21
1.078447
  31
0
  0
LINE
  5
28f
  100
AcDbEntity
  8
1
  100
AcDbLine
  10
7.869069
  20
1.078447
  30
0
  11
7.848069
  21
1.085807
  31
0
  0
LINE
  5
290
  100
AcDbEntity
  8
1
  100
AcDbLine
  10
7.848069
  20
1.085807
  30
0
  11
7.827069
  21
1.093016
  31
0
  0
LINE
  5
291
  100
AcDbEntity
  8
1
  100
AcDbLine
  10
7.827069
  20
1.093016
  30
0
  11
7.806069
  21
1.100075
  31
0
  0
LINE
  5
292
  100
AcDbEntity
  8
1
  100
AcDbLine
  10
7.806069
  20
1.100075
  30
0
  11
7.785069
  21
1.106981
  31
0
  0
LINE
  5
293
  100
AcDbEntity
  8
1
  100
AcDbLine
  10
7.785069
  20
1.106981
  30
0
  11
7.764069
  21
1.113734
  31
0
  0
LINE
  5
294
  100
AcDbEntity
  8
1
  100
AcDbLine
  10
7.764069
  20
1.113734
  30
0
  11
7.743069
  21
1.120333
  31
0
  0
LINE
  5
295
  100
AcDbEntity
  8
1
  100
AcDbLine
  10
7.743069
  20
1.120333
  30
0
  11
7.722069
  21
1.126777
  31
0
  0
LINE
  5
296
  100
AcDbEntity
  8
1
  100
AcDbLine
  10
7.722069
  20
1.126777
  30
0
  11
7.701069
  21
1.133065
  31
0
  0
LINE
  5
297
  100
AcDbEntity
  8
1
  100
AcDbLine
  10
7.701069
  20
1.133065
  30
0
  11
7.680069
  21
1.139196
  31
0
  0
LINE
  5
298
  100
AcDbEntity
  8
1
  100
AcDbLine
  10
7.680069
  20
1.139196
  30
0
  11
7.659069
  21
1.14517
  31
0
  0
LINE
  5
299
  100
AcDbEntity
  8
1
  100
AcDbLine
  10
7.659069
  20
1.14517
  30
0
  11
7.638069
  21
1.150985
  31
0
  0
LINE
  5
29a
  100
AcDbEntity
  8
1
  100
AcDbLine
  10
7.638069
  20
1.150985
  30
0
  11
7.617069
  21
1.156641
  31
0
  0
LINE
  5
29b
  100
AcDbEntity
  8
1
  100
AcDbLine
  10
7.617069
  20
1.156641
  30
0
  11
7.596069
  21
1.162137
  31
0
  0
LINE
  5
29c
  100
AcDbEntity
  8
1
  100
AcDbLine
  10
7.596069
  20
1.162137
  30
0
  11
7.575069
  21
1.167472
  31
0
  0
LINE
  5
29d
  100
AcDbEntity
  8
1
  100
AcDbLine
  10
7.575069
  20
1.167472
  30
0
  11
7.554069
  21
1.172645
  31
0
  0
LINE
  5
29e
  100
AcDbEntity
  8
1
  100
AcDbLine
  10
7.554069
  20
1.172645
  30
0
  11
7.533069
  21
1.177656
  31
0
  0
LINE
  5
29f
  100
AcDbEntity
  8
1
  100
AcDbLine
  10
7.533069
  20
1.177656
  30
0
  11
7.512069
  21
1.182505
  31
0
  0
LINE
  5
2a0
  100
AcDbEntity
  8
1
  100
AcDbLine
  10
7.512069
  20
1.182505
  30
0
  11
7.491069
  21
1.187189
  31
0
  0
LINE
  5
2a1
  100
AcDbEntity
  8
1
  100
AcDbLine
  10
7.491069
  20
1.187189
  30
0
  11
7.470069
  21
1.191709
  31
0
  0
LINE
  5
2a2
  100
AcDbEntity
  8
1
  100
AcDbLine
  10
7.470069
  20
1.191709
  30
0
  11
7.449069
  21
1.196065
  31
0
  0
LINE
  5
2a3
  100
AcDbEntity
  8
1
  100
AcDbLine
  10
7.449069
  20
1.196065
  30
0
  11
7.428069
  21
1.200255
  31
0
  0
LINE
  5
2a4
  100
AcDbEntity
  8
1
  100
AcDbLine
  10
7.428069
  20
1.200255
  30
0
  11
7.407069
  21
1.204279
  31
0
  0
LINE
  5
2a5
  100
AcDbEntity
  8
1
  100
AcDbLine
  10
7.407069
  20
1.204279
  30
0
  11
7.386069
  21
1.208136
  31
0
  0
LINE
  5
2a6
  100
AcDbEntity
  8
1
  100
AcDbLine
  10
7.386069
  20
1.208136
  30
0
  11
7.365069
  21
1.211826
  31
0
  0
LINE
  5
2a7
  100
AcDbEntity
  8
1
  100
AcDbLine
  10
7.365069
  20
1.211826
  30
0
  11
7.344069
  21
1.215348
  31
0
  0
LINE
  5
2a8
  100
AcDbEntity
  8
1
  100
AcDbLine
  10
7.344069
  20
1.215348
  30
0
  11
7.323069
  21
1.218702
  31
0
  0
LINE
  5
2a9
  100
AcDbEntity
  8
1
  100
AcDbLine
  10
7.323069
  20
1.218702
  30
0
  11
7.302069
  21
1.221887
  31
0
  0
LINE
  5
2aa
  100
AcDbEntity
  8
1
  100
AcDbLine
  10
7.302069
  20
1.221887
  30
0
  11
7.281069
  21
1.224904
  31
0
  0
LINE
  5
2ab
  100
AcDbEntity
  8
1
  100
AcDbLine
  10
7.281069
  20
1.224904
  30
0
  11
7.260069
  21
1.227751
  31
0
  0
LINE
  5
2ac
  100
AcDbEntity
  8
1
  100
AcDbLine
  10
7.260069
  20
1.227751
  30
0
  11
7.239069
  21
1.230428
  31
0
  0
LINE
  5
2ad
  100
AcDbEntity
  8
1
  100
AcDbLine
  10
7.239069
  20
1.230428
  30
0
  11
7.218069
  21
1.232934
  31
0
  0
LINE
  5
2ae
  100
AcDbEntity
  8
1
  100
AcDbLine
  10
7.218069
  20
1.232934
  30
0
  11
7.197069
  21
1.235271
  31
0
  0
LINE
  5
2af
  100
AcDbEntity
  8
1
  100
AcDbLine
  10
7.197069
  20
1.235271
  30
0
  11
7.176069
  21
1.237436
  31
0
  0
LINE
  5
2b0
  100
AcDbEntity
  8
1
  100
AcDbLine
  10
7.176069
  20
1.237436
  30
0
  11
7.155069
  21
1.23943
  31
0
  0
LINE
  5
2b1
  100
AcDbEntity
  8
1
  100
AcDbLine
  10
7.155069
  20
1.23943
  30
0
  11
7.134069
  21
1.241252
  31
0
  0
LINE
  5
2b2
  100
AcDbEntity
  8
1
  100
AcDbLine
  10
7.134069
  20
1.241252
  30
0
  11
7.113069
  21
1.242903
  31
0
  0
LINE
  5
2b3
  100
AcDbEntity
  8
1
  100
AcDbLine
  10
7.113069
  20
1.242903
  30
0
  11
7.092069
  21
1.244381
  31
0
  0
LINE
  5
2b4
  100
AcDbEntity
  8
1
  100
AcDbLine
  10
7.092069
  20
1.244381
  30
0
  11
7.071069
  21
1.245688
  31
0
  0
LINE
  5
2b5
  100
AcDbEntity
  8
1
  100
AcDbLine
  10
7.071069
  20
1.245688
  30
0
  11
7.050069
  21
1.246822
  31
0
  0
LINE
  5
2b6
  100
AcDbEntity
  8
1
  100
AcDbLine
  10
7.050069
  20
1.246822
  30
0
  11
7.029069
  21
1.247784
  31
0
  0
LINE
  5
2b7
  100
AcDbEntity
  8
1
  100
AcDbLine
  10
7.029069
  20
1.247784
  30
0
  11
7.008069
  21
1.248573
  31
0
  0
LINE
  5
2b8
  100
AcDbEntity
  8
1
  100
AcDbLine
  10
7.008069
  20
1.248573
  30
0
  11
6.987069
  21
1.249189
  31
0
  0
LINE
  5
2b9
  100
AcDbEntity
  8
1
  100
AcDbLine
  10
6.987069
  20
1.249189
  30
0
  11
6.966069
  21
1.249632
  31
0
  0
LINE
  5
2ba
  100
AcDbEntity
  8
1
  100
AcDbLine
  10
6.966069
  20
1.249632
  30
0
  11
6.945069
  21
1.249902
  31
0
  0
LINE
  5
2bb
  100
AcDbEntity
  8
1
  100
AcDbLine
  10
6.945069
  20
1.249902
  30
0
  11
6.924069
  21
1.25
  31
0
  0
LINE
  5
2bc
  100
AcDbEntity
  8
1
  100
AcDbLine
  10
6.924069
  20
1.25
  30
0
  11
6.922745
  21
1.25
  31
0
  0
LINE
  5
2bd
  100
AcDbEntity
  8
1
  100
AcDbLine
  10
7.101063
  20
1.25
  30
0
  11
7.113069
  21
1.234419
  31
0
  0
LINE
  5
2be
  100
AcDbEntity
  8
1
  100
AcDbLine
  10
7.113069
  20
1.234419
  30
0
  11
7.134069
  21
1.234236
  31
0
  0
LINE
  5
2bf
  100
AcDbEntity
  8
1
  100
AcDbLine
  10
7.134069
  20
1.234236
  30
0
  11
7.155069
  21
1.233882
  31
0
  0
LINE
  5
2c0
  100
AcDbEntity
  8
1
  100
AcDbLine
  10
7.155069
  20
1.233882
  30
0
  11
7.176069
  21
1.233358
  31
0
  0
LINE
  5
2c1
  100
AcDbEntity
  8
1
  100
AcDbLine
  10
7.176069
  20
1.233358
  30
0
  11
7.197069
  21
1.232662
  31
0
  0
LINE
  5
2c2
  100
AcDbEntity
  8
1
  100
AcDbLine
  10
7.197069
  20
1.232662
  30
0
  11
7.218069
  21
1.231797
  31
0
  0
LINE
  5
2c3
  100
AcDbEntity
  8
1
  100
AcDbLine
  10
7.218069
  20
1.231797
  30
0
  11
7.239069
  21
1.23076
  31
0
  0
LINE
  5
2c4
  100
AcDbEntity
  8
1
  100
AcDbLine
  10
7.239069
  20
1.23076
  30
0
  11
7.260069
  21
1.229554
  31
0
  0
LINE
  5
2c5
  100
AcDbEntity
  8
1
  100
AcDbLine
  10
7.260069
  20
1.229554
  30
0
  11
7.281069
  21
1.228177
  31
0
  0
LINE
  5
2c6
  100
AcDbEntity
  8
1
  100
AcDbLine
  10
7.281069
  20
1.228177
  30
0
  11
7.302069
  21
1.22663
  31
0
  0
LINE
  5
2c7
  100
AcDbEntity
  8
1
  100
AcDbLine
  10
7.302069
  20
1.22663
  30
0
  11
7.323069
  21
1.224914
  31
0
  0
LINE
  5
2c8
  100
AcDbEntity
  8
1
  100
AcDbLine
  10
7.323069
  20
1.224914
  30
0
  11
7.344069
  21
1.223028
  31
0
  0
LINE
  5
2c9
  100
AcDbEntity
  8
1
  100
AcDbLine
  10
7.344069
  20
1.223028
  30
0
  11
7.365069
  21
1.220973
  31
0
  0
LINE
  5
2ca
  100
AcDbEntity
  8
1
  100
AcDbLine
  10
7.365069
  20
1.220973
  30
0
  11
7.386069
  21
1.218749
  31
0
  0
LINE
  5
2cb
  100
AcDbEntity
  8
1
  100
AcDbLine
  10
7.386069
  20
1.218749
  30
0
  11
7.407069
  21
1.216356
  31
0
  0
LINE
  5
2cc
  100
AcDbEntity
  8
1
  100
AcDbLine
  10
7.407069
  20
1.216356
  30
0
  11
7.428069
  21
1.213795
  31
0
  0
LINE
  5
2cd
  100
AcDbEntity
  8
1
  100
AcDbLine
  10
7.428069
  20
1.213795
  30
0
  11
7.449069
  21
1.211066
  31
0
  0
LINE
  5
2ce
  100
AcDbEntity
  8
1
  100
AcDbLine
  10
7.449069
  20
1.211066
  30
0
  11
7.470069
  21
1.208169
  31
0
  0
LINE
  5
2cf
  100
AcDbEntity
  8
1
  100
AcDbLine
  10
7.470069
  20
1.208169
  30
0
  11
7.491069
  21
1.205105
  31
0
  0
LINE
  5
2d0
  100
AcDbEntity
  8
1
  100
AcDbLine
  10
7.491069
  20
1.205105
  30
0
  11
7.512069
  21
1.201875
  31
0
  0
LINE
  5
2d1
  100
AcDbEntity
  8
1
  100
AcDbLine
  10
7.512069
  20
1.201875
  30
0
  11
7.533069
  21
1.198478
  31
0
  0
LINE
  5
2d2
  100
AcDbEntity
  8
1
  100
AcDbLine
  10
7.533069
  20
1.198478
  30
0
  11
7.554069
  21
1.194915
  31
0
  0
LINE
  5
2d3
  100
AcDbEntity
  8
1
  100
AcDbLine
  10
7.554069
  20
1.194915
  30
0
  11
7.575069
  21
1.191187
  31
0
  0
LINE
  5
2d4
  100
AcDbEntity
  8
1
  100
AcDbLine
  10
7.575069
  20
1.191187
  30
0
  11
7.596069
  21
1.187294
  31
0
  0
LINE
  5
2d5
  100
AcDbEntity
  8
1
  100
AcDbLine
  10
7.596069
  20
1.187294
  30
0
  11
7.617069
  21
1.183237
  31
0
  0
LINE
  5
2d6
  100
AcDbEntity
  8
1
  100
AcDbLine
  10
7.617069
  20
1.183237
  30
0
  11
7.638069
  21
1.179016
  31
0
  0
LINE
  5
2d7
  100
AcDbEntity
  8
1
  100
AcDbLine
  10
7.638069
  20
1.179016
  30
0
  11
7.659069
  21
1.174631
  31
0
  0
LINE
  5
2d8
  100
AcDbEntity
  8
1
  100
AcDbLine
  10
7.659069
  20
1.174631
  30
0
  11
7.680069
  21
1.170085
  31
0
  0
LINE
  5
2d9
  100
AcDbEntity
  8
1
  100
AcDbLine
  10
7.680069
  20
1.170085
  30
0
  11
7.701069
  21
1.165376
  31
0
  0
LINE
  5
2da
  100
AcDbEntity
  8
1
  100
AcDbLine
  10
7.701069
  20
1.165376
  30
0
  11
7.722069
  21
1.160506
  31
0
  0
LINE
  5
2db
  100
AcDbEntity
  8
1
  100
AcDbLine
  10
7.722069
  20
1.160506
  30
0
  11
7.743069
  21
1.155476
  31
0
  0
LINE
  5
2dc
  100
AcDbEntity
  8
1
  100
AcDbLine
  10
7.743069
  20
1.155476
  30
0
  11
7.764069
  21
1.150286
  31
0
  0
LINE
  5
2dd
  100
AcDbEntity
  8
1
  100
AcDbLine
  10
7.764069
  20
1.150286
  30
0
  11
7.785069
  21
1.144936
  31
0
  0
LINE
  5
2de
  100
AcDbEntity
  8
1
  100
AcDbLine
  10
7.785069
  20
1.144936
  30
0
  11
7.806069
  21
1.139428
  31
0
  0
LINE
  5
2df
  100
AcDbEntity
  8
1
  100
AcDbLine
  10
7.806069
  20
1.139428
  30
0
  11
7.827069
  21
1.133763
  31
0
  0
LINE
  5
2e0
  100
AcDbEntity
  8
1
  100
AcDbLine
  10
7.827069
  20
1.133763
  30
0
  11
7.848069
  21
1.12794
  31
0
  0
LINE
  5
2e1
  100
AcDbEntity
  8
1
  100
AcDbLine
  10
7.848069
  20
1.12794
  30
0
  11
7.869069
  21
1.121962
  31
0
  0
LINE
  5
2e2
  100
AcDbEntity
  8
1
  100
AcDbLine
  10
7.869069
  20
1.121962
  30
0
  11
7.890069
  21
1.115828
  31
0
  0
LINE
  5
2e3
  100
AcDbEntity
  8
1
  100
AcDbLine
  10
7.890069
  20
1.115828
  30
0
  11
7.911069
  21
1.10954
  31
0
  0
LINE
  5
2e4
  100
AcDbEntity
  8
1
  100
AcDbLine
  10
7.911069
  20
1.10954
  30
0
  11
7.932069
  21
1.103098
  31
0
  0
LINE
  5
2e5
  100
AcDbEntity
  8
1
  100
AcDbLine
  10
7.932069
  20
1.103098
  30
0
  11
7.953069
  21
1.096503
  31
0
  0
LINE
  5
2e6
  100
AcDbEntity
  8
1
  100
AcDbLine
  10
7.953069
  20
1.096503
  30
0
  11
7.974069
  21
1.089757
  31
0
  0
LINE
  5
2e7
  100
AcDbEntity
  8
1
  100
AcDbLine
  10
7.974069
  20
1.089757
  30
0
  11
7.995069
  21
1.08286
  31
0
  0
LINE
  5
2e8
  100
AcDbEntity
  8
1
  100
AcDbLine
  10
7.995069
  20
1.08286
  30
0
  11
8.016069
  21
1.075814
  31
0
  0
LINE
  5
2e9
  100
AcDbEntity
  8
1
  100
AcDbLine
  10
8.016069
  20
1.075814
  30
0
  11
8.037069
  21
1.068618
  31
0
  0
LINE
  5
2ea
  100
AcDbEntity
  8
1
  100
AcDbLine
  10
8.037069
  20
1.068618
  30
0
  11
8.058069
  21
1.061274
  31
0
  0
LINE
  5
2eb
  100
AcDbEntity
  8
1
  100
AcDbLine
  10
8.058069
  20
1.061274
  30
0
  11
8.079069
  21
1.053784
  31
0
  0
LINE
  5
2ec
  100
AcDbEntity
  8
1
  100
AcDbLine
  10
8.079069
  20
1.053784
  30
0
  11
8.100069
  21
1.046148
  31
0
  0
LINE
  5
2ed
  100
AcDbEntity
  8
1
  100
AcDbLine
  10
8.100069
  20
1.046148
  30
0
  11
8.121069
  21
1.038367
  31
0
  0
LINE
  5
2ee
  100
AcDbEntity
  8
1
  100
AcDbLine
  10
8.121069
  20
1.038367
  30
0
  11
8.142069
  21
1.030442
  31
0
  0
LINE
  5
2ef
  100
AcDbEntity
  8
1
  100
AcDbLine
  10
8.142069
  20
1.030442
  30
0
  11
8.163069
  21
1.022375
  31
0
  0
LINE
  5
2f0
  100
AcDbEntity
  8
1
  100
AcDbLine
  10
8.163069
  20
1.022375
  30
0
  11
8.184069
  21
1.014166
  31
0
  0
LINE
  5
2f1
  100
AcDbEntity
  8
1
  100
AcDbLine
  10
8.184069
  20
1.014166
  30
0
  11
8.205069
  21
1.005817
  31
0
  0
LINE
  5
2f2
  100
AcDbEntity
  8
1
  100
AcDbLine
  10
8.205069
  20
1.005817
  30
0
  11
8.226069
  21
0.997329
  31
0
  0
LINE
  5
2f3
  100
AcDbEntity
  8
1
  100
AcDbLine
  10
8.226069
  20
0.997329
  30
0
  11
8.247069
  21
0.988703
  31
0
  0
LINE
  5
2f4
  100
AcDbEntity
  8
1
  100
AcDbLine
  10
8.247069
  20
0.988703
  30
0
  11
8.268069
  21
0.97994
  31
0
  0
LINE
  5
2f5
  100
AcDbEntity
  8
1
  100
AcDbLine
  10
8.268069
  20
0.97994
  30
0
  11
8.289069
  21
0.971041
  31
0
  0
LINE
  5
2f6
  100
AcDbEntity
  8
1
  100
AcDbLine
  10
8.289069
  20
0.971041
  30
0
  11
8.310069
  21
0.962008
  31
0
  0
LINE
  5
2f7
  100
AcDbEntity
  8
1
  100
AcDbLine
  10
8.310069
  20
0.962008
  30
0
  11
8.331069
  21
0.952842
  31
0
  0
LINE
  5
2f8
  100
AcDbEntity
  8
1
  100
AcDbLine
  10
8.331069
  20
0.952842
  30
0
  11
8.352069
  21
0.943544
  31
0
  0
LINE
  5
2f9
  100
AcDbEntity
  8
1
  100
AcDbLine
  10
8.352069
  20
0.943544
  30
0
  11
8.373069
  21
0.934115
  31
0
  0
LINE
  5
2fa
  100
AcDbEntity
  8
1
  100
AcDbLine
  10
8.373069
  20
0.934115
  30
0
  11
8.394069
  21
0.924557
  31
0
  0
LINE
  5
2fb
  100
AcDbEntity
  8
1
  100
AcDbLine
  10
8.394069
  20
0.924557
  30
0
  11
8.415069
  21
0.914872
  31
0
  0
LINE
  5
2fc
  100
AcDbEntity
  8
1
  100
AcDbLine
  10
8.415069
  20
0.914872
  30
0
  11
8.436069
  21
0.905059
  31
0
  0
LINE
  5
2fd
  100
AcDbEntity
  8
1
  100
AcDbLine
  10
8.436069
  20
0.905059
  30
0
  11
8.457069
  21
0.895122
  31
0
  0
LINE
  5
2fe
  100
AcDbEntity
  8
1
  100
AcDbLine
  10
8.457069
  20
0.895122
  30
0
  11
8.478069
  21
0.88506
  31
0
  0
LINE
  5
2ff
  100
AcDbEntity
  8
1
  100
AcDbLine
  10
8.478069
  20
0.88506
  30
0
  11
8.499069
  21
0.874876
  31
0
  0
LINE
  5
300
  100
AcDbEntity
  8
1
  100
AcDbLine
  10
8.499069
  20
0.874876
  30
0
  11
8.520069
  21
0.864571
  31
0
  0
LINE
  5
301
  100
AcDbEntity
  8
1
  100
AcDbLine
  10
8.520069
  20
0.864571
  30
0
  11
8.541069
  21
0.854146
  31
0
  0
LINE
  5
302
  100
AcDbEntity
  8
1
  100
AcDbLine
  10
8.541069
  20
0.854146
  30
0
  11
8.562069
  21
0.843604
  31
0
  0
LINE
  5
303
  100
AcDbEntity
  8
1
  100
AcDbLine
  10
8.562069
  20
0.843604
  30
0
  11
8.583069
  21
0.832944
  31
0
  0
LINE
  5
304
  100
AcDbEntity
  8
1
  100
AcDbLine
  10
8.583069
  20
0.832944
  30
0
  11
8.604069
  21
0.822169
  31
0
  0
LINE
  5
305
  100
AcDbEntity
  8
1
  100
AcDbLine
  10
8.604069
  20
0.822169
  30
0
  11
8.625069
  21
0.811281
  31
0
  0
LINE
  5
306
  100
AcDbEntity
  8
1
  100
AcDbLine
  10
8.625069
  20
0.811281
  30
0
  11
8.646069
  21
0.80028
  31
0
  0
LINE
  5
307
  100
AcDbEntity
  8
1
  100
AcDbLine
  10
8.646069
  20
0.80028
  30
0
  11
8.667069
  21
0.789168
  31
0
  0
LINE
  5
308
  100
AcDbEntity
  8
1
  100
AcDbLine
  10
8.667069
  20
0.789168
  30
0
  11
8.688069
  21
0.777947
  31
0
  0
LINE
  5
309
  100
AcDbEntity
  8
1
  100
AcDbLine
  10
8.688069
  20
0.777947
  30
0
  11
8.709069
  21
0.766619
  31
0
  0
LINE
  5
30a
  100
AcDbEntity
  8
1
  100
AcDbLine
  10
8.709069
  20
0.766619
  30
0
  11
8.730069
  21
0.755184
  31
0
  0
LINE
  5
30b
  100
AcDbEntity
  8
1
  100
AcDbLine
  10
8.730069
  20
0.755184
  30
0
  11
8.751069
  21
0.743645
  31
0
  0
LINE
  5
30c
  100
AcDbEntity
  8
1
  100
AcDbLine
  10
8.751069
  20
0.743645
  30
0
  11
8.772069
  21
0.732003
  31
0
  0
LINE
  5
30d
  100
AcDbEntity
  8
1
  100
AcDbLine
  10
8.772069
  20
0.732003
  30
0
  11
8.793069
  21
0.72026
  31
0
  0
LINE
  5
30e
  100
AcDbEntity
  8
1
  100
AcDbLine
  10
8.793069
  20
0.72026
  30
0
  11
8.814069
  21
0.708417
  31
0
  0
LINE
  5
30f
  100
AcDbEntity
  8
1
  100
AcDbLine
  10
8.814069
  20
0.708417
  30
0
  11
8.835069
  21
0.696476
  31
0
  0
LINE
  5
310
  100
AcDbEntity
  8
1
  100
AcDbLine
  10
8.835069
  20
0.696476
  30
0
  11
8.856069
  21
0.684439
  31
0
  0
LINE
  5
311
  100
AcDbEntity
  8
1
  100
AcDbLine
  10
8.856069
  20
0.684439
  30
0
  11
8.877069
  21
0.672307
  31
0
  0
LINE
  5
312
  100
AcDbEntity
  8
1
  100
AcDbLine
  10
8.877069
  20
0.672307
  30
0
  11
8.898069
  21
0.660082
  31
0
  0
LINE
  5
313
  100
AcDbEntity
  8
1
  100
AcDbLine
  10
8.898069
  20
0.660082
  30
0
  11
8.919069
  21
0.647765
  31
0
  0
LINE
  5
314
  100
AcDbEntity
  8
1
  100
AcDbLine
  10
8.919069
  20
0.647765
  30
0
  11
8.940069
  21
0.635359
  31
0
  0
LINE
  5
315
  100
AcDbEntity
  8
1
  100
AcDbLine
  10
8.940069
  20
0.635359
  30
0
  11
8.961069
  21
0.622865
  31
0
  0
LINE
  5
316
  100
AcDbEntity
  8
1
  100
AcDbLine
  10
8.961069
  20
0.622865
  30
0
  11
8.982069
  21
0.610285
  31
0
  0
LINE
  5
317
  100
AcDbEntity
  8
1
  100
AcDbLine
  10
8.982069
  20
0.610285
  30
0
  11
9.003069
  21
0.59762
  31
0
  0
LINE
  5
318
  100
AcDbEntity
  8
1
  100
AcDbLine
  10
9.003069
  20
0.59762
  30
0
  11
9.024069
  21
0.584873
  31
0
  0
LINE
  5
319
  100
AcDbEntity
  8
1
  100
AcDbLine
  10
9.024069
  20
0.584873
  30
0
  11
9.045069
  21
0.572045
  31
0
  0
LINE
  5
31a
  100
AcDbEntity
  8
1
  100
AcDbLine
  10
9.045069
  20
0.572045
  30
0
  11
9.066069
  21
0.559137
  31
0
  0
LINE
  5
31b
  100
AcDbEntity
  8
1
  100
AcDbLine
  10
9.066069
  20
0.559137
  30
0
  11
9.087069
  21
0.546153
  31
0
  0
LINE
  5
31c
  100
AcDbEntity
  8
1
  100
AcDbLine
  10
9.087069
  20
0.546153
  30
0
  11
9.108069
  21
0.533092
  31
0
  0
LINE
  5
31d
  100
AcDbEntity
  8
1
  100
AcDbLine
  10
9.108069
  20
0.533092
  30
0
  11
9.129069
  21
0.519958
  31
0
  0
LINE
  5
31e
  100
AcDbEntity
  8
1
  100
AcDbLine
  10
9.129069
  20
0.519958
  30
0
  11
9.150069
  21
0.506752
  31
0
  0
LINE
  5
31f
  100
AcDbEntity
  8
1
  100
AcDbLine
  10
9.150069
  20
0.506752
  30
0
  11
9.171069
  21
0.493476
  31
0
  0
LINE
  5
320
  100
AcDbEntity
  8
1
  100
AcDbLine
  10
9.171069
  20
0.493476
  30
0
  11
9.192069
  21
0.480131
  31
0
  0
LINE
  5
321
  100
AcDbEntity
  8
1
  100
AcDbLine
  10
9.192069
  20
0.480131
  30
0
  11
9.213069
  21
0.466721
  31
0
  0
LINE
  5
322
  100
AcDbEntity
  8
1
  100
AcDbLine
  10
9.213069
  20
0.466721
  30
0
  11
9.234069
  21
0.453245
  31
0
  0
LINE
  5
323
  100
AcDbEntity
  8
1
  100
AcDbLine
  10
9.234069
  20
0.453245
  30
0
  11
9.255069
  21
0.439707
  31
0
  0
LINE
  5
324
  100
AcDbEntity
  8
1
  100
AcDbLine
  10
9.255069
  20
0.439707
  30
0
  11
9.276069
  21
0.426108
  31
0
  0
LINE
  5
325
  100
AcDbEntity
  8
1
  100
AcDbLine
  10
9.276069
  20
0.426108
  30
0
  11
9.297069
  21
0.41245
  31
0
  0
LINE
  5
326
  100
AcDbEntity
  8
1
  100
AcDbLine
  10
9.297069
  20
0.41245
  30
0
  11
9.318069
  21
0.398735
  31
0
  0
LINE
  5
327
  100
AcDbEntity
  8
1
  100
AcDbLine
  10
9.318069
  20
0.398735
  30
0
  11
9.339069
  21
0.384964
  31
0
  0
LINE
  5
328
  100
AcDbEntity
  8
1
  100
AcDbLine
  10
9.339069
  20
0.384964
  30
0
  11
9.360069
  21
0.371141
  31
0
  0
LINE
  5
329
  100
AcDbEntity
  8
1
  100
AcDbLine
  10
9.360069
  20
0.371141
  30
0
  11
9.381069
  21
0.357266
  31
0
  0
LINE
  5
32a
  100
AcDbEntity
  8
1
  100
AcDbLine
  10
9.381069
  20
0.357266
  30
0
  11
9.402069
  21
0.343342
  31
0
  0
LINE
  5
32b
  100
AcDbEntity
  8
1
  100
AcDbLine
  10
9.402069
  20
0.343342
  30
0
  11
9.423069
  21
0.32937
  31
0
  0
LINE
  5
32c
  100
AcDbEntity
  8
1
  100
AcDbLine
  10
9.423069
  20
0.32937
  30
0
  11
9.444069
  21
0.315352
  31
0
  0
LINE
  5
32d
  100
AcDbEntity
  8
1
  100
AcDbLine
  10
9.444069
  20
0.315352
  30
0
  11
9.465069
  21
0.301291
  31
0
  0
LINE
  5
32e
  100
AcDbEntity
  8
1
  100
AcDbLine
  10
9.465069
  20
0.301291
  30
0
  11
9.486069
  21
0.287188
  31
0
  0
LINE
  5
32f
  100
AcDbEntity
  8
1
  100
AcDbLine
  10
9.486069
  20
0.287188
  30
0
  11
9.507069
  21
0.273046
  31
0
  0
LINE
  5
330
  100
AcDbEntity
  8
1
  100
AcDbLine
  10
9.507069
  20
0.273046
  30
0
  11
9.528069
  21
0.258866
  31
0
  0
LINE
  5
331
  100
AcDbEntity
  8
1
  100
AcDbLine
  10
9.528069
  20
0.258866
  30
0
  11
9.549069
  21
0.24465
  31
0
  0
LINE
  5
332
  100
AcDbEntity
  8
1
  100
AcDbLine
  10
9.549069
  20
0.24465
  30
0
  11
9.570069
  21
0.2304
  31
0
  0
LINE
  5
333
  100
AcDbEntity
  8
1
  100
AcDbLine
  10
9.570069
  20
0.2304
  30
0
  11
9.591069
  21
0.216118
  31
0
  0
LINE
  5
334
  100
AcDbEntity
  8
1
  100
AcDbLine
  10
9.591069
  20
0.216118
  30
0
  11
9.612069
  21
0.201806
  31
0
  0
LINE
  5
335
  100
AcDbEntity
  8
1
  100
AcDbLine
  10
9.612069
  20
0.201806
  30
0
  11
9.633069
  21
0.187466
  31
0
  0
LINE
  5
336
  100
AcDbEntity
  8
1
  100
AcDbLine
  10
9.633069
  20
0.187466
  30
0
  11
9.654069
  21
0.173101
  31
0
  0
LINE
  5
337
  100
AcDbEntity
  8
1
  100
AcDbLine
  10
9.654069
  20
0.173101
  30
0
  11
9.675069
  21
0.158711
  31
0
  0
LINE
  5
338
  100
AcDbEntity
  8
1
  100
AcDbLine
  10
9.675069
  20
0.158711
  30
0
  11
9.696069
  21
0.1443
  31
0
  0
LINE
  5
339
  100
AcDbEntity
  8
1
  100
AcDbLine
  10
9.696069
  20
0.1443
  30
0
  11
9.717069
  21
0.129868
  31
0
  0
LINE
  5
33a
  100
AcDbEntity
  8
1
  100
AcDbLine
  10
9.717069
  20
0.129868
  30
0
  11
9.738069
  21
0.115419
  31
0
  0
LINE
  5
33b
  100
AcDbEntity
  8
1
  100
AcDbLine
  10
9.738069
  20
0.115419
  30
0
  11
9.759069
  21
0.100953
  31
0
  0
LINE
  5
33c
  100
AcDbEntity
  8
1
  100
AcDbLine
  10
9.759069
  20
0.100953
  30
0
  11
9.780069
  21
0.086474
  31
0
  0
LINE
  5
33d
  100
AcDbEntity
  8
1
  100
AcDbLine
  10
9.780069
  20
0.086474
  30
0
  11
9.801069
  21
0.071982
  31
0
  0
LINE
  5
33e
  100
AcDbEntity
  8
1
  100
AcDbLine
  10
9.801069
  20
0.071982
  30
0
  11
9.822069
  21
0.057481
  31
0
  0
LINE
  5
33f
  100
AcDbEntity
  8
1
  100
AcDbLine
  10
9.822069
  20
0.057481
  30
0
  11
9.843069
  21
0.042972
  31
0
  0
LINE
  5
340
  100
AcDbEntity
  8
1
  100
AcDbLine
  10
9.843069
  20
0.042972
  30
0
  11
9.864069
  21
0.028456
  31
0
  0
LINE
  5
341
  100
AcDbEntity
  8
1
  100
AcDbLine
  10
9.864069
  20
0.028456
  30
0
  11
9.885069
  21
0.013937
  31
0
  0
LINE
  5
342
  100
AcDbEntity
  8
1
  100
AcDbLine
  10
9.885069
  20
0.013937
  30
0
  11
9.906069
  21
-0.000584
  31
0
  0
LINE
  5
343
  100
AcDbEntity
  8
1
  100
AcDbLine
  10
9.906069
  20
-0.000584
  30
0
  11
9.927069
  21
-0.015105
  31
0
  0
LINE
  5
344
  100
AcDbEntity
  8
1
  100
AcDbLine
  10
9.927069
  20
-0.015105
  30
0
  11
9.948069
  21
-0.029624
  31
0
  0
LINE
  5
345
  100
AcDbEntity
  8
1
  100
AcDbLine
  10
9.948069
  20
-0.029624
  30
0
  11
9.969069
  21
-0.044139
  31
0
  0
LINE
  5
346
  100
AcDbEntity
  8
1
  100
AcDbLine
  10
9.969069
  20
-0.044139
  30
0
  11
9.990069
  21
-0.058647
  31
0
  0
LINE
  5
347
  100
AcDbEntity
  8
1
  100
AcDbLine
  10
9.990069
  20
-0.058647
  30
0
  11
10.011069
  21
-0.073148
  31
0
  0
LINE
  5
348
  100
AcDbEntity
  8
1
  100
AcDbLine
  10
10.011069
  20
-0.073148
  30
0
  11
10.032069
  21
-0.087638
  31
0
  0
LINE
  5
349
  100
AcDbEntity
  8
1
  100
AcDbLine
  10
10.032069
  20
-0.087638
  30
0
  11
10.053069
  21
-0.102117
  31
0
  0
LINE
  5
34a
  100
AcDbEntity
  8
1
  100
AcDbLine
  10
10.053069
  20
-0.102117
  30
0
  11
10.074069
  21
-0.116581
  31
0
  0
LINE
  5
34b
  100
AcDbEntity
  8
1
  100
AcDbLine
  10
10.074069
  20
-0.116581
  30
0
  11
10.095069
  21
-0.131029
  31
0
  0
LINE
  5
34c
  100
AcDbEntity
  8
1
  100
AcDbLine
  10
10.095069
  20
-0.131029
  30
0
  11
10.116069
  21
-0.145459
  31
0
  0
LINE
  5
34d
  100
AcDbEntity
  8
1
  100
AcDbLine
  10
10.116069
  20
-0.145459
  30
0
  11
10.137069
  21
-0.159869
  31
0
  0
LINE
  5
34e
  100
AcDbEntity
  8
1
  100
AcDbLine
  10
10.137069
  20
-0.159869
  30
0
  11
10.158069
  21
-0.174257
  31
0
  0
LINE
  5
34f
  100
AcDbEntity
  8
1
  100
AcDbLine
  10
10.158069
  20
-0.174257
  30
0
  11
10.179069
  21
-0.18862
  31
0
  0
LINE
  5
350
  100
AcDbEntity
  8
1
  100
AcDbLine
  10
10.179069
  20
-0.18862
  30
0
  11
10.200069
  21
-0.202958
  31
0
  0
LINE
  5
351
  100
AcDbEntity
  8
1
  100
AcDbLine
  10
10.200069
  20
-0.202958
  30
0
  11
10.221069
  21
-0.217267
  31
0
  0
LINE
  5
352
  100
AcDbEntity
  8
1
  100
AcDbLine
  10
10.221069
  20
-0.217267
  30
0
  11
10.242069
  21
-0.231547
  31
0
  0
LINE
  5
353
  100
AcDbEntity
  8
1
  100
AcDbLine
  10
10.242069
  20
-0.231547
  30
0
  11
10.263069
  21
-0.245794
  31
0
  0
LINE
  5
354
  100
AcDbEntity
  8
1
  100
AcDbLine
  10
10.263069
  20
-0.245794
  30
0
  11
10.284069
  21
-0.260007
  31
0
  0
LINE
  5
355
  100
AcDbEntity
  8
1
  100
AcDbLine
  10
10.284069
  20
-0.260007
  30
0
  11
10.305069
  21
-0.274185
  31
0
  0
LINE
  5
356
  100
AcDbEntity
  8
1
  100
AcDbLine
  10
10.305069
  20
-0.274185
  30
0
  11
10.326069
  21
-0.288324
  31
0
  0
LINE
  5
357
  100
AcDbEntity
  8
1
  100
AcDbLine
  10
10.326069
  20
-0.288324
  30
0
  11
10.347069
  21
-0.302423
  31
0
  0
LINE
  5
358
  100
AcDbEntity
  8
1
  100
AcDbLine
  10
10.347069
  20
-0.302423
  30
0
  11
10.368069
  21
-0.316481
  31
0
  0
LINE
  5
359
  100
AcDbEntity
  8
1
  100
AcDbLine
  10
10.368069
  20
-0.316481
  30
0
  11
10.389069
  21
-0.330495
  31
0
  0
LINE
  5
35a
  100
AcDbEntity
  8
1
  100
AcDbLine
  10
10.389069
  20
-0.330495
  30
0
  11
10.410069
  21
-0.344463
  31
0
  0
LINE
  5
35b
  100
AcDbEntity
  8
1
  100
AcDbLine
  10
10.410069
  20
-0.344463
  30
0
  11
10.431069
  21
-0.358383
  31
0
  0
LINE
  5
35c
  100
AcDbEntity
  8
1
  100
AcDbLine
  10
10.431069
  20
-0.358383
  30
0
  11
10.452069
  21
-0.372254
  31
0
  0
LINE
  5
35d
  100
AcDbEntity
  8
1
  100
AcDbLine
  10
10.452069
  20
-0.372254
  30
0
  11
10.473069
  21
-0.386074
  31
0
  0
LINE
  5
35e
  100
AcDbEntity
  8
1
  100
AcDbLine
  10
10.473069
  20
-0.386074
  30
0
  11
10.494069
  21
-0.399839
  31
0
  0
LINE
  5
35f
  100
AcDbEntity
  8
1
  100
AcDbLine
  10
10.494069
  20
-0.399839
  30
0
  11
10.515069
  21
-0.41355
  31
0
  0
LINE
  5
360
  100
AcDbEntity
  8
1
  100
AcDbLine
  10
10.515069
  20
-0.41355
  30
0
  11
10.536069
  21
-0.427203
  31
0
  0
LINE
  5
361
  100
AcDbEntity
  8
1
  100
AcDbLine
  10
10.536069
  20
-0.427203
  30
0
  11
10.557069
  21
-0.440798
  31
0
  0
LINE
  5
362
  100
AcDbEntity
  8
1
  100
AcDbLine
  10
10.557069
  20
-0.440798
  30
0
  11
10.578069
  21
-0.454331
  31
0
  0
LINE
  5
363
  100
AcDbEntity
  8
1
  100
AcDbLine
  10
10.578069
  20
-0.454331
  30
0
  11
10.599069
  21
-0.467801
  31
0
  0
LINE
  5
364
  100
AcDbEntity
  8
1
  100
AcDbLine
  10
10.599069
  20
-0.467801
  30
0
  11
10.620069
  21
-0.481207
  31
0
  0
LINE
  5
365
  100
AcDbEntity
  8
1
  100
AcDbLine
  10
10.620069
  20
-0.481207
  30
0
  11
10.641069
  21
-0.494546
  31
0
  0
LINE
  5
366
  100
AcDbEntity
  8
1
  100
AcDbLine
  10
10.641069
  20
-0.494546
  30
0
  11
10.662069
  21
-0.507817
  31
0
  0
LINE
  5
367
  100
AcDbEntity
  8
1
  100
AcDbLine
  10
10.662069
  20
-0.507817
  30
0
  11
10.683069
  21
-0.521017
  31
0
  0
LINE
  5
368
  100
AcDbEntity
  8
1
  100
AcDbLine
  10
10.683069
  20
-0.521017
  30
0
  11
10.704069
  21
-0.534145
  31
0
  0
LINE
  5
369
  100
AcDbEntity
  8
1
  100
AcDbLine
  10
10.704069
  20
-0.534145
  30
0
  11
10.725069
  21
-0.5472
  31
0
  0
LINE
  5
36a
  100
AcDbEntity
  8
1
  100
AcDbLine
  10
10.725069
  20
-0.5472
  30
0
  11
10.746069
  21
-0.560178
  31
0
  0
LINE
  5
36b
  100
AcDbEntity
  8
1
  100
AcDbLine
  10
10.746069
  20
-0.560178
  30
0
  11
10.767069
  21
-0.573079
  31
0
  0
LINE
  5
36c
  100
AcDbEntity
  8
1
  100
AcDbLine
  10
10.767069
  20
-0.573079
  30
0
  11
10.788069
  21
-0.585901
  31
0
  0
LINE
  5
36d
  100
AcDbEntity
  8
1
  100
AcDbLine
  10
10.788069
  20
-0.585901
  30
0
  11
10.809069
  21
-0.598642
  31
0
  0
LINE
  5
36e
  100
AcDbEntity
  8
1
  100
AcDbLine
  10
10.809069
  20
-0.598642
  30
0
  11
10.830069
  21
-0.6113
  31
0
  0
LINE
  5
36f
  100
AcDbEntity
  8
1
  100
AcDbLine
  10
10.830069
  20
-0.6113
  30
0
  11
10.851069
  21
-0.623873
  31
0
  0
LINE
  5
370
  100
AcDbEntity
  8
1
  100
AcDbLine
  10
10.851069
  20
-0.623873
  30
0
  11
10.872069
  21
-0.63636
  31
0
  0
LINE
  5
371
  100
AcDbEntity
  8
1
  100
AcDbLine
  10
10.872069
  20
-0.63636
  30
0
  11
10.893069
  21
-0.648759
  31
0
  0
LINE
  5
372
  100
AcDbEntity
  8
1
  100
AcDbLine
  10
10.893069
  20
-0.648759
  30
0
  11
10.914069
  21
-0.661068
  31
0
  0
LINE
  5
373
  100
AcDbEntity
  8
1
  100
AcDbLine
  10
10.914069
  20
-0.661068
  30
0
  11
10.935069
  21
-0.673286
  31
0
  0
LINE
  5
374
  100
AcDbEntity
  8
1
  100
AcDbLine
  10
10.935069
  20
-0.673286
  30
0
  11
10.956069
  21
-0.68541
  31
0
  0
LINE
  5
375
  100
AcDbEntity
  8
1
  100
AcDbLine
  10
10.956069
  20
-0.68541
  30
0
  11
10.977069
  21
-0.69744
  31
0
  0
LINE
  5
376
  100
AcDbEntity
  8
1
  100
AcDbLine
  10
10.977069
  20
-0.69744
  30
0
  11
10.998069
  21
-0.709373
  31
0
  0
LINE
  5
377
  100
AcDbEntity
  8
1
  100
AcDbLine
  10
10.998069
  20
-0.709373
  30
0
  11
11.019069
  21
-0.721208
  31
0
  0
LINE
  5
378
  100
AcDbEntity
  8
1
  100
AcDbLine
  10
11.019069
  20
-0.721208
  30
0
  11
11.040069
  21
-0.732943
  31
0
  0
LINE
  5
379
  100
AcDbEntity
  8
1
  100
AcDbLine
  10
11.040069
  20
-0.732943
  30
0
  11
11.061069
  21
-0.744577
  31
0
  0
LINE
  5
37a
  100
AcDbEntity
  8
1
  100
AcDbLine
  10
11.061069
  20
-0.744577
  30
0
  11
11.082069
  21
-0.756108
  31
0
  0
LINE
  5
37b
  100
AcDbEntity
  8
1
  100
AcDbLine
  10
11.082069
  20
-0.756108
  30
0
  11
11.103069
  21
-0.767534
  31
0
  0
LINE
  5
37c
  100
AcDbEntity
  8
1
  100
AcDbLine
  10
11.103069
  20
-0.767534
  30
0
  11
11.124069
  21
-0.778853
  31
0
  0
LINE
  5
37d
  100
AcDbEntity
  8
1
  100
AcDbLine
  10
11.124069
  20
-0.778853
  30
0
  11
11.145069
  21
-0.790066
  31
0
  0
LINE
  5
37e
  100
AcDbEntity
  8
1
  100
AcDbLine
  10
11.145069
  20
-0.790066
  30
0
  11
11.166069
  21
-0.801168
  31
0
  0
LINE
  5
37f
  100
AcDbEntity
  8
1
  100
AcDbLine
  10
11.166069
  20
-0.801168
  30
0
  11
11.187069
  21
-0.81216
  31
0
  0
LINE
  5
380
  100
AcDbEntity
  8
1
  100
AcDbLine
  10
11.187069
  20
-0.81216
  30
0
  11
11.208069
  21
-0.82304
  31
0
  0
LINE
  5
381
  100
AcDbEntity
  8
1
  100
AcDbLine
  10
11.208069
  20
-0.82304
  30
0
  11
11.229069
  21
-0.833805
  31
0
  0
LINE
  5
382
  100
AcDbEntity
  8
1
  100
AcDbLine
  10
11.229069
  20
-0.833805
  30
0
  11
11.250069
  21
-0.844456
  31
0
  0
LINE
  5
383
  100
AcDbEntity
  8
1
  100
AcDbLine
  10
11.250069
  20
-0.844456
  30
0
  11
11.271069
  21
-0.854989
  31
0
  0
LINE
  5
384
  100
AcDbEntity
  8
1
  100
AcDbLine
  10
11.271069
  20
-0.854989
  30
0
  11
11.292069
  21
-0.865404
  31
0
  0
LINE
  5
385
  100
AcDbEntity
  8
1
  100
AcDbLine
  10
11.292069
  20
-0.865404
  30
0
  11
11.313069
  21
-0.875699
  31
0
  0
LINE
  5
386
  100
AcDbEntity
  8
1
  100
AcDbLine
  10
11.313069
  20
-0.875699
  30
0
  11
11.334069
  21
-0.885874
  31
0
  0
LINE
  5
387
  100
AcDbEntity
  8
1
  100
AcDbLine
  10
11.334069
  20
-0.885874
  30
0
  11
11.355069
  21
-0.895925
  31
0
  0
LINE
  5
388
  100
AcDbEntity
  8
1
  100
AcDbLine
  10
11.355069
  20
-0.895925
  30
0
  11
11.376069
  21
-0.905853
  31
0
  0
LINE
  5
389
  100
AcDbEntity
  8
1
  100
AcDbLine
  10
11.376069
  20
-0.905853
  30
0
  11
11.397069
  21
-0.915655
  31
0
  0
LINE
  5
38a
  100
AcDbEntity
  8
1
  100
AcDbLine
  10
11.397069
  20
-0.915655
  30
0
  11
11.418069
  21
-0.925331
  31
0
  0
LINE
  5
38b
  100
AcDbEntity
  8
1
  100
AcDbLine
  10
11.418069
  20
-0.925331
  30
0
  11
11.439069
  21
-0.934878
  31
0
  0
LINE
  5
38c
  100
AcDbEntity
  8
1
  100
AcDbLine
  10
11.439069
  20
-0.934878
  30
0
  11
11.460069
  21
-0.944296
  31
0
  0
LINE
  5
38d
  100
AcDbEntity
  8
1
  100
AcDbLine
  10
11.460069
  20
-0.944296
  30
0
  11
11.481069
  21
-0.953584
  31
0
  0
LINE
  5
38e
  100
AcDbEntity
  8
1
  100
AcDbLine
  10
11.481069
  20
-0.953584
  30
0
  11
11.502069
  21
-0.962739
  31
0
  0
LINE
  5
38f
  100
AcDbEntity
  8
1
  100
AcDbLine
  10
11.502069
  20
-0.962739
  30
0
  11
11.523069
  21
-0.971761
  31
0
  0
LINE
  5
390
  100
AcDbEntity
  8
1
  100
AcDbLine
  10
11.523069
  20
-0.971761
  30
0
  11
11.544069
  21
-0.980649
  31
0
  0
LINE
  5
391
  100
AcDbEntity
  8
1
  100
AcDbLine
  10
11.544069
  20
-0.980649
  30
0
  11
11.565069
  21
-0.989401
  31
0
  0
LINE
  5
392
  100
AcDbEntity
  8
1
  100
AcDbLine
  10
11.565069
  20
-0.989401
  30
0
  11
11.586069
  21
-0.998017
  31
0
  0
LINE
  5
393
  100
AcDbEntity
  8
1
  100
AcDbLine
  10
11.586069
  20
-0.998017
  30
0
  11
11.607069
  21
-1.006494
  31
0
  0
LINE
  5
394
  100
AcDbEntity
  8
1
  100
AcDbLine
  10
11.607069
  20
-1.006494
  30
0
  11
11.628069
  21
-1.014831
  31
0
  0
LINE
  5
395
  100
AcDbEntity
  8
1
  100
AcDbLine
  10
11.628069
  20
-1.014831
  30
0
  11
11.649069
  21
-1.023029
  31
0
  0
LINE
  5
396
  100
AcDbEntity
  8
1
  100
AcDbLine
  10
11.649069
  20
-1.023029
  30
0
  11
11.670069
  21
-1.031085
  31
0
  0
LINE
  5
397
  100
AcDbEntity
  8
1
  100
AcDbLine
  10
11.670069
  20
-1.031085
  30
0
  11
11.691069
  21
-1.038998
  31
0
  0
LINE
  5
398
  100
AcDbEntity
  8
1
  100
AcDbLine
  10
11.691069
  20
-1.038998
  30
0
  11
11.712069
  21
-1.046767
  31
0
  0
LINE
  5
399
  100
AcDbEntity
  8
1
  100
AcDbLine
  10
11.712069
  20
-1.046767
  30
0
  11
11.733069
  21
-1.054392
  31
0
  0
LINE
  5
39a
  100
AcDbEntity
  8
1
  100
AcDbLine
  10
11.733069
  20
-1.054392
  30
0
  11
11.754069
  21
-1.06187
  31
0
  0
LINE
  5
39b
  100
AcDbEntity
  8
1
  100
AcDbLine
  10
11.754069
  20
-1.06187
  30
0
  11
11.775069
  21
-1.069202
  31
0
  0
LINE
  5
39c
  100
AcDbEntity
  8
1
  100
AcDbLine
  10
11.775069
  20
-1.069202
  30
0
  11
11.796069
  21
-1.076386
  31
0
  0
LINE
  5
39d
  100
AcDbEntity
  8
1
  100
AcDbLine
  10
11.796069
  20
-1.076386
  30
0
  11
11.817069
  21
-1.08342
  31
0
  0
LINE
  5
39e
  100
AcDbEntity
  8
1
  100
AcDbLine
  10
11.817069
  20
-1.08342
  30
0
  11
11.838069
  21
-1.090305
  31
0
  0
LINE
  5
39f
  100
AcDbEntity
  8
1
  100
AcDbLine
  10
11.838069
  20
-1.090305
  30
0
  11
11.859069
  21
-1.097039
  31
0
  0
LINE
  5
3a0
  100
AcDbEntity
  8
1
  100
AcDbLine
  10
11.859069
  20
-1.097039
  30
0
  11
11.880069
  21
-1.103621
  31
0
  0
LINE
  5
3a1
  100
AcDbEntity
  8
1
  100
AcDbLine
  10
11.880069
  20
-1.103621
  30
0
  11
11.901069
  21
-1.110051
  31
0
  0
LINE
  5
3a2
  100
AcDbEntity
  8
1
  100
AcDbLine
  10
11.901069
  20
-1.110051
  30
0
  11
11.922069
  21
-1.116327
  31
0
  0
LINE
  5
3a3
  100
AcDbEntity
  8
1
  100
AcDbLine
  10
11.922069
  20
-1.116327
  30
0
  11
11.943069
  21
-1.122448
  31
0
  0
LINE
  5
3a4
  100
AcDbEntity
  8
1
  100
AcDbLine
  10
11.943069
  20
-1.122448
  30
0
  11
11.964069
  21
-1.128414
  31
0
  0
LINE
  5
3a5
  100
AcDbEntity
  8
1
  100
AcDbLine
  10
11.964069
  20
-1.128414
  30
0
  11
11.985069
  21
-1.134224
  31
0
  0
LINE
  5
3a6
  100
AcDbEntity
  8
1
  100
AcDbLine
  10
11.985069
  20
-1.134224
  30
0
  11
12.006069
  21
-1.139877
  31
0
  0
LINE
  5
3a7
  100
AcDbEntity
  8
1
  100
AcDbLine
  10
12.006069
  20
-1.139877
  30
0
  11
12.027069
  21
-1.145372
  31
0
  0
LINE
  5
3a8
  100
AcDbEntity
  8
1
  100
AcDbLine
  10
12.027069
  20
-1.145372
  30
0
  11
12.048069
  21
-1.150709
  31
0
  0
LINE
  5
3a9
  100
AcDbEntity
  8
1
  100
AcDbLine
  10
12.048069
  20
-1.150709
  30
0
  11
12.069069
  21
-1.155886
  31
0
  0
LINE
  5
3aa
  100
AcDbEntity
  8
1
  100
AcDbLine
  10
12.069069
  20
-1.155886
  30
0
  11
12.090069
  21
-1.160904
  31
0
  0
LINE
  5
3ab
  100
AcDbEntity
  8
1
  100
AcDbLine
  10
12.090069
  20
-1.160904
  30
0
  11
12.111069
  21
-1.165761
  31
0
  0
LINE
  5
3ac
  100
AcDbEntity
  8
1
  100
AcDbLine
  10
12.111069
  20
-1.165761
  30
0
  11
12.132069
  21
-1.170456
  31
0
  0
LINE
  5
3ad
  100
AcDbEntity
  8
1
  100
AcDbLine
  10
12.132069
  20
-1.170456
  30
0
  11
12.153069
  21
-1.17499
  31
0
  0
LINE
  5
3ae
  100
AcDbEntity
  8
1
  100
AcDbLine
  10
12.153069
  20
-1.17499
  30
0
  11
12.174069
  21
-1.179361
  31
0
  0
LINE
  5
3af
  100
AcDbEntity
  8
1
  100
AcDbLine
  10
12.174069
  20
-1.179361
  30
0
  11
12.195069
  21
-1.183569
  31
0
  0
LINE
  5
3b0
  100
AcDbEntity
  8
1
  100
AcDbLine
  10
12.195069
  20
-1.183569
  30
0
  11
12.216069
  21
-1.187613
  31
0
  0
LINE
  5
3b1
  100
AcDbEntity
  8
1
  100
AcDbLine
  10
12.216069
  20
-1.187613
  30
0
  11
12.237069
  21
-1.191493
  31
0
  0
LINE
  5
3b2
  100
AcDbEntity
  8
1
  100
AcDbLine
  10
12.237069
  20
-1.191493
  30
0
  11
12.258069
  21
-1.195207
  31
0
  0
LINE
  5
3b3
  100
AcDbEntity
  8
1
  100
AcDbLine
  10
12.258069
  20
-1.195207
  30
0
  11
12.279069
  21
-1.198757
  31
0
  0
LINE
  5
3b4
  100
AcDbEntity
  8
1
  100
AcDbLine
  10
12.279069
  20
-1.198757
  30
0
  11
12.300069
  21
-1.20214
  31
0
  0
LINE
  5
3b5
  100
AcDbEntity
  8
1
  100
AcDbLine
  10
12.300069
  20
-1.20214
  30
0
  11
12.321069
  21
-1.205358
  31
0
  0
LINE
  5
3b6
  100
AcDbEntity
  8
1
  100
AcDbLine
  10
12.321069
  20
-1.205358
  30
0
  11
12.342069
  21
-1.208408
  31
0
  0
LINE
  5
3b7
  100
AcDbEntity
  8
1
  100
AcDbLine
  10
12.342069
  20
-1.208408
  30
0
  11
12.363069
  21
-1.211291
  31
0
  0
LINE
  5
3b8
  100
AcDbEntity
  8
1
  100
AcDbLine
  10
12.363069
  20
-1.211291
  30
0
  11
12.384069
  21
-1.214007
  31
0
  0
LINE
  5
3b9
  100
AcDbEntity
  8
1
  100
AcDbLine
  10
12.384069
  20
-1.214007
  30
0
  11
12.405069
  21
-1.216554
  31
0
  0
LINE
  5
3ba
  100
AcDbEntity
  8
1
  100
AcDbLine
  10
12.405069
  20
-1.216554
  30
0
  11
12.426069
  21
-1.218934
  31
0
  0
LINE
  5
3bb
  100
AcDbEntity
  8
1
  100
AcDbLine
  10
12.426069
  20
-1.218934
  30
0
  11
12.447069
  21
-1.221144
  31
0
  0
LINE
  5
3bc
  100
AcDbEntity
  8
1
  100
AcDbLine
  10
12.447069
  20
-1.221144
  30
0
  11
12.468069
  21
-1.223186
  31
0
  0
LINE
  5
3bd
  100
AcDbEntity
  8
1
  100
AcDbLine
  10
12.468069
  20
-1.223186
  30
0
  11
12.489069
  21
-1.225058
  31
0
  0
LINE
  5
3be
  100
AcDbEntity
  8
1
  100
AcDbLine
  10
12.489069
  20
-1.225058
  30
0
  11
12.510069
  21
-1.226761
  31
0
  0
LINE
  5
3bf
  100
AcDbEntity
  8
1
  100
AcDbLine
  10
12.510069
  20
-1.226761
  30
0
  11
12.531069
  21
-1.208009
  31
0
  0
LINE
  5
3c0
  100
AcDbEntity
  8
1
  100
AcDbLine
  10
12.531069
  20
-1.166171
  30
0
  11
12.510069
  21
-1.184195
  31
0
  0
LINE
  5
3c1
  100
AcDbEntity
  8
1
  100
AcDbLine
  10
12.510069
  20
-1.184195
  30
0
  11
12.489069
  21
-1.179405
  31
0
  0
LINE
  5
3c2
  100
AcDbEntity
  8
1
  100
AcDbLine
  10
12.489069
  20
-1.179405
  30
0
  11
12.468069
  21
-1.174452
  31
0
  0
LINE
  5
3c3
  100
AcDbEntity
  8
1
  100
AcDbLine
  10
12.468069
  20
-1.174452
  30
0
  11
12.447069
  21
-1.169336
  31
0
  0
LINE
  5
3c4
  100
AcDbEntity
  8
1
  100
AcDbLine
  10
12.447069
  20
-1.169336
  30
0
  11
12.426069
  21
-1.164058
  31
0
  0
LINE
  5
3c5
  100
AcDbEntity
  8
1
  100
AcDbLine
  10
12.426069
  20
-1.164058
  30
0
  11
12.405069
  21
-1.15862
  31
0
  0
LINE
  5
3c6
  100
AcDbEntity
  8
1
  100
AcDbLine
  10
12.405069
  20
-1.15862
  30
0
  11
12.384069
  21
-1.153021
  31
0
  0
LINE
  5
3c7
  100
AcDbEntity
  8
1
  100
AcDbLine
  10
12.384069
  20
-1.153021
  30
0
  11
12.363069
  21
-1.147263
  31
0
  0
LINE
  5
3c8
  100
AcDbEntity
  8
1
  100
AcDbLine
  10
12.363069
  20
-1.147263
  30
0
  11
12.342069
  21
-1.141346
  31
0
  0
LINE
  5
3c9
  100
AcDbEntity
  8
1
  100
AcDbLine
  10
12.342069
  20
-1.141346
  30
0
  11
12.321069
  21
-1.13527
  31
0
  0
LINE
  5
3ca
  100
AcDbEntity
  8
1
  100
AcDbLine
  10
12.321069
  20
-1.13527
  30
0
  11
12.300069
  21
-1.129038
  31
0
  0
LINE
  5
3cb
  100
AcDbEntity
  8
1
  100
AcDbLine
  10
12.300069
  20
-1.129038
  30
0
  11
12.279069
  21
-1.12265
  31
0
  0
LINE
  5
3cc
  100
AcDbEntity
  8
1
  100
AcDbLine
  10
12.279069
  20
-1.12265
  30
0
  11
12.258069
  21
-1.116106
  31
0
  0
LINE
  5
3cd
  100
AcDbEntity
  8
1
  100
AcDbLine
  10
12.258069
  20
-1.116106
  30
0
  11
12.237069
  21
-1.109408
  31
0
  0
LINE
  5
3ce
  100
AcDbEntity
  8
1
  100
AcDbLine
  10
12.237069
  20
-1.109408
  30
0
  11
12.216069
  21
-1.102556
  31
0
  0
LINE
  5
3cf
  100
AcDbEntity
  8
1
  100
AcDbLine
  10
12.216069
  20
-1.102556
  30
0
  11
12.195069
  21
-1.095552
  31
0
  0
LINE
  5
3d0
  100
AcDbEntity
  8
1
  100
AcDbLine
  10
12.195069
  20
-1.095552
  30
0
  11
12.174069
  21
-1.088396
  31
0
  0
LINE
  5
3d1
  100
AcDbEntity
  8
1
  100
AcDbLine
  10
12.174069
  20
-1.088396
  30
0
  11
12.153069
  21
-1.081089
  31
0
  0
LINE
  5
3d2
  100
AcDbEntity
  8
1
  100
AcDbLine
  10
12.153069
  20
-1.081089
  30
0
  11
12.132069
  21
-1.073633
  31
0
  0
LINE
  5
3d3
  100
AcDbEntity
  8
1
  100
AcDbLine
  10
12.132069
  20
-1.073633
  30
0
  11
12.111069
  21
-1.066029
  31
0
  0
LINE
  5
3d4
  100
AcDbEntity
  8
1
  100
AcDbLine
  10
12.111069
  20
-1.066029
  30
0
  11
12.090069
  21
-1.058276
  31
0
  0
LINE
  5
3d5
  100
AcDbEntity
  8
1
  100
AcDbLine
  10
12.090069
  20
-1.058276
  30
0
  11
12.069069
  21
-1.050378
  31
0
  0
LINE
  5
3d6
  100
AcDbEntity
  8
1
  100
AcDbLine
  10
12.069069
  20
-1.050378
  30
0
  11
12.048069
  21
-1.042334
  31
0
  0
LINE
  5
3d7
  100
AcDbEntity
  8
1
  100
AcDbLine
  10
12.048069
  20
-1.042334
  30
0
  11
12.027069
  21
-1.034145
  31
0
  0
LINE
  5
3d8
  100
AcDbEntity
  8
1
  100
AcDbLine
  10
12.027069
  20
-1.034145
  30
0
  11
12.006069
  21
-1.025814
  31
0
  0
LINE
  5
3d9
  100
AcDbEntity
  8
1
  100
AcDbLine
  10
12.006069
  20
-1.025814
  30
0
  11
11.985069
  21
-1.017341
  31
0
  0
LINE
  5
3da
  100
AcDbEntity
  8
1
  100
AcDbLine
  10
11.985069
  20
-1.017341
  30
0
  11
11.964069
  21
-1.008727
  31
0
  0
LINE
  5
3db
  100
AcDbEntity
  8
1
  100
AcDbLine
  10
11.964069
  20
-1.008727
  30
0
  11
11.943069
  21
-0.999973
  31
0
  0
LINE
  5
3dc
  100
AcDbEntity
  8
1
  100
AcDbLine
  10
11.943069
  20
-0.999973
  30
0
  11
11.922069
  21
-0.991081
  31
0
  0
LINE
  5
3dd
  100
AcDbEntity
  8
1
  100
AcDbLine
  10
11.922069
  20
-0.991081
  30
0
  11
11.901069
  21
-0.982052
  31
0
  0
LINE
  5
3de
  100
AcDbEntity
  8
1
  100
AcDbLine
  10
11.901069
  20
-0.982052
  30
0
  11
11.880069
  21
-0.972887
  31
0
  0
LINE
  5
3df
  100
AcDbEntity
  8
1
  100
AcDbLine
  10
11.880069
  20
-0.972887
  30
0
  11
11.859069
  21
-0.963587
  31
0
  0
LINE
  5
3e0
  100
AcDbEntity
  8
1
  100
AcDbLine
  10
11.859069
  20
-0.963587
  30
0
  11
11.838069
  21
-0.954154
  31
0
  0
LINE
  5
3e1
  100
AcDbEntity
  8
1
  100
AcDbLine
  10
11.838069
  20
-0.954154
  30
0
  11
11.817069
  21
-0.944589
  31
0
  0
LINE
  5
3e2
  100
AcDbEntity
  8
1
  100
AcDbLine
  10
11.817069
  20
-0.944589
  30
0
  11
11.796069
  21
-0.934893
  31
0
  0
LINE
  5
3e3
  100
AcDbEntity
  8
1
  100
AcDbLine
  10
11.796069
  20
-0.934893
  30
0
  11
11.775069
  21
-0.925068
  31
0
  0
LINE
  5
3e4
  100
AcDbEntity
  8
1
  100
AcDbLine
  10
11.775069
  20
-0.925068
  30
0
  11
11.754069
  21
-0.915115
  31
0
  0
LINE
  5
3e5
  100
AcDbEntity
  8
1
  100
AcDbLine
  10
11.754069
  20
-0.915115
  30
0
  11
11.733069
  21
-0.905035
  31
0
  0
LINE
  5
3e6
  100
AcDbEntity
  8
1
  100
AcDbLine
  10
11.733069
  20
-0.905035
  30
0
  11
11.712069
  21
-0.89483
  31
0
  0
LINE
  5
3e7
  100
AcDbEntity
  8
1
  100
AcDbLine
  10
11.712069
  20
-0.89483
  30
0
  11
11.691069
  21
-0.884501
  31
0
  0
LINE
  5
3e8
  100
AcDbEntity
  8
1
  100
AcDbLine
  10
11.691069
  20
-0.884501
  30
0
  11
11.670069
  21
-0.87405
  31
0
  0
LINE
  5
3e9
  100
AcDbEntity
  8
1
  100
AcDbLine
  10
11.670069
  20
-0.87405
  30
0
  11
11.649069
  21
-0.863478
  31
0
  0
LINE
  5
3ea
  100
AcDbEntity
  8
1
  100
AcDbLine
  10
11.649069
  20
-0.863478
  30
0
  11
11.628069
  21
-0.852786
  31
0
  0
LINE
  5
3eb
  100
AcDbEntity
  8
1
  100
AcDbLine
  10
11.628069
  20
-0.852786
  30
0
  11
11.607069
  21
-0.841977
  31
0
  0
LINE
  5
3ec
  100
AcDbEntity
  8
1
  100
AcDbLine
  10
11.607069
  20
-0.841977
  30
0
  11
11.586069
  21
-0.831051
  31
0
  0
LINE
  5
3ed
  100
AcDbEntity
  8
1
  100
AcDbLine
  10
11.586069
  20
-0.831051
  30
0
  11
11.565069
  21
-0.820009
  31
0
  0
LINE
  5
3ee
  100
AcDbEntity
  8
1
  100
AcDbLine
  10
11.565069
  20
-0.820009
  30
0
  11
11.544069
  21
-0.808855
  31
0
  0
LINE
  5
3ef
  100
AcDbEntity
  8
1
  100
AcDbLine
  10
11.544069
  20
-0.808855
  30
0
  11
11.523069
  21
-0.797588
  31
0
  0
LINE
  5
3f0
  100
AcDbEntity
  8
1
  100
AcDbLine
  10
11.523069
  20
-0.797588
  30
0
  11
11.502069
  21
-0.786211
  31
0
  0
LINE
  5
3f1
  100
AcDbEntity
  8
1
  100
AcDbLine
  10
11.502069
  20
-0.786211
  30
0
  11
11.481069
  21
-0.774725
  31
0
  0
LINE
  5
3f2
  100
AcDbEntity
  8
1
  100
AcDbLine
  10
11.481069
  20
-0.774725
  30
0
  11
11.460069
  21
-0.763132
  31
0
  0
LINE
  5
3f3
  100
AcDbEntity
  8
1
  100
AcDbLine
  10
11.460069
  20
-0.763132
  30
0
  11
11.439069
  21
-0.751434
  31
0
  0
LINE
  5
3f4
  100
AcDbEntity
  8
1
  100
AcDbLine
  10
11.439069
  20
-0.751434
  30
0
  11
11.418069
  21
-0.739631
  31
0
  0
LINE
  5
3f5
  100
AcDbEntity
  8
1
  100
AcDbLine
  10
11.418069
  20
-0.739631
  30
0
  11
11.397069
  21
-0.727726
  31
0
  0
LINE
  5
3f6
  100
AcDbEntity
  8
1
  100
AcDbLine
  10
11.397069
  20
-0.727726
  30
0
  11
11.376069
  21
-0.715721
  31
0
  0
LINE
  5
3f7
  100
AcDbEntity
  8
1
  100
AcDbLine
  10
11.376069
  20
-0.715721
  30
0
  11
11.355069
  21
-0.703616
  31
0
  0
LINE
  5
3f8
  100
AcDbEntity
  8
1
  100
AcDbLine
  10
11.355069
  20
-0.703616
  30
0
  11
11.334069
  21
-0.691414
  31
0
  0
LINE
  5
3f9
  100
AcDbEntity
  8
1
  100
AcDbLine
  10
11.334069
  20
-0.691414
  30
0
  11
11.313069
  21
-0.679117
  31
0
  0
LINE
  5
3fa
  100
AcDbEntity
  8
1
  100
AcDbLine
  10
11.313069
  20
-0.679117
  30
0
  11
11.292069
  21
-0.666725
  31
0
  0
LINE
  5
3fb
  100
AcDbEntity
  8
1
  100
AcDbLine
  10
11.292069
  20
-0.666725
  30
0
  11
11.271069
  21
-0.654241
  31
0
  0
LINE
  5
3fc
  100
AcDbEntity
  8
1
  100
AcDbLine
  10
11.271069
  20
-0.654241
  30
0
  11
11.250069
  21
-0.641667
  31
0
  0
LINE
  5
3fd
  100
AcDbEntity
  8
1
  100
AcDbLine
  10
11.250069
  20
-0.641667
  30
0
  11
11.229069
  21
-0.629003
  31
0
  0
LINE
  5
3fe
  100
AcDbEntity
  8
1
  100
AcDbLine
  10
11.229069
  20
-0.629003
  30
0
  11
11.208069
  21
-0.616253
  31
0
  0
LINE
  5
3ff
  100
AcDbEntity
  8
1
  100
AcDbLine
  10
11.208069
  20
-0.616253
  30
0
  11
11.187069
  21
-0.603418
  31
0
  0
LINE
  5
400
  100
AcDbEntity
  8
1
  100
AcDbLine
  10
11.187069
  20
-0.603418
  30
0
  11
11.166069
  21
-0.590499
  31
0
  0
LINE
  5
401
  100
AcDbEntity
  8
1
  100
AcDbLine
  10
11.166069
  20
-0.590499
  30
0
  11
11.145069
  21
-0.577498
  31
0
  0
LINE
  5
402
  100
AcDbEntity
  8
1
  100
AcDbLine
  10
11.145069
  20
-0.577498
  30
0
  11
11.124069
  21
-0.564417
  31
0
  0
LINE
  5
403
  100
AcDbEntity
  8
1
  100
AcDbLine
  10
11.124069
  20
-0.564417
  30
0
  11
11.103069
  21
-0.551258
  31
0
  0
LINE
  5
404
  100
AcDbEntity
  8
1
  100
AcDbLine
  10
11.103069
  20
-0.551258
  30
0
  11
11.082069
  21
-0.538023
  31
0
  0
LINE
  5
405
  100
AcDbEntity
  8
1
  100
AcDbLine
  10
11.082069
  20
-0.538023
  30
0
  11
11.061069
  21
-0.524714
  31
0
  0
LINE
  5
406
  100
AcDbEntity
  8
1
  100
AcDbLine
  10
11.061069
  20
-0.524714
  30
0
  11
11.040069
  21
-0.511332
  31
0
  0
LINE
  5
407
  100
AcDbEntity
  8
1
  100
AcDbLine
  10
11.040069
  20
-0.511332
  30
0
  11
11.019069
  21
-0.497879
  31
0
  0
LINE
  5
408
  100
AcDbEntity
  8
1
  100
AcDbLine
  10
11.019069
  20
-0.497879
  30
0
  11
10.998069
  21
-0.484357
  31
0
  0
LINE
  5
409
  100
AcDbEntity
  8
1
  100
AcDbLine
  10
10.998069
  20
-0.484357
  30
0
  11
10.977069
  21
-0.470768
  31
0
  0
LINE
  5
40a
  100
AcDbEntity
  8
1
  100
AcDbLine
  10
10.977069
  20
-0.470768
  30
0
  11
10.956069
  21
-0.457114
  31
0
  0
LINE
  5
40b
  100
AcDbEntity
  8
1
  100
AcDbLine
  10
10.956069
  20
-0.457114
  30
0
  11
10.935069
  21
-0.443397
  31
0
  0
LINE
  5
40c
  100
AcDbEntity
  8
1
  100
AcDbLine
  10
10.935069
  20
-0.443397
  30
0
  11
10.914069
  21
-0.429619
  31
0
  0
LINE
  5
40d
  100
AcDbEntity
  8
1
  100
AcDbLine
  10
10.914069
  20
-0.429619
  30
0
  11
10.893069
  21
-0.415781
  31
0
  0
LINE
  5
40e
  100
AcDbEntity
  8
1
  100
AcDbLine
  10
10.893069
  20
-0.415781
  30
0
  11
10.872069
  21
-0.401885
  31
0
  0
LINE
  5
40f
  100
AcDbEntity
  8
1
  100
AcDbLine
  10
10.872069
  20
-0.401885
  30
0
  11
10.851069
  21
-0.387934
  31
0
  0
LINE
  5
410
  100
AcDbEntity
  8
1
  100
AcDbLine
  10
10.851069
  20
-0.387934
  30
0
  11
10.830069
  21
-0.373929
  31
0
  0
LINE
  5
411
  100
AcDbEntity
  8
1
  100
AcDbLine
  10
10.830069
  20
-0.373929
  30
0
  11
10.809069
  21
-0.359872
  31
0
  0
LINE
  5
412
  100
AcDbEntity
  8
1
  100
AcDbLine
  10
10.809069
  20
-0.359872
  30
0
  11
10.788069
  21
-0.345766
  31
0
  0
LINE
  5
413
  100
AcDbEntity
  8
1
  100
AcDbLine
  10
10.788069
  20
-0.345766
  30
0
  11
10.767069
  21
-0.331612
  31
0
  0
LINE
  5
414
  100
AcDbEntity
  8
1
  100
AcDbLine
  10
10.767069
  20
-0.331612
  30
0
  11
10.746069
  21
-0.317412
  31
0
  0
LINE
  5
415
  100
AcDbEntity
  8
1
  100
AcDbLine
  10
10.746069
  20
-0.317412
  30
0
  11
10.725069
  21
-0.303168
  31
0
  0
LINE
  5
416
  100
AcDbEntity
  8
1
  100
AcDbLine
  10
10.725069
  20
-0.303168
  30
0
  11
10.704069
  21
-0.288882
  31
0
  0
LINE
  5
417
  100
AcDbEntity
  8
1
  100
AcDbLine
  10
10.704069
  20
-0.288882
  30
0
  11
10.683069
  21
-0.274556
  31
0
  0
LINE
  5
418
  100
AcDbEntity
  8
1
  100
AcDbLine
  10
10.683069
  20
-0.274556
  30
0
  11
10.662069
  21
-0.260192
  31
0
  0
LINE
  5
419
  100
AcDbEntity
  8
1
  100
AcDbLine
  10
10.662069
  20
-0.260192
  30
0
  11
10.641069
  21
-0.245792
  31
0
  0
LINE
  5
41a
  100
AcDbEntity
  8
1
  100
AcDbLine
  10
10.641069
  20
-0.245792
  30
0
  11
10.620069
  21
-0.231358
  31
0
  0
LINE
  5
41b
  100
AcDbEntity
  8
1
  100
AcDbLine
  10
10.620069
  20
-0.231358
  30
0
  11
10.599069
  21
-0.216892
  31
0
  0
LINE
  5
41c
  100
AcDbEntity
  8
1
  100
AcDbLine
  10
10.599069
  20
-0.216892
  30
0
  11
10.578069
  21
-0.202396
  31
0
  0
LINE
  5
41d
  100
AcDbEntity
  8
1
  100
AcDbLine
  10
10.578069
  20
-0.202396
  30
0
  11
10.557069
  21
-0.187872
  31
0
  0
LINE
  5
41e
  100
AcDbEntity
  8
1
  100
AcDbLine
  10
10.557069
  20
-0.187872
  30
0
  11
10.536069
  21
-0.173322
  31
0
  0
LINE
  5
41f
  100
AcDbEntity
  8
1
  100
AcDbLine
  10
10.536069
  20
-0.173322
  30
0
  11
10.515069
  21
-0.158748
  31
0
  0
LINE
  5
420
  100
AcDbEntity
  8
1
  100
AcDbLine
  10
10.515069
  20
-0.158748
  30
0
  11
10.494069
  21
-0.144152
  31
0
  0
LINE
  5
421
  100
AcDbEntity
  8
1
  100
AcDbLine
  10
10.494069
  20
-0.144152
  30
0
  11
10.473069
  21
-0.129536
  31
0
  0
LINE
  5
422
  100
AcDbEntity
  8
1
  100
AcDbLine
  10
10.473069
  20
-0.129536
  30
0
  11
10.452069
  21
-0.114902
  31
0
  0
LINE
  5
423
  100
AcDbEntity
  8
1
  100
AcDbLine
  10
10.452069
  20
-0.114902
  30
0
  11
10.431069
  21
-0.100253
  31
0
  0
LINE
  5
424
  100
AcDbEntity
  8
1
  100
AcDbLine
  10
10.431069
  20
-0.100253
  30
0
  11
10.410069
  21
-0.085589
  31
0
  0
LINE
  5
425
  100
AcDbEntity
  8
1
  100
AcDbLine
  10
10.410069
  20
-0.085589
  30
0
  11
10.389069
  21
-0.070914
  31
0
  0
LINE
  5
426
  100
AcDbEntity
  8
1
  100
AcDbLine
  10
10.389069
  20
-0.070914
  30
0
  11
10.368069
  21
-0.056228
  31
0
  0
LINE
  5
427
  100
AcDbEntity
  8
1
  100
AcDbLine
  10
10.368069
  20
-0.056228
  30
0
  11
10.347069
  21
-0.041535
  31
0
  0
LINE
  5
428
  100
AcDbEntity
  8
1
  100
AcDbLine
  10
10.347069
  20
-0.041535
  30
0
  11
10.326069
  21
-0.026837
  31
0
  0
LINE
  5
429
  100
AcDbEntity
  8
1
  100
AcDbLine
  10
10.326069
  20
-0.026837
  30
0
  11
10.305069
  21
-0.012134
  31
0
  0
LINE
  5
42a
  100
AcDbEntity
  8
1
  100
AcDbLine
  10
10.305069
  20
-0.012134
  30
0
  11
10.284069
  21
0.00257
  31
0
  0
LINE
  5
42b
  100
AcDbEntity
  8
1
  100
AcDbLine
  10
10.284069
  20
0.00257
  30
0
  11
10.263069
  21
0.017274
  31
0
  0
LINE
  5
42c
  100
AcDbEntity
  8
1
  100
AcDbLine
  10
10.263069
  20
0.017274
  30
0
  11
10.242069
  21
0.031975
  31
0
  0
LINE
  5
42d
  100
AcDbEntity
  8
1
  100
AcDbLine
  10
10.242069
  20
0.031975
  30
0
  11
10.221069
  21
0.046672
  31
0
  0
LINE
  5
42e
  100
AcDbEntity
  8
1
  100
AcDbLine
  10
10.221069
  20
0.046672
  30
0
  11
10.200069
  21
0.061363
  31
0
  0
LINE
  5
42f
  100
AcDbEntity
  8
1
  100
AcDbLine
  10
10.200069
  20
0.061363
  30
0
  11
10.179069
  21
0.076045
  31
0
  0
LINE
  5
430
  100
AcDbEntity
  8
1
  100
AcDbLine
  10
10.179069
  20
0.076045
  30
0
  11
10.158069
  21
0.090716
  31
0
  0
LINE
  5
431
  100
AcDbEntity
  8
1
  100
AcDbLine
  10
10.158069
  20
0.090716
  30
0
  11
10.137069
  21
0.105375
  31
0
  0
LINE
  5
432
  100
AcDbEntity
  8
1
  100
AcDbLine
  10
10.137069
  20
0.105375
  30
0
  11
10.116069
  21
0.12002
  31
0
  0
LINE
  5
433
  100
AcDbEntity
  8
1
  100
AcDbLine
  10
10.116069
  20
0.12002
  30
0
  11
10.095069
  21
0.134647
  31
0
  0
LINE
  5
434
  100
AcDbEntity
  8
1
  100
AcDbLine
  10
10.095069
  20
0.134647
  30
0
  11
10.074069
  21
0.149257
  31
0
  0
LINE
  5
435
  100
AcDbEntity
  8
1
  100
AcDbLine
  10
10.074069
  20
0.149257
  30
0
  11
10.053069
  21
0.163845
  31
0
  0
LINE
  5
436
  100
AcDbEntity
  8
1
  100
AcDbLine
  10
10.053069
  20
0.163845
  30
0
  11
10.032069
  21
0.178411
  31
0
  0
LINE
  5
437
  100
AcDbEntity
  8
1
  100
AcDbLine
  10
10.032069
  20
0.178411
  30
0
  11
10.011069
  21
0.192952
  31
0
  0
LINE
  5
438
  100
AcDbEntity
  8
1
  100
AcDbLine
  10
10.011069
  20
0.192952
  30
0
  11
9.990069
  21
0.207467
  31
0
  0
LINE
  5
439
  100
AcDbEntity
  8
1
  100
AcDbLine
  10
9.990069
  20
0.207467
  30
0
  11
9.969069
  21
0.221952
  31
0
  0
LINE
  5
43a
  100
AcDbEntity
  8
1
  100
AcDbLine
  10
9.969069
  20
0.221952
  30
0
  11
9.948069
  21
0.236407
  31
0
  0
LINE
  5
43b
  100
AcDbEntity
  8
1
  100
AcDbLine
  10
9.948069
  20
0.236407
  30
0
  11
9.927069
  21
0.25083
  31
0
  0
LINE
  5
43c
  100
AcDbEntity
  8
1
  100
AcDbLine
  10
9.927069
  20
0.25083
  30
0
  11
9.906069
  21
0.265217
  31
0
  0
LINE
  5
43d
  100
AcDbEntity
  8
1
  100
AcDbLine
  10
9.906069
  20
0.265217
  30
0
  11
9.885069
  21
0.279568
  31
0
  0
LINE
  5
43e
  100
AcDbEntity
  8
1
  100
AcDbLine
  10
9.885069
  20
0.279568
  30
0
  11
9.864069
  21
0.29388
  31
0
  0
LINE
  5
43f
  100
AcDbEntity
  8
1
  100
AcDbLine
  10
9.864069
  20
0.29388
  30
0
  11
9.843069
  21
0.308152
  31
0
  0
LINE
  5
440
  100
AcDbEntity
  8
1
  100
AcDbLine
  10
9.843069
  20
0.308152
  30
0
  11
9.822069
  21
0.322381
  31
0
  0
LINE
  5
441
  100
AcDbEntity
  8
1
  100
AcDbLine
  10
9.822069
  20
0.322381
  30
0
  11
9.801069
  21
0.336565
  31
0
  0
LINE
  5
442
  100
AcDbEntity
  8
1
  100
AcDbLine
  10
9.801069
  20
0.336565
  30
0
  11
9.780069
  21
0.350703
  31
0
  0
LINE
  5
443
  100
AcDbEntity
  8
1
  100
AcDbLine
  10
9.780069
  20
0.350703
  30
0
  11
9.759069
  21
0.364792
  31
0
  0
LINE
  5
444
  100
AcDbEntity
  8
1
  100
AcDbLine
  10
9.759069
  20
0.364792
  30
0
  11
9.738069
  21
0.378831
  31
0
  0
LINE
  5
445
  100
AcDbEntity
  8
1
  100
AcDbLine
  10
9.738069
  20
0.378831
  30
0
  11
9.717069
  21
0.392817
  31
0
  0
LINE
  5
446
  100
AcDbEntity
  8
1
  100
AcDbLine
  10
9.717069
  20
0.392817
  30
0
  11
9.696069
  21
0.406749
  31
0
  0
LINE
  5
447
  100
AcDbEntity
  8
1
  100
AcDbLine
  10
9.696069
  20
0.406749
  30
0
  11
9.675069
  21
0.420624
  31
0
  0
LINE
  5
448
  100
AcDbEntity
  8
1
  100
AcDbLine
  10
9.675069
  20
0.420624
  30
0
  11
9.654069
  21
0.434442
  31
0
  0
LINE
  5
449
  100
AcDbEntity
  8
1
  100
AcDbLine
  10
9.654069
  20
0.434442
  30
0
  11
9.633069
  21
0.448199
  31
0
  0
LINE
  5
44a
  100
AcDbEntity
  8
1
  100
AcDbLine
  10
9.633069
  20
0.448199
  30
0
  11
9.612069
  21
0.461894
  31
0
  0
LINE
  5
44b
  100
AcDbEntity
  8
1
  100
AcDbLine
  10
9.612069
  20
0.461894
  30
0
  11
9.591069
  21
0.475526
  31
0
  0
LINE
  5
44c
  100
AcDbEntity
  8
1
  100
AcDbLine
  10
9.591069
  20
0.475526
  30
0
  11
9.570069
  21
0.489091
  31
0
  0
LINE
  5
44d
  100
AcDbEntity
  8
1
  100
AcDbLine
  10
9.570069
  20
0.489091
  30
0
  11
9.549069
  21
0.502589
  31
0
  0
LINE
  5
44e
  100
AcDbEntity
  8
1
  100
AcDbLine
  10
9.549069
  20
0.502589
  30
0
  11
9.528069
  21
0.516018
  31
0
  0
LINE
  5
44f
  100
AcDbEntity
  8
1
  100
AcDbLine
  10
9.528069
  20
0.516018
  30
0
  11
9.507069
  21
0.529375
  31
0
  0
LINE
  5
450
  100
AcDbEntity
  8
1
  100
AcDbLine
  10
9.507069
  20
0.529375
  30
0
  11
9.486069
  21
0.542658
  31
0
  0
LINE
  5
451
  100
AcDbEntity
  8
1
  100
AcDbLine
  10
9.486069
  20
0.542658
  30
0
  11
9.465069
  21
0.555867
  31
0
  0
LINE
  5
452
  100
AcDbEntity
  8
1
  100
AcDbLine
  10
9.465069
  20
0.555867
  30
0
  11
9.444069
  21
0.568999
  31
0
  0
LINE
  5
453
  100
AcDbEntity
  8
1
  100
AcDbLine
  10
9.444069
  20
0.568999
  30
0
  11
9.423069
  21
0.582051
  31
0
  0
LINE
  5
454
  100
AcDbEntity
  8
1
  100
AcDbLine
  10
9.423069
  20
0.582051
  30
0
  11
9.402069
  21
0.595024
  31
0
  0
LINE
  5
455
  100
AcDbEntity
  8
1
  100
AcDbLine
  10
9.402069
  20
0.595024
  30
0
  11
9.381069
  21
0.607914
  31
0
  0
LINE
  5
456
  100
AcDbEntity
  8
1
  100
AcDbLine
  10
9.381069
  20
0.607914
  30
0
  11
9.360069
  21
0.62072
  31
0
  0
LINE
  5
457
  100
AcDbEntity
  8
1
  100
AcDbLine
  10
9.360069
  20
0.62072
  30
0
  11
9.339069
  21
0.63344
  31
0
  0
LINE
  5
458
  100
AcDbEntity
  8
1
  100
AcDbLine
  10
9.339069
  20
0.63344
  30
0
  11
9.318069
  21
0.646072
  31
0
  0
LINE
  5
459
  100
AcDbEntity
  8
1
  100
AcDbLine
  10
9.318069
  20
0.646072
  30
0
  11
9.297069
  21
0.658615
  31
0
  0
LINE
  5
45a
  100
AcDbEntity
  8
1
  100
AcDbLine
  10
9.297069
  20
0.658615
  30
0
  11
9.276069
  21
0.671067
  31
0
  0
LINE
  5
45b
  100
AcDbEntity
  8
1
  100
AcDbLine
  10
9.276069
  20
0.671067
  30
0
  11
9.255069
  21
0.683426
  31
0
  0
LINE
  5
45c
  100
AcDbEntity
  8
1
  100
AcDbLine
  10
9.255069
  20
0.683426
  30
0
  11
9.234069
  21
0.695691
  31
0
  0
LINE
  5
45d
  100
AcDbEntity
  8
1
  100
AcDbLine
  10
9.234069
  20
0.695691
  30
0
  11
9.213069
  21
0.707859
  31
0
  0
LINE
  5
45e
  100
AcDbEntity
  8
1
  100
AcDbLine
  10
9.213069
  20
0.707859
  30
0
  11
9.192069
  21
0.719929
  31
0
  0
LINE
  5
45f
  100
AcDbEntity
  8
1
  100
AcDbLine
  10
9.192069
  20
0.719929
  30
0
  11
9.171069
  21
0.731899
  31
0
  0
LINE
  5
460
  100
AcDbEntity
  8
1
  100
AcDbLine
  10
9.171069
  20
0.731899
  30
0
  11
9.150069
  21
0.743769
  31
0
  0
LINE
  5
461
  100
AcDbEntity
  8
1
  100
AcDbLine
  10
9.150069
  20
0.743769
  30
0
  11
9.129069
  21
0.755535
  31
0
  0
LINE
  5
462
  100
AcDbEntity
  8
1
  100
AcDbLine
  10
9.129069
  20
0.755535
  30
0
  11
9.108069
  21
0.767197
  31
0
  0
LINE
  5
463
  100
AcDbEntity
  8
1
  100
AcDbLine
  10
9.108069
  20
0.767197
  30
0
  11
9.087069
  21
0.778753
  31
0
  0
LINE
  5
464
  100
AcDbEntity
  8
1
  100
AcDbLine
  10
9.087069
  20
0.778753
  30
0
  11
9.066069
  21
0.7902
  31
0
  0
LINE
  5
465
  100
AcDbEntity
  8
1
  100
AcDbLine
  10
9.066069
  20
0.7902
  30
0
  11
9.045069
  21
0.801539
  31
0
  0
LINE
  5
466
  100
AcDbEntity
  8
1
  100
AcDbLine
  10
9.045069
  20
0.801539
  30
0
  11
9.024069
  21
0.812767
  31
0
  0
LINE
  5
467
  100
AcDbEntity
  8
1
  100
AcDbLine
  10
9.024069
  20
0.812767
  30
0
  11
9.003069
  21
0.823882
  31
0
  0
LINE
  5
468
  100
AcDbEntity
  8
1
  100
AcDbLine
  10
9.003069
  20
0.823882
  30
0
  11
8.982069
  21
0.834883
  31
0
  0
LINE
  5
469
  100
AcDbEntity
  8
1
  100
AcDbLine
  10
8.982069
  20
0.834883
  30
0
  11
8.961069
  21
0.845769
  31
0
  0
LINE
  5
46a
  100
AcDbEntity
  8
1
  100
AcDbLine
  10
8.961069
  20
0.845769
  30
0
  11
8.940069
  21
0.856537
  31
0
  0
LINE
  5
46b
  100
AcDbEntity
  8
1
  100
AcDbLine
  10
8.940069
  20
0.856537
  30
0
  11
8.919069
  21
0.867187
  31
0
  0
LINE
  5
46c
  100
AcDbEntity
  8
1
  100
AcDbLine
  10
8.919069
  20
0.867187
  30
0
  11
8.898069
  21
0.877717
  31
0
  0
LINE
  5
46d
  100
AcDbEntity
  8
1
  100
AcDbLine
  10
8.898069
  20
0.877717
  30
0
  11
8.877069
  21
0.888126
  31
0
  0
LINE
  5
46e
  100
AcDbEntity
  8
1
  100
AcDbLine
  10
8.877069
  20
0.888126
  30
0
  11
8.856069
  21
0.898412
  31
0
  0
LINE
  5
46f
  100
AcDbEntity
  8
1
  100
AcDbLine
  10
8.856069
  20
0.898412
  30
0
  11
8.835069
  21
0.908573
  31
0
  0
LINE
  5
470
  100
AcDbEntity
  8
1
  100
AcDbLine
  10
8.835069
  20
0.908573
  30
0
  11
8.814069
  21
0.918609
  31
0
  0
LINE
  5
471
  100
AcDbEntity
  8
1
  100
AcDbLine
  10
8.814069
  20
0.918609
  30
0
  11
8.793069
  21
0.928517
  31
0
  0
LINE
  5
472
  100
AcDbEntity
  8
1
  100
AcDbLine
  10
8.793069
  20
0.928517
  30
0
  11
8.772069
  21
0.938297
  31
0
  0
LINE
  5
473
  100
AcDbEntity
  8
1
  100
AcDbLine
  10
8.772069
  20
0.938297
  30
0
  11
8.751069
  21
0.947948
  31
0
  0
LINE
  5
474
  100
AcDbEntity
  8
1
  100
AcDbLine
  10
8.751069
  20
0.947948
  30
0
  11
8.730069
  21
0.957467
  31
0
  0
LINE
  5
475
  100
AcDbEntity
  8
1
  100
AcDbLine
  10
8.730069
  20
0.957467
  30
0
  11
8.709069
  21
0.966853
  31
0
  0
LINE
  5
476
  100
AcDbEntity
  8
1
  100
AcDbLine
  10
8.709069
  20
0.966853
  30
0
  11
8.688069
  21
0.976106
  31
0
  0
LINE
  5
477
  100
AcDbEntity
  8
1
  100
AcDbLine
  10
8.688069
  20
0.976106
  30
0
  11
8.667069
  21
0.985224
  31
0
  0
LINE
  5
478
  100
AcDbEntity
  8
1
  100
AcDbLine
  10
8.667069
  20
0.985224
  30
0
  11
8.646069
  21
0.994205
  31
0
  0
LINE
  5
479
  100
AcDbEntity
  8
1
  100
AcDbLine
  10
8.646069
  20
0.994205
  30
0
  11
8.625069
  21
1.003049
  31
0
  0
LINE
  5
47a
  100
AcDbEntity
  8
1
  100
AcDbLine
  10
8.625069
  20
1.003049
  30
0
  11
8.604069
  21
1.011754
  31
0
  0
LINE
  5
47b
  100
AcDbEntity
  8
1
  100
AcDbLine
  10
8.604069
  20
1.011754
  30
0
  11
8.583069
  21
1.020319
  31
0
  0
LINE
  5
47c
  100
AcDbEntity
  8
1
  100
AcDbLine
  10
8.583069
  20
1.020319
  30
0
  11
8.562069
  21
1.028743
  31
0
  0
LINE
  5
47d
  100
AcDbEntity
  8
1
  100
AcDbLine
  10
8.562069
  20
1.028743
  30
0
  11
8.541069
  21
1.037024
  31
0
  0
LINE
  5
47e
  100
AcDbEntity
  8
1
  100
AcDbLine
  10
8.541069
  20
1.037024
  30
0
  11
8.520069
  21
1.045162
  31
0
  0
LINE
  5
47f
  100
AcDbEntity
  8
1
  100
AcDbLine
  10
8.520069
  20
1.045162
  30
0
  11
8.499069
  21
1.053155
  31
0
  0
LINE
  5
480
  100
AcDbEntity
  8
1
  100
AcDbLine
  10
8.499069
  20
1.053155
  30
0
  11
8.478069
  21
1.061003
  31
0
  0
LINE
  5
481
  100
AcDbEntity
  8
1
  100
AcDbLine
  10
8.478069
  20
1.061003
  30
0
  11
8.457069
  21
1.068704
  31
0
  0
LINE
  5
482
  100
AcDbEntity
  8
1
  100
AcDbLine
  10
8.457069
  20
1.068704
  30
0
  11
8.436069
  21
1.076257
  31
0
  0
LINE
  5
483
  100
AcDbEntity
  8
1
  100
AcDbLine
  10
8.436069
  20
1.076257
  30
0
  11
8.415069
  21
1.08366
  31
0
  0
LINE
  5
484
  100
AcDbEntity
  8
1
  100
AcDbLine
  10
8.415069
  20
1.08366
  30
0
  11
8.394069
  21
1.090914
  31
0
  0
LINE
  5
485
  100
AcDbEntity
  8
1
  100
AcDbLine
  10
8.394069
  20
1.090914
  30
0
  11
8.373069
  21
1.098017
  31
0
  0
LINE
  5
486
  100
AcDbEntity
  8
1
  100
AcDbLine
  10
8.373069
  20
1.098017
  30
0
  11
8.352069
  21
1.104969
  31
0
  0
LINE
  5
487
  100
AcDbEntity
  8
1
  100
AcDbLine
  10
8.352069
  20
1.104969
  30
0
  11
8.331069
  21
1.111767
  31
0
  0
LINE
  5
488
  100
AcDbEntity
  8
1
  100
AcDbLine
  10
8.331069
  20
1.111767
  30
0
  11
8.310069
  21
1.118411
  31
0
  0
LINE
  5
489
  100
AcDbEntity
  8
1
  100
AcDbLine
  10
8.310069
  20
1.118411
  30
0
  11
8.289069
  21
1.124901
  31
0
  0
LINE
  5
48a
  100
AcDbEntity
  8
1
  100
AcDbLine
  10
8.289069
  20
1.124901
  30
0
  11
8.268069
  21
1.131235
  31
0
  0
LINE
  5
48b
  100
AcDbEntity
  8
1
  100
AcDbLine
  10
8.268069
  20
1.131235
  30
0
  11
8.247069
  21
1.137412
  31
0
  0
LINE
  5
48c
  100
AcDbEntity
  8
1
  100
AcDbLine
  10
8.247069
  20
1.137412
  30
0
  11
8.226069
  21
1.143432
  31
0
  0
LINE
  5
48d
  100
AcDbEntity
  8
1
  100
AcDbLine
  10
8.226069
  20
1.143432
  30
0
  11
8.205069
  21
1.149294
  31
0
  0
LINE
  5
48e
  100
AcDbEntity
  8
1
  100
AcDbLine
  10
8.205069
  20
1.149294
  30
0
  11
8.184069
  21
1.154996
  31
0
  0
LINE
  5
48f
  100
AcDbEntity
  8
1
  100
AcDbLine
  10
8.184069
  20
1.154996
  30
0
  11
8.163069
  21
1.160539
  31
0
  0
LINE
  5
490
  100
AcDbEntity
  8
1
  100
AcDbLine
  10
8.163069
  20
1.160539
  30
0
  11
8.142069
  21
1.165922
  31
0
  0
LINE
  5
491
  100
AcDbEntity
  8
1
  100
AcDbLine
  10
8.142069
  20
1.165922
  30
0
  11
8.121069
  21
1.171143
  31
0
  0
LINE
  5
492
  100
AcDbEntity
  8
1
  100
AcDbLine
  10
8.121069
  20
1.171143
  30
0
  11
8.100069
  21
1.176201
  31
0
  0
LINE
  5
493
  100
AcDbEntity
  8
1
  100
AcDbLine
  10
8.100069
  20
1.176201
  30
0
  11
8.079069
  21
1.181098
  31
0
  0
LINE
  5
494
  100
AcDbEntity
  8
1
  100
AcDbLine
  10
8.079069
  20
1.181098
  30
0
  11
8.058069
  21
1.18583
  31
0
  0
LINE
  5
495
  100
AcDbEntity
  8
1
  100
AcDbLine
  10
8.058069
  20
1.18583
  30
0
  11
8.037069
  21
1.190399
  31
0
  0
LINE
  5
496
  100
AcDbEntity
  8
1
  100
AcDbLine
  10
8.037069
  20
1.190399
  30
0
  11
8.016069
  21
1.194803
  31
0
  0
LINE
  5
497
  100
AcDbEntity
  8
1
  100
AcDbLine
  10
8.016069
  20
1.194803
  30
0
  11
7.995069
  21
1.199041
  31
0
  0
LINE
  5
498
  100
AcDbEntity
  8
1
  100
AcDbLine
  10
7.995069
  20
1.199041
  30
0
  11
7.974069
  21
1.203114
  31
0
  0
LINE
  5
499
  100
AcDbEntity
  8
1
  100
AcDbLine
  10
7.974069
  20
1.203114
  30
0
  11
7.953069
  21
1.20702
  31
0
  0
LINE
  5
49a
  100
AcDbEntity
  8
1
  100
AcDbLine
  10
7.953069
  20
1.20702
  30
0
  11
7.932069
  21
1.210759
  31
0
  0
LINE
  5
49b
  100
AcDbEntity
  8
1
  100
AcDbLine
  10
7.932069
  20
1.210759
  30
0
  11
7.911069
  21
1.214331
  31
0
  0
LINE
  5
49c
  100
AcDbEntity
  8
1
  100
AcDbLine
  10
7.911069
  20
1.214331
  30
0
  11
7.890069
  21
1.217734
  31
0
  0
LINE
  5
49d
  100
AcDbEntity
  8
1
  100
AcDbLine
  10
7.890069
  20
1.217734
  30
0
  11
7.869069
  21
1.220969
  31
0
  0
LINE
  5
49e
  100
AcDbEntity
  8
1
  100
AcDbLine
  10
7.869069
  20
1.220969
  30
0
  11
7.848069
  21
1.224036
  31
0
  0
LINE
  5
49f
  100
AcDbEntity
  8
1
  100
AcDbLine
  10
7.848069
  20
1.224036
  30
0
  11
7.827069
  21
1.226932
  31
0
  0
LINE
  5
4a0
  100
AcDbEntity
  8
1
  100
AcDbLine
  10
7.827069
  20
1.226932
  30
0
  11
7.806069
  21
1.229659
  31
0
  0
LINE
  5
4a1
  100
AcDbEntity
  8
1
  100
AcDbLine
  10
7.806069
  20
1.229659
  30
0
  11
7.785069
  21
1.232216
  31
0
  0
LINE
  5
4a2
  100
AcDbEntity
  8
1
  100
AcDbLine
  10
7.785069
  20
1.232216
  30
0
  11
7.764069
  21
1.234602
  31
0
  0
LINE
  5
4a3
  100
AcDbEntity
  8
1
  100
AcDbLine
  10
7.764069
  20
1.234602
  30
0
  11
7.743069
  21
1.236818
  31
0
  0
LINE
  5
4a4
  100
AcDbEntity
  8
1
  100
AcDbLine
  10
7.743069
  20
1.236818
  30
0
  11
7.722069
  21
1.238862
  31
0
  0
LINE
  5
4a5
  100
AcDbEntity
  8
1
  100
AcDbLine
  10
7.722069
  20
1.238862
  30
0
  11
7.701069
  21
1.240735
  31
0
  0
LINE
  5
4a6
  100
AcDbEntity
  8
1
  100
AcDbLine
  10
7.701069
  20
1.240735
  30
0
  11
7.680069
  21
1.242436
  31
0
  0
LINE
  5
4a7
  100
AcDbEntity
  8
1
  100
AcDbLine
  10
7.680069
  20
1.242436
  30
0
  11
7.659069
  21
1.243965
  31
0
  0
LINE
  5
4a8
  100
AcDbEntity
  8
1
  100
AcDbLine
  10
7.659069
  20
1.243965
  30
0
  11
7.638069
  21
1.245322
  31
0
  0
LINE
  5
4a9
  100
AcDbEntity
  8
1
  100
AcDbLine
  10
7.638069
  20
1.245322
  30
0
  11
7.617069
  21
1.246507
  31
0
  0
LINE
  5
4aa
  100
AcDbEntity
  8
1
  100
AcDbLine
  10
7.617069
  20
1.246507
  30
0
  11
7.596069
  21
1.247519
  31
0
  0
LINE
  5
4ab
  100
AcDbEntity
  8
1
  100
AcDbLine
  10
7.596069
  20
1.247519
  30
0
  11
7.575069
  21
1.248359
  31
0
  0
LINE
  5
4ac
  100
AcDbEntity
  8
1
  100
AcDbLine
  10
7.575069
  20
1.248359
  30
0
  11
7.554069
  21
1.249026
  31
0
  0
LINE
  5
4ad
  100
AcDbEntity
  8
1
  100
AcDbLine
  10
7.554069
  20
1.249026
  30
0
  11
7.533069
  21
1.24952
  31
0
  0
LINE
  5
4ae
  100
AcDbEntity
  8
1
  100
AcDbLine
  10
7.533069
  20
1.24952
  30
0
  11
7.512069
  21
1.249841
  31
0
  0
LINE
  5
4af
  100
AcDbEntity
  8
1
  100
AcDbLine
  10
7.512069
  20
1.249841
  30
0
  11
7.491069
  21
1.249989
  31
0
  0
LINE
  5
4b0
  100
AcDbEntity
  8
1
  100
AcDbLine
  10
7.491069
  20
1.249989
  30
0
  11
7.483578
  21
1.25
  31
0
  0
LINE
  5
4b1
  100
AcDbEntity
  8
1
  100
AcDbLine
  10
6.239627
  20
1.328092
  30
0
  11
6.231069
  21
1.32218
  31
0
  0
LINE
  5
4b2
  100
AcDbEntity
  8
1
  100
AcDbLine
  10
6.231069
  20
1.32218
  30
0
  11
6.231069
  21
1.3129
  31
0
  0
LINE
  5
4b3
  100
AcDbEntity
  8
1
  100
AcDbLine
  10
6.231069
  20
1.3129
  30
0
  11
6.252069
  21
1.2022
  31
0
  0
LINE
  5
4b4
  100
AcDbEntity
  8
1
  100
AcDbLine
  10
6.252069
  20
1.2022
  30
0
  11
6.273069
  21
1.071499
  31
0
  0
LINE
  5
4b5
  100
AcDbEntity
  8
1
  100
AcDbLine
  10
6.273069
  20
1.071499
  30
0
  11
6.294069
  21
0.959344
  31
0
  0
LINE
  5
4b6
  100
AcDbEntity
  8
1
  100
AcDbLine
  10
6.294069
  20
0.959344
  30
0
  11
6.315069
  21
0.874607
  31
0
  0
LINE
  5
4b7
  100
AcDbEntity
  8
1
  100
AcDbLine
  10
6.315069
  20
0.874607
  30
0
  11
6.336069
  21
0.814488
  31
0
  0
LINE
  5
4b8
  100
AcDbEntity
  8
1
  100
AcDbLine
  10
6.336069
  20
0.814488
  30
0
  11
6.357069
  21
0.772905
  31
0
  0
LINE
  5
4b9
  100
AcDbEntity
  8
1
  100
AcDbLine
  10
6.357069
  20
0.772905
  30
0
  11
6.378069
  21
0.743881
  31
0
  0
LINE
  5
4ba
  100
AcDbEntity
  8
1
  100
AcDbLine
  10
6.378069
  20
0.743881
  30
0
  11
6.399069
  21
0.722667
  31
0
  0
LINE
  5
4bb
  100
AcDbEntity
  8
1
  100
AcDbLine
  10
6.399069
  20
0.722667
  30
0
  11
6.420069
  21
0.705905
  31
0
  0
LINE
  5
4bc
  100
AcDbEntity
  8
1
  100
AcDbLine
  10
6.420069
  20
0.705905
  30
0
  11
6.441069
  21
0.69144
  31
0
  0
LINE
  5
4bd
  100
AcDbEntity
  8
1
  100
AcDbLine
  10
6.441069
  20
0.69144
  30
0
  11
6.462069
  21
0.678024
  31
0
  0
LINE
  5
4be
  100
AcDbEntity
  8
1
  100
AcDbLine
  10
6.462069
  20
0.678024
  30
0
  11
6.483069
  21
0.665021
  31
0
  0
LINE
  5
4bf
  100
AcDbEntity
  8
1
  100
AcDbLine
  10
6.483069
  20
0.665021
  30
0
  11
6.504069
  21
0.65217
  31
0
  0
LINE
  5
4c0
  100
AcDbEntity
  8
1
  100
AcDbLine
  10
6.504069
  20
0.65217
  30
0
  11
6.525069
  21
0.639394
  31
0
  0
LINE
  5
4c1
  100
AcDbEntity
  8
1
  100
AcDbLine
  10
6.525069
  20
0.639394
  30
0
  11
6.546069
  21
0.62669
  31
0
  0
LINE
  5
4c2
  100
AcDbEntity
  8
1
  100
AcDbLine
  10
6.546069
  20
0.62669
  30
0
  11
6.567069
  21
0.613924
  31
0
  0
LINE
  5
4c3
  100
AcDbEntity
  8
1
  100
AcDbLine
  10
6.567069
  20
0.613924
  30
0
  11
6.588069
  21
0.601073
  31
0
  0
LINE
  5
4c4
  100
AcDbEntity
  8
1
  100
AcDbLine
  10
6.588069
  20
0.601073
  30
0
  11
6.609069
  21
0.588139
  31
0
  0
LINE
  5
4c5
  100
AcDbEntity
  8
1
  100
AcDbLine
  10
6.609069
  20
0.588139
  30
0
  11
6.630069
  21
0.575123
  31
0
  0
LINE
  5
4c6
  100
AcDbEntity
  8
1
  100
AcDbLine
  10
6.630069
  20
0.575123
  30
0
  11
6.651069
  21
0.562028
  31
0
  0
LINE
  5
4c7
  100
AcDbEntity
  8
1
  100
AcDbLine
  10
6.651069
  20
0.562028
  30
0
  11
6.672069
  21
0.548856
  31
0
  0
LINE
  5
4c8
  100
AcDbEntity
  8
1
  100
AcDbLine
  10
6.672069
  20
0.548856
  30
0
  11
6.693069
  21
0.535607
  31
0
  0
LINE
  5
4c9
  100
AcDbEntity
  8
1
  100
AcDbLine
  10
6.693069
  20
0.535607
  30
0
  11
6.714069
  21
0.522284
  31
0
  0
LINE
  5
4ca
  100
AcDbEntity
  8
1
  100
AcDbLine
  10
6.714069
  20
0.522284
  30
0
  11
6.735069
  21
0.508889
  31
0
  0
LINE
  5
4cb
  100
AcDbEntity
  8
1
  100
AcDbLine
  10
6.735069
  20
0.508889
  30
0
  11
6.756069
  21
0.495423
  31
0
  0
LINE
  5
4cc
  100
AcDbEntity
  8
1
  100
AcDbLine
  10
6.756069
  20
0.495423
  30
0
  11
6.777069
  21
0.481889
  31
0
  0
LINE
  5
4cd
  100
AcDbEntity
  8
1
  100
AcDbLine
  10
6.777069
  20
0.481889
  30
0
  11
6.798069
  21
0.468288
  31
0
  0
LINE
  5
4ce
  100
AcDbEntity
  8
1
  100
AcDbLine
  10
6.798069
  20
0.468288
  30
0
  11
6.819069
  21
0.454623
  31
0
  0
LINE
  5
4cf
  100
AcDbEntity
  8
1
  100
AcDbLine
  10
6.819069
  20
0.454623
  30
0
  11
6.840069
  21
0.440894
  31
0
  0
LINE
  5
4d0
  100
AcDbEntity
  8
1
  100
AcDbLine
  10
6.840069
  20
0.440894
  30
0
  11
6.861069
  21
0.427105
  31
0
  0
LINE
  5
4d1
  100
AcDbEntity
  8
1
  100
AcDbLine
  10
6.861069
  20
0.427105
  30
0
  11
6.882069
  21
0.413256
  31
0
  0
LINE
  5
4d2
  100
AcDbEntity
  8
1
  100
AcDbLine
  10
6.882069
  20
0.413256
  30
0
  11
6.903069
  21
0.39935
  31
0
  0
LINE
  5
4d3
  100
AcDbEntity
  8
1
  100
AcDbLine
  10
6.903069
  20
0.39935
  30
0
  11
6.924069
  21
0.385389
  31
0
  0
LINE
  5
4d4
  100
AcDbEntity
  8
1
  100
AcDbLine
  10
6.924069
  20
0.385389
  30
0
  11
6.945069
  21
0.371375
  31
0
  0
LINE
  5
4d5
  100
AcDbEntity
  8
1
  100
AcDbLine
  10
6.945069
  20
0.371375
  30
0
  11
6.966069
  21
0.357309
  31
0
  0
LINE
  5
4d6
  100
AcDbEntity
  8
1
  100
AcDbLine
  10
6.966069
  20
0.357309
  30
0
  11
6.987069
  21
0.343194
  31
0
  0
LINE
  5
4d7
  100
AcDbEntity
  8
1
  100
AcDbLine
  10
6.987069
  20
0.343194
  30
0
  11
7.008069
  21
0.329031
  31
0
  0
LINE
  5
4d8
  100
AcDbEntity
  8
1
  100
AcDbLine
  10
7.008069
  20
0.329031
  30
0
  11
7.029069
  21
0.314823
  31
0
  0
LINE
  5
4d9
  100
AcDbEntity
  8
1
  100
AcDbLine
  10
7.029069
  20
0.314823
  30
0
  11
7.050069
  21
0.300571
  31
0
  0
LINE
  5
4da
  100
AcDbEntity
  8
1
  100
AcDbLine
  10
7.050069
  20
0.300571
  30
0
  11
7.071069
  21
0.286278
  31
0
  0
LINE
  5
4db
  100
AcDbEntity
  8
1
  100
AcDbLine
  10
7.071069
  20
0.286278
  30
0
  11
7.092069
  21
0.271945
  31
0
  0
LINE
  5
4dc
  100
AcDbEntity
  8
1
  100
AcDbLine
  10
7.092069
  20
0.271945
  30
0
  11
7.113069
  21
0.257574
  31
0
  0
LINE
  5
4dd
  100
AcDbEntity
  8
1
  100
AcDbLine
  10
7.113069
  20
0.257574
  30
0
  11
7.134069
  21
0.243168
  31
0
  0
LINE
  5
4de
  100
AcDbEntity
  8
1
  100
AcDbLine
  10
7.134069
  20
0.243168
  30
0
  11
7.155069
  21
0.228728
  31
0
  0
LINE
  5
4df
  100
AcDbEntity
  8
1
  100
AcDbLine
  10
7.155069
  20
0.228728
  30
0
  11
7.176069
  21
0.214256
  31
0
  0
LINE
  5
4e0
  100
AcDbEntity
  8
1
  100
AcDbLine
  10
7.176069
  20
0.214256
  30
0
  11
7.197069
  21
0.199755
  31
0
  0
LINE
  5
4e1
  100
AcDbEntity
  8
1
  100
AcDbLine
  10
7.197069
  20
0.199755
  30
0
  11
7.218069
  21
0.185226
  31
0
  0
LINE
  5
4e2
  100
AcDbEntity
  8
1
  100
AcDbLine
  10
7.218069
  20
0.185226
  30
0
  11
7.239069
  21
0.170672
  31
0
  0
LINE
  5
4e3
  100
AcDbEntity
  8
1
  100
AcDbLine
  10
7.239069
  20
0.170672
  30
0
  11
7.260069
  21
0.156094
  31
0
  0
LINE
  5
4e4
  100
AcDbEntity
  8
1
  100
AcDbLine
  10
7.260069
  20
0.156094
  30
0
  11
7.281069
  21
0.141494
  31
0
  0
LINE
  5
4e5
  100
AcDbEntity
  8
1
  100
AcDbLine
  10
7.281069
  20
0.141494
  30
0
  11
7.302069
  21
0.126875
  31
0
  0
LINE
  5
4e6
  100
AcDbEntity
  8
1
  100
AcDbLine
  10
7.302069
  20
0.126875
  30
0
  11
7.323069
  21
0.112238
  31
0
  0
LINE
  5
4e7
  100
AcDbEntity
  8
1
  100
AcDbLine
  10
7.323069
  20
0.112238
  30
0
  11
7.344069
  21
0.097585
  31
0
  0
LINE
  5
4e8
  100
AcDbEntity
  8
1
  100
AcDbLine
  10
7.344069
  20
0.097585
  30
0
  11
7.365069
  21
0.082919
  31
0
  0
LINE
  5
4e9
  100
AcDbEntity
  8
1
  100
AcDbLine
  10
7.365069
  20
0.082919
  30
0
  11
7.386069
  21
0.068242
  31
0
  0
LINE
  5
4ea
  100
AcDbEntity
  8
1
  100
AcDbLine
  10
7.386069
  20
0.068242
  30
0
  11
7.407069
  21
0.053555
  31
0
  0
LINE
  5
4eb
  100
AcDbEntity
  8
1
  100
AcDbLine
  10
7.407069
  20
0.053555
  30
0
  11
7.428069
  21
0.038861
  31
0
  0
LINE
  5
4ec
  100
AcDbEntity
  8
1
  100
AcDbLine
  10
7.428069
  20
0.038861
  30
0
  11
7.449069
  21
0.024161
  31
0
  0
LINE
  5
4ed
  100
AcDbEntity
  8
1
  100
AcDbLine
  10
7.449069
  20
0.024161
  30
0
  11
7.470069
  21
0.009459
  31
0
  0
LINE
  5
4ee
  100
AcDbEntity
  8
1
  100
AcDbLine
  10
7.470069
  20
0.009459
  30
0
  11
7.491069
  21
-0.005246
  31
0
  0
LINE
  5
4ef
  100
AcDbEntity
  8
1
  100
AcDbLine
  10
7.491069
  20
-0.005246
  30
0
  11
7.512069
  21
-0.019949
  31
0
  0
LINE
  5
4f0
  100
AcDbEntity
  8
1
  100
AcDbLine
  10
7.512069
  20
-0.019949
  30
0
  11
7.533069
  21
-0.03465
  31
0
  0
LINE
  5
4f1
  100
AcDbEntity
  8
1
  100
AcDbLine
  10
7.533069
  20
-0.03465
  30
0
  11
7.554069
  21
-0.049346
  31
0
  0
LINE
  5
4f2
  100
AcDbEntity
  8
1
  100
AcDbLine
  10
7.554069
  20
-0.049346
  30
0
  11
7.575069
  21
-0.064035
  31
0
  0
LINE
  5
4f3
  100
AcDbEntity
  8
1
  100
AcDbLine
  10
7.575069
  20
-0.064035
  30
0
  11
7.596069
  21
-0.078715
  31
0
  0
LINE
  5
4f4
  100
AcDbEntity
  8
1
  100
AcDbLine
  10
7.596069
  20
-0.078715
  30
0
  11
7.617069
  21
-0.093385
  31
0
  0
LINE
  5
4f5
  100
AcDbEntity
  8
1
  100
AcDbLine
  10
7.617069
  20
-0.093385
  30
0
  11
7.638069
  21
-0.108041
  31
0
  0
LINE
  5
4f6
  100
AcDbEntity
  8
1
  100
AcDbLine
  10
7.638069
  20
-0.108041
  30
0
  11
7.659069
  21
-0.122683
  31
0
  0
LINE
  5
4f7
  100
AcDbEntity
  8
1
  100
AcDbLine
  10
7.659069
  20
-0.122683
  30
0
  11
7.680069
  21
-0.137307
  31
0
  0
LINE
  5
4f8
  100
AcDbEntity
  8
1
  100
AcDbLine
  10
7.680069
  20
-0.137307
  30
0
  11
7.701069
  21
-0.151913
  31
0
  0
LINE
  5
4f9
  100
AcDbEntity
  8
1
  100
AcDbLine
  10
7.701069
  20
-0.151913
  30
0
  11
7.722069
  21
-0.166497
  31
0
  0
LINE
  5
4fa
  100
AcDbEntity
  8
1
  100
AcDbLine
  10
7.722069
  20
-0.166497
  30
0
  11
7.743069
  21
-0.181059
  31
0
  0
LINE
  5
4fb
  100
AcDbEntity
  8
1
  100
AcDbLine
  10
7.743069
  20
-0.181059
  30
0
  11
7.764069
  21
-0.195595
  31
0
  0
LINE
  5
4fc
  100
AcDbEntity
  8
1
  100
AcDbLine
  10
7.764069
  20
-0.195595
  30
0
  11
7.785069
  21
-0.210105
  31
0
  0
LINE
  5
4fd
  100
AcDbEntity
  8
1
  100
AcDbLine
  10
7.785069
  20
-0.210105
  30
0
  11
7.806069
  21
-0.224585
  31
0
  0
LINE
  5
4fe
  100
AcDbEntity
  8
1
  100
AcDbLine
  10
7.806069
  20
-0.224585
  30
0
  11
7.827069
  21
-0.239034
  31
0
  0
LINE
  5
4ff
  100
AcDbEntity
  8
1
  100
AcDbLine
  10
7.827069
  20
-0.239034
  30
0
  11
7.848069
  21
-0.25345
  31
0
  0
LINE
  5
500
  100
AcDbEntity
  8
1
  100
AcDbLine
  10
7.848069
  20
-0.25345
  30
0
  11
7.869069
  21
-0.267831
  31
0
  0
LINE
  5
501
  100
AcDbEntity
  8
1
  100
AcDbLine
  10
7.869069
  20
-0.267831
  30
0
  11
7.890069
  21
-0.282175
  31
0
  0
LINE
  5
502
  100
AcDbEntity
  8
1
  100
AcDbLine
  10
7.890069
  20
-0.282175
  30
0
  11
7.911069
  21
-0.29648
  31
0
  0
LINE
  5
503
  100
AcDbEntity
  8
1
  100
AcDbLine
  10
7.911069
  20
-0.29648
  30
0
  11
7.932069
  21
-0.310744
  31
0
  0
LINE
  5
504
  100
AcDbEntity
  8
1
  100
AcDbLine
  10
7.932069
  20
-0.310744
  30
0
  11
7.953069
  21
-0.324965
  31
0
  0
LINE
  5
505
  100
AcDbEntity
  8
1
  100
AcDbLine
  10
7.953069
  20
-0.324965
  30
0
  11
7.974069
  21
-0.339141
  31
0
  0
LINE
  5
506
  100
AcDbEntity
  8
1
  100
AcDbLine
  10
7.974069
  20
-0.339141
  30
0
  11
7.995069
  21
-0.35327
  31
0
  0
LINE
  5
507
  100
AcDbEntity
  8
1
  100
AcDbLine
  10
7.995069
  20
-0.35327
  30
0
  11
8.016069
  21
-0.36735
  31
0
  0
LINE
  5
508
  100
AcDbEntity
  8
1
  100
AcDbLine
  10
8.016069
  20
-0.36735
  30
0
  11
8.037069
  21
-0.38138
  31
0
  0
LINE
  5
509
  100
AcDbEntity
  8
1
  100
AcDbLine
  10
8.037069
  20
-0.38138
  30
0
  11
8.058069
  21
-0.395356
  31
0
  0
LINE
  5
50a
  100
AcDbEntity
  8
1
  100
AcDbLine
  10
8.058069
  20
-0.395356
  30
0
  11
8.079069
  21
-0.409278
  31
0
  0
LINE
  5
50b
  100
AcDbEntity
  8
1
  100
AcDbLine
  10
8.079069
  20
-0.409278
  30
0
  11
8.100069
  21
-0.423143
  31
0
  0
LINE
  5
50c
  100
AcDbEntity
  8
1
  100
AcDbLine
  10
8.100069
  20
-0.423143
  30
0
  11
8.121069
  21
-0.43695
  31
0
  0
LINE
  5
50d
  100
AcDbEntity
  8
1
  100
AcDbLine
  10
8.121069
  20
-0.43695
  30
0
  11
8.142069
  21
-0.450696
  31
0
  0
LINE
  5
50e
  100
AcDbEntity
  8
1
  100
AcDbLine
  10
8.142069
  20
-0.450696
  30
0
  11
8.163069
  21
-0.46438
  31
0
  0
LINE
  5
50f
  100
AcDbEntity
  8
1
  100
AcDbLine
  10
8.163069
  20
-0.46438
  30
0
  11
8.184069
  21
-0.477999
  31
0
  0
LINE
  5
510
  100
AcDbEntity
  8
1
  100
AcDbLine
  10
8.184069
  20
-0.477999
  30
0
  11
8.205069
  21
-0.491553
  31
0
  0
LINE
  5
511
  100
AcDbEntity
  8
1
  100
AcDbLine
  10
8.205069
  20
-0.491553
  30
0
  11
8.226069
  21
-0.505038
  31
0
  0
LINE
  5
512
  100
AcDbEntity
  8
1
  100
AcDbLine
  10
8.226069
  20
-0.505038
  30
0
  11
8.247069
  21
-0.518454
  31
0
  0
LINE
  5
513
  100
AcDbEntity
  8
1
  100
AcDbLine
  10
8.247069
  20
-0.518454
  30
0
  11
8.268069
  21
-0.531797
  31
0
  0
LINE
  5
514
  100
AcDbEntity
  8
1
  100
AcDbLine
  10
8.268069
  20
-0.531797
  30
0
  11
8.289069
  21
-0.545067
  31
0
  0
LINE
  5
515
  100
AcDbEntity
  8
1
  100
AcDbLine
  10
8.289069
  20
-0.545067
  30
0
  11
8.310069
  21
-0.558262
  31
0
  0
LINE
  5
516
  100
AcDbEntity
  8
1
  100
AcDbLine
  10
8.310069
  20
-0.558262
  30
0
  11
8.331069
  21
-0.57138
  31
0
  0
LINE
  5
517
  100
AcDbEntity
  8
1
  100
AcDbLine
  10
8.331069
  20
-0.57138
  30
0
  11
8.352069
  21
-0.584418
  31
0
  0
LINE
  5
518
  100
AcDbEntity
  8
1
  100
AcDbLine
  10
8.352069
  20
-0.584418
  30
0
  11
8.373069
  21
-0.597376
  31
0
  0
LINE
  5
519
  100
AcDbEntity
  8
1
  100
AcDbLine
  10
8.373069
  20
-0.597376
  30
0
  11
8.394069
  21
-0.61025
  31
0
  0
LINE
  5
51a
  100
AcDbEntity
  8
1
  100
AcDbLine
  10
8.394069
  20
-0.61025
  30
0
  11
8.415069
  21
-0.623041
  31
0
  0
LINE
  5
51b
  100
AcDbEntity
  8
1
  100
AcDbLine
  10
8.415069
  20
-0.623041
  30
0
  11
8.436069
  21
-0.635745
  31
0
  0
LINE
  5
51c
  100
AcDbEntity
  8
1
  100
AcDbLine
  10
8.436069
  20
-0.635745
  30
0
  11
8.457069
  21
-0.648361
  31
0
  0
LINE
  5
51d
  100
AcDbEntity
  8
1
  100
AcDbLine
  10
8.457069
  20
-0.648361
  30
0
  11
8.478069
  21
-0.660888
  31
0
  0
LINE
  5
51e
  100
AcDbEntity
  8
1
  100
AcDbLine
  10
8.478069
  20
-0.660888
  30
0
  11
8.499069
  21
-0.673323
  31
0
  0
LINE
  5
51f
  100
AcDbEntity
  8
1
  100
AcDbLine
  10
8.499069
  20
-0.673323
  30
0
  11
8.520069
  21
-0.685665
  31
0
  0
LINE
  5
520
  100
AcDbEntity
  8
1
  100
AcDbLine
  10
8.520069
  20
-0.685665
  30
0
  11
8.541069
  21
-0.697912
  31
0
  0
LINE
  5
521
  100
AcDbEntity
  8
1
  100
AcDbLine
  10
8.541069
  20
-0.697912
  30
0
  11
8.562069
  21
-0.710062
  31
0
  0
LINE
  5
522
  100
AcDbEntity
  8
1
  100
AcDbLine
  10
8.562069
  20
-0.710062
  30
0
  11
8.583069
  21
-0.722115
  31
0
  0
LINE
  5
523
  100
AcDbEntity
  8
1
  100
AcDbLine
  10
8.583069
  20
-0.722115
  30
0
  11
8.604069
  21
-0.734067
  31
0
  0
LINE
  5
524
  100
AcDbEntity
  8
1
  100
AcDbLine
  10
8.604069
  20
-0.734067
  30
0
  11
8.625069
  21
-0.745918
  31
0
  0
LINE
  5
525
  100
AcDbEntity
  8
1
  100
AcDbLine
  10
8.625069
  20
-0.745918
  30
0
  11
8.646069
  21
-0.757665
  31
0
  0
LINE
  5
526
  100
AcDbEntity
  8
1
  100
AcDbLine
  10
8.646069
  20
-0.757665
  30
0
  11
8.667069
  21
-0.769308
  31
0
  0
LINE
  5
527
  100
AcDbEntity
  8
1
  100
AcDbLine
  10
8.667069
  20
-0.769308
  30
0
  11
8.688069
  21
-0.780844
  31
0
  0
LINE
  5
528
  100
AcDbEntity
  8
1
  100
AcDbLine
  10
8.688069
  20
-0.780844
  30
0
  11
8.709069
  21
-0.792272
  31
0
  0
LINE
  5
529
  100
AcDbEntity
  8
1
  100
AcDbLine
  10
8.709069
  20
-0.792272
  30
0
  11
8.730069
  21
-0.80359
  31
0
  0
LINE
  5
52a
  100
AcDbEntity
  8
1
  100
AcDbLine
  10
8.730069
  20
-0.80359
  30
0
  11
8.751069
  21
-0.814798
  31
0
  0
LINE
  5
52b
  100
AcDbEntity
  8
1
  100
AcDbLine
  10
8.751069
  20
-0.814798
  30
0
  11
8.772069
  21
-0.825892
  31
0
  0
LINE
  5
52c
  100
AcDbEntity
  8
1
  100
AcDbLine
  10
8.772069
  20
-0.825892
  30
0
  11
8.793069
  21
-0.836872
  31
0
  0
LINE
  5
52d
  100
AcDbEntity
  8
1
  100
AcDbLine
  10
8.793069
  20
-0.836872
  30
0
  11
8.814069
  21
-0.847737
  31
0
  0
LINE
  5
52e
  100
AcDbEntity
  8
1
  100
AcDbLine
  10
8.814069
  20
-0.847737
  30
0
  11
8.835069
  21
-0.858484
  31
0
  0
LINE
  5
52f
  100
AcDbEntity
  8
1
  100
AcDbLine
  10
8.835069
  20
-0.858484
  30
0
  11
8.856069
  21
-0.869112
  31
0
  0
LINE
  5
530
  100
AcDbEntity
  8
1
  100
AcDbLine
  10
8.856069
  20
-0.869112
  30
0
  11
8.877069
  21
-0.879621
  31
0
  0
LINE
  5
531
  100
AcDbEntity
  8
1
  100
AcDbLine
  10
8.877069
  20
-0.879621
  30
0
  11
8.898069
  21
-0.890007
  31
0
  0
LINE
  5
532
  100
AcDbEntity
  8
1
  100
AcDbLine
  10
8.898069
  20
-0.890007
  30
0
  11
8.919069
  21
-0.90027
  31
0
  0
LINE
  5
533
  100
AcDbEntity
  8
1
  100
AcDbLine
  10
8.919069
  20
-0.90027
  30
0
  11
8.940069
  21
-0.910409
  31
0
  0
LINE
  5
534
  100
AcDbEntity
  8
1
  100
AcDbLine
  10
8.940069
  20
-0.910409
  30
0
  11
8.961069
  21
-0.920421
  31
0
  0
LINE
  5
535
  100
AcDbEntity
  8
1
  100
AcDbLine
  10
8.961069
  20
-0.920421
  30
0
  11
8.982069
  21
-0.930307
  31
0
  0
LINE
  5
536
  100
AcDbEntity
  8
1
  100
AcDbLine
  10
8.982069
  20
-0.930307
  30
0
  11
9.003069
  21
-0.940063
  31
0
  0
LINE
  5
537
  100
AcDbEntity
  8
1
  100
AcDbLine
  10
9.003069
  20
-0.940063
  30
0
  11
9.024069
  21
-0.94969
  31
0
  0
LINE
  5
538
  100
AcDbEntity
  8
1
  100
AcDbLine
  10
9.024069
  20
-0.94969
  30
0
  11
9.045069
  21
-0.959185
  31
0
  0
LINE
  5
539
  100
AcDbEntity
  8
1
  100
AcDbLine
  10
9.045069
  20
-0.959185
  30
0
  11
9.066069
  21
-0.968547
  31
0
  0
LINE
  5
53a
  100
AcDbEntity
  8
1
  100
AcDbLine
  10
9.066069
  20
-0.968547
  30
0
  11
9.087069
  21
-0.977775
  31
0
  0
LINE
  5
53b
  100
AcDbEntity
  8
1
  100
AcDbLine
  10
9.087069
  20
-0.977775
  30
0
  11
9.108069
  21
-0.986868
  31
0
  0
LINE
  5
53c
  100
AcDbEntity
  8
1
  100
AcDbLine
  10
9.108069
  20
-0.986868
  30
0
  11
9.129069
  21
-0.995825
  31
0
  0
LINE
  5
53d
  100
AcDbEntity
  8
1
  100
AcDbLine
  10
9.129069
  20
-0.995825
  30
0
  11
9.150069
  21
-1.004643
  31
0
  0
LINE
  5
53e
  100
AcDbEntity
  8
1
  100
AcDbLine
  10
9.150069
  20
-1.004643
  30
0
  11
9.171069
  21
-1.013323
  31
0
  0
LINE
  5
53f
  100
AcDbEntity
  8
1
  100
AcDbLine
  10
9.171069
  20
-1.013323
  30
0
  11
9.192069
  21
-1.021862
  31
0
  0
LINE
  5
540
  100
AcDbEntity
  8
1
  100
AcDbLine
  10
9.192069
  20
-1.021862
  30
0
  11
9.213069
  21
-1.03026
  31
0
  0
LINE
  5
541
  100
AcDbEntity
  8
1
  100
AcDbLine
  10
9.213069
  20
-1.03026
  30
0
  11
9.234069
  21
-1.038516
  31
0
  0
LINE
  5
542
  100
AcDbEntity
  8
1
  100
AcDbLine
  10
9.234069
  20
-1.038516
  30
0
  11
9.255069
  21
-1.046627
  31
0
  0
LINE
  5
543
  100
AcDbEntity
  8
1
  100
AcDbLine
  10
9.255069
  20
-1.046627
  30
0
  11
9.276069
  21
-1.054594
  31
0
  0
LINE
  5
544
  100
AcDbEntity
  8
1
  100
AcDbLine
  10
9.276069
  20
-1.054594
  30
0
  11
9.297069
  21
-1.062415
  31
0
  0
LINE
  5
545
  100
AcDbEntity
  8
1
  100
AcDbLine
  10
9.297069
  20
-1.062415
  30
0
  11
9.318069
  21
-1.070089
  31
0
  0
LINE
  5
546
  100
AcDbEntity
  8
1
  100
AcDbLine
  10
9.318069
  20
-1.070089
  30
0
  11
9.339069
  21
-1.077615
  31
0
  0
LINE
  5
547
  100
AcDbEntity
  8
1
  100
AcDbLine
  10
9.339069
  20
-1.077615
  30
0
  11
9.360069
  21
-1.084992
  31
0
  0
LINE
  5
548
  100
AcDbEntity
  8
1
  100
AcDbLine
  10
9.360069
  20
-1.084992
  30
0
  11
9.381069
  21
-1.092218
  31
0
  0
LINE
  5
549
  100
AcDbEntity
  8
1
  100
AcDbLine
  10
9.381069
  20
-1.092218
  30
0
  11
9.402069
  21
-1.099294
  31
0
  0
LINE
  5
54a
  100
AcDbEntity
  8
1
  100
AcDbLine
  10
9.402069
  20
-1.099294
  30
0
  11
9.423069
  21
-1.106217
  31
0
  0
LINE
  5
54b
  100
AcDbEntity
  8
1
  100
AcDbLine
  10
9.423069
  20
-1.106217
  30
0
  11
9.444069
  21
-1.112987
  31
0
  0
LINE
  5
54c
  100
AcDbEntity
  8
1
  100
AcDbLine
  10
9.444069
  20
-1.112987
  30
0
  11
9.465069
  21
-1.119604
  31
0
  0
LINE
  5
54d
  100
AcDbEntity
  8
1
  100
AcDbLine
  10
9.465069
  20
-1.119604
  30
0
  11
9.486069
  21
-1.126065
  31
0
  0
LINE
  5
54e
  100
AcDbEntity
  8
1
  100
AcDbLine
  10
9.486069
  20
-1.126065
  30
0
  11
9.507069
  21
-1.13237
  31
0
  0
LINE
  5
54f
  100
AcDbEntity
  8
1
  100
AcDbLine
  10
9.507069
  20
-1.13237
  30
0
  11
9.528069
  21
-1.138519
  31
0
  0
LINE
  5
550
  100
AcDbEntity
  8
1
  100
AcDbLine
  10
9.528069
  20
-1.138519
  30
0
  11
9.549069
  21
-1.14451
  31
0
  0
LINE
  5
551
  100
AcDbEntity
  8
1
  100
AcDbLine
  10
9.549069
  20
-1.14451
  30
0
  11
9.570069
  21
-1.150343
  31
0
  0
LINE
  5
552
  100
AcDbEntity
  8
1
  100
AcDbLine
  10
9.570069
  20
-1.150343
  30
0
  11
9.591069
  21
-1.156017
  31
0
  0
LINE
  5
553
  100
AcDbEntity
  8
1
  100
AcDbLine
  10
9.591069
  20
-1.156017
  30
0
  11
9.612069
  21
-1.161531
  31
0
  0
LINE
  5
554
  100
AcDbEntity
  8
1
  100
AcDbLine
  10
9.612069
  20
-1.161531
  30
0
  11
9.633069
  21
-1.166884
  31
0
  0
LINE
  5
555
  100
AcDbEntity
  8
1
  100
AcDbLine
  10
9.633069
  20
-1.166884
  30
0
  11
9.654069
  21
-1.172075
  31
0
  0
LINE
  5
556
  100
AcDbEntity
  8
1
  100
AcDbLine
  10
9.654069
  20
-1.172075
  30
0
  11
9.675069
  21
-1.177105
  31
0
  0
LINE
  5
557
  100
AcDbEntity
  8
1
  100
AcDbLine
  10
9.675069
  20
-1.177105
  30
0
  11
9.696069
  21
-1.181971
  31
0
  0
LINE
  5
558
  100
AcDbEntity
  8
1
  100
AcDbLine
  10
9.696069
  20
-1.181971
  30
0
  11
9.717069
  21
-1.186674
  31
0
  0
LINE
  5
559
  100
AcDbEntity
  8
1
  100
AcDbLine
  10
9.717069
  20
-1.186674
  30
0
  11
9.738069
  21
-1.191213
  31
0
  0
LINE
  5
55a
  100
AcDbEntity
  8
1
  100
AcDbLine
  10
9.738069
  20
-1.191213
  30
0
  11
9.759069
  21
-1.195586
  31
0
  0
LINE
  5
55b
  100
AcDbEntity
  8
1
  100
AcDbLine
  10
9.759069
  20
-1.195586
  30
0
  11
9.780069
  21
-1.199795
  31
0
  0
LINE
  5
55c
  100
AcDbEntity
  8
1
  100
AcDbLine
  10
9.780069
  20
-1.199795
  30
0
  11
9.801069
  21
-1.203837
  31
0
  0
LINE
  5
55d
  100
AcDbEntity
  8
1
  100
AcDbLine
  10
9.801069
  20
-1.203837
  30
0
  11
9.822069
  21
-1.207713
  31
0
  0
LINE
  5
55e
  100
AcDbEntity
  8
1
  100
AcDbLine
  10
9.822069
  20
-1.207713
  30
0
  11
9.843069
  21
-1.211422
  31
0
  0
LINE
  5
55f
  100
AcDbEntity
  8
1
  100
AcDbLine
  10
9.843069
  20
-1.211422
  30
0
  11
9.864069
  21
-1.214963
  31
0
  0
LINE
  5
560
  100
AcDbEntity
  8
1
  100
AcDbLine
  10
9.864069
  20
-1.214963
  30
0
  11
9.885069
  21
-1.218336
  31
0
  0
LINE
  5
561
  100
AcDbEntity
  8
1
  100
AcDbLine
  10
9.885069
  20
-1.218336
  30
0
  11
9.906069
  21
-1.22154
  31
0
  0
LINE
  5
562
  100
AcDbEntity
  8
1
  100
AcDbLine
  10
9.906069
  20
-1.22154
  30
0
  11
9.927069
  21
-1.224575
  31
0
  0
LINE
  5
563
  100
AcDbEntity
  8
1
  100
AcDbLine
  10
9.927069
  20
-1.224575
  30
0
  11
9.948069
  21
-1.227441
  31
0
  0
LINE
  5
564
  100
AcDbEntity
  8
1
  100
AcDbLine
  10
9.948069
  20
-1.227441
  30
0
  11
9.969069
  21
-1.230137
  31
0
  0
LINE
  5
565
  100
AcDbEntity
  8
1
  100
AcDbLine
  10
9.969069
  20
-1.230137
  30
0
  11
9.990069
  21
-1.232663
  31
0
  0
LINE
  5
566
  100
AcDbEntity
  8
1
  100
AcDbLine
  10
9.990069
  20
-1.232663
  30
0
  11
10.011069
  21
-1.235018
  31
0
  0
LINE
  5
567
  100
AcDbEntity
  8
1
  100
AcDbLine
  10
10.011069
  20
-1.235018
  30
0
  11
10.032069
  21
-1.237202
  31
0
  0
LINE
  5
568
  100
AcDbEntity
  8
1
  100
AcDbLine
  10
10.032069
  20
-1.237202
  30
0
  11
10.053069
  21
-1.239215
  31
0
  0
LINE
  5
569
  100
AcDbEntity
  8
1
  100
AcDbLine
  10
10.053069
  20
-1.239215
  30
0
  11
10.074069
  21
-1.241057
  31
0
  0
LINE
  5
56a
  100
AcDbEntity
  8
1
  100
AcDbLine
  10
10.074069
  20
-1.241057
  30
0
  11
10.095069
  21
-1.242727
  31
0
  0
LINE
  5
56b
  100
AcDbEntity
  8
1
  100
AcDbLine
  10
10.095069
  20
-1.242727
  30
0
  11
10.116069
  21
-1.244225
  31
0
  0
LINE
  5
56c
  100
AcDbEntity
  8
1
  100
AcDbLine
  10
10.116069
  20
-1.244225
  30
0
  11
10.137069
  21
-1.24555
  31
0
  0
LINE
  5
56d
  100
AcDbEntity
  8
1
  100
AcDbLine
  10
10.137069
  20
-1.24555
  30
0
  11
10.158069
  21
-1.246704
  31
0
  0
LINE
  5
56e
  100
AcDbEntity
  8
1
  100
AcDbLine
  10
10.158069
  20
-1.246704
  30
0
  11
10.179069
  21
-1.247685
  31
0
  0
LINE
  5
56f
  100
AcDbEntity
  8
1
  100
AcDbLine
  10
10.179069
  20
-1.247685
  30
0
  11
10.200069
  21
-1.248493
  31
0
  0
LINE
  5
570
  100
AcDbEntity
  8
1
  100
AcDbLine
  10
10.200069
  20
-1.248493
  30
0
  11
10.221069
  21
-1.249128
  31
0
  0
LINE
  5
571
  100
AcDbEntity
  8
1
  100
AcDbLine
  10
10.221069
  20
-1.249128
  30
0
  11
10.242069
  21
-1.249591
  31
0
  0
LINE
  5
572
  100
AcDbEntity
  8
1
  100
AcDbLine
  10
10.242069
  20
-1.249591
  30
0
  11
10.263069
  21
-1.249881
  31
0
  0
LINE
  5
573
  100
AcDbEntity
  8
1
  100
AcDbLine
  10
10.263069
  20
-1.249881
  30
0
  11
10.284069
  21
-1.249997
  31
0
  0
LINE
  5
574
  100
AcDbEntity
  8
1
  100
AcDbLine
  10
10.284069
  20
-1.249997
  30
0
  11
10.28774
  21
-1.25
  31
0
  0
LINE
  5
575
  100
AcDbEntity
  8
1
  100
AcDbLine
  10
9.905225
  20
-1.25
  30
0
  11
9.885069
  21
-1.234369
  31
0
  0
LINE
  5
576
  100
AcDbEntity
  8
1
  100
AcDbLine
  10
9.885069
  20
-1.234369
  30
0
  11
9.864069
  21
-1.234119
  31
0
  0
LINE
  5
577
  100
AcDbEntity
  8
1
  100
AcDbLine
  10
9.864069
  20
-1.234119
  30
0
  11
9.843069
  21
-1.233699
  31
0
  0
LINE
  5
578
  100
AcDbEntity
  8
1
  100
AcDbLine
  10
9.843069
  20
-1.233699
  30
0
  11
9.822069
  21
-1.233108
  31
0
  0
LINE
  5
579
  100
AcDbEntity
  8
1
  100
AcDbLine
  10
9.822069
  20
-1.233108
  30
0
  11
9.801069
  21
-1.232347
  31
0
  0
LINE
  5
57a
  100
AcDbEntity
  8
1
  100
AcDbLine
  10
9.801069
  20
-1.232347
  30
0
  11
9.780069
  21
-1.231415
  31
0
  0
LINE
  5
57b
  100
AcDbEntity
  8
1
  100
AcDbLine
  10
9.780069
  20
-1.231415
  30
0
  11
9.759069
  21
-1.230312
  31
0
  0
LINE
  5
57c
  100
AcDbEntity
  8
1
  100
AcDbLine
  10
9.759069
  20
-1.230312
  30
0
  11
9.738069
  21
-1.22904
  31
0
  0
LINE
  5
57d
  100
AcDbEntity
  8
1
  100
AcDbLine
  10
9.738069
  20
-1.22904
  30
0
  11
9.717069
  21
-1.227597
  31
0
  0
LINE
  5
57e
  100
AcDbEntity
  8
1
  100
AcDbLine
  10
9.717069
  20
-1.227597
  30
0
  11
9.696069
  21
-1.225984
  31
0
  0
LINE
  5
57f
  100
AcDbEntity
  8
1
  100
AcDbLine
  10
9.696069
  20
-1.225984
  30
0
  11
9.675069
  21
-1.224202
  31
0
  0
LINE
  5
580
  100
AcDbEntity
  8
1
  100
AcDbLine
  10
9.675069
  20
-1.224202
  30
0
  11
9.654069
  21
-1.22225
  31
0
  0
LINE
  5
581
  100
AcDbEntity
  8
1
  100
AcDbLine
  10
9.654069
  20
-1.22225
  30
0
  11
9.633069
  21
-1.22013
  31
0
  0
LINE
  5
582
  100
AcDbEntity
  8
1
  100
AcDbLine
  10
9.633069
  20
-1.22013
  30
0
  11
9.612069
  21
-1.21784
  31
0
  0
LINE
  5
583
  100
AcDbEntity
  8
1
  100
AcDbLine
  10
9.612069
  20
-1.21784
  30
0
  11
9.591069
  21
-1.215382
  31
0
  0
LINE
  5
584
  100
AcDbEntity
  8
1
  100
AcDbLine
  10
9.591069
  20
-1.215382
  30
0
  11
9.570069
  21
-1.212756
  31
0
  0
LINE
  5
585
  100
AcDbEntity
  8
1
  100
AcDbLine
  10
9.570069
  20
-1.212756
  30
0
  11
9.549069
  21
-1.209961
  31
0
  0
LINE
  5
586
  100
AcDbEntity
  8
1
  100
AcDbLine
  10
9.549069
  20
-1.209961
  30
0
  11
9.528069
  21
-1.207
  31
0
  0
LINE
  5
587
  100
AcDbEntity
  8
1
  100
AcDbLine
  10
9.528069
  20
-1.207
  30
0
  11
9.507069
  21
-1.203871
  31
0
  0
LINE
  5
588
  100
AcDbEntity
  8
1
  100
AcDbLine
  10
9.507069
  20
-1.203871
  30
0
  11
9.486069
  21
-1.200576
  31
0
  0
LINE
  5
589
  100
AcDbEntity
  8
1
  100
AcDbLine
  10
9.486069
  20
-1.200576
  30
0
  11
9.465069
  21
-1.197115
  31
0
  0
LINE
  5
58a
  100
AcDbEntity
  8
1
  100
AcDbLine
  10
9.465069
  20
-1.197115
  30
0
  11
9.444069
  21
-1.193488
  31
0
  0
LINE
  5
58b
  100
AcDbEntity
  8
1
  100
AcDbLine
  10
9.444069
  20
-1.193488
  30
0
  11
9.423069
  21
-1.189696
  31
0
  0
LINE
  5
58c
  100
AcDbEntity
  8
1
  100
AcDbLine
  10
9.423069
  20
-1.189696
  30
0
  11
9.402069
  21
-1.185739
  31
0
  0
LINE
  5
58d
  100
AcDbEntity
  8
1
  100
AcDbLine
  10
9.402069
  20
-1.185739
  30
0
  11
9.381069
  21
-1.181618
  31
0
  0
LINE
  5
58e
  100
AcDbEntity
  8
1
  100
AcDbLine
  10
9.381069
  20
-1.181618
  30
0
  11
9.360069
  21
-1.177334
  31
0
  0
LINE
  5
58f
  100
AcDbEntity
  8
1
  100
AcDbLine
  10
9.360069
  20
-1.177334
  30
0
  11
9.339069
  21
-1.172886
  31
0
  0
LINE
  5
590
  100
AcDbEntity
  8
1
  100
AcDbLine
  10
9.339069
  20
-1.172886
  30
0
  11
9.318069
  21
-1.168277
  31
0
  0
LINE
  5
591
  100
AcDbEntity
  8
1
  100
AcDbLine
  10
9.318069
  20
-1.168277
  30
0
  11
9.297069
  21
-1.163506
  31
0
  0
LINE
  5
592
  100
AcDbEntity
  8
1
  100
AcDbLine
  10
9.297069
  20
-1.163506
  30
0
  11
9.276069
  21
-1.158573
  31
0
  0
LINE
  5
593
  100
AcDbEntity
  8
1
  100
AcDbLine
  10
9.276069
  20
-1.158573
  30
0
  11
9.255069
  21
-1.153481
  31
0
  0
LINE
  5
594
  100
AcDbEntity
  8
1
  100
AcDbLine
  10
9.255069
  20
-1.153481
  30
0
  11
9.234069
  21
-1.148229
  31
0
  0
LINE
  5
595
  100
AcDbEntity
  8
1
  100
AcDbLine
  10
9.234069
  20
-1.148229
  30
0
  11
9.213069
  21
-1.142818
  31
0
  0
LINE
  5
596
  100
AcDbEntity
  8
1
  100
AcDbLine
  10
9.213069
  20
-1.142818
  30
0
  11
9.192069
  21
-1.137248
  31
0
  0
LINE
  5
597
  100
AcDbEntity
  8
1
  100
AcDbLine
  10
9.192069
  20
-1.137248
  30
0
  11
9.171069
  21
-1.131522
  31
0
  0
LINE
  5
598
  100
AcDbEntity
  8
1
  100
AcDbLine
  10
9.171069
  20
-1.131522
  30
0
  11
9.150069
  21
-1.125639
  31
0
  0
LINE
  5
599
  100
AcDbEntity
  8
1
  100
AcDbLine
  10
9.150069
  20
-1.125639
  30
0
  11
9.129069
  21
-1.1196
  31
0
  0
LINE
  5
59a
  100
AcDbEntity
  8
1
  100
AcDbLine
  10
9.129069
  20
-1.1196
  30
0
  11
9.108069
  21
-1.113406
  31
0
  0
LINE
  5
59b
  100
AcDbEntity
  8
1
  100
AcDbLine
  10
9.108069
  20
-1.113406
  30
0
  11
9.087069
  21
-1.107058
  31
0
  0
LINE
  5
59c
  100
AcDbEntity
  8
1
  100
AcDbLine
  10
9.087069
  20
-1.107058
  30
0
  11
9.066069
  21
-1.100557
  31
0
  0
LINE
  5
59d
  100
AcDbEntity
  8
1
  100
AcDbLine
  10
9.066069
  20
-1.100557
  30
0
  11
9.045069
  21
-1.093903
  31
0
  0
LINE
  5
59e
  100
AcDbEntity
  8
1
  100
AcDbLine
  10
9.045069
  20
-1.093903
  30
0
  11
9.024069
  21
-1.087099
  31
0
  0
LINE
  5
59f
  100
AcDbEntity
  8
1
  100
AcDbLine
  10
9.024069
  20
-1.087099
  30
0
  11
9.003069
  21
-1.080143
  31
0
  0
LINE
  5
5a0
  100
AcDbEntity
  8
1
  100
AcDbLine
  10
9.003069
  20
-1.080143
  30
0
  11
8.982069
  21
-1.073039
  31
0
  0
LINE
  5
5a1
  100
AcDbEntity
  8
1
  100
AcDbLine
  10
8.982069
  20
-1.073039
  30
0
  11
8.961069
  21
-1.065786
  31
0
  0
LINE
  5
5a2
  100
AcDbEntity
  8
1
  100
AcDbLine
  10
8.961069
  20
-1.065786
  30
0
  11
8.940069
  21
-1.058385
  31
0
  0
LINE
  5
5a3
  100
AcDbEntity
  8
1
  100
AcDbLine
  10
8.940069
  20
-1.058385
  30
0
  11
8.919069
  21
-1.050838
  31
0
  0
LINE
  5
5a4
  100
AcDbEntity
  8
1
  100
AcDbLine
  10
8.919069
  20
-1.050838
  30
0
  11
8.898069
  21
-1.043145
  31
0
  0
LINE
  5
5a5
  100
AcDbEntity
  8
1
  100
AcDbLine
  10
8.898069
  20
-1.043145
  30
0
  11
8.877069
  21
-1.035309
  31
0
  0
LINE
  5
5a6
  100
AcDbEntity
  8
1
  100
AcDbLine
  10
8.877069
  20
-1.035309
  30
0
  11
8.856069
  21
-1.027328
  31
0
  0
LINE
  5
5a7
  100
AcDbEntity
  8
1
  100
AcDbLine
  10
8.856069
  20
-1.027328
  30
0
  11
8.835069
  21
-1.019206
  31
0
  0
LINE
  5
5a8
  100
AcDbEntity
  8
1
  100
AcDbLine
  10
8.835069
  20
-1.019206
  30
0
  11
8.814069
  21
-1.010943
  31
0
  0
LINE
  5
5a9
  100
AcDbEntity
  8
1
  100
AcDbLine
  10
8.814069
  20
-1.010943
  30
0
  11
8.793069
  21
-1.00254
  31
0
  0
LINE
  5
5aa
  100
AcDbEntity
  8
1
  100
AcDbLine
  10
8.793069
  20
-1.00254
  30
0
  11
8.772069
  21
-0.993998
  31
0
  0
LINE
  5
5ab
  100
AcDbEntity
  8
1
  100
AcDbLine
  10
8.772069
  20
-0.993998
  30
0
  11
8.751069
  21
-0.985318
  31
0
  0
LINE
  5
5ac
  100
AcDbEntity
  8
1
  100
AcDbLine
  10
8.751069
  20
-0.985318
  30
0
  11
8.730069
  21
-0.976502
  31
0
  0
LINE
  5
5ad
  100
AcDbEntity
  8
1
  100
AcDbLine
  10
8.730069
  20
-0.976502
  30
0
  11
8.709069
  21
-0.967551
  31
0
  0
LINE
  5
5ae
  100
AcDbEntity
  8
1
  100
AcDbLine
  10
8.709069
  20
-0.967551
  30
0
  11
8.688069
  21
-0.958467
  31
0
  0
LINE
  5
5af
  100
AcDbEntity
  8
1
  100
AcDbLine
  10
8.688069
  20
-0.958467
  30
0
  11
8.667069
  21
-0.949249
  31
0
  0
LINE
  5
5b0
  100
AcDbEntity
  8
1
  100
AcDbLine
  10
8.667069
  20
-0.949249
  30
0
  11
8.646069
  21
-0.9399
  31
0
  0
LINE
  5
5b1
  100
AcDbEntity
  8
1
  100
AcDbLine
  10
8.646069
  20
-0.9399
  30
0
  11
8.625069
  21
-0.930421
  31
0
  0
LINE
  5
5b2
  100
AcDbEntity
  8
1
  100
AcDbLine
  10
8.625069
  20
-0.930421
  30
0
  11
8.604069
  21
-0.920814
  31
0
  0
LINE
  5
5b3
  100
AcDbEntity
  8
1
  100
AcDbLine
  10
8.604069
  20
-0.920814
  30
0
  11
8.583069
  21
-0.911079
  31
0
  0
LINE
  5
5b4
  100
AcDbEntity
  8
1
  100
AcDbLine
  10
8.583069
  20
-0.911079
  30
0
  11
8.562069
  21
-0.901217
  31
0
  0
LINE
  5
5b5
  100
AcDbEntity
  8
1
  100
AcDbLine
  10
8.562069
  20
-0.901217
  30
0
  11
8.541069
  21
-0.891232
  31
0
  0
LINE
  5
5b6
  100
AcDbEntity
  8
1
  100
AcDbLine
  10
8.541069
  20
-0.891232
  30
0
  11
8.520069
  21
-0.881122
  31
0
  0
LINE
  5
5b7
  100
AcDbEntity
  8
1
  100
AcDbLine
  10
8.520069
  20
-0.881122
  30
0
  11
8.499069
  21
-0.870891
  31
0
  0
LINE
  5
5b8
  100
AcDbEntity
  8
1
  100
AcDbLine
  10
8.499069
  20
-0.870891
  30
0
  11
8.478069
  21
-0.86054
  31
0
  0
LINE
  5
5b9
  100
AcDbEntity
  8
1
  100
AcDbLine
  10
8.478069
  20
-0.86054
  30
0
  11
8.457069
  21
-0.850069
  31
0
  0
LINE
  5
5ba
  100
AcDbEntity
  8
1
  100
AcDbLine
  10
8.457069
  20
-0.850069
  30
0
  11
8.436069
  21
-0.839481
  31
0
  0
LINE
  5
5bb
  100
AcDbEntity
  8
1
  100
AcDbLine
  10
8.436069
  20
-0.839481
  30
0
  11
8.415069
  21
-0.828776
  31
0
  0
LINE
  5
5bc
  100
AcDbEntity
  8
1
  100
AcDbLine
  10
8.415069
  20
-0.828776
  30
0
  11
8.394069
  21
-0.817957
  31
0
  0
LINE
  5
5bd
  100
AcDbEntity
  8
1
  100
AcDbLine
  10
8.394069
  20
-0.817957
  30
0
  11
8.373069
  21
-0.807025
  31
0
  0
LINE
  5
5be
  100
AcDbEntity
  8
1
  100
AcDbLine
  10
8.373069
  20
-0.807025
  30
0
  11
8.352069
  21
-0.795981
  31
0
  0
LINE
  5
5bf
  100
AcDbEntity
  8
1
  100
AcDbLine
  10
8.352069
  20
-0.795981
  30
0
  11
8.331069
  21
-0.784827
  31
0
  0
LINE
  5
5c0
  100
AcDbEntity
  8
1
  100
AcDbLine
  10
8.331069
  20
-0.784827
  30
0
  11
8.310069
  21
-0.773564
  31
0
  0
LINE
  5
5c1
  100
AcDbEntity
  8
1
  100
AcDbLine
  10
8.310069
  20
-0.773564
  30
0
  11
8.289069
  21
-0.762194
  31
0
  0
LINE
  5
5c2
  100
AcDbEntity
  8
1
  100
AcDbLine
  10
8.289069
  20
-0.762194
  30
0
  11
8.268069
  21
-0.750719
  31
0
  0
LINE
  5
5c3
  100
AcDbEntity
  8
1
  100
AcDbLine
  10
8.268069
  20
-0.750719
  30
0
  11
8.247069
  21
-0.739139
  31
0
  0
LINE
  5
5c4
  100
AcDbEntity
  8
1
  100
AcDbLine
  10
8.247069
  20
-0.739139
  30
0
  11
8.226069
  21
-0.727458
  31
0
  0
LINE
  5
5c5
  100
AcDbEntity
  8
1
  100
AcDbLine
  10
8.226069
  20
-0.727458
  30
0
  11
8.205069
  21
-0.715676
  31
0
  0
LINE
  5
5c6
  100
AcDbEntity
  8
1
  100
AcDbLine
  10
8.205069
  20
-0.715676
  30
0
  11
8.184069
  21
-0.703795
  31
0
  0
LINE
  5
5c7
  100
AcDbEntity
  8
1
  100
AcDbLine
  10
8.184069
  20
-0.703795
  30
0
  11
8.163069
  21
-0.691816
  31
0
  0
LINE
  5
5c8
  100
AcDbEntity
  8
1
  100
AcDbLine
  10
8.163069
  20
-0.691816
  30
0
  11
8.142069
  21
-0.679742
  31
0
  0
LINE
  5
5c9
  100
AcDbEntity
  8
1
  100
AcDbLine
  10
8.142069
  20
-0.679742
  30
0
  11
8.121069
  21
-0.667573
  31
0
  0
LINE
  5
5ca
  100
AcDbEntity
  8
1
  100
AcDbLine
  10
8.121069
  20
-0.667573
  30
0
  11
8.100069
  21
-0.655313
  31
0
  0
LINE
  5
5cb
  100
AcDbEntity
  8
1
  100
AcDbLine
  10
8.100069
  20
-0.655313
  30
0
  11
8.079069
  21
-0.642961
  31
0
  0
LINE
  5
5cc
  100
AcDbEntity
  8
1
  100
AcDbLine
  10
8.079069
  20
-0.642961
  30
0
  11
8.058069
  21
-0.630521
  31
0
  0
LINE
  5
5cd
  100
AcDbEntity
  8
1
  100
AcDbLine
  10
8.058069
  20
-0.630521
  30
0
  11
8.037069
  21
-0.617993
  31
0
  0
LINE
  5
5ce
  100
AcDbEntity
  8
1
  100
AcDbLine
  10
8.037069
  20
-0.617993
  30
0
  11
8.016069
  21
-0.60538
  31
0
  0
LINE
  5
5cf
  100
AcDbEntity
  8
1
  100
AcDbLine
  10
8.016069
  20
-0.60538
  30
0
  11
7.995069
  21
-0.592683
  31
0
  0
LINE
  5
5d0
  100
AcDbEntity
  8
1
  100
AcDbLine
  10
7.995069
  20
-0.592683
  30
0
  11
7.974069
  21
-0.579904
  31
0
  0
LINE
  5
5d1
  100
AcDbEntity
  8
1
  100
AcDbLine
  10
7.974069
  20
-0.579904
  30
0
  11
7.953069
  21
-0.567045
  31
0
  0
LINE
  5
5d2
  100
AcDbEntity
  8
1
  100
AcDbLine
  10
7.953069
  20
-0.567045
  30
0
  11
7.932069
  21
-0.554108
  31
0
  0
LINE
  5
5d3
  100
AcDbEntity
  8
1
  100
AcDbLine
  10
7.932069
  20
-0.554108
  30
0
  11
7.911069
  21
-0.541093
  31
0
  0
LINE
  5
5d4
  100
AcDbEntity
  8
1
  100
AcDbLine
  10
7.911069
  20
-0.541093
  30
0
  11
7.890069
  21
-0.528004
  31
0
  0
LINE
  5
5d5
  100
AcDbEntity
  8
1
  100
AcDbLine
  10
7.890069
  20
-0.528004
  30
0
  11
7.869069
  21
-0.514842
  31
0
  0
LINE
  5
5d6
  100
AcDbEntity
  8
1
  100
AcDbLine
  10
7.869069
  20
-0.514842
  30
0
  11
7.848069
  21
-0.501608
  31
0
  0
LINE
  5
5d7
  100
AcDbEntity
  8
1
  100
AcDbLine
  10
7.848069
  20
-0.501608
  30
0
  11
7.827069
  21
-0.488305
  31
0
  0
LINE
  5
5d8
  100
AcDbEntity
  8
1
  100
AcDbLine
  10
7.827069
  20
-0.488305
  30
0
  11
7.806069
  21
-0.474935
  31
0
  0
LINE
  5
5d9
  100
AcDbEntity
  8
1
  100
AcDbLine
  10
7.806069
  20
-0.474935
  30
0
  11
7.785069
  21
-0.461499
  31
0
  0
LINE
  5
5da
  100
AcDbEntity
  8
1
  100
AcDbLine
  10
7.785069
  20
-0.461499
  30
0
  11
7.764069
  21
-0.447999
  31
0
  0
LINE
  5
5db
  100
AcDbEntity
  8
1
  100
AcDbLine
  10
7.764069
  20
-0.447999
  30
0
  11
7.743069
  21
-0.434437
  31
0
  0
LINE
  5
5dc
  100
AcDbEntity
  8
1
  100
AcDbLine
  10
7.743069
  20
-0.434437
  30
0
  11
7.722069
  21
-0.420814
  31
0
  0
LINE
  5
5dd
  100
AcDbEntity
  8
1
  100
AcDbLine
  10
7.722069
  20
-0.420814
  30
0
  11
7.701069
  21
-0.407134
  31
0
  0
LINE
  5
5de
  100
AcDbEntity
  8
1
  100
AcDbLine
  10
7.701069
  20
-0.407134
  30
0
  11
7.680069
  21
-0.393397
  31
0
  0
LINE
  5
5df
  100
AcDbEntity
  8
1
  100
AcDbLine
  10
7.680069
  20
-0.393397
  30
0
  11
7.659069
  21
-0.379606
  31
0
  0
LINE
  5
5e0
  100
AcDbEntity
  8
1
  100
AcDbLine
  10
7.659069
  20
-0.379606
  30
0
  11
7.638069
  21
-0.365762
  31
0
  0
LINE
  5
5e1
  100
AcDbEntity
  8
1
  100
AcDbLine
  10
7.638069
  20
-0.365762
  30
0
  11
7.617069
  21
-0.351868
  31
0
  0
LINE
  5
5e2
  100
AcDbEntity
  8
1
  100
AcDbLine
  10
7.617069
  20
-0.351868
  30
0
  11
7.596069
  21
-0.337925
  31
0
  0
LINE
  5
5e3
  100
AcDbEntity
  8
1
  100
AcDbLine
  10
7.596069
  20
-0.337925
  30
0
  11
7.575069
  21
-0.323935
  31
0
  0
LINE
  5
5e4
  100
AcDbEntity
  8
1
  100
AcDbLine
  10
7.575069
  20
-0.323935
  30
0
  11
7.554069
  21
-0.309901
  31
0
  0
LINE
  5
5e5
  100
AcDbEntity
  8
1
  100
AcDbLine
  10
7.554069
  20
-0.309901
  30
0
  11
7.533069
  21
-0.295823
  31
0
  0
LINE
  5
5e6
  100
AcDbEntity
  8
1
  100
AcDbLine
  10
7.533069
  20
-0.295823
  30
0
  11
7.512069
  21
-0.281705
  31
0
  0
LINE
  5
5e7
  100
AcDbEntity
  8
1
  100
AcDbLine
  10
7.512069
  20
-0.281705
  30
0
  11
7.491069
  21
-0.267547
  31
0
  0
LINE
  5
5e8
  100
AcDbEntity
  8
1
  100
AcDbLine
  10
7.491069
  20
-0.267547
  30
0
  11
7.470069
  21
-0.253353
  31
0
  0
LINE
  5
5e9
  100
AcDbEntity
  8
1
  100
AcDbLine
  10
7.470069
  20
-0.253353
  30
0
  11
7.449069
  21
-0.239124
  31
0
  0
LINE
  5
5ea
  100
AcDbEntity
  8
1
  100
AcDbLine
  10
7.449069
  20
-0.239124
  30
0
  11
7.428069
  21
-0.224861
  31
0
  0
LINE
  5
5eb
  100
AcDbEntity
  8
1
  100
AcDbLine
  10
7.428069
  20
-0.224861
  30
0
  11
7.407069
  21
-0.210567
  31
0
  0
LINE
  5
5ec
  100
AcDbEntity
  8
1
  100
AcDbLine
  10
7.407069
  20
-0.210567
  30
0
  11
7.386069
  21
-0.196244
  31
0
  0
LINE
  5
5ed
  100
AcDbEntity
  8
1
  100
AcDbLine
  10
7.386069
  20
-0.196244
  30
0
  11
7.365069
  21
-0.181894
  31
0
  0
LINE
  5
5ee
  100
AcDbEntity
  8
1
  100
AcDbLine
  10
7.365069
  20
-0.181894
  30
0
  11
7.344069
  21
-0.167519
  31
0
  0
LINE
  5
5ef
  100
AcDbEntity
  8
1
  100
AcDbLine
  10
7.344069
  20
-0.167519
  30
0
  11
7.323069
  21
-0.153121
  31
0
  0
LINE
  5
5f0
  100
AcDbEntity
  8
1
  100
AcDbLine
  10
7.323069
  20
-0.153121
  30
0
  11
7.302069
  21
-0.138701
  31
0
  0
LINE
  5
5f1
  100
AcDbEntity
  8
1
  100
AcDbLine
  10
7.302069
  20
-0.138701
  30
0
  11
7.281069
  21
-0.124263
  31
0
  0
LINE
  5
5f2
  100
AcDbEntity
  8
1
  100
AcDbLine
  10
7.281069
  20
-0.124263
  30
0
  11
7.260069
  21
-0.109807
  31
0
  0
LINE
  5
5f3
  100
AcDbEntity
  8
1
  100
AcDbLine
  10
7.260069
  20
-0.109807
  30
0
  11
7.239069
  21
-0.095336
  31
0
  0
LINE
  5
5f4
  100
AcDbEntity
  8
1
  100
AcDbLine
  10
7.239069
  20
-0.095336
  30
0
  11
7.218069
  21
-0.080851
  31
0
  0
LINE
  5
5f5
  100
AcDbEntity
  8
1
  100
AcDbLine
  10
7.218069
  20
-0.080851
  30
0
  11
7.197069
  21
-0.066356
  31
0
  0
LINE
  5
5f6
  100
AcDbEntity
  8
1
  100
AcDbLine
  10
7.197069
  20
-0.066356
  30
0
  11
7.176069
  21
-0.051851
  31
0
  0
LINE
  5
5f7
  100
AcDbEntity
  8
1
  100
AcDbLine
  10
7.176069
  20
-0.051851
  30
0
  11
7.155069
  21
-0.037339
  31
0
  0
LINE
  5
5f8
  100
AcDbEntity
  8
1
  100
AcDbLine
  10
7.155069
  20
-0.037339
  30
0
  11
7.134069
  21
-0.022822
  31
0
  0
LINE
  5
5f9
  100
AcDbEntity
  8
1
  100
AcDbLine
  10
7.134069
  20
-0.022822
  30
0
  11
7.113069
  21
-0.008302
  31
0
  0
LINE
  5
5fa
  100
AcDbEntity
  8
1
  100
AcDbLine
  10
7.113069
  20
-0.008302
  30
0
  11
7.092069
  21
0.006219
  31
0
  0
LINE
  5
5fb
  100
AcDbEntity
  8
1
  100
AcDbLine
  10
7.092069
  20
0.006219
  30
0
  11
7.071069
  21
0.02074
  31
0
  0
LINE
  5
5fc
  100
AcDbEntity
  8
1
  100
AcDbLine
  10
7.071069
  20
0.02074
  30
0
  11
7.050069
  21
0.035257
  31
0
  0
LINE
  5
5fd
  100
AcDbEntity
  8
1
  100
AcDbLine
  10
7.050069
  20
0.035257
  30
0
  11
7.029069
  21
0.04977
  31
0
  0
LINE
  5
5fe
  100
AcDbEntity
  8
1
  100
AcDbLine
  10
7.029069
  20
0.04977
  30
0
  11
7.008069
  21
0.064276
  31
0
  0
LINE
  5
5ff
  100
AcDbEntity
  8
1
  100
AcDbLine
  10
7.008069
  20
0.064276
  30
0
  11
6.987069
  21
0.078773
  31
0
  0
LINE
  5
600
  100
AcDbEntity
  8
1
  100
AcDbLine
  10
6.987069
  20
0.078773
  30
0
  11
6.966069
  21
0.093259
  31
0
  0
LINE
  5
601
  100
AcDbEntity
  8
1
  100
AcDbLine
  10
6.966069
  20
0.093259
  30
0
  11
6.945069
  21
0.107732
  31
0
  0
LINE
  5
602
  100
AcDbEntity
  8
1
  100
AcDbLine
  10
6.945069
  20
0.107732
  30
0
  11
6.924069
  21
0.12219
  31
0
  0
LINE
  5
603
  100
AcDbEntity
  8
1
  100
AcDbLine
  10
6.924069
  20
0.12219
  30
0
  11
6.903069
  21
0.136631
  31
0
  0
LINE
  5
604
  100
AcDbEntity
  8
1
  100
AcDbLine
  10
6.903069
  20
0.136631
  30
0
  11
6.882069
  21
0.151054
  31
0
  0
LINE
  5
605
  100
AcDbEntity
  8
1
  100
AcDbLine
  10
6.882069
  20
0.151054
  30
0
  11
6.861069
  21
0.165455
  31
0
  0
LINE
  5
606
  100
AcDbEntity
  8
1
  100
AcDbLine
  10
6.861069
  20
0.165455
  30
0
  11
6.840069
  21
0.179834
  31
0
  0
LINE
  5
607
  100
AcDbEntity
  8
1
  100
AcDbLine
  10
6.840069
  20
0.179834
  30
0
  11
6.819069
  21
0.194187
  31
0
  0
LINE
  5
608
  100
AcDbEntity
  8
1
  100
AcDbLine
  10
6.819069
  20
0.194187
  30
0
  11
6.798069
  21
0.208514
  31
0
  0
LINE
  5
609
  100
AcDbEntity
  8
1
  100
AcDbLine
  10
6.798069
  20
0.208514
  30
0
  11
6.777069
  21
0.222812
  31
0
  0
LINE
  5
60a
  100
AcDbEntity
  8
1
  100
AcDbLine
  10
6.777069
  20
0.222812
  30
0
  11
6.756069
  21
0.237079
  31
0
  0
LINE
  5
60b
  100
AcDbEntity
  8
1
  100
AcDbLine
  10
6.756069
  20
0.237079
  30
0
  11
6.735069
  21
0.251314
  31
0
  0
LINE
  5
60c
  100
AcDbEntity
  8
1
  100
AcDbLine
  10
6.735069
  20
0.251314
  30
0
  11
6.714069
  21
0.265513
  31
0
  0
LINE
  5
60d
  100
AcDbEntity
  8
1
  100
AcDbLine
  10
6.714069
  20
0.265513
  30
0
  11
6.693069
  21
0.279676
  31
0
  0
LINE
  5
60e
  100
AcDbEntity
  8
1
  100
AcDbLine
  10
6.693069
  20
0.279676
  30
0
  11
6.672069
  21
0.2938
  31
0
  0
LINE
  5
60f
  100
AcDbEntity
  8
1
  100
AcDbLine
  10
6.672069
  20
0.2938
  30
0
  11
6.651069
  21
0.307884
  31
0
  0
LINE
  5
610
  100
AcDbEntity
  8
1
  100
AcDbLine
  10
6.651069
  20
0.307884
  30
0
  11
6.630069
  21
0.321925
  31
0
  0
LINE
  5
611
  100
AcDbEntity
  8
1
  100
AcDbLine
  10
6.630069
  20
0.321925
  30
0
  11
6.609069
  21
0.335921
  31
0
  0
LINE
  5
612
  100
AcDbEntity
  8
1
  100
AcDbLine
  10
6.609069
  20
0.335921
  30
0
  11
6.588069
  21
0.349871
  31
0
  0
LINE
  5
613
  100
AcDbEntity
  8
1
  100
AcDbLine
  10
6.588069
  20
0.349871
  30
0
  11
6.567069
  21
0.363772
  31
0
  0
LINE
  5
614
  100
AcDbEntity
  8
1
  100
AcDbLine
  10
6.567069
  20
0.363772
  30
0
  11
6.546069
  21
0.377623
  31
0
  0
LINE
  5
615
  100
AcDbEntity
  8
1
  100
AcDbLine
  10
6.546069
  20
-1.17527
  30
0
  11
6.567069
  21
-1.179631
  31
0
  0
LINE
  5
616
  100
AcDbEntity
  8
1
  100
AcDbLine
  10
6.567069
  20
-1.179631
  30
0
  11
6.588069
  21
-1.183829
  31
0
  0
LINE
  5
617
  100
AcDbEntity
  8
1
  100
AcDbLine
  10
6.588069
  20
-1.183829
  30
0
  11
6.609069
  21
-1.187862
  31
0
  0
LINE
  5
618
  100
AcDbEntity
  8
1
  100
AcDbLine
  10
6.609069
  20
-1.187862
  30
0
  11
6.630069
  21
-1.191732
  31
0
  0
LINE
  5
619
  100
AcDbEntity
  8
1
  100
AcDbLine
  10
6.630069
  20
-1.191732
  30
0
  11
6.651069
  21
-1.195436
  31
0
  0
LINE
  5
61a
  100
AcDbEntity
  8
1
  100
AcDbLine
  10
6.651069
  20
-1.195436
  30
0
  11
6.672069
  21
-1.198975
  31
0
  0
LINE
  5
61b
  100
AcDbEntity
  8
1
  100
AcDbLine
  10
6.672069
  20
-1.198975
  30
0
  11
6.693069
  21
-1.202348
  31
0
  0
LINE
  5
61c
  100
AcDbEntity
  8
1
  100
AcDbLine
  10
6.693069
  20
-1.202348
  30
0
  11
6.714069
  21
-1.205555
  31
0
  0
LINE
  5
61d
  100
AcDbEntity
  8
1
  100
AcDbLine
  10
6.714069
  20
-1.205555
  30
0
  11
6.735069
  21
-1.208595
  31
0
  0
LINE
  5
61e
  100
AcDbEntity
  8
1
  100
AcDbLine
  10
6.735069
  20
-1.208595
  30
0
  11
6.756069
  21
-1.211467
  31
0
  0
LINE
  5
61f
  100
AcDbEntity
  8
1
  100
AcDbLine
  10
6.756069
  20
-1.211467
  30
0
  11
6.777069
  21
-1.214172
  31
0
  0
LINE
  5
620
  100
AcDbEntity
  8
1
  100
AcDbLine
  10
6.777069
  20
-1.214172
  30
0
  11
6.798069
  21
-1.216709
  31
0
  0
LINE
  5
621
  100
AcDbEntity
  8
1
  100
AcDbLine
  10
6.798069
  20
-1.216709
  30
0
  11
6.819069
  21
-1.219078
  31
0
  0
LINE
  5
622
  100
AcDbEntity
  8
1
  100
AcDbLine
  10
6.819069
  20
-1.219078
  30
0
  11
6.840069
  21
-1.221278
  31
0
  0
LINE
  5
623
  100
AcDbEntity
  8
1
  100
AcDbLine
  10
6.840069
  20
-1.221278
  30
0
  11
6.861069
  21
-1.223309
  31
0
  0
LINE
  5
624
  100
AcDbEntity
  8
1
  100
AcDbLine
  10
6.861069
  20
-1.223309
  30
0
  11
6.882069
  21
-1.225171
  31
0
  0
LINE
  5
625
  100
AcDbEntity
  8
1
  100
AcDbLine
  10
6.882069
  20
-1.225171
  30
0
  11
6.903069
  21
-1.226863
  31
0
  0
LINE
  5
626
  100
AcDbEntity
  8
1
  100
AcDbLine
  10
6.903069
  20
-1.226863
  30
0
  11
6.924069
  21
-1.228385
  31
0
  0
LINE
  5
627
  100
AcDbEntity
  8
1
  100
AcDbLine
  10
6.924069
  20
-1.228385
  30
0
  11
6.945069
  21
-1.229737
  31
0
  0
LINE
  5
628
  100
AcDbEntity
  8
1
  100
AcDbLine
  10
6.945069
  20
-1.229737
  30
0
  11
6.966069
  21
-1.230919
  31
0
  0
LINE
  5
629
  100
AcDbEntity
  8
1
  100
AcDbLine
  10
6.966069
  20
-1.230919
  30
0
  11
6.987069
  21
-1.231931
  31
0
  0
LINE
  5
62a
  100
AcDbEntity
  8
1
  100
AcDbLine
  10
6.987069
  20
-1.231931
  30
0
  11
7.008069
  21
-1.232773
  31
0
  0
LINE
  5
62b
  100
AcDbEntity
  8
1
  100
AcDbLine
  10
7.008069
  20
-1.232773
  30
0
  11
7.029069
  21
-1.233444
  31
0
  0
LINE
  5
62c
  100
AcDbEntity
  8
1
  100
AcDbLine
  10
7.029069
  20
-1.233444
  30
0
  11
7.050069
  21
-1.233944
  31
0
  0
LINE
  5
62d
  100
AcDbEntity
  8
1
  100
AcDbLine
  10
7.050069
  20
-1.233944
  30
0
  11
7.071069
  21
-1.234273
  31
0
  0
LINE
  5
62e
  100
AcDbEntity
  8
1
  100
AcDbLine
  10
7.071069
  20
-1.234273
  30
0
  11
7.092069
  21
-1.234432
  31
0
  0
LINE
  5
62f
  100
AcDbEntity
  8
1
  100
AcDbLine
  10
7.092069
  20
-1.234432
  30
0
  11
7.101063
  21
-1.25
  31
0
  0
LINE
  5
630
  100
AcDbEntity
  8
1
  100
AcDbLine
  10
6.922745
  20
-1.25
  30
0
  11
6.903069
  21
-1.249924
  31
0
  0
LINE
  5
631
  100
AcDbEntity
  8
1
  100
AcDbLine
  10
6.903069
  20
-1.249924
  30
0
  11
6.882069
  21
-1.249676
  31
0
  0
LINE
  5
632
  100
AcDbEntity
  8
1
  100
AcDbLine
  10
6.882069
  20
-1.249676
  30
0
  11
6.861069
  21
-1.249254
  31
0
  0
LINE
  5
633
  100
AcDbEntity
  8
1
  100
AcDbLine
  10
6.861069
  20
-1.249254
  30
0
  11
6.840069
  21
-1.24866
  31
0
  0
LINE
  5
634
  100
AcDbEntity
  8
1
  100
AcDbLine
  10
6.840069
  20
-1.24866
  30
0
  11
6.819069
  21
-1.247893
  31
0
  0
LINE
  5
635
  100
AcDbEntity
  8
1
  100
AcDbLine
  10
6.819069
  20
-1.247893
  30
0
  11
6.798069
  21
-1.246953
  31
0
  0
LINE
  5
636
  100
AcDbEntity
  8
1
  100
AcDbLine
  10
6.798069
  20
-1.246953
  30
0
  11
6.777069
  21
-1.24584
  31
0
  0
LINE
  5
637
  100
AcDbEntity
  8
1
  100
AcDbLine
  10
6.777069
  20
-1.24584
  30
0
  11
6.756069
  21
-1.244556
  31
0
  0
LINE
  5
638
  100
AcDbEntity
  8
1
  100
AcDbLine
  10
6.756069
  20
-1.244556
  30
0
  11
6.735069
  21
-1.243099
  31
0
  0
LINE
  5
639
  100
AcDbEntity
  8
1
  100
AcDbLine
  10
6.735069
  20
-1.243099
  30
0
  11
6.714069
  21
-1.24147
  31
0
  0
LINE
  5
63a
  100
AcDbEntity
  8
1
  100
AcDbLine
  10
6.714069
  20
-1.24147
  30
0
  11
6.693069
  21
-1.239669
  31
0
  0
LINE
  5
63b
  100
AcDbEntity
  8
1
  100
AcDbLine
  10
6.693069
  20
-1.239669
  30
0
  11
6.672069
  21
-1.237697
  31
0
  0
LINE
  5
63c
  100
AcDbEntity
  8
1
  100
AcDbLine
  10
6.672069
  20
-1.237697
  30
0
  11
6.651069
  21
-1.235553
  31
0
  0
LINE
  5
63d
  100
AcDbEntity
  8
1
  100
AcDbLine
  10
6.651069
  20
-1.235553
  30
0
  11
6.630069
  21
-1.233238
  31
0
  0
LINE
  5
63e
  100
AcDbEntity
  8
1
  100
AcDbLine
  10
6.630069
  20
-1.233238
  30
0
  11
6.609069
  21
-1.230753
  31
0
  0
LINE
  5
63f
  100
AcDbEntity
  8
1
  100
AcDbLine
  10
6.609069
  20
-1.230753
  30
0
  11
6.588069
  21
-1.228098
  31
0
  0
LINE
  5
640
  100
AcDbEntity
  8
1
  100
AcDbLine
  10
6.588069
  20
-1.228098
  30
0
  11
6.567069
  21
-1.225272
  31
0
  0
LINE
  5
641
  100
AcDbEntity
  8
1
  100
AcDbLine
  10
6.567069
  20
-1.225272
  30
0
  11
6.546069
  21
-1.222277
  31
0
  0
LINE
  5
642
  100
AcDbEntity
  8
1
  100
AcDbLine
  10
6.546069
  20
-1.222277
  30
0
  11
6.525069
  21
-1.220731
  31
0
  0
LINE
  5
643
  100
AcDbEntity
  8
1
  100
AcDbLine
  10
6.525069
  20
-1.220731
  30
0
  11
6.504069
  21
-1.223053
  31
0
  0
LINE
  5
644
  100
AcDbEntity
  8
1
  100
AcDbLine
  10
6.504069
  20
-1.223053
  30
0
  11
6.483069
  21
-1.225192
  31
0
  0
LINE
  5
645
  100
AcDbEntity
  8
1
  100
AcDbLine
  10
6.483069
  20
-1.225192
  30
0
  11
6.462069
  21
-1.227147
  31
0
  0
LINE
  5
646
  100
AcDbEntity
  8
1
  100
AcDbLine
  10
6.462069
  20
-1.227147
  30
0
  11
6.441069
  21
-1.228916
  31
0
  0
LINE
  5
647
  100
AcDbEntity
  8
1
  100
AcDbLine
  10
6.441069
  20
-1.228916
  30
0
  11
6.420069
  21
-1.230498
  31
0
  0
LINE
  5
648
  100
AcDbEntity
  8
1
  100
AcDbLine
  10
6.420069
  20
-1.230498
  30
0
  11
6.399069
  21
-1.231898
  31
0
  0
LINE
  5
649
  100
AcDbEntity
  8
1
  100
AcDbLine
  10
6.399069
  20
-1.231898
  30
0
  11
6.378069
  21
-1.233147
  31
0
  0
LINE
  5
64a
  100
AcDbEntity
  8
1
  100
AcDbLine
  10
6.378069
  20
-1.233147
  30
0
  11
6.357069
  21
-1.234378
  31
0
  0
LINE
  5
64b
  100
AcDbEntity
  8
1
  100
AcDbLine
  10
6.357069
  20
-1.234378
  30
0
  11
6.336069
  21
-1.236055
  31
0
  0
LINE
  5
64c
  100
AcDbEntity
  8
1
  100
AcDbLine
  10
6.336069
  20
-1.236055
  30
0
  11
6.315069
  21
-1.239548
  31
0
  0
LINE
  5
64d
  100
AcDbEntity
  8
1
  100
AcDbLine
  10
6.315069
  20
-1.239548
  30
0
  11
6.294069
  21
-1.248299
  31
0
  0
LINE
  5
64e
  100
AcDbEntity
  8
1
  100
AcDbLine
  10
6.294069
  20
-1.248299
  30
0
  11
6.273069
  21
-1.26908
  31
0
  0
LINE
  5
64f
  100
AcDbEntity
  8
1
  100
AcDbLine
  10
6.273069
  20
-1.26908
  30
0
  11
6.252069
  21
-1.307281
  31
0
  0
LINE
  5
650
  100
AcDbEntity
  8
1
  100
AcDbLine
  10
6.252069
  20
-1.307281
  30
0
  11
6.239627
  21
-1.328092
  31
0
  0
LINE
  5
651
  100
AcDbEntity
  8
1
  100
AcDbLine
  10
6.531069
  20
-1.25
  30
0
  11
6.531069
  21
1.25
  31
0
  0
LINE
  5
652
  100
AcDbEntity
  8
1
  100
AcDbLine
  10
6.531069
  20
1.25
  30
0
  11
6.531069
  21
-1.25
  31
0
  0
LINE
  5
653
  100
AcDbEntity
  8
1
  100
AcDbLine
  10
7.483578
  20
-1.25
  30
0
  11
7.470069
  21
-1.249964
  31
0
  0
LINE
  5
654
  100
AcDbEntity
  8
1
  100
AcDbLine
  10
7.470069
  20
-1.249964
  30
0
  11
7.449069
  21
-1.249766
  31
0
  0
LINE
  5
655
  100
AcDbEntity
  8
1
  100
AcDbLine
  10
7.449069
  20
-1.249766
  30
0
  11
7.428069
  21
-1.249396
  31
0
  0
LINE
  5
656
  100
AcDbEntity
  8
1
  100
AcDbLine
  10
7.428069
  20
-1.249396
  30
0
  11
7.407069
  21
-1.248852
  31
0
  0
LINE
  5
657
  100
AcDbEntity
  8
1
  100
AcDbLine
  10
7.407069
  20
-1.248852
  30
0
  11
7.386069
  21
-1.248136
  31
0
  0
LINE
  5
658
  100
AcDbEntity
  8
1
  100
AcDbLine
  10
7.386069
  20
-1.248136
  30
0
  11
7.365069
  21
-1.247247
  31
0
  0
LINE
  5
659
  100
AcDbEntity
  8
1
  100
AcDbLine
  10
7.365069
  20
-1.247247
  30
0
  11
7.344069
  21
-1.246185
  31
0
  0
LINE
  5
65a
  100
AcDbEntity
  8
1
  100
AcDbLine
  10
7.344069
  20
-1.246185
  30
0
  11
7.323069
  21
-1.244951
  31
0
  0
LINE
  5
65b
  100
AcDbEntity
  8
1
  100
AcDbLine
  10
7.323069
  20
-1.244951
  30
0
  11
7.302069
  21
-1.243544
  31
0
  0
LINE
  5
65c
  100
AcDbEntity
  8
1
  100
AcDbLine
  10
7.302069
  20
-1.243544
  30
0
  11
7.281069
  21
-1.241966
  31
0
  0
LINE
  5
65d
  100
AcDbEntity
  8
1
  100
AcDbLine
  10
7.281069
  20
-1.241966
  30
0
  11
7.260069
  21
-1.240216
  31
0
  0
LINE
  5
65e
  100
AcDbEntity
  8
1
  100
AcDbLine
  10
7.260069
  20
-1.240216
  30
0
  11
7.239069
  21
-1.238294
  31
0
  0
LINE
  5
65f
  100
AcDbEntity
  8
1
  100
AcDbLine
  10
7.239069
  20
-1.238294
  30
0
  11
7.218069
  21
-1.2362
  31
0
  0
LINE
  5
660
  100
AcDbEntity
  8
1
  100
AcDbLine
  10
7.218069
  20
-1.2362
  30
0
  11
7.197069
  21
-1.233936
  31
0
  0
LINE
  5
661
  100
AcDbEntity
  8
1
  100
AcDbLine
  10
7.197069
  20
-1.233936
  30
0
  11
7.176069
  21
-1.231501
  31
0
  0
LINE
  5
662
  100
AcDbEntity
  8
1
  100
AcDbLine
  10
7.176069
  20
-1.231501
  30
0
  11
7.155069
  21
-1.228895
  31
0
  0
LINE
  5
663
  100
AcDbEntity
  8
1
  100
AcDbLine
  10
7.155069
  20
-1.228895
  30
0
  11
7.134069
  21
-1.22612
  31
0
  0
LINE
  5
664
  100
AcDbEntity
  8
1
  100
AcDbLine
  10
7.134069
  20
-1.22612
  30
0
  11
7.113069
  21
-1.223174
  31
0
  0
LINE
  5
665
  100
AcDbEntity
  8
1
  100
AcDbLine
  10
7.113069
  20
-1.223174
  30
0
  11
7.092069
  21
-1.22006
  31
0
  0
LINE
  5
666
  100
AcDbEntity
  8
1
  100
AcDbLine
  10
7.092069
  20
-1.22006
  30
0
  11
7.071069
  21
-1.216776
  31
0
  0
LINE
  5
667
  100
AcDbEntity
  8
1
  100
AcDbLine
  10
7.071069
  20
-1.216776
  30
0
  11
7.050069
  21
-1.213325
  31
0
  0
LINE
  5
668
  100
AcDbEntity
  8
1
  100
AcDbLine
  10
7.050069
  20
-1.213325
  30
0
  11
7.029069
  21
-1.209705
  31
0
  0
LINE
  5
669
  100
AcDbEntity
  8
1
  100
AcDbLine
  10
7.029069
  20
-1.209705
  30
0
  11
7.008069
  21
-1.205918
  31
0
  0
LINE
  5
66a
  100
AcDbEntity
  8
1
  100
AcDbLine
  10
7.008069
  20
-1.205918
  30
0
  11
6.987069
  21
-1.201964
  31
0
  0
LINE
  5
66b
  100
AcDbEntity
  8
1
  100
AcDbLine
  10
6.987069
  20
-1.201964
  30
0
  11
6.966069
  21
-1.197844
  31
0
  0
LINE
  5
66c
  100
AcDbEntity
  8
1
  100
AcDbLine
  10
6.966069
  20
-1.197844
  30
0
  11
6.945069
  21
-1.193558
  31
0
  0
LINE
  5
66d
  100
AcDbEntity
  8
1
  100
AcDbLine
  10
6.945069
  20
-1.193558
  30
0
  11
6.924069
  21
-1.189107
  31
0
  0
LINE
  5
66e
  100
AcDbEntity
  8
1
  100
AcDbLine
  10
6.924069
  20
-1.189107
  30
0
  11
6.903069
  21
-1.184491
  31
0
  0
LINE
  5
66f
  100
AcDbEntity
  8
1
  100
AcDbLine
  10
6.903069
  20
-1.184491
  30
0
  11
6.882069
  21
-1.179712
  31
0
  0
LINE
  5
670
  100
AcDbEntity
  8
1
  100
AcDbLine
  10
6.882069
  20
-1.179712
  30
0
  11
6.861069
  21
-1.174769
  31
0
  0
LINE
  5
671
  100
AcDbEntity
  8
1
  100
AcDbLine
  10
6.861069
  20
-1.174769
  30
0
  11
6.840069
  21
-1.169663
  31
0
  0
LINE
  5
672
  100
AcDbEntity
  8
1
  100
AcDbLine
  10
6.840069
  20
-1.169663
  30
0
  11
6.819069
  21
-1.164396
  31
0
  0
LINE
  5
673
  100
AcDbEntity
  8
1
  100
AcDbLine
  10
6.819069
  20
-1.164396
  30
0
  11
6.798069
  21
-1.158968
  31
0
  0
LINE
  5
674
  100
AcDbEntity
  8
1
  100
AcDbLine
  10
6.798069
  20
-1.158968
  30
0
  11
6.777069
  21
-1.153379
  31
0
  0
LINE
  5
675
  100
AcDbEntity
  8
1
  100
AcDbLine
  10
6.777069
  20
-1.153379
  30
0
  11
6.756069
  21
-1.14763
  31
0
  0
LINE
  5
676
  100
AcDbEntity
  8
1
  100
AcDbLine
  10
6.756069
  20
-1.14763
  30
0
  11
6.735069
  21
-1.141723
  31
0
  0
LINE
  5
677
  100
AcDbEntity
  8
1
  100
AcDbLine
  10
6.735069
  20
-1.141723
  30
0
  11
6.714069
  21
-1.135658
  31
0
  0
LINE
  5
678
  100
AcDbEntity
  8
1
  100
AcDbLine
  10
6.714069
  20
-1.135658
  30
0
  11
6.693069
  21
-1.129436
  31
0
  0
LINE
  5
679
  100
AcDbEntity
  8
1
  100
AcDbLine
  10
6.693069
  20
-1.129436
  30
0
  11
6.672069
  21
-1.123057
  31
0
  0
LINE
  5
67a
  100
AcDbEntity
  8
1
  100
AcDbLine
  10
6.672069
  20
-1.123057
  30
0
  11
6.651069
  21
-1.116523
  31
0
  0
LINE
  5
67b
  100
AcDbEntity
  8
1
  100
AcDbLine
  10
6.651069
  20
-1.116523
  30
0
  11
6.630069
  21
-1.109835
  31
0
  0
LINE
  5
67c
  100
AcDbEntity
  8
1
  100
AcDbLine
  10
6.630069
  20
-1.109835
  30
0
  11
6.609069
  21
-1.102993
  31
0
  0
LINE
  5
67d
  100
AcDbEntity
  8
1
  100
AcDbLine
  10
6.609069
  20
-1.102993
  30
0
  11
6.588069
  21
-1.095998
  31
0
  0
LINE
  5
67e
  100
AcDbEntity
  8
1
  100
AcDbLine
  10
6.588069
  20
-1.095998
  30
0
  11
6.567069
  21
-1.088852
  31
0
  0
LINE
  5
67f
  100
AcDbEntity
  8
1
  100
AcDbLine
  10
6.567069
  20
-1.088852
  30
0
  11
6.546069
  21
-1.081554
  31
0
  0
LINE
  5
680
  100
AcDbEntity
  8
1
  100
AcDbLine
  10
6.546069
  20
-1.081554
  30
0
  11
6.525069
  21
-1.075963
  31
0
  0
LINE
  5
681
  100
AcDbEntity
  8
1
  100
AcDbLine
  10
6.525069
  20
-1.075963
  30
0
  11
6.504069
  21
-1.074855
  31
0
  0
LINE
  5
682
  100
AcDbEntity
  8
1
  100
AcDbLine
  10
6.504069
  20
-1.074855
  30
0
  11
6.483069
  21
-1.073576
  31
0
  0
LINE
  5
683
  100
AcDbEntity
  8
1
  100
AcDbLine
  10
6.483069
  20
-1.073576
  30
0
  11
6.462069
  21
-1.072076
  31
0
  0
LINE
  5
684
  100
AcDbEntity
  8
1
  100
AcDbLine
  10
6.462069
  20
-1.072076
  30
0
  11
6.441069
  21
-1.070178
  31
0
  0
LINE
  5
685
  100
AcDbEntity
  8
1
  100
AcDbLine
  10
6.441069
  20
-1.070178
  30
0
  11
6.420069
  21
-1.067445
  31
0
  0
LINE
  5
686
  100
AcDbEntity
  8
1
  100
AcDbLine
  10
6.420069
  20
-1.067445
  30
0
  11
6.399069
  21
-1.06298
  31
0
  0
LINE
  5
687
  100
AcDbEntity
  8
1
  100
AcDbLine
  10
6.399069
  20
-1.06298
  30
0
  11
6.378069
  21
-1.055136
  31
0
  0
LINE
  5
688
  100
AcDbEntity
  8
1
  100
AcDbLine
  10
6.378069
  20
-1.055136
  30
0
  11
6.357069
  21
-1.041081
  31
0
  0
LINE
  5
689
  100
AcDbEntity
  8
1
  100
AcDbLine
  10
6.357069
  20
-1.041081
  30
0
  11
6.336069
  21
-1.016103
  31
0
  0
LINE
  5
68a
  100
AcDbEntity
  8
1
  100
AcDbLine
  10
6.336069
  20
-1.016103
  30
0
  11
6.315069
  21
-0.972423
  31
0
  0
LINE
  5
68b
  100
AcDbEntity
  8
1
  100
AcDbLine
  10
6.315069
  20
-0.972423
  30
0
  11
6.294069
  21
-0.897191
  31
0
  0
LINE
  5
68c
  100
AcDbEntity
  8
1
  100
AcDbLine
  10
6.294069
  20
-0.897191
  30
0
  11
6.273069
  21
-0.769413
  31
0
  0
LINE
  5
68d
  100
AcDbEntity
  8
1
  100
AcDbLine
  10
6.273069
  20
-0.769413
  30
0
  11
6.252069
  21
-0.556506
  31
0
  0
LINE
  5
68e
  100
AcDbEntity
  8
1
  100
AcDbLine
  10
6.252069
  20
-0.556506
  30
0
  11
6.231069
  21
-0.214982
  31
0
  0
LINE
  5
68f
  100
AcDbEntity
  8
1
  100
AcDbLine
  10
6.231069
  20
-0.214982
  30
0
  11
6.231069
  21
-0.147531
  31
0
  0
LINE
  5
690
  100
AcDbEntity
  8
1
  100
AcDbLine
  10
6.231069
  20
-0.147531
  30
0
  11
6.252069
  21
0.214476
  31
0
  0
LINE
  5
691
  100
AcDbEntity
  8
1
  100
AcDbLine
  10
6.252069
  20
0.214476
  30
0
  11
6.273069
  21
0.359919
  31
0
  0
LINE
  5
692
  100
AcDbEntity
  8
1
  100
AcDbLine
  10
6.273069
  20
0.359919
  30
0
  11
6.294069
  21
0.408707
  31
0
  0
LINE
  5
693
  100
AcDbEntity
  8
1
  100
AcDbLine
  10
6.294069
  20
0.408707
  30
0
  11
6.315069
  21
0.417209
  31
0
  0
LINE
  5
694
  100
AcDbEntity
  8
1
  100
AcDbLine
  10
6.315069
  20
0.417209
  30
0
  11
6.336069
  21
0.409906
  31
0
  0
LINE
  5
695
  100
AcDbEntity
  8
1
  100
AcDbLine
  10
6.336069
  20
0.409906
  30
0
  11
6.357069
  21
0.396917
  31
0
  0
LINE
  5
696
  100
AcDbEntity
  8
1
  100
AcDbLine
  10
6.357069
  20
0.396917
  30
0
  11
6.378069
  21
0.382127
  31
0
  0
LINE
  5
697
  100
AcDbEntity
  8
1
  100
AcDbLine
  10
6.378069
  20
0.382127
  30
0
  11
6.399069
  21
0.366881
  31
0
  0
LINE
  5
698
  100
AcDbEntity
  8
1
  100
AcDbLine
  10
6.399069
  20
0.366881
  30
0
  11
6.420069
  21
0.351589
  31
0
  0
LINE
  5
699
  100
AcDbEntity
  8
1
  100
AcDbLine
  10
6.420069
  20
0.351589
  30
0
  11
6.441069
  21
0.336356
  31
0
  0
LINE
  5
69a
  100
AcDbEntity
  8
1
  100
AcDbLine
  10
6.441069
  20
0.336356
  30
0
  11
6.462069
  21
0.321206
  31
0
  0
LINE
  5
69b
  100
AcDbEntity
  8
1
  100
AcDbLine
  10
6.462069
  20
0.321206
  30
0
  11
6.483069
  21
0.306144
  31
0
  0
LINE
  5
69c
  100
AcDbEntity
  8
1
  100
AcDbLine
  10
6.483069
  20
0.306144
  30
0
  11
6.504069
  21
0.291172
  31
0
  0
LINE
  5
69d
  100
AcDbEntity
  8
1
  100
AcDbLine
  10
6.504069
  20
0.291172
  30
0
  11
6.525069
  21
0.276293
  31
0
  0
LINE
  5
69e
  100
AcDbEntity
  8
1
  100
AcDbLine
  10
6.525069
  20
0.276293
  30
0
  11
6.546069
  21
0.261799
  31
0
  0
LINE
  5
69f
  100
AcDbEntity
  8
1
  100
AcDbLine
  10
6.546069
  20
0.261799
  30
0
  11
6.567069
  21
0.247403
  31
0
  0
LINE
  5
6a0
  100
AcDbEntity
  8
1
  100
AcDbLine
  10
6.567069
  20
0.247403
  30
0
  11
6.588069
  21
0.232972
  31
0
  0
LINE
  5
6a1
  100
AcDbEntity
  8
1
  100
AcDbLine
  10
6.588069
  20
0.232972
  30
0
  11
6.609069
  21
0.21851
  31
0
  0
LINE
  5
6a2
  100
AcDbEntity
  8
1
  100
AcDbLine
  10
6.609069
  20
0.21851
  30
0
  11
6.630069
  21
0.204017
  31
0
  0
LINE
  5
6a3
  100
AcDbEntity
  8
1
  100
AcDbLine
  10
6.630069
  20
0.204017
  30
0
  11
6.651069
  21
0.189496
  31
0
  0
LINE
  5
6a4
  100
AcDbEntity
  8
1
  100
AcDbLine
  10
6.651069
  20
0.189496
  30
0
  11
6.672069
  21
0.174949
  31
0
  0
LINE
  5
6a5
  100
AcDbEntity
  8
1
  100
AcDbLine
  10
6.672069
  20
0.174949
  30
0
  11
6.693069
  21
0.160377
  31
0
  0
LINE
  5
6a6
  100
AcDbEntity
  8
1
  100
AcDbLine
  10
6.693069
  20
0.160377
  30
0
  11
6.714069
  21
0.145784
  31
0
  0
LINE
  5
6a7
  100
AcDbEntity
  8
1
  100
AcDbLine
  10
6.714069
  20
0.145784
  30
0
  11
6.735069
  21
0.13117
  31
0
  0
LINE
  5
6a8
  100
AcDbEntity
  8
1
  100
AcDbLine
  10
6.735069
  20
0.13117
  30
0
  11
6.756069
  21
0.116538
  31
0
  0
LINE
  5
6a9
  100
AcDbEntity
  8
1
  100
AcDbLine
  10
6.756069
  20
0.116538
  30
0
  11
6.777069
  21
0.10189
  31
0
  0
LINE
  5
6aa
  100
AcDbEntity
  8
1
  100
AcDbLine
  10
6.777069
  20
0.10189
  30
0
  11
6.798069
  21
0.087228
  31
0
  0
LINE
  5
6ab
  100
AcDbEntity
  8
1
  100
AcDbLine
  10
6.798069
  20
0.087228
  30
0
  11
6.819069
  21
0.072554
  31
0
  0
LINE
  5
6ac
  100
AcDbEntity
  8
1
  100
AcDbLine
  10
6.819069
  20
0.072554
  30
0
  11
6.840069
  21
0.05787
  31
0
  0
LINE
  5
6ad
  100
AcDbEntity
  8
1
  100
AcDbLine
  10
6.840069
  20
0.05787
  30
0
  11
6.861069
  21
0.043177
  31
0
  0
LINE
  5
6ae
  100
AcDbEntity
  8
1
  100
AcDbLine
  10
6.861069
  20
0.043177
  30
0
  11
6.882069
  21
0.028479
  31
0
  0
LINE
  5
6af
  100
AcDbEntity
  8
1
  100
AcDbLine
  10
6.882069
  20
0.028479
  30
0
  11
6.903069
  21
0.013777
  31
0
  0
LINE
  5
6b0
  100
AcDbEntity
  8
1
  100
AcDbLine
  10
6.903069
  20
0.013777
  30
0
  11
6.924069
  21
-0.000927
  31
0
  0
LINE
  5
6b1
  100
AcDbEntity
  8
1
  100
AcDbLine
  10
6.924069
  20
-0.000927
  30
0
  11
6.945069
  21
-0.015631
  31
0
  0
LINE
  5
6b2
  100
AcDbEntity
  8
1
  100
AcDbLine
  10
6.945069
  20
-0.015631
  30
0
  11
6.966069
  21
-0.030333
  31
0
  0
LINE
  5
6b3
  100
AcDbEntity
  8
1
  100
AcDbLine
  10
6.966069
  20
-0.030333
  30
0
  11
6.987069
  21
-0.04503
  31
0
  0
LINE
  5
6b4
  100
AcDbEntity
  8
1
  100
AcDbLine
  10
6.987069
  20
-0.04503
  30
0
  11
7.008069
  21
-0.059722
  31
0
  0
LINE
  5
6b5
  100
AcDbEntity
  8
1
  100
AcDbLine
  10
7.008069
  20
-0.059722
  30
0
  11
7.029069
  21
-0.074405
  31
0
  0
LINE
  5
6b6
  100
AcDbEntity
  8
1
  100
AcDbLine
  10
7.029069
  20
-0.074405
  30
0
  11
7.050069
  21
-0.089078
  31
0
  0
LINE
  5
6b7
  100
AcDbEntity
  8
1
  100
AcDbLine
  10
7.050069
  20
-0.089078
  30
0
  11
7.071069
  21
-0.103738
  31
0
  0
LINE
  5
6b8
  100
AcDbEntity
  8
1
  100
AcDbLine
  10
7.071069
  20
-0.103738
  30
0
  11
7.092069
  21
-0.118384
  31
0
  0
LINE
  5
6b9
  100
AcDbEntity
  8
1
  100
AcDbLine
  10
7.092069
  20
-0.118384
  30
0
  11
7.113069
  21
-0.133014
  31
0
  0
LINE
  5
6ba
  100
AcDbEntity
  8
1
  100
AcDbLine
  10
7.113069
  20
-0.133014
  30
0
  11
7.134069
  21
-0.147625
  31
0
  0
LINE
  5
6bb
  100
AcDbEntity
  8
1
  100
AcDbLine
  10
7.134069
  20
-0.147625
  30
0
  11
7.155069
  21
-0.162216
  31
0
  0
LINE
  5
6bc
  100
AcDbEntity
  8
1
  100
AcDbLine
  10
7.155069
  20
-0.162216
  30
0
  11
7.176069
  21
-0.176785
  31
0
  0
LINE
  5
6bd
  100
AcDbEntity
  8
1
  100
AcDbLine
  10
7.176069
  20
-0.176785
  30
0
  11
7.197069
  21
-0.191329
  31
0
  0
LINE
  5
6be
  100
AcDbEntity
  8
1
  100
AcDbLine
  10
7.197069
  20
-0.191329
  30
0
  11
7.218069
  21
-0.205846
  31
0
  0
LINE
  5
6bf
  100
AcDbEntity
  8
1
  100
AcDbLine
  10
7.218069
  20
-0.205846
  30
0
  11
7.239069
  21
-0.220335
  31
0
  0
LINE
  5
6c0
  100
AcDbEntity
  8
1
  100
AcDbLine
  10
7.239069
  20
-0.220335
  30
0
  11
7.260069
  21
-0.234794
  31
0
  0
LINE
  5
6c1
  100
AcDbEntity
  8
1
  100
AcDbLine
  10
7.260069
  20
-0.234794
  30
0
  11
7.281069
  21
-0.24922
  31
0
  0
LINE
  5
6c2
  100
AcDbEntity
  8
1
  100
AcDbLine
  10
7.281069
  20
-0.24922
  30
0
  11
7.302069
  21
-0.263611
  31
0
  0
LINE
  5
6c3
  100
AcDbEntity
  8
1
  100
AcDbLine
  10
7.302069
  20
-0.263611
  30
0
  11
7.323069
  21
-0.277967
  31
0
  0
LINE
  5
6c4
  100
AcDbEntity
  8
1
  100
AcDbLine
  10
7.323069
  20
-0.277967
  30
0
  11
7.344069
  21
-0.292283
  31
0
  0
LINE
  5
6c5
  100
AcDbEntity
  8
1
  100
AcDbLine
  10
7.344069
  20
-0.292283
  30
0
  11
7.365069
  21
-0.306559
  31
0
  0
LINE
  5
6c6
  100
AcDbEntity
  8
1
  100
AcDbLine
  10
7.365069
  20
-0.306559
  30
0
  11
7.386069
  21
-0.320793
  31
0
  0
LINE
  5
6c7
  100
AcDbEntity
  8
1
  100
AcDbLine
  10
7.386069
  20
-0.320793
  30
0
  11
7.407069
  21
-0.334982
  31
0
  0
LINE
  5
6c8
  100
AcDbEntity
  8
1
  100
AcDbLine
  10
7.407069
  20
-0.334982
  30
0
  11
7.428069
  21
-0.349125
  31
0
  0
LINE
  5
6c9
  100
AcDbEntity
  8
1
  100
AcDbLine
  10
7.428069
  20
-0.349125
  30
0
  11
7.449069
  21
-0.36322
  31
0
  0
LINE
  5
6ca
  100
AcDbEntity
  8
1
  100
AcDbLine
  10
7.449069
  20
-0.36322
  30
0
  11
7.470069
  21
-0.377265
  31
0
  0
LINE
  5
6cb
  100
AcDbEntity
  8
1
  100
AcDbLine
  10
7.470069
  20
-0.377265
  30
0
  11
7.491069
  21
-0.391257
  31
0
  0
LINE
  5
6cc
  100
AcDbEntity
  8
1
  100
AcDbLine
  10
7.491069
  20
-0.391257
  30
0
  11
7.512069
  21
-0.405195
  31
0
  0
LINE
  5
6cd
  100
AcDbEntity
  8
1
  100
AcDbLine
  10
7.512069
  20
-0.405195
  30
0
  11
7.533069
  21
-0.419077
  31
0
  0
LINE
  5
6ce
  100
AcDbEntity
  8
1
  100
AcDbLine
  10
7.533069
  20
-0.419077
  30
0
  11
7.554069
  21
-0.432901
  31
0
  0
LINE
  5
6cf
  100
AcDbEntity
  8
1
  100
AcDbLine
  10
7.554069
  20
-0.432901
  30
0
  11
7.575069
  21
-0.446665
  31
0
  0
LINE
  5
6d0
  100
AcDbEntity
  8
1
  100
AcDbLine
  10
7.575069
  20
-0.446665
  30
0
  11
7.596069
  21
-0.460367
  31
0
  0
LINE
  5
6d1
  100
AcDbEntity
  8
1
  100
AcDbLine
  10
7.596069
  20
-0.460367
  30
0
  11
7.617069
  21
-0.474006
  31
0
  0
LINE
  5
6d2
  100
AcDbEntity
  8
1
  100
AcDbLine
  10
7.617069
  20
-0.474006
  30
0
  11
7.638069
  21
-0.487579
  31
0
  0
LINE
  5
6d3
  100
AcDbEntity
  8
1
  100
AcDbLine
  10
7.638069
  20
-0.487579
  30
0
  11
7.659069
  21
-0.501085
  31
0
  0
LINE
  5
6d4
  100
AcDbEntity
  8
1
  100
AcDbLine
  10
7.659069
  20
-0.501085
  30
0
  11
7.680069
  21
-0.514521
  31
0
  0
LINE
  5
6d5
  100
AcDbEntity
  8
1
  100
AcDbLine
  10
7.680069
  20
-0.514521
  30
0
  11
7.701069
  21
-0.527886
  31
0
  0
LINE
  5
6d6
  100
AcDbEntity
  8
1
  100
AcDbLine
  10
7.701069
  20
-0.527886
  30
0
  11
7.722069
  21
-0.541178
  31
0
  0
LINE
  5
6d7
  100
AcDbEntity
  8
1
  100
AcDbLine
  10
7.722069
  20
-0.541178
  30
0
  11
7.743069
  21
-0.554395
  31
0
  0
LINE
  5
6d8
  100
AcDbEntity
  8
1
  100
AcDbLine
  10
7.743069
  20
-0.554395
  30
0
  11
7.764069
  21
-0.567535
  31
0
  0
LINE
  5
6d9
  100
AcDbEntity
  8
1
  100
AcDbLine
  10
7.764069
  20
-0.567535
  30
0
  11
7.785069
  21
-0.580597
  31
0
  0
LINE
  5
6da
  100
AcDbEntity
  8
1
  100
AcDbLine
  10
7.785069
  20
-0.580597
  30
0
  11
7.806069
  21
-0.593579
  31
0
  0
LINE
  5
6db
  100
AcDbEntity
  8
1
  100
AcDbLine
  10
7.806069
  20
-0.593579
  30
0
  11
7.827069
  21
-0.606478
  31
0
  0
LINE
  5
6dc
  100
AcDbEntity
  8
1
  100
AcDbLine
  10
7.827069
  20
-0.606478
  30
0
  11
7.848069
  21
-0.619293
  31
0
  0
LINE
  5
6dd
  100
AcDbEntity
  8
1
  100
AcDbLine
  10
7.848069
  20
-0.619293
  30
0
  11
7.869069
  21
-0.632023
  31
0
  0
LINE
  5
6de
  100
AcDbEntity
  8
1
  100
AcDbLine
  10
7.869069
  20
-0.632023
  30
0
  11
7.890069
  21
-0.644665
  31
0
  0
LINE
  5
6df
  100
AcDbEntity
  8
1
  100
AcDbLine
  10
7.890069
  20
-0.644665
  30
0
  11
7.911069
  21
-0.657218
  31
0
  0
LINE
  5
6e0
  100
AcDbEntity
  8
1
  100
AcDbLine
  10
7.911069
  20
-0.657218
  30
0
  11
7.932069
  21
-0.66968
  31
0
  0
LINE
  5
6e1
  100
AcDbEntity
  8
1
  100
AcDbLine
  10
7.932069
  20
-0.66968
  30
0
  11
7.953069
  21
-0.68205
  31
0
  0
LINE
  5
6e2
  100
AcDbEntity
  8
1
  100
AcDbLine
  10
7.953069
  20
-0.68205
  30
0
  11
7.974069
  21
-0.694325
  31
0
  0
LINE
  5
6e3
  100
AcDbEntity
  8
1
  100
AcDbLine
  10
7.974069
  20
-0.694325
  30
0
  11
7.995069
  21
-0.706504
  31
0
  0
LINE
  5
6e4
  100
AcDbEntity
  8
1
  100
AcDbLine
  10
7.995069
  20
-0.706504
  30
0
  11
8.016069
  21
-0.718585
  31
0
  0
LINE
  5
6e5
  100
AcDbEntity
  8
1
  100
AcDbLine
  10
8.016069
  20
-0.718585
  30
0
  11
8.037069
  21
-0.730567
  31
0
  0
LINE
  5
6e6
  100
AcDbEntity
  8
1
  100
AcDbLine
  10
8.037069
  20
-0.730567
  30
0
  11
8.058069
  21
-0.742448
  31
0
  0
LINE
  5
6e7
  100
AcDbEntity
  8
1
  100
AcDbLine
  10
8.058069
  20
-0.742448
  30
0
  11
8.079069
  21
-0.754226
  31
0
  0
LINE
  5
6e8
  100
AcDbEntity
  8
1
  100
AcDbLine
  10
8.079069
  20
-0.754226
  30
0
  11
8.100069
  21
-0.765899
  31
0
  0
LINE
  5
6e9
  100
AcDbEntity
  8
1
  100
AcDbLine
  10
8.100069
  20
-0.765899
  30
0
  11
8.121069
  21
-0.777467
  31
0
  0
LINE
  5
6ea
  100
AcDbEntity
  8
1
  100
AcDbLine
  10
8.121069
  20
-0.777467
  30
0
  11
8.142069
  21
-0.788927
  31
0
  0
LINE
  5
6eb
  100
AcDbEntity
  8
1
  100
AcDbLine
  10
8.142069
  20
-0.788927
  30
0
  11
8.163069
  21
-0.800278
  31
0
  0
LINE
  5
6ec
  100
AcDbEntity
  8
1
  100
AcDbLine
  10
8.163069
  20
-0.800278
  30
0
  11
8.184069
  21
-0.811518
  31
0
  0
LINE
  5
6ed
  100
AcDbEntity
  8
1
  100
AcDbLine
  10
8.184069
  20
-0.811518
  30
0
  11
8.205069
  21
-0.822646
  31
0
  0
LINE
  5
6ee
  100
AcDbEntity
  8
1
  100
AcDbLine
  10
8.205069
  20
-0.822646
  30
0
  11
8.226069
  21
-0.83366
  31
0
  0
LINE
  5
6ef
  100
AcDbEntity
  8
1
  100
AcDbLine
  10
8.226069
  20
-0.83366
  30
0
  11
8.247069
  21
-0.844558
  31
0
  0
LINE
  5
6f0
  100
AcDbEntity
  8
1
  100
AcDbLine
  10
8.247069
  20
-0.844558
  30
0
  11
8.268069
  21
-0.85534
  31
0
  0
LINE
  5
6f1
  100
AcDbEntity
  8
1
  100
AcDbLine
  10
8.268069
  20
-0.85534
  30
0
  11
8.289069
  21
-0.866003
  31
0
  0
LINE
  5
6f2
  100
AcDbEntity
  8
1
  100
AcDbLine
  10
8.289069
  20
-0.866003
  30
0
  11
8.310069
  21
-0.876547
  31
0
  0
LINE
  5
6f3
  100
AcDbEntity
  8
1
  100
AcDbLine
  10
8.310069
  20
-0.876547
  30
0
  11
8.331069
  21
-0.886969
  31
0
  0
LINE
  5
6f4
  100
AcDbEntity
  8
1
  100
AcDbLine
  10
8.331069
  20
-0.886969
  30
0
  11
8.352069
  21
-0.897269
  31
0
  0
LINE
  5
6f5
  100
AcDbEntity
  8
1
  100
AcDbLine
  10
8.352069
  20
-0.897269
  30
0
  11
8.373069
  21
-0.907444
  31
0
  0
LINE
  5
6f6
  100
AcDbEntity
  8
1
  100
AcDbLine
  10
8.373069
  20
-0.907444
  30
0
  11
8.394069
  21
-0.917494
  31
0
  0
LINE
  5
6f7
  100
AcDbEntity
  8
1
  100
AcDbLine
  10
8.394069
  20
-0.917494
  30
0
  11
8.415069
  21
-0.927417
  31
0
  0
LINE
  5
6f8
  100
AcDbEntity
  8
1
  100
AcDbLine
  10
8.415069
  20
-0.927417
  30
0
  11
8.436069
  21
-0.937211
  31
0
  0
LINE
  5
6f9
  100
AcDbEntity
  8
1
  100
AcDbLine
  10
8.436069
  20
-0.937211
  30
0
  11
8.457069
  21
-0.946876
  31
0
  0
LINE
  5
6fa
  100
AcDbEntity
  8
1
  100
AcDbLine
  10
8.457069
  20
-0.946876
  30
0
  11
8.478069
  21
-0.95641
  31
0
  0
LINE
  5
6fb
  100
AcDbEntity
  8
1
  100
AcDbLine
  10
8.478069
  20
-0.95641
  30
0
  11
8.499069
  21
-0.965811
  31
0
  0
LINE
  5
6fc
  100
AcDbEntity
  8
1
  100
AcDbLine
  10
8.499069
  20
-0.965811
  30
0
  11
8.520069
  21
-0.975079
  31
0
  0
LINE
  5
6fd
  100
AcDbEntity
  8
1
  100
AcDbLine
  10
8.520069
  20
-0.975079
  30
0
  11
8.541069
  21
-0.984212
  31
0
  0
LINE
  5
6fe
  100
AcDbEntity
  8
1
  100
AcDbLine
  10
8.541069
  20
-0.984212
  30
0
  11
8.562069
  21
-0.993208
  31
0
  0
LINE
  5
6ff
  100
AcDbEntity
  8
1
  100
AcDbLine
  10
8.562069
  20
-0.993208
  30
0
  11
8.583069
  21
-1.002068
  31
0
  0
LINE
  5
700
  100
AcDbEntity
  8
1
  100
AcDbLine
  10
8.583069
  20
-1.002068
  30
0
  11
8.604069
  21
-1.010788
  31
0
  0
LINE
  5
701
  100
AcDbEntity
  8
1
  100
AcDbLine
  10
8.604069
  20
-1.010788
  30
0
  11
8.625069
  21
-1.019369
  31
0
  0
LINE
  5
702
  100
AcDbEntity
  8
1
  100
AcDbLine
  10
8.625069
  20
-1.019369
  30
0
  11
8.646069
  21
-1.027809
  31
0
  0
LINE
  5
703
  100
AcDbEntity
  8
1
  100
AcDbLine
  10
8.646069
  20
-1.027809
  30
0
  11
8.667069
  21
-1.036106
  31
0
  0
LINE
  5
704
  100
AcDbEntity
  8
1
  100
AcDbLine
  10
8.667069
  20
-1.036106
  30
0
  11
8.688069
  21
-1.04426
  31
0
  0
LINE
  5
705
  100
AcDbEntity
  8
1
  100
AcDbLine
  10
8.688069
  20
-1.04426
  30
0
  11
8.709069
  21
-1.052269
  31
0
  0
LINE
  5
706
  100
AcDbEntity
  8
1
  100
AcDbLine
  10
8.709069
  20
-1.052269
  30
0
  11
8.730069
  21
-1.060133
  31
0
  0
LINE
  5
707
  100
AcDbEntity
  8
1
  100
AcDbLine
  10
8.730069
  20
-1.060133
  30
0
  11
8.751069
  21
-1.067851
  31
0
  0
LINE
  5
708
  100
AcDbEntity
  8
1
  100
AcDbLine
  10
8.751069
  20
-1.067851
  30
0
  11
8.772069
  21
-1.07542
  31
0
  0
LINE
  5
709
  100
AcDbEntity
  8
1
  100
AcDbLine
  10
8.772069
  20
-1.07542
  30
0
  11
8.793069
  21
-1.082841
  31
0
  0
LINE
  5
70a
  100
AcDbEntity
  8
1
  100
AcDbLine
  10
8.793069
  20
-1.082841
  30
0
  11
8.814069
  21
-1.090111
  31
0
  0
LINE
  5
70b
  100
AcDbEntity
  8
1
  100
AcDbLine
  10
8.814069
  20
-1.090111
  30
0
  11
8.835069
  21
-1.097231
  31
0
  0
LINE
  5
70c
  100
AcDbEntity
  8
1
  100
AcDbLine
  10
8.835069
  20
-1.097231
  30
0
  11
8.856069
  21
-1.1042
  31
0
  0
LINE
  5
70d
  100
AcDbEntity
  8
1
  100
AcDbLine
  10
8.856069
  20
-1.1042
  30
0
  11
8.877069
  21
-1.111015
  31
0
  0
LINE
  5
70e
  100
AcDbEntity
  8
1
  100
AcDbLine
  10
8.877069
  20
-1.111015
  30
0
  11
8.898069
  21
-1.117676
  31
0
  0
LINE
  5
70f
  100
AcDbEntity
  8
1
  100
AcDbLine
  10
8.898069
  20
-1.117676
  30
0
  11
8.919069
  21
-1.124183
  31
0
  0
LINE
  5
710
  100
AcDbEntity
  8
1
  100
AcDbLine
  10
8.919069
  20
-1.124183
  30
0
  11
8.940069
  21
-1.130535
  31
0
  0
LINE
  5
711
  100
AcDbEntity
  8
1
  100
AcDbLine
  10
8.940069
  20
-1.130535
  30
0
  11
8.961069
  21
-1.13673
  31
0
  0
LINE
  5
712
  100
AcDbEntity
  8
1
  100
AcDbLine
  10
8.961069
  20
-1.13673
  30
0
  11
8.982069
  21
-1.142767
  31
0
  0
LINE
  5
713
  100
AcDbEntity
  8
1
  100
AcDbLine
  10
8.982069
  20
-1.142767
  30
0
  11
9.003069
  21
-1.148647
  31
0
  0
LINE
  5
714
  100
AcDbEntity
  8
1
  100
AcDbLine
  10
9.003069
  20
-1.148647
  30
0
  11
9.024069
  21
-1.154367
  31
0
  0
LINE
  5
715
  100
AcDbEntity
  8
1
  100
AcDbLine
  10
9.024069
  20
-1.154367
  30
0
  11
9.045069
  21
-1.159928
  31
0
  0
LINE
  5
716
  100
AcDbEntity
  8
1
  100
AcDbLine
  10
9.045069
  20
-1.159928
  30
0
  11
9.066069
  21
-1.165328
  31
0
  0
LINE
  5
717
  100
AcDbEntity
  8
1
  100
AcDbLine
  10
9.066069
  20
-1.165328
  30
0
  11
9.087069
  21
-1.170567
  31
0
  0
LINE
  5
718
  100
AcDbEntity
  8
1
  100
AcDbLine
  10
9.087069
  20
-1.170567
  30
0
  11
9.108069
  21
-1.175644
  31
0
  0
LINE
  5
719
  100
AcDbEntity
  8
1
  100
AcDbLine
  10
9.108069
  20
-1.175644
  30
0
  11
9.129069
  21
-1.180559
  31
0
  0
LINE
  5
71a
  100
AcDbEntity
  8
1
  100
AcDbLine
  10
9.129069
  20
-1.180559
  30
0
  11
9.150069
  21
-1.18531
  31
0
  0
LINE
  5
71b
  100
AcDbEntity
  8
1
  100
AcDbLine
  10
9.150069
  20
-1.18531
  30
0
  11
9.171069
  21
-1.189897
  31
0
  0
LINE
  5
71c
  100
AcDbEntity
  8
1
  100
AcDbLine
  10
9.171069
  20
-1.189897
  30
0
  11
9.192069
  21
-1.194319
  31
0
  0
LINE
  5
71d
  100
AcDbEntity
  8
1
  100
AcDbLine
  10
9.192069
  20
-1.194319
  30
0
  11
9.213069
  21
-1.198576
  31
0
  0
LINE
  5
71e
  100
AcDbEntity
  8
1
  100
AcDbLine
  10
9.213069
  20
-1.198576
  30
0
  11
9.234069
  21
-1.202667
  31
0
  0
LINE
  5
71f
  100
AcDbEntity
  8
1
  100
AcDbLine
  10
9.234069
  20
-1.202667
  30
0
  11
9.255069
  21
-1.206592
  31
0
  0
LINE
  5
720
  100
AcDbEntity
  8
1
  100
AcDbLine
  10
9.255069
  20
-1.206592
  30
0
  11
9.276069
  21
-1.21035
  31
0
  0
LINE
  5
721
  100
AcDbEntity
  8
1
  100
AcDbLine
  10
9.276069
  20
-1.21035
  30
0
  11
9.297069
  21
-1.21394
  31
0
  0
LINE
  5
722
  100
AcDbEntity
  8
1
  100
AcDbLine
  10
9.297069
  20
-1.21394
  30
0
  11
9.318069
  21
-1.217362
  31
0
  0
LINE
  5
723
  100
AcDbEntity
  8
1
  100
AcDbLine
  10
9.318069
  20
-1.217362
  30
0
  11
9.339069
  21
-1.220616
  31
0
  0
LINE
  5
724
  100
AcDbEntity
  8
1
  100
AcDbLine
  10
9.339069
  20
-1.220616
  30
0
  11
9.360069
  21
-1.223701
  31
0
  0
LINE
  5
725
  100
AcDbEntity
  8
1
  100
AcDbLine
  10
9.360069
  20
-1.223701
  30
0
  11
9.381069
  21
-1.226617
  31
0
  0
LINE
  5
726
  100
AcDbEntity
  8
1
  100
AcDbLine
  10
9.381069
  20
-1.226617
  30
0
  11
9.402069
  21
-1.229363
  31
0
  0
LINE
  5
727
  100
AcDbEntity
  8
1
  100
AcDbLine
  10
9.402069
  20
-1.229363
  30
0
  11
9.423069
  21
-1.231939
  31
0
  0
LINE
  5
728
  100
AcDbEntity
  8
1
  100
AcDbLine
  10
9.423069
  20
-1.231939
  30
0
  11
9.444069
  21
-1.234344
  31
0
  0
LINE
  5
729
  100
AcDbEntity
  8
1
  100
AcDbLine
  10
9.444069
  20
-1.234344
  30
0
  11
9.465069
  21
-1.236579
  31
0
  0
LINE
  5
72a
  100
AcDbEntity
  8
1
  100
AcDbLine
  10
9.465069
  20
-1.236579
  30
0
  11
9.486069
  21
-1.238642
  31
0
  0
LINE
  5
72b
  100
AcDbEntity
  8
1
  100
AcDbLine
  10
9.486069
  20
-1.238642
  30
0
  11
9.507069
  21
-1.240534
  31
0
  0
LINE
  5
72c
  100
AcDbEntity
  8
1
  100
AcDbLine
  10
9.507069
  20
-1.240534
  30
0
  11
9.528069
  21
-1.242254
  31
0
  0
LINE
  5
72d
  100
AcDbEntity
  8
1
  100
AcDbLine
  10
9.528069
  20
-1.242254
  30
0
  11
9.549069
  21
-1.243803
  31
0
  0
LINE
  5
72e
  100
AcDbEntity
  8
1
  100
AcDbLine
  10
9.549069
  20
-1.243803
  30
0
  11
9.570069
  21
-1.245179
  31
0
  0
LINE
  5
72f
  100
AcDbEntity
  8
1
  100
AcDbLine
  10
9.570069
  20
-1.245179
  30
0
  11
9.591069
  21
-1.246383
  31
0
  0
LINE
  5
730
  100
AcDbEntity
  8
1
  100
AcDbLine
  10
9.591069
  20
-1.246383
  30
0
  11
9.612069
  21
-1.247415
  31
0
  0
LINE
  5
731
  100
AcDbEntity
  8
1
  100
AcDbLine
  10
9.612069
  20
-1.247415
  30
0
  11
9.633069
  21
-1.248273
  31
0
  0
LINE
  5
732
  100
AcDbEntity
  8
1
  100
AcDbLine
  10
9.633069
  20
-1.248273
  30
0
  11
9.654069
  21
-1.24896
  31
0
  0
LINE
  5
733
  100
AcDbEntity
  8
1
  100
AcDbLine
  10
9.654069
  20
-1.24896
  30
0
  11
9.675069
  21
-1.249473
  31
0
  0
LINE
  5
734
  100
AcDbEntity
  8
1
  100
AcDbLine
  10
9.675069
  20
-1.249473
  30
0
  11
9.696069
  21
-1.249814
  31
0
  0
LINE
  5
735
  100
AcDbEntity
  8
1
  100
AcDbLine
  10
9.696069
  20
-1.249814
  30
0
  11
9.717069
  21
-1.249981
  31
0
  0
LINE
  5
736
  100
AcDbEntity
  8
1
  100
AcDbLine
  10
9.717069
  20
-1.249981
  30
0
  11
9.726907
  21
-1.25
  31
0
  0
LINE
  5
737
  100
AcDbEntity
  8
1
  100
AcDbLine
  10
12.511069
  20
-1.25
  30
0
  11
12.511069
  21
1.25
  31
0
  0
LINE
  5
738
  100
AcDbEntity
  8
1
  100
AcDbLine
  10
12.511069
  20
1.25
  30
0
  11
12.511069
  21
-1.25
  31
0
  0
LINE
  5
739
  100
AcDbEntity
  8
SK1
  100
AcDbLine
  10
-0
  20
3
  30
0
  11
-17.068931
  21
3
  31
0
  0
LINE
  5
73a
  100
AcDbEntity
  8
SK1
  100
AcDbLine
  10
-17.068931
  20
3
  30
0
  11
-17.968931
  21
2.1
  31
0
  0
LINE
  5
73b
  100
AcDbEntity
  8
SK1
  100
AcDbLine
  10
-17.968931
  20
2.1
  30
0
  11
-25.968931
  21
2.1
  31
0
  0
LINE
  5
73c
  100
AcDbEntity
  8
SK1
  100
AcDbLine
  10
-25.968931
  20
2.1
  30
0
  11
-26.868931
  21
3
  31
0
  0
LINE
  5
73d
  100
AcDbEntity
  8
SK1
  100
AcDbLine
  10
-26.868931
  20
3
  30
0
  11
-43.768931
  21
3
  31
0
  0
LINE
  5
73e
  100
AcDbEntity
  8
SK1
  100
AcDbLine
  10
-43.768931
  20
3
  30
0
  11
-44.468931
  21
2.3
  31
0
  0
LINE
  5
73f
  100
AcDbEntity
  8
SK1
  100
AcDbLine
  10
-0
  20
-3
  30
0
  11
-43.768931
  21
-3
  31
0
  0
LINE
  5
740
  100
AcDbEntity
  8
SK1
  100
AcDbLine
  10
-43.768931
  20
-3
  30
0
  11
-44.468931
  21
-2.3
  31
0
  0
LINE
  5
741
  100
AcDbEntity
  8
SK1
  100
AcDbLine
  10
-0
  20
3
  30
0
  11
-0
  21
-3
  31
0
  0
LINE
  5
742
  100
AcDbEntity
  8
SK1
  100
AcDbLine
  10
-0
  20
3
  30
0
  11
-0
  21
-3
  31
0
  0
LINE
  5
743
  100
AcDbEntity
  8
SK1
  100
AcDbLine
  10
-43.768931
  20
3
  30
0
  11
-43.768931
  21
-3
  31
0
  0
LINE
  5
744
  100
AcDbEntity
  8
SK1
  100
AcDbLine
  10
-44.468931
  20
2.3
  30
0
  11
-44.468931
  21
-2.3
  31
0
  0
LINE
  5
78b
  100
AcDbEntity
  8
NOCUT
  100
AcDbLine
  10
6.531069
  20
0
  30
0
  11
6.531069
  21
1.25
  31
0
  0
LINE
  5
78c
  100
AcDbEntity
  8
NOCUT
  100
AcDbLine
  10
6.531069
  20
1.25
  30
0
  11
-0
  21
3
  31
0
  0
LINE
  5
78d
  100
AcDbEntity
  8
NOCUT
  100
AcDbLine
  10
-0
  20
3
  30
0
  11
-17.068931
  21
3
  31
0
  0
LINE
  5
78e
  100
AcDbEntity
  8
NOCUT
  100
AcDbLine
  10
-17.068931
  20
3
  30
0
  11
-17.968931
  21
2.1
  31
0
  0
LINE
  5
78f
  100
AcDbEntity
  8
NOCUT
  100
AcDbLine
  10
-17.968931
  20
2.1
  30
0
  11
-25.968931
  21
2.1
  31
0
  0
LINE
  5
790
  100
AcDbEntity
  8
NOCUT
  100
AcDbLine
  10
-25.968931
  20
2.1
  30
0
  11
-26.868931
  21
3
  31
0
  0
LINE
  5
791
  100
AcDbEntity
  8
NOCUT
  100
AcDbLine
  10
-26.868931
  20
3
  30
0
  11
-43.768931
  21
3
  31
0
  0
LINE
  5
792
  100
AcDbEntity
  8
NOCUT
  100
AcDbLine
  10
-43.768931
  20
3
  30
0
  11
-44.468931
  21
2.3
  31
0
  0
LINE
  5
793
  100
AcDbEntity
  8
NOCUT
  100
AcDbLine
  10
-44.468931
  20
2.3
  30
0
  11
-44.468931
  21
0
  31
0
  0
LINE
  5
794
  100
AcDbEntity
  8
NOCUT
  100
AcDbLine
  10
-44.468931
  20
0
  30
0
  11
6.531069
  21
0
  31
0
  0
LINE
  5
795
  100
AcDbEntity
  8
CUT
  100
AcDbLine
  10
12.531069
  20
0
  30
0
  11
12.531069
  21
1.23
  31
0
  0
LINE
  5
796
  100
AcDbEntity
  8
CUT
  100
AcDbLine
  10
12.531069
  20
1.23
  30
0
  11
12.511069
  21
1.25
  31
0
  0
LINE
  5
797
  100
AcDbEntity
  8
CUT
  100
AcDbLine
  10
12.511069
  20
1.25
  30
0
  11
6.531069
  21
1.25
  31
0
  0
LINE
  5
798
  100
AcDbEntity
  8
CUT
  100
AcDbLine
  10
6.531069
  20
1.25
  30
0
  11
6.531069
  21
0
  31
0
  0
LINE
  5
799
  100
AcDbEntity
  8
CUT
  100
AcDbLine
  10
6.531069
  20
0
  30
0
  11
12.531069
  21
0
  31
0
  0
LINE
  5
79a
  100
AcDbEntity
  8
4
  100
AcDbLine
  10
-44.468931
  20
0
  30
0
  11
12.531069
  21
0
  31
0
  0
LINE
  5
79b
  100
AcDbEntity
  8
INFTOTAL
  100
AcDbLine
  10
-60.518931
  20
51.096578
  30
0
  11
28.581069
  21
51.096578
  31
0
  0
LINE
  5
79c
  100
AcDbEntity
  8
INFTOTAL
  100
AcDbLine
  10
28.581069
  20
51.096578
  30
0
  11
28.581069
  21
-20.955188
  31
0
  0
LINE
  5
79d
  100
AcDbEntity
  8
INFTOTAL
  100
AcDbLine
  10
28.581069
  20
-20.955188
  30
0
  11
-60.518931
  21
-20.955188
  31
0
  0
LINE
  5
79e
  100
AcDbEntity
  8
INFTOTAL
  100
AcDbLine
  10
-60.518931
  20
-20.955188
  30
0
  11
-60.518931
  21
51.096578
  31
0
  0
ENDSEC
  0
SECTION
  2
OBJECTS
  0
DICTIONARY
  5
79f
  330
0
100
AcDbDictionary
281
    1
  3
ACAD_GROUP
  350
7a0
  0
DICTIONARY
  5
7a0
102
{ACAD_REACTORS
  330
79f
102
}
  330
79f
100
AcDbDictionary
281
    1
  0
ENDSEC
  0
EOF
