  0
SECTION
  2
HEADER
  9
$ACADVER
  1
AC1015
  9
$DWGCODEPAGE
  3
ansi_1252
  9
$HANDSEED
  5
106AB90
  9
$INSUNITS
  70
4
  0
ENDSEC
  0
SECTION
  2
TABLES
  0
TABLE
  2
VPORT
  5
2
  330
0
  100
AcDbSymbolTable
  70
    0
  0
ENDTAB
  0
TABLE
  2
LTYPE
  5
3
  330
0
  100
AcDbSymbolTable
  70
    4
  0
LTYPE
  5
4
  330
3
  100
AcDbSymbolTableRecord
  100
AcDbLinetypeTableRecord
  2
ByBlock
  70
    0
  3

  72
65
  73
    0
  40
0
  0
LTYPE
  5
5
  330
3
  100
AcDbSymbolTableRecord
  100
AcDbLinetypeTableRecord
  2
ByLayer
  70
    0
  3

  72
65
  73
    0
  40
0
  0
LTYPE
  5
6
  330
3
  100
AcDbSymbolTableRecord
  100
AcDbLinetypeTableRecord
  2
CONTINUOUS
  70
    0
  3
Solid Line
  72
65
  73
    0
  40
0
  0
LTYPE
  5
7
  330
3
  100
AcDbSymbolTableRecord
  100
AcDbLinetypeTableRecord
  2
DASH
  70
    0
  3
Hidden
  72
65
  73
2
  40
2.5
  49
1.5
  74
0
  49
-1
  74
0
  0
LTYPE
  5
8
  330
3
  100
AcDbSymbolTableRecord
  100
AcDbLinetypeTableRecord
  2
LONGDASHDASH
  70
    0
  3
__ . __
  72
65
  73
    4
  40
7
  49
4
  74
    0
  49
-1
  74
    0
  49
1
  74
    0
  49
-1
  74
    0
  0
ENDTAB
  0
TABLE
  2
LAYER
  5
9
  330
0
  100
AcDbSymbolTable
  70
    40
  0
LAYER
  5
a
  330
9
  100
AcDbSymbolTableRecord
  100
AcDbLayerTableRecord
  2
0
  70
    0
  62
    0
  6
CONTINUOUS
  390
0
  0
LAYER
  5
b
  330
9
  100
AcDbSymbolTableRecord
  100
AcDbLayerTableRecord
  2
DEFPOINT
  70
    0
  62
    0
  6
CONTINUOUS
  390
0
  0
LAYER
  5
c
  330
9
  100
AcDbSymbolTableRecord
  100
AcDbLayerTableRecord
  2
1
  70
    0
  62
    4
  6
CONTINUOUS
  370
50
  390
0
  0
LAYER
  5
d
  330
9
  100
AcDbSymbolTableRecord
  100
AcDbLayerTableRecord
  2
2
  70
    0
  62
    7
  6
CONTINUOUS
  370
25
  390
0
  0
LAYER
  5
e
  330
9
  100
AcDbSymbolTableRecord
  100
AcDbLayerTableRecord
  2
3
  70
    0
  62
    1
  6
DASH
  370
35
  390
0
  0
LAYER
  5
f
  330
9
  100
AcDbSymbolTableRecord
  100
AcDbLayerTableRecord
  2
4
  70
    0
  62
    2
  6
LONGDASHDASH
  370
25
  390
0
  0
LAYER
  5
10
  330
9
  100
AcDbSymbolTableRecord
  100
AcDbLayerTableRecord
  2
6
  70
    0
  62
    5
  6
CONTINUOUS
  390
0
  0
LAYER
  5
11
  330
9
  100
AcDbSymbolTableRecord
  100
AcDbLayerTableRecord
  2
7
  70
    0
  62
    5
  6
CONTINUOUS
  370
25
  390
0
  0
LAYER
  5
12
  330
9
  100
AcDbSymbolTableRecord
  100
AcDbLayerTableRecord
  2
11
  70
    0
  62
    4
  6
CONTINUOUS
  370
25
  390
0
  0
LAYER
  5
13
  330
9
  100
AcDbSymbolTableRecord
  100
AcDbLayerTableRecord
  2
SK1
  70
    0
  62
    4
  6
CONTINUOUS
  370
50
  390
0
  0
LAYER
  5
14
  330
9
  100
AcDbSymbolTableRecord
  100
AcDbLayerTableRecord
  2
SK2
  70
    0
  62
    7
  6
CONTINUOUS
  370
25
  390
0
  0
LAYER
  5
15
  330
9
  100
AcDbSymbolTableRecord
  100
AcDbLayerTableRecord
  2
SK3
  70
    0
  62
    1
  6
DASH
  370
35
  390
0
  0
LAYER
  5
16
  330
9
  100
AcDbSymbolTableRecord
  100
AcDbLayerTableRecord
  2
SK4
  70
    0
  62
    2
  6
LONGDASHDASH
  370
25
  390
0
  0
LAYER
  5
17
  330
9
  100
AcDbSymbolTableRecord
  100
AcDbLayerTableRecord
  2
SK6
  70
    0
  62
    5
  6
CONTINUOUS
  390
0
  0
LAYER
  5
18
  330
9
  100
AcDbSymbolTableRecord
  100
AcDbLayerTableRecord
  2
SK7
  70
    0
  62
    5
  6
CONTINUOUS
  370
25
  390
0
  0
LAYER
  5
19
  330
9
  100
AcDbSymbolTableRecord
  100
AcDbLayerTableRecord
  2
SK11
  70
    0
  62
    4
  6
CONTINUOUS
  370
25
  390
0
  0
LAYER
  5
1a
  330
9
  100
AcDbSymbolTableRecord
  100
AcDbLayerTableRecord
  2
SKVIEW1
  70
    0
  62
    4
  6
CONTINUOUS
  370
50
  390
0
  0
LAYER
  5
1b
  330
9
  100
AcDbSymbolTableRecord
  100
AcDbLayerTableRecord
  2
SKVIEW2
  70
    0
  62
    7
  6
CONTINUOUS
  370
25
  390
0
  0
LAYER
  5
1c
  330
9
  100
AcDbSymbolTableRecord
  100
AcDbLayerTableRecord
  2
SKVIEW3
  70
    0
  62
    1
  6
DASH
  370
35
  390
0
  0
LAYER
  5
1d
  330
9
  100
AcDbSymbolTableRecord
  100
AcDbLayerTableRecord
  2
SKVIEW4
  70
    0
  62
    2
  6
LONGDASHDASH
  370
25
  390
0
  0
LAYER
  5
1e
  330
9
  100
AcDbSymbolTableRecord
  100
AcDbLayerTableRecord
  2
SKVIEW6
  70
    0
  62
    5
  6
CONTINUOUS
  390
0
  0
LAYER
  5
1f
  330
9
  100
AcDbSymbolTableRecord
  100
AcDbLayerTableRecord
  2
SKVIEW7
  70
    0
  62
    5
  6
CONTINUOUS
  370
25
  390
0
  0
LAYER
  5
20
  330
9
  100
AcDbSymbolTableRecord
  100
AcDbLayerTableRecord
  2
SKVIEW11
  70
    0
  62
    4
  6
CONTINUOUS
  370
25
  390
0
  0
LAYER
  5
21
  330
9
  100
AcDbSymbolTableRecord
  100
AcDbLayerTableRecord
  2
NOCUT
  70
    0
  62
    7
  6
CONTINUOUS
  370
25
  390
0
  0
LAYER
  5
22
  330
9
  100
AcDbSymbolTableRecord
  100
AcDbLayerTableRecord
  2
CUT
  70
    0
  62
    1
  6
CONTINUOUS
  370
25
  390
0
  0
LAYER
  5
23
  330
9
  100
AcDbSymbolTableRecord
  100
AcDbLayerTableRecord
  2
FRAME50
  70
    0
  62
    7
  6
CONTINUOUS
  390
0
  0
LAYER
  5
24
  330
9
  100
AcDbSymbolTableRecord
  100
AcDbLayerTableRecord
  2
53
  70
    0
  62
    5
  6
CONTINUOUS
  390
0
  0
LAYER
  5
25
  330
9
  100
AcDbSymbolTableRecord
  100
AcDbLayerTableRecord
  2
INFTEXT
  70
    0
  62
    5
  6
CONTINUOUS
  390
0
  0
LAYER
  5
26
  330
9
  100
AcDbSymbolTableRecord
  100
AcDbLayerTableRecord
  2
INFTOTAL
  70
    0
  62
    9
  6
CONTINUOUS
  370
18
  390
0
  0
ENDTAB
  0
TABLE
  2
STYLE
  5
27
  330
0
  100
AcDbSymbolTable
  70
    1
  0
STYLE
  5
28
  330
27
  100
AcDbSymbolTableRecord
  100
AcDbTextStyleTableRecord
  2
Monospac821 BT
  70
    0
  40
    3.5
  41
1
  50
0
  71
0
  42
3
  3

  4

  1001
ACAD
  1000
Monospac821 BT
  1071
256
  0
ENDTAB
  0
TABLE
  2
VIEW
  5
29
  330
0
  100
AcDbSymbolTable
  70
    0
  0
ENDTAB
  0
TABLE
  2
UCS
  5
2a
  330
0
  100
AcDbSymbolTable
  70
    0
  0
ENDTAB
  0
TABLE
  2
APPID
  5
2b
  330
0
  100
AcDbSymbolTable
  70
    1
  0
APPID
  5
2c
  330
2b
  100
AcDbSymbolTableRecord
  100
AcDbRegAppTableRecord
  2
ACAD
  70
    0
  0
ENDTAB
  0
TABLE
  2
DIMSTYLE
  5
2d
  330
0
  100
AcDbSymbolTable
  70
    1
  100
AcDbDimStyleTable
  0
DIMSTYLE
  105
2e
  330
2d
  100
AcDbSymbolTableRecord
  100
AcDbDimStyleTableRecord
  2
STANDARD
  70
    0
  41
    3
  42
0.5
  44
1
  73
0
  77
1
  78
1
  140
3.5
  141
2.5
  143
0.03937
  147
0.8
  172
1
  174
1
  178
0
  179
1
  271
2
  279
1
  284
1
  340
28
  0
ENDTAB
  0
TABLE
  2
BLOCK_RECORD
  5
2f
  330
0
  100
AcDbSymbolTable
  70
    2
  0
BLOCK_RECORD
  5
30
  330
2f
  100
AcDbSymbolTableRecord
  100
AcDbBlockTableRecord
  2
*Model_Space
  0
BLOCK_RECORD
  5
31
  330
2f
  100
AcDbSymbolTableRecord
  100
AcDbBlockTableRecord
  2
*Paper_Space
  0
BLOCK_RECORD
  5
74b
  330
2f
  100
AcDbSymbolTableRecord
  100
AcDbBlockTableRecord
  2
*D74a
  340
0
  0
BLOCK_RECORD
  5
759
  330
2f
  100
AcDbSymbolTableRecord
  100
AcDbBlockTableRecord
  2
*D758
  340
0
  0
BLOCK_RECORD
  5
767
  330
2f
  100
AcDbSymbolTableRecord
  100
AcDbBlockTableRecord
  2
*D766
  340
0
  0
BLOCK_RECORD
  5
775
  330
2f
  100
AcDbSymbolTableRecord
  100
AcDbBlockTableRecord
  2
*D774
  340
0
  0
BLOCK_RECORD
  5
783
  330
2f
  100
AcDbSymbolTableRecord
  100
AcDbBlockTableRecord
  2
*D782
  340
0
  0
BLOCK_RECORD
  5
791
  330
2f
  100
AcDbSymbolTableRecord
  100
AcDbBlockTableRecord
  2
*D790
  340
0
  0
BLOCK_RECORD
  5
79f
  330
2f
  100
AcDbSymbolTableRecord
  100
AcDbBlockTableRecord
  2
*D79e
  340
0
  0
ENDTAB
  0
ENDSEC
  0
SECTION
  2
BLOCKS
  0
BLOCK
  5
32
  330
30
  100
AcDbEntity
  8
0
  100
AcDbBlockBegin
  2
*Model_Space
  70
    0
  10
0
  20
0
  30
0
  3
*Model_Space
  1

  0
ENDBLK
  5
33
  330
30
  100
AcDbEntity
  8
0
  100
AcDbBlockEnd
  0
BLOCK
  5
34
  330
31
  100
AcDbEntity
  8
0
  100
AcDbBlockBegin
  2
*Paper_Space
  70
    0
  10
0
  20
0
  30
0
  3
*Paper_Space
  1

  0
ENDBLK
  5
35
  330
31
  100
AcDbEntity
  8
0
  100
AcDbBlockEnd
  0
BLOCK
  5
749
  330
74b
  100
AcDbEntity
  8
SK2
  100
AcDbBlockBegin
  2
*D74a
  70
1
  10
0
  20
0
  30
0
  3
*D74a
  1

  0
LINE
  5
74c
  330
74b
  100
AcDbEntity
  8
SK2
  100
AcDbLine
  10
21.93301
  20
0
  30
0
  11
21.93301
  21
44.48461
  31
0
  0
LINE
  5
74d
  330
74b
  100
AcDbEntity
  8
SK2
  100
AcDbLine
  10
-35.06699
  20
2.5
  30
0
  11
-35.06699
  21
44.48461
  31
0
  0
LINE
  5
74e
  330
74b
  100
AcDbEntity
  8
SK2
  100
AcDbLine
  10
21.93301
  20
42.48461
  30
0
  11
-35.06699
  21
42.48461
  31
0
  0
SOLID
  5
74f
  330
74b
  100
AcDbEntity
  8
SK2
  100
AcDbTrace
  10
21.93301
  20
42.48461
  30
0
  11
19.454398
  21
42.158294
  31
0
  12
19.454398
  22
42.810925
  32
0
  13
19.454398
  23
42.810925
  33
0
  0
SOLID
  5
750
  330
74b
  100
AcDbEntity
  8
SK2
  100
AcDbTrace
  10
-35.06699
  20
42.48461
  30
0
  11
-32.588378
  21
42.810925
  31
0
  12
-32.588378
  22
42.158294
  32
0
  13
-32.588378
  23
42.158294
  33
0
  0
MTEXT
  5
751
  330
74b
  100
AcDbEntity
  8
SK2
  100
AcDbMText
  10
-6.56699
  20
42.48461
  30
0
  11
1
  21
-0
  31
0
  40
2
  41
0
  71
8
  72
1
  1
57+2
  0
POINT
  5
752
  330
74b
  100
AcDbEntity
  8
SK2
  62
0
  100
AcDbPoint
  10
21.93301
  20
0
  30
0
  0
POINT
  5
753
  330
74b
  100
AcDbEntity
  8
SK2
  62
0
  100
AcDbPoint
  10
-35.06699
  20
2.5
  30
0
  0
POINT
  5
754
  330
74b
  100
AcDbEntity
  8
SK2
  62
0
  100
AcDbPoint
  10
-35.06699
  20
42.48461
  30
0
  0
ENDBLK
  5
755
  330
74b
  100
AcDbEntity
  8
SK2
  100
AcDbBlockEnd
  0
BLOCK
  5
757
  330
759
  100
AcDbEntity
  8
SK2
  100
AcDbBlockBegin
  2
*D758
  70
1
  10
0
  20
0
  30
0
  3
*D758
  1

  0
LINE
  5
75a
  330
759
  100
AcDbEntity
  8
SK2
  100
AcDbLine
  10
-34.56699
  20
-3
  30
0
  11
-47.06699
  21
-3
  31
0
  0
LINE
  5
75b
  330
759
  100
AcDbEntity
  8
SK2
  100
AcDbLine
  10
-34.56699
  20
3
  30
0
  11
-47.06699
  21
3
  31
0
  0
LINE
  5
75c
  330
759
  100
AcDbEntity
  8
SK2
  100
AcDbLine
  10
-45.06699
  20
-3.193916
  30
0
  11
-45.06699
  21
3.460076
  31
0
  0
SOLID
  5
75d
  330
759
  100
AcDbEntity
  8
SK2
  100
AcDbTrace
  10
-45.06699
  20
-3
  30
0
  11
-45.393306
  21
-0.521388
  31
0
  12
-44.740675
  22
-0.521388
  32
0
  13
-44.740675
  23
-0.521388
  33
0
  0
SOLID
  5
75e
  330
759
  100
AcDbEntity
  8
SK2
  100
AcDbTrace
  10
-45.06699
  20
3
  30
0
  11
-44.740675
  21
0.521388
  31
0
  12
-45.393306
  22
0.521388
  32
0
  13
-45.393306
  23
0.521388
  33
0
  0
MTEXT
  5
75f
  330
759
  100
AcDbEntity
  8
SK2
  100
AcDbMText
  10
-45.06699
  20
0
  30
0
  11
0
  21
1
  31
0
  40
2
  41
0
  71
8
  72
1
  1
Ø6h6
  0
POINT
  5
760
  330
759
  100
AcDbEntity
  8
SK2
  62
0
  100
AcDbPoint
  10
-34.56699
  20
-3
  30
0
  0
POINT
  5
761
  330
759
  100
AcDbEntity
  8
SK2
  62
0
  100
AcDbPoint
  10
-34.56699
  20
3
  30
0
  0
POINT
  5
762
  330
759
  100
AcDbEntity
  8
SK2
  62
0
  100
AcDbPoint
  10
-45.06699
  20
3.460076
  30
0
  0
ENDBLK
  5
763
  330
759
  100
AcDbEntity
  8
SK2
  100
AcDbBlockEnd
  0
BLOCK
  5
765
  330
767
  100
AcDbEntity
  8
2
  100
AcDbBlockBegin
  2
*D766
  70
1
  10
0
  20
0
  30
0
  3
*D766
  1

  0
LINE
  5
768
  330
767
  100
AcDbEntity
  8
2
  100
AcDbLine
  10
21.93301
  20
2.8
  30
0
  11
21.93301
  21
12
  31
0
  0
LINE
  5
769
  330
767
  100
AcDbEntity
  8
2
  100
AcDbLine
  10
21.73301
  20
3
  30
0
  11
21.73301
  21
12
  31
0
  0
LINE
  5
76a
  330
767
  100
AcDbEntity
  8
2
  100
AcDbLine
  10
41.787072
  20
10
  30
0
  11
21.73301
  21
10
  31
0
  0
SOLID
  5
76b
  330
767
  100
AcDbEntity
  8
2
  100
AcDbTrace
  10
21.93301
  20
10
  30
0
  11
24.411622
  21
10.326315
  31
0
  12
24.411622
  22
9.673685
  32
0
  13
24.411622
  23
9.673685
  33
0
  0
SOLID
  5
76c
  330
767
  100
AcDbEntity
  8
2
  100
AcDbTrace
  10
21.73301
  20
10
  30
0
  11
19.254398
  21
9.673685
  31
0
  12
19.254398
  22
10.326315
  32
0
  13
19.254398
  23
10.326315
  33
0
  0
MTEXT
  5
76d
  330
767
  100
AcDbEntity
  8
2
  100
AcDbMText
  10
28.860749
  20
10
  30
0
  11
1
  21
-0
  31
0
  40
2
  41
0
  71
7
  72
1
  1
0.2 x 45°
  0
POINT
  5
76e
  330
767
  100
AcDbEntity
  8
2
  62
0
  100
AcDbPoint
  10
21.93301
  20
2.8
  30
0
  0
POINT
  5
76f
  330
767
  100
AcDbEntity
  8
2
  62
0
  100
AcDbPoint
  10
21.73301
  20
3
  30
0
  0
POINT
  5
770
  330
767
  100
AcDbEntity
  8
2
  62
0
  100
AcDbPoint
  10
21.73301
  20
10
  30
0
  0
ENDBLK
  5
771
  330
767
  100
AcDbEntity
  8
2
  100
AcDbBlockEnd
  0
BLOCK
  5
773
  330
775
  100
AcDbEntity
  8
2
  100
AcDbBlockBegin
  2
*D774
  70
1
  10
0
  20
0
  30
0
  3
*D774
  1

  0
LINE
  5
776
  330
775
  100
AcDbEntity
  8
2
  100
AcDbLine
  10
21.73301
  20
-3
  30
0
  11
33.93301
  21
-3
  31
0
  0
LINE
  5
777
  330
775
  100
AcDbEntity
  8
2
  100
AcDbLine
  10
21.73301
  20
3
  30
0
  11
33.93301
  21
3
  31
0
  0
LINE
  5
778
  330
775
  100
AcDbEntity
  8
2
  100
AcDbLine
  10
31.93301
  20
-13.840304
  30
0
  11
31.93301
  21
3
  31
0
  0
SOLID
  5
779
  330
775
  100
AcDbEntity
  8
2
  100
AcDbTrace
  10
31.93301
  20
-3
  30
0
  11
32.259325
  21
-5.478612
  31
0
  12
31.606694
  22
-5.478612
  32
0
  13
31.606694
  23
-5.478612
  33
0
  0
SOLID
  5
77a
  330
775
  100
AcDbEntity
  8
2
  100
AcDbTrace
  10
31.93301
  20
3
  30
0
  11
31.606694
  21
5.478612
  31
0
  12
32.259325
  22
5.478612
  32
0
  13
32.259325
  23
5.478612
  33
0
  0
MTEXT
  5
77b
  330
775
  100
AcDbEntity
  8
2
  100
AcDbMText
  10
31.93301
  20
-10.023709
  30
0
  11
0
  21
1
  31
0
  40
2
  41
0
  71
8
  72
1
  1
Ø6h10
  0
POINT
  5
77c
  330
775
  100
AcDbEntity
  8
2
  62
0
  100
AcDbPoint
  10
21.73301
  20
-3
  30
0
  0
POINT
  5
77d
  330
775
  100
AcDbEntity
  8
2
  62
0
  100
AcDbPoint
  10
21.73301
  20
3
  30
0
  0
POINT
  5
77e
  330
775
  100
AcDbEntity
  8
2
  62
0
  100
AcDbPoint
  10
31.93301
  20
3
  30
0
  0
ENDBLK
  5
77f
  330
775
  100
AcDbEntity
  8
2
  100
AcDbBlockEnd
  0
BLOCK
  5
781
  330
783
  100
AcDbEntity
  8
2
  100
AcDbBlockBegin
  2
*D782
  70
1
  10
0
  20
0
  30
0
  3
*D782
  1

  0
LINE
  5
784
  330
783
  100
AcDbEntity
  8
2
  100
AcDbLine
  10
8.93301
  20
-2.75
  30
0
  11
6.93301
  21
-2.75
  31
0
  0
LINE
  5
785
  330
783
  100
AcDbEntity
  8
2
  100
AcDbLine
  10
8.93301
  20
2.75
  30
0
  11
6.93301
  21
2.75
  31
0
  0
LINE
  5
786
  330
783
  100
AcDbEntity
  8
2
  100
AcDbLine
  10
8.93301
  20
-11.977186
  30
0
  11
8.93301
  21
2.75
  31
0
  0
SOLID
  5
787
  330
783
  100
AcDbEntity
  8
2
  100
AcDbTrace
  10
8.93301
  20
-2.75
  30
0
  11
9.259325
  21
-5.228612
  31
0
  12
8.606694
  22
-5.228612
  32
0
  13
8.606694
  23
-5.228612
  33
0
  0
SOLID
  5
788
  330
783
  100
AcDbEntity
  8
2
  100
AcDbTrace
  10
8.93301
  20
2.75
  30
0
  11
8.606694
  21
5.228612
  31
0
  12
9.259325
  22
5.228612
  32
0
  13
9.259325
  23
5.228612
  33
0
  0
MTEXT
  5
789
  330
783
  100
AcDbEntity
  8
2
  100
AcDbMText
  10
8.93301
  20
-11.922443
  30
0
  11
0
  21
1
  31
0
  40
2
  41
0
  71
7
  72
1
  1
Ø5.5
  0
POINT
  5
78a
  330
783
  100
AcDbEntity
  8
2
  62
0
  100
AcDbPoint
  10
6.93301
  20
-2.75
  30
0
  0
POINT
  5
78b
  330
783
  100
AcDbEntity
  8
2
  62
0
  100
AcDbPoint
  10
6.93301
  20
2.75
  30
0
  0
POINT
  5
78c
  330
783
  100
AcDbEntity
  8
2
  62
0
  100
AcDbPoint
  10
8.93301
  20
2.75
  30
0
  0
ENDBLK
  5
78d
  330
783
  100
AcDbEntity
  8
2
  100
AcDbBlockEnd
  0
BLOCK
  5
78f
  330
791
  100
AcDbEntity
  8
2
  100
AcDbBlockBegin
  2
*D790
  70
1
  10
0
  20
0
  30
0
  3
*D790
  1

  0
LINE
  5
792
  330
791
  100
AcDbEntity
  8
2
  100
AcDbLine
  10
21.93301
  20
2.8
  30
0
  11
21.93301
  21
32
  31
0
  0
LINE
  5
793
  330
791
  100
AcDbEntity
  8
2
  100
AcDbLine
  10
0.93301
  20
2.75
  30
0
  11
0.93301
  21
32
  31
0
  0
LINE
  5
794
  330
791
  100
AcDbEntity
  8
2
  100
AcDbLine
  10
21.93301
  20
30
  30
0
  11
0.93301
  21
30
  31
0
  0
SOLID
  5
795
  330
791
  100
AcDbEntity
  8
2
  100
AcDbTrace
  10
21.93301
  20
30
  30
0
  11
19.454398
  21
29.673685
  31
0
  12
19.454398
  22
30.326315
  32
0
  13
19.454398
  23
30.326315
  33
0
  0
SOLID
  5
796
  330
791
  100
AcDbEntity
  8
2
  100
AcDbTrace
  10
0.93301
  20
30
  30
0
  11
3.411622
  21
30.326315
  31
0
  12
3.411622
  22
29.673685
  32
0
  13
3.411622
  23
29.673685
  33
0
  0
MTEXT
  5
797
  330
791
  100
AcDbEntity
  8
2
  100
AcDbMText
  10
11.43301
  20
30
  30
0
  11
1
  21
-0
  31
0
  40
2
  41
0
  71
8
  72
1
  1
21
  0
POINT
  5
798
  330
791
  100
AcDbEntity
  8
2
  62
0
  100
AcDbPoint
  10
21.93301
  20
2.8
  30
0
  0
POINT
  5
799
  330
791
  100
AcDbEntity
  8
2
  62
0
  100
AcDbPoint
  10
0.93301
  20
2.75
  30
0
  0
POINT
  5
79a
  330
791
  100
AcDbEntity
  8
2
  62
0
  100
AcDbPoint
  10
0.93301
  20
30
  30
0
  0
ENDBLK
  5
79b
  330
791
  100
AcDbEntity
  8
2
  100
AcDbBlockEnd
  0
BLOCK
  5
79d
  330
79f
  100
AcDbEntity
  8
2
  100
AcDbBlockBegin
  2
*D79e
  70
1
  10
0
  20
0
  30
0
  3
*D79e
  1

  0
LINE
  5
7a0
  330
79f
  100
AcDbEntity
  8
2
  100
AcDbLine
  10
21.93301
  20
0
  30
0
  11
21.93301
  21
20.754355
  31
0
  0
LINE
  5
7a1
  330
79f
  100
AcDbEntity
  8
2
  100
AcDbLine
  10
8.93301
  20
3
  30
0
  11
8.93301
  21
20.754355
  31
0
  0
LINE
  5
7a2
  330
79f
  100
AcDbEntity
  8
2
  100
AcDbLine
  10
21.93301
  20
18.754355
  30
0
  11
8.93301
  21
18.754355
  31
0
  0
SOLID
  5
7a3
  330
79f
  100
AcDbEntity
  8
2
  100
AcDbTrace
  10
21.93301
  20
18.754355
  30
0
  11
19.454398
  21
18.428039
  31
0
  12
19.454398
  22
19.08067
  32
0
  13
19.454398
  23
19.08067
  33
0
  0
SOLID
  5
7a4
  330
79f
  100
AcDbEntity
  8
2
  100
AcDbTrace
  10
8.93301
  20
18.754355
  30
0
  11
11.411622
  21
19.08067
  31
0
  12
11.411622
  22
18.428039
  32
0
  13
11.411622
  23
18.428039
  33
0
  0
MTEXT
  5
7a5
  330
79f
  100
AcDbEntity
  8
2
  100
AcDbMText
  10
15.43301
  20
18.754355
  30
0
  11
1
  21
-0
  31
0
  40
2
  41
0
  71
8
  72
1
  1
13
  0
POINT
  5
7a6
  330
79f
  100
AcDbEntity
  8
2
  62
0
  100
AcDbPoint
  10
21.93301
  20
0
  30
0
  0
POINT
  5
7a7
  330
79f
  100
AcDbEntity
  8
2
  62
0
  100
AcDbPoint
  10
8.93301
  20
3
  30
0
  0
POINT
  5
7a8
  330
79f
  100
AcDbEntity
  8
2
  62
0
  100
AcDbPoint
  10
8.93301
  20
18.754355
  30
0
  0
ENDBLK
  5
7a9
  330
79f
  100
AcDbEntity
  8
2
  100
AcDbBlockEnd
  0
ENDSEC
  0
SECTION
  2
ENTITIES
  0
DIMENSION
  5
756
  100
AcDbEntity
  8
SK2
  100
AcDbDimension
  2
*D74a
  10
-35.06699
  20
42.48461
  30
0
  11
-6.56699
  21
42.48461
  31
0
  70
160
  1
<>+2
  71
5
  3
STANDARD
  42
57
  100
AcDbAlignedDimension
  13
21.93301
  23
0
  33
0
  14
-35.06699
  24
2.5
  34
0
  50
0
  100
AcDbRotatedDimension
  0
DIMENSION
  5
764
  100
AcDbEntity
  8
SK2
  100
AcDbDimension
  2
*D758
  10
-45.06699
  20
3.460076
  30
0
  11
-45.06699
  21
0
  31
0
  70
160
  1
%%c<>h6
  71
5
  3
STANDARD
  42
6
  100
AcDbAlignedDimension
  13
-34.56699
  23
-3
  33
0
  14
-34.56699
  24
3
  34
0
  50
-90
  100
AcDbRotatedDimension
  0
DIMENSION
  5
772
  100
AcDbEntity
  8
2
  100
AcDbDimension
  2
*D766
  10
21.73301
  20
10
  30
0
  11
28.860749
  21
10
  31
0
  70
160
  1
<>
  71
5
  3
STANDARD
  42
0.2
  100
AcDbAlignedDimension
  13
21.93301
  23
2.8
  33
0
  14
21.73301
  24
3
  34
0
  50
0
  100
AcDbRotatedDimension
  0
DIMENSION
  5
780
  100
AcDbEntity
  8
2
  100
AcDbDimension
  2
*D774
  10
31.93301
  20
3
  30
0
  11
31.93301
  21
-10.023709
  31
0
  70
160
  1
%%c<>h10
  71
5
  3
STANDARD
  42
6
  100
AcDbAlignedDimension
  13
21.73301
  23
-3
  33
0
  14
21.73301
  24
3
  34
0
  50
-90
  100
AcDbRotatedDimension
  0
DIMENSION
  5
78e
  100
AcDbEntity
  8
2
  100
AcDbDimension
  2
*D782
  10
8.93301
  20
2.75
  30
0
  11
8.93301
  21
-11.922443
  31
0
  70
160
  1
%%c<>
  71
5
  3
STANDARD
  42
5.5
  100
AcDbAlignedDimension
  13
6.93301
  23
-2.75
  33
0
  14
6.93301
  24
2.75
  34
0
  50
-90
  100
AcDbRotatedDimension
  0
DIMENSION
  5
79c
  100
AcDbEntity
  8
2
  100
AcDbDimension
  2
*D790
  10
0.93301
  20
30
  30
0
  11
11.43301
  21
30
  31
0
  70
160
  1
<>
  71
5
  3
STANDARD
  42
21
  100
AcDbAlignedDimension
  13
21.93301
  23
2.8
  33
0
  14
0.93301
  24
2.75
  34
0
  50
0
  100
AcDbRotatedDimension
  0
DIMENSION
  5
7aa
  100
AcDbEntity
  8
2
  100
AcDbDimension
  2
*D79e
  10
8.93301
  20
18.754355
  30
0
  11
15.43301
  21
18.754355
  31
0
  70
160
  1
<>
  71
5
  3
STANDARD
  42
13
  100
AcDbAlignedDimension
  13
21.93301
  23
0
  33
0
  14
8.93301
  24
3
  34
0
  50
0
  100
AcDbRotatedDimension
  0
LINE
  5
36
  100
AcDbEntity
  8
1
  100
AcDbLine
  10
21.93301
  20
0
  30
0
  11
21.93301
  21
2.8
  31
0
  0
LINE
  5
37
  100
AcDbEntity
  8
1
  100
AcDbLine
  10
21.93301
  20
2.8
  30
0
  11
21.73301
  21
3
  31
0
  0
LINE
  5
38
  100
AcDbEntity
  8
1
  100
AcDbLine
  10
21.73301
  20
3
  30
0
  11
8.93301
  21
3
  31
0
  0
LINE
  5
39
  100
AcDbEntity
  8
1
  100
AcDbLine
  10
8.93301
  20
3
  30
0
  11
8.93301
  21
2.75
  31
0
  0
LINE
  5
3a
  100
AcDbEntity
  8
1
  100
AcDbLine
  10
8.93301
  20
2.75
  30
0
  11
0.93301
  21
2.75
  31
0
  0
LINE
  5
3b
  100
AcDbEntity
  8
1
  100
AcDbLine
  10
0.93301
  20
2.75
  30
0
  11
-0
  21
3
  31
0
  0
LINE
  5
3c
  100
AcDbEntity
  8
1
  100
AcDbLine
  10
-0
  20
3
  30
0
  11
-0
  21
-3
  31
0
  0
LINE
  5
3d
  100
AcDbEntity
  8
1
  100
AcDbLine
  10
-0
  20
-3
  30
0
  11
0.93301
  21
-2.75
  31
0
  0
LINE
  5
3e
  100
AcDbEntity
  8
1
  100
AcDbLine
  10
0.93301
  20
-2.75
  30
0
  11
8.93301
  21
-2.75
  31
0
  0
LINE
  5
3f
  100
AcDbEntity
  8
1
  100
AcDbLine
  10
8.93301
  20
-2.75
  30
0
  11
8.93301
  21
-3
  31
0
  0
LINE
  5
40
  100
AcDbEntity
  8
1
  100
AcDbLine
  10
8.93301
  20
-3
  30
0
  11
21.73301
  21
-3
  31
0
  0
LINE
  5
41
  100
AcDbEntity
  8
1
  100
AcDbLine
  10
21.73301
  20
-3
  30
0
  11
21.93301
  21
-2.8
  31
0
  0
LINE
  5
42
  100
AcDbEntity
  8
1
  100
AcDbLine
  10
21.93301
  20
-2.8
  30
0
  11
21.93301
  21
0
  31
0
  0
LINE
  5
43
  100
AcDbEntity
  8
1
  100
AcDbLine
  10
21.93301
  20
0.028128
  30
0
  11
21.88751
  21
0.051941
  31
0
  0
LINE
  5
44
  100
AcDbEntity
  8
1
  100
AcDbLine
  10
21.88751
  20
0.051941
  30
0
  11
21.84201
  21
0.076719
  31
0
  0
LINE
  5
45
  100
AcDbEntity
  8
1
  100
AcDbLine
  10
21.84201
  20
0.076719
  30
0
  11
21.79651
  21
0.102461
  31
0
  0
LINE
  5
46
  100
AcDbEntity
  8
1
  100
AcDbLine
  10
21.79651
  20
0.102461
  30
0
  11
21.75101
  21
0.129163
  31
0
  0
LINE
  5
47
  100
AcDbEntity
  8
1
  100
AcDbLine
  10
21.75101
  20
0.129163
  30
0
  11
21.70551
  21
0.159222
  31
0
  0
LINE
  5
48
  100
AcDbEntity
  8
1
  100
AcDbLine
  10
21.70551
  20
0.159222
  30
0
  11
21.66001
  21
0.191027
  31
0
  0
LINE
  5
49
  100
AcDbEntity
  8
1
  100
AcDbLine
  10
21.66001
  20
0.191027
  30
0
  11
21.61451
  21
0.222811
  31
0
  0
LINE
  5
4a
  100
AcDbEntity
  8
1
  100
AcDbLine
  10
21.61451
  20
0.222811
  30
0
  11
21.56901
  21
0.254569
  31
0
  0
LINE
  5
4b
  100
AcDbEntity
  8
1
  100
AcDbLine
  10
21.56901
  20
0.254569
  30
0
  11
21.52351
  21
0.286299
  31
0
  0
LINE
  5
4c
  100
AcDbEntity
  8
1
  100
AcDbLine
  10
21.52351
  20
0.286299
  30
0
  11
21.47801
  21
0.317996
  31
0
  0
LINE
  5
4d
  100
AcDbEntity
  8
1
  100
AcDbLine
  10
21.47801
  20
0.317996
  30
0
  11
21.43251
  21
0.349657
  31
0
  0
LINE
  5
4e
  100
AcDbEntity
  8
1
  100
AcDbLine
  10
21.43251
  20
0.349657
  30
0
  11
21.38701
  21
0.381279
  31
0
  0
LINE
  5
4f
  100
AcDbEntity
  8
1
  100
AcDbLine
  10
21.38701
  20
0.381279
  30
0
  11
21.34151
  21
0.412858
  31
0
  0
LINE
  5
50
  100
AcDbEntity
  8
1
  100
AcDbLine
  10
21.34151
  20
0.412858
  30
0
  11
21.29601
  21
0.444391
  31
0
  0
LINE
  5
51
  100
AcDbEntity
  8
1
  100
AcDbLine
  10
21.29601
  20
0.444391
  30
0
  11
21.25051
  21
0.475873
  31
0
  0
LINE
  5
52
  100
AcDbEntity
  8
1
  100
AcDbLine
  10
21.25051
  20
0.475873
  30
0
  11
21.20501
  21
0.507302
  31
0
  0
LINE
  5
53
  100
AcDbEntity
  8
1
  100
AcDbLine
  10
21.20501
  20
0.507302
  30
0
  11
21.15951
  21
0.538673
  31
0
  0
LINE
  5
54
  100
AcDbEntity
  8
1
  100
AcDbLine
  10
21.15951
  20
0.538673
  30
0
  11
21.11401
  21
0.569984
  31
0
  0
LINE
  5
55
  100
AcDbEntity
  8
1
  100
AcDbLine
  10
21.11401
  20
0.569984
  30
0
  11
21.06851
  21
0.60123
  31
0
  0
LINE
  5
56
  100
AcDbEntity
  8
1
  100
AcDbLine
  10
21.06851
  20
0.60123
  30
0
  11
21.02301
  21
0.632409
  31
0
  0
LINE
  5
57
  100
AcDbEntity
  8
1
  100
AcDbLine
  10
21.02301
  20
0.632409
  30
0
  11
20.97751
  21
0.663516
  31
0
  0
LINE
  5
58
  100
AcDbEntity
  8
1
  100
AcDbLine
  10
20.97751
  20
0.663516
  30
0
  11
20.93201
  21
0.694549
  31
0
  0
LINE
  5
59
  100
AcDbEntity
  8
1
  100
AcDbLine
  10
20.93201
  20
0.694549
  30
0
  11
20.88651
  21
0.725503
  31
0
  0
LINE
  5
5a
  100
AcDbEntity
  8
1
  100
AcDbLine
  10
20.88651
  20
0.725503
  30
0
  11
20.84101
  21
0.756375
  31
0
  0
LINE
  5
5b
  100
AcDbEntity
  8
1
  100
AcDbLine
  10
20.84101
  20
0.756375
  30
0
  11
20.79551
  21
0.787162
  31
0
  0
LINE
  5
5c
  100
AcDbEntity
  8
1
  100
AcDbLine
  10
20.79551
  20
0.787162
  30
0
  11
20.75001
  21
0.81786
  31
0
  0
LINE
  5
5d
  100
AcDbEntity
  8
1
  100
AcDbLine
  10
20.75001
  20
0.81786
  30
0
  11
20.70451
  21
0.848466
  31
0
  0
LINE
  5
5e
  100
AcDbEntity
  8
1
  100
AcDbLine
  10
20.70451
  20
0.848466
  30
0
  11
20.65901
  21
0.878976
  31
0
  0
LINE
  5
5f
  100
AcDbEntity
  8
1
  100
AcDbLine
  10
20.65901
  20
0.878976
  30
0
  11
20.61351
  21
0.909388
  31
0
  0
LINE
  5
60
  100
AcDbEntity
  8
1
  100
AcDbLine
  10
20.61351
  20
0.909388
  30
0
  11
20.56801
  21
0.939696
  31
0
  0
LINE
  5
61
  100
AcDbEntity
  8
1
  100
AcDbLine
  10
20.56801
  20
0.939696
  30
0
  11
20.52251
  21
0.969899
  31
0
  0
LINE
  5
62
  100
AcDbEntity
  8
1
  100
AcDbLine
  10
20.52251
  20
0.969899
  30
0
  11
20.47701
  21
0.999992
  31
0
  0
LINE
  5
63
  100
AcDbEntity
  8
1
  100
AcDbLine
  10
20.47701
  20
0.999992
  30
0
  11
20.43151
  21
1.029972
  31
0
  0
LINE
  5
64
  100
AcDbEntity
  8
1
  100
AcDbLine
  10
20.43151
  20
1.029972
  30
0
  11
20.38601
  21
1.059837
  31
0
  0
LINE
  5
65
  100
AcDbEntity
  8
1
  100
AcDbLine
  10
20.38601
  20
1.059837
  30
0
  11
20.34051
  21
1.089581
  31
0
  0
LINE
  5
66
  100
AcDbEntity
  8
1
  100
AcDbLine
  10
20.34051
  20
1.089581
  30
0
  11
20.29501
  21
1.119203
  31
0
  0
LINE
  5
67
  100
AcDbEntity
  8
1
  100
AcDbLine
  10
20.29501
  20
1.119203
  30
0
  11
20.24951
  21
1.148699
  31
0
  0
LINE
  5
68
  100
AcDbEntity
  8
1
  100
AcDbLine
  10
20.24951
  20
1.148699
  30
0
  11
20.20401
  21
1.178065
  31
0
  0
LINE
  5
69
  100
AcDbEntity
  8
1
  100
AcDbLine
  10
20.20401
  20
1.178065
  30
0
  11
20.15851
  21
1.207298
  31
0
  0
LINE
  5
6a
  100
AcDbEntity
  8
1
  100
AcDbLine
  10
20.15851
  20
1.207298
  30
0
  11
20.11301
  21
1.236395
  31
0
  0
LINE
  5
6b
  100
AcDbEntity
  8
1
  100
AcDbLine
  10
20.11301
  20
1.236395
  30
0
  11
20.06751
  21
1.265353
  31
0
  0
LINE
  5
6c
  100
AcDbEntity
  8
1
  100
AcDbLine
  10
20.06751
  20
1.265353
  30
0
  11
20.02201
  21
1.294168
  31
0
  0
LINE
  5
6d
  100
AcDbEntity
  8
1
  100
AcDbLine
  10
20.02201
  20
1.294168
  30
0
  11
19.97651
  21
1.322837
  31
0
  0
LINE
  5
6e
  100
AcDbEntity
  8
1
  100
AcDbLine
  10
19.97651
  20
1.322837
  30
0
  11
19.93101
  21
1.351357
  31
0
  0
LINE
  5
6f
  100
AcDbEntity
  8
1
  100
AcDbLine
  10
19.93101
  20
1.351357
  30
0
  11
19.88551
  21
1.379724
  31
0
  0
LINE
  5
70
  100
AcDbEntity
  8
1
  100
AcDbLine
  10
19.88551
  20
1.379724
  30
0
  11
19.84001
  21
1.407936
  31
0
  0
LINE
  5
71
  100
AcDbEntity
  8
1
  100
AcDbLine
  10
19.84001
  20
1.407936
  30
0
  11
19.79451
  21
1.435989
  31
0
  0
LINE
  5
72
  100
AcDbEntity
  8
1
  100
AcDbLine
  10
19.79451
  20
1.435989
  30
0
  11
19.74901
  21
1.46388
  31
0
  0
LINE
  5
73
  100
AcDbEntity
  8
1
  100
AcDbLine
  10
19.74901
  20
1.46388
  30
0
  11
19.70351
  21
1.491606
  31
0
  0
LINE
  5
74
  100
AcDbEntity
  8
1
  100
AcDbLine
  10
19.70351
  20
1.491606
  30
0
  11
19.65801
  21
1.519164
  31
0
  0
LINE
  5
75
  100
AcDbEntity
  8
1
  100
AcDbLine
  10
19.65801
  20
1.519164
  30
0
  11
19.61251
  21
1.54655
  31
0
  0
LINE
  5
76
  100
AcDbEntity
  8
1
  100
AcDbLine
  10
19.61251
  20
1.54655
  30
0
  11
19.56701
  21
1.573762
  31
0
  0
LINE
  5
77
  100
AcDbEntity
  8
1
  100
AcDbLine
  10
19.56701
  20
1.573762
  30
0
  11
19.52151
  21
1.600797
  31
0
  0
LINE
  5
78
  100
AcDbEntity
  8
1
  100
AcDbLine
  10
19.52151
  20
1.600797
  30
0
  11
19.47601
  21
1.627651
  31
0
  0
LINE
  5
79
  100
AcDbEntity
  8
1
  100
AcDbLine
  10
19.47601
  20
1.627651
  30
0
  11
19.43051
  21
1.654321
  31
0
  0
LINE
  5
7a
  100
AcDbEntity
  8
1
  100
AcDbLine
  10
19.43051
  20
1.654321
  30
0
  11
19.38501
  21
1.680805
  31
0
  0
LINE
  5
7b
  100
AcDbEntity
  8
1
  100
AcDbLine
  10
19.38501
  20
1.680805
  30
0
  11
19.33951
  21
1.707099
  31
0
  0
LINE
  5
7c
  100
AcDbEntity
  8
1
  100
AcDbLine
  10
19.33951
  20
1.707099
  30
0
  11
19.29401
  21
1.733201
  31
0
  0
LINE
  5
7d
  100
AcDbEntity
  8
1
  100
AcDbLine
  10
19.29401
  20
1.733201
  30
0
  11
19.24851
  21
1.759107
  31
0
  0
LINE
  5
7e
  100
AcDbEntity
  8
1
  100
AcDbLine
  10
19.24851
  20
1.759107
  30
0
  11
19.20301
  21
1.784815
  31
0
  0
LINE
  5
7f
  100
AcDbEntity
  8
1
  100
AcDbLine
  10
19.20301
  20
1.784815
  30
0
  11
19.15751
  21
1.810321
  31
0
  0
LINE
  5
80
  100
AcDbEntity
  8
1
  100
AcDbLine
  10
19.15751
  20
1.810321
  30
0
  11
19.11201
  21
1.835624
  31
0
  0
LINE
  5
81
  100
AcDbEntity
  8
1
  100
AcDbLine
  10
19.11201
  20
1.835624
  30
0
  11
19.06651
  21
1.860719
  31
0
  0
LINE
  5
82
  100
AcDbEntity
  8
1
  100
AcDbLine
  10
19.06651
  20
1.860719
  30
0
  11
19.02101
  21
1.885605
  31
0
  0
LINE
  5
83
  100
AcDbEntity
  8
1
  100
AcDbLine
  10
19.02101
  20
1.885605
  30
0
  11
18.97551
  21
1.910278
  31
0
  0
LINE
  5
84
  100
AcDbEntity
  8
1
  100
AcDbLine
  10
18.97551
  20
1.910278
  30
0
  11
18.93001
  21
1.934735
  31
0
  0
LINE
  5
85
  100
AcDbEntity
  8
1
  100
AcDbLine
  10
18.93001
  20
1.934735
  30
0
  11
18.88451
  21
1.958974
  31
0
  0
LINE
  5
86
  100
AcDbEntity
  8
1
  100
AcDbLine
  10
18.88451
  20
1.958974
  30
0
  11
18.83901
  21
1.982993
  31
0
  0
LINE
  5
87
  100
AcDbEntity
  8
1
  100
AcDbLine
  10
18.83901
  20
1.982993
  30
0
  11
18.79351
  21
2.006787
  31
0
  0
LINE
  5
88
  100
AcDbEntity
  8
1
  100
AcDbLine
  10
18.79351
  20
2.006787
  30
0
  11
18.74801
  21
2.030356
  31
0
  0
LINE
  5
89
  100
AcDbEntity
  8
1
  100
AcDbLine
  10
18.74801
  20
2.030356
  30
0
  11
18.70251
  21
2.053695
  31
0
  0
LINE
  5
8a
  100
AcDbEntity
  8
1
  100
AcDbLine
  10
18.70251
  20
2.053695
  30
0
  11
18.65701
  21
2.076803
  31
0
  0
LINE
  5
8b
  100
AcDbEntity
  8
1
  100
AcDbLine
  10
18.65701
  20
2.076803
  30
0
  11
18.61151
  21
2.099676
  31
0
  0
LINE
  5
8c
  100
AcDbEntity
  8
1
  100
AcDbLine
  10
18.61151
  20
2.099676
  30
0
  11
18.56601
  21
2.122313
  31
0
  0
LINE
  5
8d
  100
AcDbEntity
  8
1
  100
AcDbLine
  10
18.56601
  20
2.122313
  30
0
  11
18.52051
  21
2.14471
  31
0
  0
LINE
  5
8e
  100
AcDbEntity
  8
1
  100
AcDbLine
  10
18.52051
  20
2.14471
  30
0
  11
18.47501
  21
2.166866
  31
0
  0
LINE
  5
8f
  100
AcDbEntity
  8
1
  100
AcDbLine
  10
18.47501
  20
2.166866
  30
0
  11
18.42951
  21
2.188777
  31
0
  0
LINE
  5
90
  100
AcDbEntity
  8
1
  100
AcDbLine
  10
18.42951
  20
2.188777
  30
0
  11
18.38401
  21
2.210441
  31
0
  0
LINE
  5
91
  100
AcDbEntity
  8
1
  100
AcDbLine
  10
18.38401
  20
2.210441
  30
0
  11
18.33851
  21
2.231856
  31
0
  0
LINE
  5
92
  100
AcDbEntity
  8
1
  100
AcDbLine
  10
18.33851
  20
2.231856
  30
0
  11
18.29301
  21
2.25302
  31
0
  0
LINE
  5
93
  100
AcDbEntity
  8
1
  100
AcDbLine
  10
18.29301
  20
2.25302
  30
0
  11
18.24751
  21
2.273929
  31
0
  0
LINE
  5
94
  100
AcDbEntity
  8
1
  100
AcDbLine
  10
18.24751
  20
2.273929
  30
0
  11
18.20201
  21
2.294582
  31
0
  0
LINE
  5
95
  100
AcDbEntity
  8
1
  100
AcDbLine
  10
18.20201
  20
2.294582
  30
0
  11
18.15651
  21
2.314975
  31
0
  0
LINE
  5
96
  100
AcDbEntity
  8
1
  100
AcDbLine
  10
18.15651
  20
2.314975
  30
0
  11
18.11101
  21
2.335108
  31
0
  0
LINE
  5
97
  100
AcDbEntity
  8
1
  100
AcDbLine
  10
18.11101
  20
2.335108
  30
0
  11
18.06551
  21
2.354978
  31
0
  0
LINE
  5
98
  100
AcDbEntity
  8
1
  100
AcDbLine
  10
18.06551
  20
2.354978
  30
0
  11
18.02001
  21
2.374582
  31
0
  0
LINE
  5
99
  100
AcDbEntity
  8
1
  100
AcDbLine
  10
18.02001
  20
2.374582
  30
0
  11
17.97451
  21
2.393918
  31
0
  0
LINE
  5
9a
  100
AcDbEntity
  8
1
  100
AcDbLine
  10
17.97451
  20
2.393918
  30
0
  11
17.92901
  21
2.412984
  31
0
  0
LINE
  5
9b
  100
AcDbEntity
  8
1
  100
AcDbLine
  10
17.92901
  20
2.412984
  30
0
  11
17.88351
  21
2.431778
  31
0
  0
LINE
  5
9c
  100
AcDbEntity
  8
1
  100
AcDbLine
  10
17.88351
  20
2.431778
  30
0
  11
17.83801
  21
2.450298
  31
0
  0
LINE
  5
9d
  100
AcDbEntity
  8
1
  100
AcDbLine
  10
17.83801
  20
2.450298
  30
0
  11
17.79251
  21
2.468541
  31
0
  0
LINE
  5
9e
  100
AcDbEntity
  8
1
  100
AcDbLine
  10
17.79251
  20
2.468541
  30
0
  11
17.74701
  21
2.486506
  31
0
  0
LINE
  5
9f
  100
AcDbEntity
  8
1
  100
AcDbLine
  10
17.74701
  20
2.486506
  30
0
  11
17.70151
  21
2.504191
  31
0
  0
LINE
  5
a0
  100
AcDbEntity
  8
1
  100
AcDbLine
  10
17.70151
  20
2.504191
  30
0
  11
17.65601
  21
2.521593
  31
0
  0
LINE
  5
a1
  100
AcDbEntity
  8
1
  100
AcDbLine
  10
17.65601
  20
2.521593
  30
0
  11
17.61051
  21
2.538711
  31
0
  0
LINE
  5
a2
  100
AcDbEntity
  8
1
  100
AcDbLine
  10
17.61051
  20
2.538711
  30
0
  11
17.56501
  21
2.555542
  31
0
  0
LINE
  5
a3
  100
AcDbEntity
  8
1
  100
AcDbLine
  10
17.56501
  20
2.555542
  30
0
  11
17.51951
  21
2.572085
  31
0
  0
LINE
  5
a4
  100
AcDbEntity
  8
1
  100
AcDbLine
  10
17.51951
  20
2.572085
  30
0
  11
17.47401
  21
2.588339
  31
0
  0
LINE
  5
a5
  100
AcDbEntity
  8
1
  100
AcDbLine
  10
17.47401
  20
2.588339
  30
0
  11
17.42851
  21
2.6043
  31
0
  0
LINE
  5
a6
  100
AcDbEntity
  8
1
  100
AcDbLine
  10
17.42851
  20
2.6043
  30
0
  11
17.38301
  21
2.619967
  31
0
  0
LINE
  5
a7
  100
AcDbEntity
  8
1
  100
AcDbLine
  10
17.38301
  20
2.619967
  30
0
  11
17.33751
  21
2.635339
  31
0
  0
LINE
  5
a8
  100
AcDbEntity
  8
1
  100
AcDbLine
  10
17.33751
  20
2.635339
  30
0
  11
17.29201
  21
2.650414
  31
0
  0
LINE
  5
a9
  100
AcDbEntity
  8
1
  100
AcDbLine
  10
17.29201
  20
2.650414
  30
0
  11
17.24651
  21
2.66519
  31
0
  0
LINE
  5
aa
  100
AcDbEntity
  8
1
  100
AcDbLine
  10
17.24651
  20
2.66519
  30
0
  11
17.20101
  21
2.679666
  31
0
  0
LINE
  5
ab
  100
AcDbEntity
  8
1
  100
AcDbLine
  10
17.20101
  20
2.679666
  30
0
  11
17.15551
  21
2.693839
  31
0
  0
LINE
  5
ac
  100
AcDbEntity
  8
1
  100
AcDbLine
  10
17.15551
  20
2.693839
  30
0
  11
17.11001
  21
2.707708
  31
0
  0
LINE
  5
ad
  100
AcDbEntity
  8
1
  100
AcDbLine
  10
17.11001
  20
2.707708
  30
0
  11
17.06451
  21
2.721272
  31
0
  0
LINE
  5
ae
  100
AcDbEntity
  8
1
  100
AcDbLine
  10
17.06451
  20
2.721272
  30
0
  11
17.01901
  21
2.734529
  31
0
  0
LINE
  5
af
  100
AcDbEntity
  8
1
  100
AcDbLine
  10
17.01901
  20
2.734529
  30
0
  11
16.97351
  21
2.747478
  31
0
  0
LINE
  5
b0
  100
AcDbEntity
  8
1
  100
AcDbLine
  10
16.97351
  20
2.747478
  30
0
  11
16.92801
  21
2.760116
  31
0
  0
LINE
  5
b1
  100
AcDbEntity
  8
1
  100
AcDbLine
  10
16.92801
  20
2.760116
  30
0
  11
16.88251
  21
2.772444
  31
0
  0
LINE
  5
b2
  100
AcDbEntity
  8
1
  100
AcDbLine
  10
16.88251
  20
2.772444
  30
0
  11
16.83701
  21
2.784459
  31
0
  0
LINE
  5
b3
  100
AcDbEntity
  8
1
  100
AcDbLine
  10
16.83701
  20
2.784459
  30
0
  11
16.79151
  21
2.79616
  31
0
  0
LINE
  5
b4
  100
AcDbEntity
  8
1
  100
AcDbLine
  10
16.79151
  20
2.79616
  30
0
  11
16.74601
  21
2.807545
  31
0
  0
LINE
  5
b5
  100
AcDbEntity
  8
1
  100
AcDbLine
  10
16.74601
  20
2.807545
  30
0
  11
16.70051
  21
2.818614
  31
0
  0
LINE
  5
b6
  100
AcDbEntity
  8
1
  100
AcDbLine
  10
16.70051
  20
2.818614
  30
0
  11
16.65501
  21
2.829365
  31
0
  0
LINE
  5
b7
  100
AcDbEntity
  8
1
  100
AcDbLine
  10
16.65501
  20
2.829365
  30
0
  11
16.60951
  21
2.839797
  31
0
  0
LINE
  5
b8
  100
AcDbEntity
  8
1
  100
AcDbLine
  10
16.60951
  20
2.839797
  30
0
  11
16.56401
  21
2.849908
  31
0
  0
LINE
  5
b9
  100
AcDbEntity
  8
1
  100
AcDbLine
  10
16.56401
  20
2.849908
  30
0
  11
16.51851
  21
2.859699
  31
0
  0
LINE
  5
ba
  100
AcDbEntity
  8
1
  100
AcDbLine
  10
16.51851
  20
2.859699
  30
0
  11
16.47301
  21
2.869166
  31
0
  0
LINE
  5
bb
  100
AcDbEntity
  8
1
  100
AcDbLine
  10
16.47301
  20
2.869166
  30
0
  11
16.42751
  21
2.87831
  31
0
  0
LINE
  5
bc
  100
AcDbEntity
  8
1
  100
AcDbLine
  10
16.42751
  20
2.87831
  30
0
  11
16.38201
  21
2.88713
  31
0
  0
LINE
  5
bd
  100
AcDbEntity
  8
1
  100
AcDbLine
  10
16.38201
  20
2.88713
  30
0
  11
16.33651
  21
2.895624
  31
0
  0
LINE
  5
be
  100
AcDbEntity
  8
1
  100
AcDbLine
  10
16.33651
  20
2.895624
  30
0
  11
16.29101
  21
2.903791
  31
0
  0
LINE
  5
bf
  100
AcDbEntity
  8
1
  100
AcDbLine
  10
16.29101
  20
2.903791
  30
0
  11
16.24551
  21
2.911631
  31
0
  0
LINE
  5
c0
  100
AcDbEntity
  8
1
  100
AcDbLine
  10
16.24551
  20
2.911631
  30
0
  11
16.20001
  21
2.919142
  31
0
  0
LINE
  5
c1
  100
AcDbEntity
  8
1
  100
AcDbLine
  10
16.20001
  20
2.919142
  30
0
  11
16.15451
  21
2.926324
  31
0
  0
LINE
  5
c2
  100
AcDbEntity
  8
1
  100
AcDbLine
  10
16.15451
  20
2.926324
  30
0
  11
16.10901
  21
2.933177
  31
0
  0
LINE
  5
c3
  100
AcDbEntity
  8
1
  100
AcDbLine
  10
16.10901
  20
2.933177
  30
0
  11
16.06351
  21
2.939698
  31
0
  0
LINE
  5
c4
  100
AcDbEntity
  8
1
  100
AcDbLine
  10
16.06351
  20
2.939698
  30
0
  11
16.01801
  21
2.945888
  31
0
  0
LINE
  5
c5
  100
AcDbEntity
  8
1
  100
AcDbLine
  10
16.01801
  20
2.945888
  30
0
  11
15.97251
  21
2.951745
  31
0
  0
LINE
  5
c6
  100
AcDbEntity
  8
1
  100
AcDbLine
  10
15.97251
  20
2.951745
  30
0
  11
15.92701
  21
2.95727
  31
0
  0
LINE
  5
c7
  100
AcDbEntity
  8
1
  100
AcDbLine
  10
15.92701
  20
2.95727
  30
0
  11
15.88151
  21
2.962461
  31
0
  0
LINE
  5
c8
  100
AcDbEntity
  8
1
  100
AcDbLine
  10
15.88151
  20
2.962461
  30
0
  11
15.83601
  21
2.967318
  31
0
  0
LINE
  5
c9
  100
AcDbEntity
  8
1
  100
AcDbLine
  10
15.83601
  20
2.967318
  30
0
  11
15.79051
  21
2.971841
  31
0
  0
LINE
  5
ca
  100
AcDbEntity
  8
1
  100
AcDbLine
  10
15.79051
  20
2.971841
  30
0
  11
15.74501
  21
2.976028
  31
0
  0
LINE
  5
cb
  100
AcDbEntity
  8
1
  100
AcDbLine
  10
15.74501
  20
2.976028
  30
0
  11
15.69951
  21
2.97988
  31
0
  0
LINE
  5
cc
  100
AcDbEntity
  8
1
  100
AcDbLine
  10
15.69951
  20
2.97988
  30
0
  11
15.65401
  21
2.983395
  31
0
  0
LINE
  5
cd
  100
AcDbEntity
  8
1
  100
AcDbLine
  10
15.65401
  20
2.983395
  30
0
  11
15.60851
  21
2.986574
  31
0
  0
LINE
  5
ce
  100
AcDbEntity
  8
1
  100
AcDbLine
  10
15.60851
  20
2.986574
  30
0
  11
15.56301
  21
2.989417
  31
0
  0
LINE
  5
cf
  100
AcDbEntity
  8
1
  100
AcDbLine
  10
15.56301
  20
2.989417
  30
0
  11
15.51751
  21
2.991922
  31
0
  0
LINE
  5
d0
  100
AcDbEntity
  8
1
  100
AcDbLine
  10
15.51751
  20
2.991922
  30
0
  11
15.47201
  21
2.994089
  31
0
  0
LINE
  5
d1
  100
AcDbEntity
  8
1
  100
AcDbLine
  10
15.47201
  20
2.994089
  30
0
  11
15.42651
  21
2.995919
  31
0
  0
LINE
  5
d2
  100
AcDbEntity
  8
1
  100
AcDbLine
  10
15.42651
  20
2.995919
  30
0
  11
15.38101
  21
2.997412
  31
0
  0
LINE
  5
d3
  100
AcDbEntity
  8
1
  100
AcDbLine
  10
15.38101
  20
2.997412
  30
0
  11
15.33551
  21
2.998566
  31
0
  0
LINE
  5
d4
  100
AcDbEntity
  8
1
  100
AcDbLine
  10
15.33551
  20
2.998566
  30
0
  11
15.29001
  21
2.999382
  31
0
  0
LINE
  5
d5
  100
AcDbEntity
  8
1
  100
AcDbLine
  10
15.29001
  20
2.999382
  30
0
  11
15.24451
  21
2.999859
  31
0
  0
LINE
  5
d6
  100
AcDbEntity
  8
1
  100
AcDbLine
  10
15.24451
  20
2.999859
  30
0
  11
15.203021
  21
3
  31
0
  0
LINE
  5
d7
  100
AcDbEntity
  8
1
  100
AcDbLine
  10
21.93301
  20
0.323032
  30
0
  11
21.88751
  21
0.346383
  31
0
  0
LINE
  5
d8
  100
AcDbEntity
  8
1
  100
AcDbLine
  10
21.88751
  20
0.346383
  30
0
  11
21.84201
  21
0.370675
  31
0
  0
LINE
  5
d9
  100
AcDbEntity
  8
1
  100
AcDbLine
  10
21.84201
  20
0.370675
  30
0
  11
21.79651
  21
0.395905
  31
0
  0
LINE
  5
da
  100
AcDbEntity
  8
1
  100
AcDbLine
  10
21.79651
  20
0.395905
  30
0
  11
21.75101
  21
0.422071
  31
0
  0
LINE
  5
db
  100
AcDbEntity
  8
1
  100
AcDbLine
  10
21.75101
  20
0.422071
  30
0
  11
21.70551
  21
0.451483
  31
0
  0
LINE
  5
dc
  100
AcDbEntity
  8
1
  100
AcDbLine
  10
21.70551
  20
0.451483
  30
0
  11
21.66001
  21
0.482553
  31
0
  0
LINE
  5
dd
  100
AcDbEntity
  8
1
  100
AcDbLine
  10
21.66001
  20
0.482553
  30
0
  11
21.61451
  21
0.513568
  31
0
  0
LINE
  5
de
  100
AcDbEntity
  8
1
  100
AcDbLine
  10
21.61451
  20
0.513568
  30
0
  11
21.56901
  21
0.544525
  31
0
  0
LINE
  5
df
  100
AcDbEntity
  8
1
  100
AcDbLine
  10
21.56901
  20
0.544525
  30
0
  11
21.52351
  21
0.575421
  31
0
  0
LINE
  5
e0
  100
AcDbEntity
  8
1
  100
AcDbLine
  10
21.52351
  20
0.575421
  30
0
  11
21.47801
  21
0.606252
  31
0
  0
LINE
  5
e1
  100
AcDbEntity
  8
1
  100
AcDbLine
  10
21.47801
  20
0.606252
  30
0
  11
21.43251
  21
0.637014
  31
0
  0
LINE
  5
e2
  100
AcDbEntity
  8
1
  100
AcDbLine
  10
21.43251
  20
0.637014
  30
0
  11
21.38701
  21
0.667705
  31
0
  0
LINE
  5
e3
  100
AcDbEntity
  8
1
  100
AcDbLine
  10
21.38701
  20
0.667705
  30
0
  11
21.34151
  21
0.69832
  31
0
  0
LINE
  5
e4
  100
AcDbEntity
  8
1
  100
AcDbLine
  10
21.34151
  20
0.69832
  30
0
  11
21.29601
  21
0.728857
  31
0
  0
LINE
  5
e5
  100
AcDbEntity
  8
1
  100
AcDbLine
  10
21.29601
  20
0.728857
  30
0
  11
21.25051
  21
0.759311
  31
0
  0
LINE
  5
e6
  100
AcDbEntity
  8
1
  100
AcDbLine
  10
21.25051
  20
0.759311
  30
0
  11
21.20501
  21
0.78968
  31
0
  0
LINE
  5
e7
  100
AcDbEntity
  8
1
  100
AcDbLine
  10
21.20501
  20
0.78968
  30
0
  11
21.15951
  21
0.81996
  31
0
  0
LINE
  5
e8
  100
AcDbEntity
  8
1
  100
AcDbLine
  10
21.15951
  20
0.81996
  30
0
  11
21.11401
  21
0.850147
  31
0
  0
LINE
  5
e9
  100
AcDbEntity
  8
1
  100
AcDbLine
  10
21.11401
  20
0.850147
  30
0
  11
21.06851
  21
0.880238
  31
0
  0
LINE
  5
ea
  100
AcDbEntity
  8
1
  100
AcDbLine
  10
21.06851
  20
0.880238
  30
0
  11
21.02301
  21
0.91023
  31
0
  0
LINE
  5
eb
  100
AcDbEntity
  8
1
  100
AcDbLine
  10
21.02301
  20
0.91023
  30
0
  11
20.97751
  21
0.94012
  31
0
  0
LINE
  5
ec
  100
AcDbEntity
  8
1
  100
AcDbLine
  10
20.97751
  20
0.94012
  30
0
  11
20.93201
  21
0.969903
  31
0
  0
LINE
  5
ed
  100
AcDbEntity
  8
1
  100
AcDbLine
  10
20.93201
  20
0.969903
  30
0
  11
20.88651
  21
0.999577
  31
0
  0
LINE
  5
ee
  100
AcDbEntity
  8
1
  100
AcDbLine
  10
20.88651
  20
0.999577
  30
0
  11
20.84101
  21
1.029139
  31
0
  0
LINE
  5
ef
  100
AcDbEntity
  8
1
  100
AcDbLine
  10
20.84101
  20
1.029139
  30
0
  11
20.79551
  21
1.058584
  31
0
  0
LINE
  5
f0
  100
AcDbEntity
  8
1
  100
AcDbLine
  10
20.79551
  20
1.058584
  30
0
  11
20.75001
  21
1.08791
  31
0
  0
LINE
  5
f1
  100
AcDbEntity
  8
1
  100
AcDbLine
  10
20.75001
  20
1.08791
  30
0
  11
20.70451
  21
1.117113
  31
0
  0
LINE
  5
f2
  100
AcDbEntity
  8
1
  100
AcDbLine
  10
20.70451
  20
1.117113
  30
0
  11
20.65901
  21
1.14619
  31
0
  0
LINE
  5
f3
  100
AcDbEntity
  8
1
  100
AcDbLine
  10
20.65901
  20
1.14619
  30
0
  11
20.61351
  21
1.175138
  31
0
  0
LINE
  5
f4
  100
AcDbEntity
  8
1
  100
AcDbLine
  10
20.61351
  20
1.175138
  30
0
  11
20.56801
  21
1.203953
  31
0
  0
LINE
  5
f5
  100
AcDbEntity
  8
1
  100
AcDbLine
  10
20.56801
  20
1.203953
  30
0
  11
20.52251
  21
1.232633
  31
0
  0
LINE
  5
f6
  100
AcDbEntity
  8
1
  100
AcDbLine
  10
20.52251
  20
1.232633
  30
0
  11
20.47701
  21
1.261173
  31
0
  0
LINE
  5
f7
  100
AcDbEntity
  8
1
  100
AcDbLine
  10
20.47701
  20
1.261173
  30
0
  11
20.43151
  21
1.289572
  31
0
  0
LINE
  5
f8
  100
AcDbEntity
  8
1
  100
AcDbLine
  10
20.43151
  20
1.289572
  30
0
  11
20.38601
  21
1.317824
  31
0
  0
LINE
  5
f9
  100
AcDbEntity
  8
1
  100
AcDbLine
  10
20.38601
  20
1.317824
  30
0
  11
20.34051
  21
1.345929
  31
0
  0
LINE
  5
fa
  100
AcDbEntity
  8
1
  100
AcDbLine
  10
20.34051
  20
1.345929
  30
0
  11
20.29501
  21
1.373881
  31
0
  0
LINE
  5
fb
  100
AcDbEntity
  8
1
  100
AcDbLine
  10
20.29501
  20
1.373881
  30
0
  11
20.24951
  21
1.401679
  31
0
  0
LINE
  5
fc
  100
AcDbEntity
  8
1
  100
AcDbLine
  10
20.24951
  20
1.401679
  30
0
  11
20.20401
  21
1.429318
  31
0
  0
LINE
  5
fd
  100
AcDbEntity
  8
1
  100
AcDbLine
  10
20.20401
  20
1.429318
  30
0
  11
20.15851
  21
1.456796
  31
0
  0
LINE
  5
fe
  100
AcDbEntity
  8
1
  100
AcDbLine
  10
20.15851
  20
1.456796
  30
0
  11
20.11301
  21
1.48411
  31
0
  0
LINE
  5
ff
  100
AcDbEntity
  8
1
  100
AcDbLine
  10
20.11301
  20
1.48411
  30
0
  11
20.06751
  21
1.511257
  31
0
  0
LINE
  5
100
  100
AcDbEntity
  8
1
  100
AcDbLine
  10
20.06751
  20
1.511257
  30
0
  11
20.02201
  21
1.538233
  31
0
  0
LINE
  5
101
  100
AcDbEntity
  8
1
  100
AcDbLine
  10
20.02201
  20
1.538233
  30
0
  11
19.97651
  21
1.565036
  31
0
  0
LINE
  5
102
  100
AcDbEntity
  8
1
  100
AcDbLine
  10
19.97651
  20
1.565036
  30
0
  11
19.93101
  21
1.591662
  31
0
  0
LINE
  5
103
  100
AcDbEntity
  8
1
  100
AcDbLine
  10
19.93101
  20
1.591662
  30
0
  11
19.88551
  21
1.618108
  31
0
  0
LINE
  5
104
  100
AcDbEntity
  8
1
  100
AcDbLine
  10
19.88551
  20
1.618108
  30
0
  11
19.84001
  21
1.644373
  31
0
  0
LINE
  5
105
  100
AcDbEntity
  8
1
  100
AcDbLine
  10
19.84001
  20
1.644373
  30
0
  11
19.79451
  21
1.670451
  31
0
  0
LINE
  5
106
  100
AcDbEntity
  8
1
  100
AcDbLine
  10
19.79451
  20
1.670451
  30
0
  11
19.74901
  21
1.696342
  31
0
  0
LINE
  5
107
  100
AcDbEntity
  8
1
  100
AcDbLine
  10
19.74901
  20
1.696342
  30
0
  11
19.70351
  21
1.722041
  31
0
  0
LINE
  5
108
  100
AcDbEntity
  8
1
  100
AcDbLine
  10
19.70351
  20
1.722041
  30
0
  11
19.65801
  21
1.747545
  31
0
  0
LINE
  5
109
  100
AcDbEntity
  8
1
  100
AcDbLine
  10
19.65801
  20
1.747545
  30
0
  11
19.61251
  21
1.772853
  31
0
  0
LINE
  5
10a
  100
AcDbEntity
  8
1
  100
AcDbLine
  10
19.61251
  20
1.772853
  30
0
  11
19.56701
  21
1.797961
  31
0
  0
LINE
  5
10b
  100
AcDbEntity
  8
1
  100
AcDbLine
  10
19.56701
  20
1.797961
  30
0
  11
19.52151
  21
1.822866
  31
0
  0
LINE
  5
10c
  100
AcDbEntity
  8
1
  100
AcDbLine
  10
19.52151
  20
1.822866
  30
0
  11
19.47601
  21
1.847565
  31
0
  0
LINE
  5
10d
  100
AcDbEntity
  8
1
  100
AcDbLine
  10
19.47601
  20
1.847565
  30
0
  11
19.43051
  21
1.872056
  31
0
  0
LINE
  5
10e
  100
AcDbEntity
  8
1
  100
AcDbLine
  10
19.43051
  20
1.872056
  30
0
  11
19.38501
  21
1.896336
  31
0
  0
LINE
  5
10f
  100
AcDbEntity
  8
1
  100
AcDbLine
  10
19.38501
  20
1.896336
  30
0
  11
19.33951
  21
1.920402
  31
0
  0
LINE
  5
110
  100
AcDbEntity
  8
1
  100
AcDbLine
  10
19.33951
  20
1.920402
  30
0
  11
19.29401
  21
1.944252
  31
0
  0
LINE
  5
111
  100
AcDbEntity
  8
1
  100
AcDbLine
  10
19.29401
  20
1.944252
  30
0
  11
19.24851
  21
1.967882
  31
0
  0
LINE
  5
112
  100
AcDbEntity
  8
1
  100
AcDbLine
  10
19.24851
  20
1.967882
  30
0
  11
19.20301
  21
1.99129
  31
0
  0
LINE
  5
113
  100
AcDbEntity
  8
1
  100
AcDbLine
  10
19.20301
  20
1.99129
  30
0
  11
19.15751
  21
2.014474
  31
0
  0
LINE
  5
114
  100
AcDbEntity
  8
1
  100
AcDbLine
  10
19.15751
  20
2.014474
  30
0
  11
19.11201
  21
2.03743
  31
0
  0
LINE
  5
115
  100
AcDbEntity
  8
1
  100
AcDbLine
  10
19.11201
  20
2.03743
  30
0
  11
19.06651
  21
2.060157
  31
0
  0
LINE
  5
116
  100
AcDbEntity
  8
1
  100
AcDbLine
  10
19.06651
  20
2.060157
  30
0
  11
19.02101
  21
2.082651
  31
0
  0
LINE
  5
117
  100
AcDbEntity
  8
1
  100
AcDbLine
  10
19.02101
  20
2.082651
  30
0
  11
18.97551
  21
2.104911
  31
0
  0
LINE
  5
118
  100
AcDbEntity
  8
1
  100
AcDbLine
  10
18.97551
  20
2.104911
  30
0
  11
18.93001
  21
2.126933
  31
0
  0
LINE
  5
119
  100
AcDbEntity
  8
1
  100
AcDbLine
  10
18.93001
  20
2.126933
  30
0
  11
18.88451
  21
2.148715
  31
0
  0
LINE
  5
11a
  100
AcDbEntity
  8
1
  100
AcDbLine
  10
18.88451
  20
2.148715
  30
0
  11
18.83901
  21
2.170255
  31
0
  0
LINE
  5
11b
  100
AcDbEntity
  8
1
  100
AcDbLine
  10
18.83901
  20
2.170255
  30
0
  11
18.79351
  21
2.19155
  31
0
  0
LINE
  5
11c
  100
AcDbEntity
  8
1
  100
AcDbLine
  10
18.79351
  20
2.19155
  30
0
  11
18.74801
  21
2.212598
  31
0
  0
LINE
  5
11d
  100
AcDbEntity
  8
1
  100
AcDbLine
  10
18.74801
  20
2.212598
  30
0
  11
18.70251
  21
2.233396
  31
0
  0
LINE
  5
11e
  100
AcDbEntity
  8
1
  100
AcDbLine
  10
18.70251
  20
2.233396
  30
0
  11
18.65701
  21
2.253943
  31
0
  0
LINE
  5
11f
  100
AcDbEntity
  8
1
  100
AcDbLine
  10
18.65701
  20
2.253943
  30
0
  11
18.61151
  21
2.274235
  31
0
  0
LINE
  5
120
  100
AcDbEntity
  8
1
  100
AcDbLine
  10
18.61151
  20
2.274235
  30
0
  11
18.56601
  21
2.294271
  31
0
  0
LINE
  5
121
  100
AcDbEntity
  8
1
  100
AcDbLine
  10
18.56601
  20
2.294271
  30
0
  11
18.52051
  21
2.314048
  31
0
  0
LINE
  5
122
  100
AcDbEntity
  8
1
  100
AcDbLine
  10
18.52051
  20
2.314048
  30
0
  11
18.47501
  21
2.333564
  31
0
  0
LINE
  5
123
  100
AcDbEntity
  8
1
  100
AcDbLine
  10
18.47501
  20
2.333564
  30
0
  11
18.42951
  21
2.352817
  31
0
  0
LINE
  5
124
  100
AcDbEntity
  8
1
  100
AcDbLine
  10
18.42951
  20
2.352817
  30
0
  11
18.38401
  21
2.371805
  31
0
  0
LINE
  5
125
  100
AcDbEntity
  8
1
  100
AcDbLine
  10
18.38401
  20
2.371805
  30
0
  11
18.33851
  21
2.390525
  31
0
  0
LINE
  5
126
  100
AcDbEntity
  8
1
  100
AcDbLine
  10
18.33851
  20
2.390525
  30
0
  11
18.29301
  21
2.408975
  31
0
  0
LINE
  5
127
  100
AcDbEntity
  8
1
  100
AcDbLine
  10
18.29301
  20
2.408975
  30
0
  11
18.24751
  21
2.427154
  31
0
  0
LINE
  5
128
  100
AcDbEntity
  8
1
  100
AcDbLine
  10
18.24751
  20
2.427154
  30
0
  11
18.20201
  21
2.445059
  31
0
  0
LINE
  5
129
  100
AcDbEntity
  8
1
  100
AcDbLine
  10
18.20201
  20
2.445059
  30
0
  11
18.15651
  21
2.462689
  31
0
  0
LINE
  5
12a
  100
AcDbEntity
  8
1
  100
AcDbLine
  10
18.15651
  20
2.462689
  30
0
  11
18.11101
  21
2.48004
  31
0
  0
LINE
  5
12b
  100
AcDbEntity
  8
1
  100
AcDbLine
  10
18.11101
  20
2.48004
  30
0
  11
18.06551
  21
2.497112
  31
0
  0
LINE
  5
12c
  100
AcDbEntity
  8
1
  100
AcDbLine
  10
18.06551
  20
2.497112
  30
0
  11
18.02001
  21
2.513902
  31
0
  0
LINE
  5
12d
  100
AcDbEntity
  8
1
  100
AcDbLine
  10
18.02001
  20
2.513902
  30
0
  11
17.97451
  21
2.530409
  31
0
  0
LINE
  5
12e
  100
AcDbEntity
  8
1
  100
AcDbLine
  10
17.97451
  20
2.530409
  30
0
  11
17.92901
  21
2.546631
  31
0
  0
LINE
  5
12f
  100
AcDbEntity
  8
1
  100
AcDbLine
  10
17.92901
  20
2.546631
  30
0
  11
17.88351
  21
2.562565
  31
0
  0
LINE
  5
130
  100
AcDbEntity
  8
1
  100
AcDbLine
  10
17.88351
  20
2.562565
  30
0
  11
17.83801
  21
2.57821
  31
0
  0
LINE
  5
131
  100
AcDbEntity
  8
1
  100
AcDbLine
  10
17.83801
  20
2.57821
  30
0
  11
17.79251
  21
2.593564
  31
0
  0
LINE
  5
132
  100
AcDbEntity
  8
1
  100
AcDbLine
  10
17.79251
  20
2.593564
  30
0
  11
17.74701
  21
2.608626
  31
0
  0
LINE
  5
133
  100
AcDbEntity
  8
1
  100
AcDbLine
  10
17.74701
  20
2.608626
  30
0
  11
17.70151
  21
2.623394
  31
0
  0
LINE
  5
134
  100
AcDbEntity
  8
1
  100
AcDbLine
  10
17.70151
  20
2.623394
  30
0
  11
17.65601
  21
2.637866
  31
0
  0
LINE
  5
135
  100
AcDbEntity
  8
1
  100
AcDbLine
  10
17.65601
  20
2.637866
  30
0
  11
17.61051
  21
2.65204
  31
0
  0
LINE
  5
136
  100
AcDbEntity
  8
1
  100
AcDbLine
  10
17.61051
  20
2.65204
  30
0
  11
17.56501
  21
2.665915
  31
0
  0
LINE
  5
137
  100
AcDbEntity
  8
1
  100
AcDbLine
  10
17.56501
  20
2.665915
  30
0
  11
17.51951
  21
2.67949
  31
0
  0
LINE
  5
138
  100
AcDbEntity
  8
1
  100
AcDbLine
  10
17.51951
  20
2.67949
  30
0
  11
17.47401
  21
2.692762
  31
0
  0
LINE
  5
139
  100
AcDbEntity
  8
1
  100
AcDbLine
  10
17.47401
  20
2.692762
  30
0
  11
17.42851
  21
2.705731
  31
0
  0
LINE
  5
13a
  100
AcDbEntity
  8
1
  100
AcDbLine
  10
17.42851
  20
2.705731
  30
0
  11
17.38301
  21
2.718395
  31
0
  0
LINE
  5
13b
  100
AcDbEntity
  8
1
  100
AcDbLine
  10
17.38301
  20
2.718395
  30
0
  11
17.33751
  21
2.730752
  31
0
  0
LINE
  5
13c
  100
AcDbEntity
  8
1
  100
AcDbLine
  10
17.33751
  20
2.730752
  30
0
  11
17.29201
  21
2.742801
  31
0
  0
LINE
  5
13d
  100
AcDbEntity
  8
1
  100
AcDbLine
  10
17.29201
  20
2.742801
  30
0
  11
17.24651
  21
2.75454
  31
0
  0
LINE
  5
13e
  100
AcDbEntity
  8
1
  100
AcDbLine
  10
17.24651
  20
2.75454
  30
0
  11
17.20101
  21
2.765969
  31
0
  0
LINE
  5
13f
  100
AcDbEntity
  8
1
  100
AcDbLine
  10
17.20101
  20
2.765969
  30
0
  11
17.15551
  21
2.777086
  31
0
  0
LINE
  5
140
  100
AcDbEntity
  8
1
  100
AcDbLine
  10
17.15551
  20
2.777086
  30
0
  11
17.11001
  21
2.78789
  31
0
  0
LINE
  5
141
  100
AcDbEntity
  8
1
  100
AcDbLine
  10
17.11001
  20
2.78789
  30
0
  11
17.06451
  21
2.79838
  31
0
  0
LINE
  5
142
  100
AcDbEntity
  8
1
  100
AcDbLine
  10
17.06451
  20
2.79838
  30
0
  11
17.01901
  21
2.808554
  31
0
  0
LINE
  5
143
  100
AcDbEntity
  8
1
  100
AcDbLine
  10
17.01901
  20
2.808554
  30
0
  11
16.97351
  21
2.818411
  31
0
  0
LINE
  5
144
  100
AcDbEntity
  8
1
  100
AcDbLine
  10
16.97351
  20
2.818411
  30
0
  11
16.92801
  21
2.82795
  31
0
  0
LINE
  5
145
  100
AcDbEntity
  8
1
  100
AcDbLine
  10
16.92801
  20
2.82795
  30
0
  11
16.88251
  21
2.83717
  31
0
  0
LINE
  5
146
  100
AcDbEntity
  8
1
  100
AcDbLine
  10
16.88251
  20
2.83717
  30
0
  11
16.83701
  21
2.846071
  31
0
  0
LINE
  5
147
  100
AcDbEntity
  8
1
  100
AcDbLine
  10
16.83701
  20
2.846071
  30
0
  11
16.79151
  21
2.85465
  31
0
  0
LINE
  5
148
  100
AcDbEntity
  8
1
  100
AcDbLine
  10
16.79151
  20
2.85465
  30
0
  11
16.74601
  21
2.862907
  31
0
  0
LINE
  5
149
  100
AcDbEntity
  8
1
  100
AcDbLine
  10
16.74601
  20
2.862907
  30
0
  11
16.70051
  21
2.870842
  31
0
  0
LINE
  5
14a
  100
AcDbEntity
  8
1
  100
AcDbLine
  10
16.70051
  20
2.870842
  30
0
  11
16.65501
  21
2.878453
  31
0
  0
LINE
  5
14b
  100
AcDbEntity
  8
1
  100
AcDbLine
  10
16.65501
  20
2.878453
  30
0
  11
16.60951
  21
2.885739
  31
0
  0
LINE
  5
14c
  100
AcDbEntity
  8
1
  100
AcDbLine
  10
16.60951
  20
2.885739
  30
0
  11
16.56401
  21
2.8927
  31
0
  0
LINE
  5
14d
  100
AcDbEntity
  8
1
  100
AcDbLine
  10
16.56401
  20
2.8927
  30
0
  11
16.51851
  21
2.899334
  31
0
  0
LINE
  5
14e
  100
AcDbEntity
  8
1
  100
AcDbLine
  10
16.51851
  20
2.899334
  30
0
  11
16.47301
  21
2.905641
  31
0
  0
LINE
  5
14f
  100
AcDbEntity
  8
1
  100
AcDbLine
  10
16.47301
  20
2.905641
  30
0
  11
16.42751
  21
2.911621
  31
0
  0
LINE
  5
150
  100
AcDbEntity
  8
1
  100
AcDbLine
  10
16.42751
  20
2.911621
  30
0
  11
16.38201
  21
2.917273
  31
0
  0
LINE
  5
151
  100
AcDbEntity
  8
1
  100
AcDbLine
  10
16.38201
  20
2.917273
  30
0
  11
16.33651
  21
2.922595
  31
0
  0
LINE
  5
152
  100
AcDbEntity
  8
1
  100
AcDbLine
  10
16.33651
  20
2.922595
  30
0
  11
16.29101
  21
2.927588
  31
0
  0
LINE
  5
153
  100
AcDbEntity
  8
1
  100
AcDbLine
  10
16.29101
  20
2.927588
  30
0
  11
16.24551
  21
2.93225
  31
0
  0
LINE
  5
154
  100
AcDbEntity
  8
1
  100
AcDbLine
  10
16.24551
  20
2.93225
  30
0
  11
16.20001
  21
2.936582
  31
0
  0
LINE
  5
155
  100
AcDbEntity
  8
1
  100
AcDbLine
  10
16.20001
  20
2.936582
  30
0
  11
16.15451
  21
2.940583
  31
0
  0
LINE
  5
156
  100
AcDbEntity
  8
1
  100
AcDbLine
  10
16.15451
  20
2.940583
  30
0
  11
16.10901
  21
2.944252
  31
0
  0
LINE
  5
157
  100
AcDbEntity
  8
1
  100
AcDbLine
  10
16.10901
  20
2.944252
  30
0
  11
16.06351
  21
2.947589
  31
0
  0
LINE
  5
158
  100
AcDbEntity
  8
1
  100
AcDbLine
  10
16.06351
  20
2.947589
  30
0
  11
16.01801
  21
2.950594
  31
0
  0
LINE
  5
159
  100
AcDbEntity
  8
1
  100
AcDbLine
  10
16.01801
  20
2.950594
  30
0
  11
15.97251
  21
2.953266
  31
0
  0
LINE
  5
15a
  100
AcDbEntity
  8
1
  100
AcDbLine
  10
15.97251
  20
2.953266
  30
0
  11
15.92701
  21
2.955604
  31
0
  0
LINE
  5
15b
  100
AcDbEntity
  8
1
  100
AcDbLine
  10
15.92701
  20
2.955604
  30
0
  11
15.88151
  21
2.95761
  31
0
  0
LINE
  5
15c
  100
AcDbEntity
  8
1
  100
AcDbLine
  10
15.88151
  20
2.95761
  30
0
  11
15.83601
  21
2.959282
  31
0
  0
LINE
  5
15d
  100
AcDbEntity
  8
1
  100
AcDbLine
  10
15.83601
  20
2.959282
  30
0
  11
15.79051
  21
2.96062
  31
0
  0
LINE
  5
15e
  100
AcDbEntity
  8
1
  100
AcDbLine
  10
15.79051
  20
2.96062
  30
0
  11
15.74501
  21
2.961624
  31
0
  0
LINE
  5
15f
  100
AcDbEntity
  8
1
  100
AcDbLine
  10
15.74501
  20
2.961624
  30
0
  11
15.69951
  21
2.962294
  31
0
  0
LINE
  5
160
  100
AcDbEntity
  8
1
  100
AcDbLine
  10
15.69951
  20
2.962294
  30
0
  11
15.65401
  21
2.962631
  31
0
  0
LINE
  5
161
  100
AcDbEntity
  8
1
  100
AcDbLine
  10
15.65401
  20
2.962631
  30
0
  11
15.630984
  21
3
  31
0
  0
LINE
  5
162
  100
AcDbEntity
  8
1
  100
AcDbLine
  10
16.549019
  20
3
  30
0
  11
16.56401
  21
2.999982
  31
0
  0
LINE
  5
163
  100
AcDbEntity
  8
1
  100
AcDbLine
  10
16.56401
  20
2.999982
  30
0
  11
16.60951
  21
2.999701
  31
0
  0
LINE
  5
164
  100
AcDbEntity
  8
1
  100
AcDbLine
  10
16.60951
  20
2.999701
  30
0
  11
16.65501
  21
2.999082
  31
0
  0
LINE
  5
165
  100
AcDbEntity
  8
1
  100
AcDbLine
  10
16.65501
  20
2.999082
  30
0
  11
16.70051
  21
2.998125
  31
0
  0
LINE
  5
166
  100
AcDbEntity
  8
1
  100
AcDbLine
  10
16.70051
  20
2.998125
  30
0
  11
16.74601
  21
2.99683
  31
0
  0
LINE
  5
167
  100
AcDbEntity
  8
1
  100
AcDbLine
  10
16.74601
  20
2.99683
  30
0
  11
16.79151
  21
2.995196
  31
0
  0
LINE
  5
168
  100
AcDbEntity
  8
1
  100
AcDbLine
  10
16.79151
  20
2.995196
  30
0
  11
16.83701
  21
2.993225
  31
0
  0
LINE
  5
169
  100
AcDbEntity
  8
1
  100
AcDbLine
  10
16.83701
  20
2.993225
  30
0
  11
16.88251
  21
2.990917
  31
0
  0
LINE
  5
16a
  100
AcDbEntity
  8
1
  100
AcDbLine
  10
16.88251
  20
2.990917
  30
0
  11
16.92801
  21
2.988271
  31
0
  0
LINE
  5
16b
  100
AcDbEntity
  8
1
  100
AcDbLine
  10
16.92801
  20
2.988271
  30
0
  11
16.97351
  21
2.985288
  31
0
  0
LINE
  5
16c
  100
AcDbEntity
  8
1
  100
AcDbLine
  10
16.97351
  20
2.985288
  30
0
  11
17.01901
  21
2.981968
  31
0
  0
LINE
  5
16d
  100
AcDbEntity
  8
1
  100
AcDbLine
  10
17.01901
  20
2.981968
  30
0
  11
17.06451
  21
2.978312
  31
0
  0
LINE
  5
16e
  100
AcDbEntity
  8
1
  100
AcDbLine
  10
17.06451
  20
2.978312
  30
0
  11
17.11001
  21
2.97432
  31
0
  0
LINE
  5
16f
  100
AcDbEntity
  8
1
  100
AcDbLine
  10
17.11001
  20
2.97432
  30
0
  11
17.15551
  21
2.969993
  31
0
  0
LINE
  5
170
  100
AcDbEntity
  8
1
  100
AcDbLine
  10
17.15551
  20
2.969993
  30
0
  11
17.20101
  21
2.965331
  31
0
  0
LINE
  5
171
  100
AcDbEntity
  8
1
  100
AcDbLine
  10
17.20101
  20
2.965331
  30
0
  11
17.24651
  21
2.960334
  31
0
  0
LINE
  5
172
  100
AcDbEntity
  8
1
  100
AcDbLine
  10
17.24651
  20
2.960334
  30
0
  11
17.29201
  21
2.955003
  31
0
  0
LINE
  5
173
  100
AcDbEntity
  8
1
  100
AcDbLine
  10
17.29201
  20
2.955003
  30
0
  11
17.33751
  21
2.949339
  31
0
  0
LINE
  5
174
  100
AcDbEntity
  8
1
  100
AcDbLine
  10
17.33751
  20
2.949339
  30
0
  11
17.38301
  21
2.943343
  31
0
  0
LINE
  5
175
  100
AcDbEntity
  8
1
  100
AcDbLine
  10
17.38301
  20
2.943343
  30
0
  11
17.42851
  21
2.937015
  31
0
  0
LINE
  5
176
  100
AcDbEntity
  8
1
  100
AcDbLine
  10
17.42851
  20
2.937015
  30
0
  11
17.47401
  21
2.930355
  31
0
  0
LINE
  5
177
  100
AcDbEntity
  8
1
  100
AcDbLine
  10
17.47401
  20
2.930355
  30
0
  11
17.51951
  21
2.923365
  31
0
  0
LINE
  5
178
  100
AcDbEntity
  8
1
  100
AcDbLine
  10
17.51951
  20
2.923365
  30
0
  11
17.56501
  21
2.916045
  31
0
  0
LINE
  5
179
  100
AcDbEntity
  8
1
  100
AcDbLine
  10
17.56501
  20
2.916045
  30
0
  11
17.61051
  21
2.908396
  31
0
  0
LINE
  5
17a
  100
AcDbEntity
  8
1
  100
AcDbLine
  10
17.61051
  20
2.908396
  30
0
  11
17.65601
  21
2.90042
  31
0
  0
LINE
  5
17b
  100
AcDbEntity
  8
1
  100
AcDbLine
  10
17.65601
  20
2.90042
  30
0
  11
17.70151
  21
2.892116
  31
0
  0
LINE
  5
17c
  100
AcDbEntity
  8
1
  100
AcDbLine
  10
17.70151
  20
2.892116
  30
0
  11
17.74701
  21
2.883486
  31
0
  0
LINE
  5
17d
  100
AcDbEntity
  8
1
  100
AcDbLine
  10
17.74701
  20
2.883486
  30
0
  11
17.79251
  21
2.874531
  31
0
  0
LINE
  5
17e
  100
AcDbEntity
  8
1
  100
AcDbLine
  10
17.79251
  20
2.874531
  30
0
  11
17.83801
  21
2.865252
  31
0
  0
LINE
  5
17f
  100
AcDbEntity
  8
1
  100
AcDbLine
  10
17.83801
  20
2.865252
  30
0
  11
17.88351
  21
2.855649
  31
0
  0
LINE
  5
180
  100
AcDbEntity
  8
1
  100
AcDbLine
  10
17.88351
  20
2.855649
  30
0
  11
17.92901
  21
2.845724
  31
0
  0
LINE
  5
181
  100
AcDbEntity
  8
1
  100
AcDbLine
  10
17.92901
  20
2.845724
  30
0
  11
17.97451
  21
2.835479
  31
0
  0
LINE
  5
182
  100
AcDbEntity
  8
1
  100
AcDbLine
  10
17.97451
  20
2.835479
  30
0
  11
18.02001
  21
2.824914
  31
0
  0
LINE
  5
183
  100
AcDbEntity
  8
1
  100
AcDbLine
  10
18.02001
  20
2.824914
  30
0
  11
18.06551
  21
2.81403
  31
0
  0
LINE
  5
184
  100
AcDbEntity
  8
1
  100
AcDbLine
  10
18.06551
  20
2.81403
  30
0
  11
18.11101
  21
2.802829
  31
0
  0
LINE
  5
185
  100
AcDbEntity
  8
1
  100
AcDbLine
  10
18.11101
  20
2.802829
  30
0
  11
18.15651
  21
2.791311
  31
0
  0
LINE
  5
186
  100
AcDbEntity
  8
1
  100
AcDbLine
  10
18.15651
  20
2.791311
  30
0
  11
18.20201
  21
2.779479
  31
0
  0
LINE
  5
187
  100
AcDbEntity
  8
1
  100
AcDbLine
  10
18.20201
  20
2.779479
  30
0
  11
18.24751
  21
2.767334
  31
0
  0
LINE
  5
188
  100
AcDbEntity
  8
1
  100
AcDbLine
  10
18.24751
  20
2.767334
  30
0
  11
18.29301
  21
2.754876
  31
0
  0
LINE
  5
189
  100
AcDbEntity
  8
1
  100
AcDbLine
  10
18.29301
  20
2.754876
  30
0
  11
18.33851
  21
2.742108
  31
0
  0
LINE
  5
18a
  100
AcDbEntity
  8
1
  100
AcDbLine
  10
18.33851
  20
2.742108
  30
0
  11
18.38401
  21
2.72903
  31
0
  0
LINE
  5
18b
  100
AcDbEntity
  8
1
  100
AcDbLine
  10
18.38401
  20
2.72903
  30
0
  11
18.42951
  21
2.715644
  31
0
  0
LINE
  5
18c
  100
AcDbEntity
  8
1
  100
AcDbLine
  10
18.42951
  20
2.715644
  30
0
  11
18.47501
  21
2.701953
  31
0
  0
LINE
  5
18d
  100
AcDbEntity
  8
1
  100
AcDbLine
  10
18.47501
  20
2.701953
  30
0
  11
18.52051
  21
2.687956
  31
0
  0
LINE
  5
18e
  100
AcDbEntity
  8
1
  100
AcDbLine
  10
18.52051
  20
2.687956
  30
0
  11
18.56601
  21
2.673657
  31
0
  0
LINE
  5
18f
  100
AcDbEntity
  8
1
  100
AcDbLine
  10
18.56601
  20
2.673657
  30
0
  11
18.61151
  21
2.659056
  31
0
  0
LINE
  5
190
  100
AcDbEntity
  8
1
  100
AcDbLine
  10
18.61151
  20
2.659056
  30
0
  11
18.65701
  21
2.644155
  31
0
  0
LINE
  5
191
  100
AcDbEntity
  8
1
  100
AcDbLine
  10
18.65701
  20
2.644155
  30
0
  11
18.70251
  21
2.628956
  31
0
  0
LINE
  5
192
  100
AcDbEntity
  8
1
  100
AcDbLine
  10
18.70251
  20
2.628956
  30
0
  11
18.74801
  21
2.61346
  31
0
  0
LINE
  5
193
  100
AcDbEntity
  8
1
  100
AcDbLine
  10
18.74801
  20
2.61346
  30
0
  11
18.79351
  21
2.597669
  31
0
  0
LINE
  5
194
  100
AcDbEntity
  8
1
  100
AcDbLine
  10
18.79351
  20
2.597669
  30
0
  11
18.83901
  21
2.581586
  31
0
  0
LINE
  5
195
  100
AcDbEntity
  8
1
  100
AcDbLine
  10
18.83901
  20
2.581586
  30
0
  11
18.88451
  21
2.565212
  31
0
  0
LINE
  5
196
  100
AcDbEntity
  8
1
  100
AcDbLine
  10
18.88451
  20
2.565212
  30
0
  11
18.93001
  21
2.548548
  31
0
  0
LINE
  5
197
  100
AcDbEntity
  8
1
  100
AcDbLine
  10
18.93001
  20
2.548548
  30
0
  11
18.97551
  21
2.531596
  31
0
  0
LINE
  5
198
  100
AcDbEntity
  8
1
  100
AcDbLine
  10
18.97551
  20
2.531596
  30
0
  11
19.02101
  21
2.51436
  31
0
  0
LINE
  5
199
  100
AcDbEntity
  8
1
  100
AcDbLine
  10
19.02101
  20
2.51436
  30
0
  11
19.06651
  21
2.496839
  31
0
  0
LINE
  5
19a
  100
AcDbEntity
  8
1
  100
AcDbLine
  10
19.06651
  20
2.496839
  30
0
  11
19.11201
  21
2.479037
  31
0
  0
LINE
  5
19b
  100
AcDbEntity
  8
1
  100
AcDbLine
  10
19.11201
  20
2.479037
  30
0
  11
19.15751
  21
2.460956
  31
0
  0
LINE
  5
19c
  100
AcDbEntity
  8
1
  100
AcDbLine
  10
19.15751
  20
2.460956
  30
0
  11
19.20301
  21
2.442597
  31
0
  0
LINE
  5
19d
  100
AcDbEntity
  8
1
  100
AcDbLine
  10
19.20301
  20
2.442597
  30
0
  11
19.24851
  21
2.423962
  31
0
  0
LINE
  5
19e
  100
AcDbEntity
  8
1
  100
AcDbLine
  10
19.24851
  20
2.423962
  30
0
  11
19.29401
  21
2.405054
  31
0
  0
LINE
  5
19f
  100
AcDbEntity
  8
1
  100
AcDbLine
  10
19.29401
  20
2.405054
  30
0
  11
19.33951
  21
2.385875
  31
0
  0
LINE
  5
1a0
  100
AcDbEntity
  8
1
  100
AcDbLine
  10
19.33951
  20
2.385875
  30
0
  11
19.38501
  21
2.366427
  31
0
  0
LINE
  5
1a1
  100
AcDbEntity
  8
1
  100
AcDbLine
  10
19.38501
  20
2.366427
  30
0
  11
19.43051
  21
2.346712
  31
0
  0
LINE
  5
1a2
  100
AcDbEntity
  8
1
  100
AcDbLine
  10
19.43051
  20
2.346712
  30
0
  11
19.47601
  21
2.326732
  31
0
  0
LINE
  5
1a3
  100
AcDbEntity
  8
1
  100
AcDbLine
  10
19.47601
  20
2.326732
  30
0
  11
19.52151
  21
2.30649
  31
0
  0
LINE
  5
1a4
  100
AcDbEntity
  8
1
  100
AcDbLine
  10
19.52151
  20
2.30649
  30
0
  11
19.56701
  21
2.285988
  31
0
  0
LINE
  5
1a5
  100
AcDbEntity
  8
1
  100
AcDbLine
  10
19.56701
  20
2.285988
  30
0
  11
19.61251
  21
2.265228
  31
0
  0
LINE
  5
1a6
  100
AcDbEntity
  8
1
  100
AcDbLine
  10
19.61251
  20
2.265228
  30
0
  11
19.65801
  21
2.244212
  31
0
  0
LINE
  5
1a7
  100
AcDbEntity
  8
1
  100
AcDbLine
  10
19.65801
  20
2.244212
  30
0
  11
19.70351
  21
2.222943
  31
0
  0
LINE
  5
1a8
  100
AcDbEntity
  8
1
  100
AcDbLine
  10
19.70351
  20
2.222943
  30
0
  11
19.74901
  21
2.201424
  31
0
  0
LINE
  5
1a9
  100
AcDbEntity
  8
1
  100
AcDbLine
  10
19.74901
  20
2.201424
  30
0
  11
19.79451
  21
2.179656
  31
0
  0
LINE
  5
1aa
  100
AcDbEntity
  8
1
  100
AcDbLine
  10
19.79451
  20
2.179656
  30
0
  11
19.84001
  21
2.157643
  31
0
  0
LINE
  5
1ab
  100
AcDbEntity
  8
1
  100
AcDbLine
  10
19.84001
  20
2.157643
  30
0
  11
19.88551
  21
2.135386
  31
0
  0
LINE
  5
1ac
  100
AcDbEntity
  8
1
  100
AcDbLine
  10
19.88551
  20
2.135386
  30
0
  11
19.93101
  21
2.112888
  31
0
  0
LINE
  5
1ad
  100
AcDbEntity
  8
1
  100
AcDbLine
  10
19.93101
  20
2.112888
  30
0
  11
19.97651
  21
2.090152
  31
0
  0
LINE
  5
1ae
  100
AcDbEntity
  8
1
  100
AcDbLine
  10
19.97651
  20
2.090152
  30
0
  11
20.02201
  21
2.067181
  31
0
  0
LINE
  5
1af
  100
AcDbEntity
  8
1
  100
AcDbLine
  10
20.02201
  20
2.067181
  30
0
  11
20.06751
  21
2.043976
  31
0
  0
LINE
  5
1b0
  100
AcDbEntity
  8
1
  100
AcDbLine
  10
20.06751
  20
2.043976
  30
0
  11
20.11301
  21
2.020541
  31
0
  0
LINE
  5
1b1
  100
AcDbEntity
  8
1
  100
AcDbLine
  10
20.11301
  20
2.020541
  30
0
  11
20.15851
  21
1.996877
  31
0
  0
LINE
  5
1b2
  100
AcDbEntity
  8
1
  100
AcDbLine
  10
20.15851
  20
1.996877
  30
0
  11
20.20401
  21
1.972989
  31
0
  0
LINE
  5
1b3
  100
AcDbEntity
  8
1
  100
AcDbLine
  10
20.20401
  20
1.972989
  30
0
  11
20.24951
  21
1.948878
  31
0
  0
LINE
  5
1b4
  100
AcDbEntity
  8
1
  100
AcDbLine
  10
20.24951
  20
1.948878
  30
0
  11
20.29501
  21
1.924547
  31
0
  0
LINE
  5
1b5
  100
AcDbEntity
  8
1
  100
AcDbLine
  10
20.29501
  20
1.924547
  30
0
  11
20.34051
  21
1.9
  31
0
  0
LINE
  5
1b6
  100
AcDbEntity
  8
1
  100
AcDbLine
  10
20.34051
  20
1.9
  30
0
  11
20.38601
  21
1.875238
  31
0
  0
LINE
  5
1b7
  100
AcDbEntity
  8
1
  100
AcDbLine
  10
20.38601
  20
1.875238
  30
0
  11
20.43151
  21
1.850264
  31
0
  0
LINE
  5
1b8
  100
AcDbEntity
  8
1
  100
AcDbLine
  10
20.43151
  20
1.850264
  30
0
  11
20.47701
  21
1.825082
  31
0
  0
LINE
  5
1b9
  100
AcDbEntity
  8
1
  100
AcDbLine
  10
20.47701
  20
1.825082
  30
0
  11
20.52251
  21
1.799694
  31
0
  0
LINE
  5
1ba
  100
AcDbEntity
  8
1
  100
AcDbLine
  10
20.52251
  20
1.799694
  30
0
  11
20.56801
  21
1.774103
  31
0
  0
LINE
  5
1bb
  100
AcDbEntity
  8
1
  100
AcDbLine
  10
20.56801
  20
1.774103
  30
0
  11
20.61351
  21
1.748312
  31
0
  0
LINE
  5
1bc
  100
AcDbEntity
  8
1
  100
AcDbLine
  10
20.61351
  20
1.748312
  30
0
  11
20.65901
  21
1.722323
  31
0
  0
LINE
  5
1bd
  100
AcDbEntity
  8
1
  100
AcDbLine
  10
20.65901
  20
1.722323
  30
0
  11
20.70451
  21
1.696141
  31
0
  0
LINE
  5
1be
  100
AcDbEntity
  8
1
  100
AcDbLine
  10
20.70451
  20
1.696141
  30
0
  11
20.75001
  21
1.669767
  31
0
  0
LINE
  5
1bf
  100
AcDbEntity
  8
1
  100
AcDbLine
  10
20.75001
  20
1.669767
  30
0
  11
20.79551
  21
1.643205
  31
0
  0
LINE
  5
1c0
  100
AcDbEntity
  8
1
  100
AcDbLine
  10
20.79551
  20
1.643205
  30
0
  11
20.84101
  21
1.616458
  31
0
  0
LINE
  5
1c1
  100
AcDbEntity
  8
1
  100
AcDbLine
  10
20.84101
  20
1.616458
  30
0
  11
20.88651
  21
1.589528
  31
0
  0
LINE
  5
1c2
  100
AcDbEntity
  8
1
  100
AcDbLine
  10
20.88651
  20
1.589528
  30
0
  11
20.93201
  21
1.562419
  31
0
  0
LINE
  5
1c3
  100
AcDbEntity
  8
1
  100
AcDbLine
  10
20.93201
  20
1.562419
  30
0
  11
20.97751
  21
1.535134
  31
0
  0
LINE
  5
1c4
  100
AcDbEntity
  8
1
  100
AcDbLine
  10
20.97751
  20
1.535134
  30
0
  11
21.02301
  21
1.507675
  31
0
  0
LINE
  5
1c5
  100
AcDbEntity
  8
1
  100
AcDbLine
  10
21.02301
  20
1.507675
  30
0
  11
21.06851
  21
1.480047
  31
0
  0
LINE
  5
1c6
  100
AcDbEntity
  8
1
  100
AcDbLine
  10
21.06851
  20
1.480047
  30
0
  11
21.11401
  21
1.452252
  31
0
  0
LINE
  5
1c7
  100
AcDbEntity
  8
1
  100
AcDbLine
  10
21.11401
  20
1.452252
  30
0
  11
21.15951
  21
1.424293
  31
0
  0
LINE
  5
1c8
  100
AcDbEntity
  8
1
  100
AcDbLine
  10
21.15951
  20
1.424293
  30
0
  11
21.20501
  21
1.396173
  31
0
  0
LINE
  5
1c9
  100
AcDbEntity
  8
1
  100
AcDbLine
  10
21.20501
  20
1.396173
  30
0
  11
21.25051
  21
1.367896
  31
0
  0
LINE
  5
1ca
  100
AcDbEntity
  8
1
  100
AcDbLine
  10
21.25051
  20
1.367896
  30
0
  11
21.29601
  21
1.339464
  31
0
  0
LINE
  5
1cb
  100
AcDbEntity
  8
1
  100
AcDbLine
  10
21.29601
  20
1.339464
  30
0
  11
21.34151
  21
1.310882
  31
0
  0
LINE
  5
1cc
  100
AcDbEntity
  8
1
  100
AcDbLine
  10
21.34151
  20
1.310882
  30
0
  11
21.38701
  21
1.282152
  31
0
  0
LINE
  5
1cd
  100
AcDbEntity
  8
1
  100
AcDbLine
  10
21.38701
  20
1.282152
  30
0
  11
21.43251
  21
1.253277
  31
0
  0
LINE
  5
1ce
  100
AcDbEntity
  8
1
  100
AcDbLine
  10
21.43251
  20
1.253277
  30
0
  11
21.47801
  21
1.22426
  31
0
  0
LINE
  5
1cf
  100
AcDbEntity
  8
1
  100
AcDbLine
  10
21.47801
  20
1.22426
  30
0
  11
21.52351
  21
1.195106
  31
0
  0
LINE
  5
1d0
  100
AcDbEntity
  8
1
  100
AcDbLine
  10
21.52351
  20
1.195106
  30
0
  11
21.56901
  21
1.165817
  31
0
  0
LINE
  5
1d1
  100
AcDbEntity
  8
1
  100
AcDbLine
  10
21.56901
  20
1.165817
  30
0
  11
21.61451
  21
1.136396
  31
0
  0
LINE
  5
1d2
  100
AcDbEntity
  8
1
  100
AcDbLine
  10
21.61451
  20
1.136396
  30
0
  11
21.66001
  21
1.106847
  31
0
  0
LINE
  5
1d3
  100
AcDbEntity
  8
1
  100
AcDbLine
  10
21.66001
  20
1.106847
  30
0
  11
21.70551
  21
1.077174
  31
0
  0
LINE
  5
1d4
  100
AcDbEntity
  8
1
  100
AcDbLine
  10
21.70551
  20
1.077174
  30
0
  11
21.75101
  21
1.050834
  31
0
  0
LINE
  5
1d5
  100
AcDbEntity
  8
1
  100
AcDbLine
  10
21.75101
  20
1.050834
  30
0
  11
21.79651
  21
1.030455
  31
0
  0
LINE
  5
1d6
  100
AcDbEntity
  8
1
  100
AcDbLine
  10
21.79651
  20
1.030455
  30
0
  11
21.84201
  21
1.011118
  31
0
  0
LINE
  5
1d7
  100
AcDbEntity
  8
1
  100
AcDbLine
  10
21.84201
  20
1.011118
  30
0
  11
21.88751
  21
0.992836
  31
0
  0
LINE
  5
1d8
  100
AcDbEntity
  8
1
  100
AcDbLine
  10
21.88751
  20
0.992836
  30
0
  11
21.93301
  21
0.975621
  31
0
  0
LINE
  5
1d9
  100
AcDbEntity
  8
1
  100
AcDbLine
  10
21.73301
  20
3
  30
0
  11
21.73301
  21
-3
  31
0
  0
LINE
  5
1da
  100
AcDbEntity
  8
1
  100
AcDbLine
  10
21.73301
  20
-3
  30
0
  11
21.73301
  21
3
  31
0
  0
LINE
  5
1db
  100
AcDbEntity
  8
1
  100
AcDbLine
  10
21.93301
  20
2.8
  30
0
  11
21.93301
  21
-2.8
  31
0
  0
LINE
  5
1dc
  100
AcDbEntity
  8
1
  100
AcDbLine
  10
21.93301
  20
-2.799859
  30
0
  11
21.88751
  21
-2.845026
  31
0
  0
LINE
  5
1dd
  100
AcDbEntity
  8
1
  100
AcDbLine
  10
21.88751
  20
-2.845026
  30
0
  11
21.84201
  21
-2.889982
  31
0
  0
LINE
  5
1de
  100
AcDbEntity
  8
1
  100
AcDbLine
  10
21.84201
  20
-2.889982
  30
0
  11
21.79651
  21
-2.934712
  31
0
  0
LINE
  5
1df
  100
AcDbEntity
  8
1
  100
AcDbLine
  10
21.79651
  20
-2.934712
  30
0
  11
21.75101
  21
-2.979201
  31
0
  0
LINE
  5
1e0
  100
AcDbEntity
  8
1
  100
AcDbLine
  10
21.75101
  20
-2.979201
  30
0
  11
21.70551
  21
-2.995772
  31
0
  0
LINE
  5
1e1
  100
AcDbEntity
  8
1
  100
AcDbLine
  10
21.70551
  20
-2.995772
  30
0
  11
21.66001
  21
-2.993912
  31
0
  0
LINE
  5
1e2
  100
AcDbEntity
  8
1
  100
AcDbLine
  10
21.66001
  20
-2.993912
  30
0
  11
21.61451
  21
-2.991714
  31
0
  0
LINE
  5
1e3
  100
AcDbEntity
  8
1
  100
AcDbLine
  10
21.61451
  20
-2.991714
  30
0
  11
21.56901
  21
-2.98918
  31
0
  0
LINE
  5
1e4
  100
AcDbEntity
  8
1
  100
AcDbLine
  10
21.56901
  20
-2.98918
  30
0
  11
21.52351
  21
-2.986308
  31
0
  0
LINE
  5
1e5
  100
AcDbEntity
  8
1
  100
AcDbLine
  10
21.52351
  20
-2.986308
  30
0
  11
21.47801
  21
-2.983099
  31
0
  0
LINE
  5
1e6
  100
AcDbEntity
  8
1
  100
AcDbLine
  10
21.47801
  20
-2.983099
  30
0
  11
21.43251
  21
-2.979554
  31
0
  0
LINE
  5
1e7
  100
AcDbEntity
  8
1
  100
AcDbLine
  10
21.43251
  20
-2.979554
  30
0
  11
21.38701
  21
-2.975672
  31
0
  0
LINE
  5
1e8
  100
AcDbEntity
  8
1
  100
AcDbLine
  10
21.38701
  20
-2.975672
  30
0
  11
21.34151
  21
-2.971456
  31
0
  0
LINE
  5
1e9
  100
AcDbEntity
  8
1
  100
AcDbLine
  10
21.34151
  20
-2.971456
  30
0
  11
21.29601
  21
-2.966904
  31
0
  0
LINE
  5
1ea
  100
AcDbEntity
  8
1
  100
AcDbLine
  10
21.29601
  20
-2.966904
  30
0
  11
21.25051
  21
-2.962017
  31
0
  0
LINE
  5
1eb
  100
AcDbEntity
  8
1
  100
AcDbLine
  10
21.25051
  20
-2.962017
  30
0
  11
21.20501
  21
-2.956796
  31
0
  0
LINE
  5
1ec
  100
AcDbEntity
  8
1
  100
AcDbLine
  10
21.20501
  20
-2.956796
  30
0
  11
21.15951
  21
-2.951242
  31
0
  0
LINE
  5
1ed
  100
AcDbEntity
  8
1
  100
AcDbLine
  10
21.15951
  20
-2.951242
  30
0
  11
21.11401
  21
-2.945355
  31
0
  0
LINE
  5
1ee
  100
AcDbEntity
  8
1
  100
AcDbLine
  10
21.11401
  20
-2.945355
  30
0
  11
21.06851
  21
-2.939136
  31
0
  0
LINE
  5
1ef
  100
AcDbEntity
  8
1
  100
AcDbLine
  10
21.06851
  20
-2.939136
  30
0
  11
21.02301
  21
-2.932586
  31
0
  0
LINE
  5
1f0
  100
AcDbEntity
  8
1
  100
AcDbLine
  10
21.02301
  20
-2.932586
  30
0
  11
20.97751
  21
-2.925704
  31
0
  0
LINE
  5
1f1
  100
AcDbEntity
  8
1
  100
AcDbLine
  10
20.97751
  20
-2.925704
  30
0
  11
20.93201
  21
-2.918493
  31
0
  0
LINE
  5
1f2
  100
AcDbEntity
  8
1
  100
AcDbLine
  10
20.93201
  20
-2.918493
  30
0
  11
20.88651
  21
-2.910953
  31
0
  0
LINE
  5
1f3
  100
AcDbEntity
  8
1
  100
AcDbLine
  10
20.88651
  20
-2.910953
  30
0
  11
20.84101
  21
-2.903084
  31
0
  0
LINE
  5
1f4
  100
AcDbEntity
  8
1
  100
AcDbLine
  10
20.84101
  20
-2.903084
  30
0
  11
20.79551
  21
-2.894888
  31
0
  0
LINE
  5
1f5
  100
AcDbEntity
  8
1
  100
AcDbLine
  10
20.79551
  20
-2.894888
  30
0
  11
20.75001
  21
-2.886365
  31
0
  0
LINE
  5
1f6
  100
AcDbEntity
  8
1
  100
AcDbLine
  10
20.75001
  20
-2.886365
  30
0
  11
20.70451
  21
-2.877517
  31
0
  0
LINE
  5
1f7
  100
AcDbEntity
  8
1
  100
AcDbLine
  10
20.70451
  20
-2.877517
  30
0
  11
20.65901
  21
-2.868345
  31
0
  0
LINE
  5
1f8
  100
AcDbEntity
  8
1
  100
AcDbLine
  10
20.65901
  20
-2.868345
  30
0
  11
20.61351
  21
-2.858848
  31
0
  0
LINE
  5
1f9
  100
AcDbEntity
  8
1
  100
AcDbLine
  10
20.61351
  20
-2.858848
  30
0
  11
20.56801
  21
-2.84903
  31
0
  0
LINE
  5
1fa
  100
AcDbEntity
  8
1
  100
AcDbLine
  10
20.56801
  20
-2.84903
  30
0
  11
20.52251
  21
-2.83889
  31
0
  0
LINE
  5
1fb
  100
AcDbEntity
  8
1
  100
AcDbLine
  10
20.52251
  20
-2.83889
  30
0
  11
20.47701
  21
-2.82843
  31
0
  0
LINE
  5
1fc
  100
AcDbEntity
  8
1
  100
AcDbLine
  10
20.47701
  20
-2.82843
  30
0
  11
20.43151
  21
-2.817651
  31
0
  0
LINE
  5
1fd
  100
AcDbEntity
  8
1
  100
AcDbLine
  10
20.43151
  20
-2.817651
  30
0
  11
20.38601
  21
-2.806554
  31
0
  0
LINE
  5
1fe
  100
AcDbEntity
  8
1
  100
AcDbLine
  10
20.38601
  20
-2.806554
  30
0
  11
20.34051
  21
-2.795141
  31
0
  0
LINE
  5
1ff
  100
AcDbEntity
  8
1
  100
AcDbLine
  10
20.34051
  20
-2.795141
  30
0
  11
20.29501
  21
-2.783412
  31
0
  0
LINE
  5
200
  100
AcDbEntity
  8
1
  100
AcDbLine
  10
20.29501
  20
-2.783412
  30
0
  11
20.24951
  21
-2.77137
  31
0
  0
LINE
  5
201
  100
AcDbEntity
  8
1
  100
AcDbLine
  10
20.24951
  20
-2.77137
  30
0
  11
20.20401
  21
-2.759015
  31
0
  0
LINE
  5
202
  100
AcDbEntity
  8
1
  100
AcDbLine
  10
20.20401
  20
-2.759015
  30
0
  11
20.15851
  21
-2.746349
  31
0
  0
LINE
  5
203
  100
AcDbEntity
  8
1
  100
AcDbLine
  10
20.15851
  20
-2.746349
  30
0
  11
20.11301
  21
-2.733373
  31
0
  0
LINE
  5
204
  100
AcDbEntity
  8
1
  100
AcDbLine
  10
20.11301
  20
-2.733373
  30
0
  11
20.06751
  21
-2.720089
  31
0
  0
LINE
  5
205
  100
AcDbEntity
  8
1
  100
AcDbLine
  10
20.06751
  20
-2.720089
  30
0
  11
20.02201
  21
-2.706498
  31
0
  0
LINE
  5
206
  100
AcDbEntity
  8
1
  100
AcDbLine
  10
20.02201
  20
-2.706498
  30
0
  11
19.97651
  21
-2.692601
  31
0
  0
LINE
  5
207
  100
AcDbEntity
  8
1
  100
AcDbLine
  10
19.97651
  20
-2.692601
  30
0
  11
19.93101
  21
-2.678402
  31
0
  0
LINE
  5
208
  100
AcDbEntity
  8
1
  100
AcDbLine
  10
19.93101
  20
-2.678402
  30
0
  11
19.88551
  21
-2.6639
  31
0
  0
LINE
  5
209
  100
AcDbEntity
  8
1
  100
AcDbLine
  10
19.88551
  20
-2.6639
  30
0
  11
19.84001
  21
-2.649097
  31
0
  0
LINE
  5
20a
  100
AcDbEntity
  8
1
  100
AcDbLine
  10
19.84001
  20
-2.649097
  30
0
  11
19.79451
  21
-2.633996
  31
0
  0
LINE
  5
20b
  100
AcDbEntity
  8
1
  100
AcDbLine
  10
19.79451
  20
-2.633996
  30
0
  11
19.74901
  21
-2.618598
  31
0
  0
LINE
  5
20c
  100
AcDbEntity
  8
1
  100
AcDbLine
  10
19.74901
  20
-2.618598
  30
0
  11
19.70351
  21
-2.602904
  31
0
  0
LINE
  5
20d
  100
AcDbEntity
  8
1
  100
AcDbLine
  10
19.70351
  20
-2.602904
  30
0
  11
19.65801
  21
-2.586917
  31
0
  0
LINE
  5
20e
  100
AcDbEntity
  8
1
  100
AcDbLine
  10
19.65801
  20
-2.586917
  30
0
  11
19.61251
  21
-2.570639
  31
0
  0
LINE
  5
20f
  100
AcDbEntity
  8
1
  100
AcDbLine
  10
19.61251
  20
-2.570639
  30
0
  11
19.56701
  21
-2.55407
  31
0
  0
LINE
  5
210
  100
AcDbEntity
  8
1
  100
AcDbLine
  10
19.56701
  20
-2.55407
  30
0
  11
19.52151
  21
-2.537213
  31
0
  0
LINE
  5
211
  100
AcDbEntity
  8
1
  100
AcDbLine
  10
19.52151
  20
-2.537213
  30
0
  11
19.47601
  21
-2.52007
  31
0
  0
LINE
  5
212
  100
AcDbEntity
  8
1
  100
AcDbLine
  10
19.47601
  20
-2.52007
  30
0
  11
19.43051
  21
-2.502643
  31
0
  0
LINE
  5
213
  100
AcDbEntity
  8
1
  100
AcDbLine
  10
19.43051
  20
-2.502643
  30
0
  11
19.38501
  21
-2.484934
  31
0
  0
LINE
  5
214
  100
AcDbEntity
  8
1
  100
AcDbLine
  10
19.38501
  20
-2.484934
  30
0
  11
19.33951
  21
-2.466944
  31
0
  0
LINE
  5
215
  100
AcDbEntity
  8
1
  100
AcDbLine
  10
19.33951
  20
-2.466944
  30
0
  11
19.29401
  21
-2.448676
  31
0
  0
LINE
  5
216
  100
AcDbEntity
  8
1
  100
AcDbLine
  10
19.29401
  20
-2.448676
  30
0
  11
19.24851
  21
-2.430132
  31
0
  0
LINE
  5
217
  100
AcDbEntity
  8
1
  100
AcDbLine
  10
19.24851
  20
-2.430132
  30
0
  11
19.20301
  21
-2.411314
  31
0
  0
LINE
  5
218
  100
AcDbEntity
  8
1
  100
AcDbLine
  10
19.20301
  20
-2.411314
  30
0
  11
19.15751
  21
-2.392224
  31
0
  0
LINE
  5
219
  100
AcDbEntity
  8
1
  100
AcDbLine
  10
19.15751
  20
-2.392224
  30
0
  11
19.11201
  21
-2.372864
  31
0
  0
LINE
  5
21a
  100
AcDbEntity
  8
1
  100
AcDbLine
  10
19.11201
  20
-2.372864
  30
0
  11
19.06651
  21
-2.353237
  31
0
  0
LINE
  5
21b
  100
AcDbEntity
  8
1
  100
AcDbLine
  10
19.06651
  20
-2.353237
  30
0
  11
19.02101
  21
-2.333344
  31
0
  0
LINE
  5
21c
  100
AcDbEntity
  8
1
  100
AcDbLine
  10
19.02101
  20
-2.333344
  30
0
  11
18.97551
  21
-2.313188
  31
0
  0
LINE
  5
21d
  100
AcDbEntity
  8
1
  100
AcDbLine
  10
18.97551
  20
-2.313188
  30
0
  11
18.93001
  21
-2.292771
  31
0
  0
LINE
  5
21e
  100
AcDbEntity
  8
1
  100
AcDbLine
  10
18.93001
  20
-2.292771
  30
0
  11
18.88451
  21
-2.272096
  31
0
  0
LINE
  5
21f
  100
AcDbEntity
  8
1
  100
AcDbLine
  10
18.88451
  20
-2.272096
  30
0
  11
18.83901
  21
-2.251164
  31
0
  0
LINE
  5
220
  100
AcDbEntity
  8
1
  100
AcDbLine
  10
18.83901
  20
-2.251164
  30
0
  11
18.79351
  21
-2.229979
  31
0
  0
LINE
  5
221
  100
AcDbEntity
  8
1
  100
AcDbLine
  10
18.79351
  20
-2.229979
  30
0
  11
18.74801
  21
-2.208542
  31
0
  0
LINE
  5
222
  100
AcDbEntity
  8
1
  100
AcDbLine
  10
18.74801
  20
-2.208542
  30
0
  11
18.70251
  21
-2.186855
  31
0
  0
LINE
  5
223
  100
AcDbEntity
  8
1
  100
AcDbLine
  10
18.70251
  20
-2.186855
  30
0
  11
18.65701
  21
-2.164923
  31
0
  0
LINE
  5
224
  100
AcDbEntity
  8
1
  100
AcDbLine
  10
18.65701
  20
-2.164923
  30
0
  11
18.61151
  21
-2.142746
  31
0
  0
LINE
  5
225
  100
AcDbEntity
  8
1
  100
AcDbLine
  10
18.61151
  20
-2.142746
  30
0
  11
18.56601
  21
-2.120327
  31
0
  0
LINE
  5
226
  100
AcDbEntity
  8
1
  100
AcDbLine
  10
18.56601
  20
-2.120327
  30
0
  11
18.52051
  21
-2.097669
  31
0
  0
LINE
  5
227
  100
AcDbEntity
  8
1
  100
AcDbLine
  10
18.52051
  20
-2.097669
  30
0
  11
18.47501
  21
-2.074775
  31
0
  0
LINE
  5
228
  100
AcDbEntity
  8
1
  100
AcDbLine
  10
18.47501
  20
-2.074775
  30
0
  11
18.42951
  21
-2.051647
  31
0
  0
LINE
  5
229
  100
AcDbEntity
  8
1
  100
AcDbLine
  10
18.42951
  20
-2.051647
  30
0
  11
18.38401
  21
-2.028287
  31
0
  0
LINE
  5
22a
  100
AcDbEntity
  8
1
  100
AcDbLine
  10
18.38401
  20
-2.028287
  30
0
  11
18.33851
  21
-2.004699
  31
0
  0
LINE
  5
22b
  100
AcDbEntity
  8
1
  100
AcDbLine
  10
18.33851
  20
-2.004699
  30
0
  11
18.29301
  21
-1.980884
  31
0
  0
LINE
  5
22c
  100
AcDbEntity
  8
1
  100
AcDbLine
  10
18.29301
  20
-1.980884
  30
0
  11
18.24751
  21
-1.956846
  31
0
  0
LINE
  5
22d
  100
AcDbEntity
  8
1
  100
AcDbLine
  10
18.24751
  20
-1.956846
  30
0
  11
18.20201
  21
-1.932588
  31
0
  0
LINE
  5
22e
  100
AcDbEntity
  8
1
  100
AcDbLine
  10
18.20201
  20
-1.932588
  30
0
  11
18.15651
  21
-1.908111
  31
0
  0
LINE
  5
22f
  100
AcDbEntity
  8
1
  100
AcDbLine
  10
18.15651
  20
-1.908111
  30
0
  11
18.11101
  21
-1.883419
  31
0
  0
LINE
  5
230
  100
AcDbEntity
  8
1
  100
AcDbLine
  10
18.11101
  20
-1.883419
  30
0
  11
18.06551
  21
-1.858515
  31
0
  0
LINE
  5
231
  100
AcDbEntity
  8
1
  100
AcDbLine
  10
18.06551
  20
-1.858515
  30
0
  11
18.02001
  21
-1.833402
  31
0
  0
LINE
  5
232
  100
AcDbEntity
  8
1
  100
AcDbLine
  10
18.02001
  20
-1.833402
  30
0
  11
17.97451
  21
-1.808081
  31
0
  0
LINE
  5
233
  100
AcDbEntity
  8
1
  100
AcDbLine
  10
17.97451
  20
-1.808081
  30
0
  11
17.92901
  21
-1.782557
  31
0
  0
LINE
  5
234
  100
AcDbEntity
  8
1
  100
AcDbLine
  10
17.92901
  20
-1.782557
  30
0
  11
17.88351
  21
-1.756831
  31
0
  0
LINE
  5
235
  100
AcDbEntity
  8
1
  100
AcDbLine
  10
17.88351
  20
-1.756831
  30
0
  11
17.83801
  21
-1.730908
  31
0
  0
LINE
  5
236
  100
AcDbEntity
  8
1
  100
AcDbLine
  10
17.83801
  20
-1.730908
  30
0
  11
17.79251
  21
-1.704789
  31
0
  0
LINE
  5
237
  100
AcDbEntity
  8
1
  100
AcDbLine
  10
17.79251
  20
-1.704789
  30
0
  11
17.74701
  21
-1.678478
  31
0
  0
LINE
  5
238
  100
AcDbEntity
  8
1
  100
AcDbLine
  10
17.74701
  20
-1.678478
  30
0
  11
17.70151
  21
-1.651977
  31
0
  0
LINE
  5
239
  100
AcDbEntity
  8
1
  100
AcDbLine
  10
17.70151
  20
-1.651977
  30
0
  11
17.65601
  21
-1.625291
  31
0
  0
LINE
  5
23a
  100
AcDbEntity
  8
1
  100
AcDbLine
  10
17.65601
  20
-1.625291
  30
0
  11
17.61051
  21
-1.598421
  31
0
  0
LINE
  5
23b
  100
AcDbEntity
  8
1
  100
AcDbLine
  10
17.61051
  20
-1.598421
  30
0
  11
17.56501
  21
-1.57137
  31
0
  0
LINE
  5
23c
  100
AcDbEntity
  8
1
  100
AcDbLine
  10
17.56501
  20
-1.57137
  30
0
  11
17.51951
  21
-1.544143
  31
0
  0
LINE
  5
23d
  100
AcDbEntity
  8
1
  100
AcDbLine
  10
17.51951
  20
-1.544143
  30
0
  11
17.47401
  21
-1.516741
  31
0
  0
LINE
  5
23e
  100
AcDbEntity
  8
1
  100
AcDbLine
  10
17.47401
  20
-1.516741
  30
0
  11
17.42851
  21
-1.489168
  31
0
  0
LINE
  5
23f
  100
AcDbEntity
  8
1
  100
AcDbLine
  10
17.42851
  20
-1.489168
  30
0
  11
17.38301
  21
-1.461428
  31
0
  0
LINE
  5
240
  100
AcDbEntity
  8
1
  100
AcDbLine
  10
17.38301
  20
-1.461428
  30
0
  11
17.33751
  21
-1.433522
  31
0
  0
LINE
  5
241
  100
AcDbEntity
  8
1
  100
AcDbLine
  10
17.33751
  20
-1.433522
  30
0
  11
17.29201
  21
-1.405455
  31
0
  0
LINE
  5
242
  100
AcDbEntity
  8
1
  100
AcDbLine
  10
17.29201
  20
-1.405455
  30
0
  11
17.24651
  21
-1.37723
  31
0
  0
LINE
  5
243
  100
AcDbEntity
  8
1
  100
AcDbLine
  10
17.24651
  20
-1.37723
  30
0
  11
17.20101
  21
-1.348849
  31
0
  0
LINE
  5
244
  100
AcDbEntity
  8
1
  100
AcDbLine
  10
17.20101
  20
-1.348849
  30
0
  11
17.15551
  21
-1.320316
  31
0
  0
LINE
  5
245
  100
AcDbEntity
  8
1
  100
AcDbLine
  10
17.15551
  20
-1.320316
  30
0
  11
17.11001
  21
-1.291634
  31
0
  0
LINE
  5
246
  100
AcDbEntity
  8
1
  100
AcDbLine
  10
17.11001
  20
-1.291634
  30
0
  11
17.06451
  21
-1.262806
  31
0
  0
LINE
  5
247
  100
AcDbEntity
  8
1
  100
AcDbLine
  10
17.06451
  20
-1.262806
  30
0
  11
17.01901
  21
-1.233836
  31
0
  0
LINE
  5
248
  100
AcDbEntity
  8
1
  100
AcDbLine
  10
17.01901
  20
-1.233836
  30
0
  11
16.97351
  21
-1.204727
  31
0
  0
LINE
  5
249
  100
AcDbEntity
  8
1
  100
AcDbLine
  10
16.97351
  20
-1.204727
  30
0
  11
16.92801
  21
-1.175482
  31
0
  0
LINE
  5
24a
  100
AcDbEntity
  8
1
  100
AcDbLine
  10
16.92801
  20
-1.175482
  30
0
  11
16.88251
  21
-1.146104
  31
0
  0
LINE
  5
24b
  100
AcDbEntity
  8
1
  100
AcDbLine
  10
16.88251
  20
-1.146104
  30
0
  11
16.83701
  21
-1.116597
  31
0
  0
LINE
  5
24c
  100
AcDbEntity
  8
1
  100
AcDbLine
  10
16.83701
  20
-1.116597
  30
0
  11
16.79151
  21
-1.086964
  31
0
  0
LINE
  5
24d
  100
AcDbEntity
  8
1
  100
AcDbLine
  10
16.79151
  20
-1.086964
  30
0
  11
16.74601
  21
-1.057209
  31
0
  0
LINE
  5
24e
  100
AcDbEntity
  8
1
  100
AcDbLine
  10
16.74601
  20
-1.057209
  30
0
  11
16.70051
  21
-1.027334
  31
0
  0
LINE
  5
24f
  100
AcDbEntity
  8
1
  100
AcDbLine
  10
16.70051
  20
-1.027334
  30
0
  11
16.65501
  21
-0.997344
  31
0
  0
LINE
  5
250
  100
AcDbEntity
  8
1
  100
AcDbLine
  10
16.65501
  20
-0.997344
  30
0
  11
16.60951
  21
-0.967241
  31
0
  0
LINE
  5
251
  100
AcDbEntity
  8
1
  100
AcDbLine
  10
16.60951
  20
-0.967241
  30
0
  11
16.56401
  21
-0.937028
  31
0
  0
LINE
  5
252
  100
AcDbEntity
  8
1
  100
AcDbLine
  10
16.56401
  20
-0.937028
  30
0
  11
16.51851
  21
-0.906711
  31
0
  0
LINE
  5
253
  100
AcDbEntity
  8
1
  100
AcDbLine
  10
16.51851
  20
-0.906711
  30
0
  11
16.47301
  21
-0.876291
  31
0
  0
LINE
  5
254
  100
AcDbEntity
  8
1
  100
AcDbLine
  10
16.47301
  20
-0.876291
  30
0
  11
16.42751
  21
-0.845772
  31
0
  0
LINE
  5
255
  100
AcDbEntity
  8
1
  100
AcDbLine
  10
16.42751
  20
-0.845772
  30
0
  11
16.38201
  21
-0.815158
  31
0
  0
LINE
  5
256
  100
AcDbEntity
  8
1
  100
AcDbLine
  10
16.38201
  20
-0.815158
  30
0
  11
16.33651
  21
-0.784451
  31
0
  0
LINE
  5
257
  100
AcDbEntity
  8
1
  100
AcDbLine
  10
16.33651
  20
-0.784451
  30
0
  11
16.29101
  21
-0.753657
  31
0
  0
LINE
  5
258
  100
AcDbEntity
  8
1
  100
AcDbLine
  10
16.29101
  20
-0.753657
  30
0
  11
16.24551
  21
-0.722777
  31
0
  0
LINE
  5
259
  100
AcDbEntity
  8
1
  100
AcDbLine
  10
16.24551
  20
-0.722777
  30
0
  11
16.20001
  21
-0.691816
  31
0
  0
LINE
  5
25a
  100
AcDbEntity
  8
1
  100
AcDbLine
  10
16.20001
  20
-0.691816
  30
0
  11
16.15451
  21
-0.660777
  31
0
  0
LINE
  5
25b
  100
AcDbEntity
  8
1
  100
AcDbLine
  10
16.15451
  20
-0.660777
  30
0
  11
16.10901
  21
-0.629663
  31
0
  0
LINE
  5
25c
  100
AcDbEntity
  8
1
  100
AcDbLine
  10
16.10901
  20
-0.629663
  30
0
  11
16.06351
  21
-0.598478
  31
0
  0
LINE
  5
25d
  100
AcDbEntity
  8
1
  100
AcDbLine
  10
16.06351
  20
-0.598478
  30
0
  11
16.01801
  21
-0.567226
  31
0
  0
LINE
  5
25e
  100
AcDbEntity
  8
1
  100
AcDbLine
  10
16.01801
  20
-0.567226
  30
0
  11
15.97251
  21
-0.53591
  31
0
  0
LINE
  5
25f
  100
AcDbEntity
  8
1
  100
AcDbLine
  10
15.97251
  20
-0.53591
  30
0
  11
15.92701
  21
-0.504533
  31
0
  0
LINE
  5
260
  100
AcDbEntity
  8
1
  100
AcDbLine
  10
15.92701
  20
-0.504533
  30
0
  11
15.88151
  21
-0.4731
  31
0
  0
LINE
  5
261
  100
AcDbEntity
  8
1
  100
AcDbLine
  10
15.88151
  20
-0.4731
  30
0
  11
15.83601
  21
-0.441613
  31
0
  0
LINE
  5
262
  100
AcDbEntity
  8
1
  100
AcDbLine
  10
15.83601
  20
-0.441613
  30
0
  11
15.79051
  21
-0.410076
  31
0
  0
LINE
  5
263
  100
AcDbEntity
  8
1
  100
AcDbLine
  10
15.79051
  20
-0.410076
  30
0
  11
15.74501
  21
-0.378493
  31
0
  0
LINE
  5
264
  100
AcDbEntity
  8
1
  100
AcDbLine
  10
15.74501
  20
-0.378493
  30
0
  11
15.69951
  21
-0.346868
  31
0
  0
LINE
  5
265
  100
AcDbEntity
  8
1
  100
AcDbLine
  10
15.69951
  20
-0.346868
  30
0
  11
15.65401
  21
-0.315203
  31
0
  0
LINE
  5
266
  100
AcDbEntity
  8
1
  100
AcDbLine
  10
15.65401
  20
-0.315203
  30
0
  11
15.60851
  21
-0.283503
  31
0
  0
LINE
  5
267
  100
AcDbEntity
  8
1
  100
AcDbLine
  10
15.60851
  20
-0.283503
  30
0
  11
15.56301
  21
-0.25177
  31
0
  0
LINE
  5
268
  100
AcDbEntity
  8
1
  100
AcDbLine
  10
15.56301
  20
-0.25177
  30
0
  11
15.51751
  21
-0.22001
  31
0
  0
LINE
  5
269
  100
AcDbEntity
  8
1
  100
AcDbLine
  10
15.51751
  20
-0.22001
  30
0
  11
15.47201
  21
-0.188224
  31
0
  0
LINE
  5
26a
  100
AcDbEntity
  8
1
  100
AcDbLine
  10
15.47201
  20
-0.188224
  30
0
  11
15.42651
  21
-0.156418
  31
0
  0
LINE
  5
26b
  100
AcDbEntity
  8
1
  100
AcDbLine
  10
15.42651
  20
-0.156418
  30
0
  11
15.38101
  21
-0.124593
  31
0
  0
LINE
  5
26c
  100
AcDbEntity
  8
1
  100
AcDbLine
  10
15.38101
  20
-0.124593
  30
0
  11
15.33551
  21
-0.092755
  31
0
  0
LINE
  5
26d
  100
AcDbEntity
  8
1
  100
AcDbLine
  10
15.33551
  20
-0.092755
  30
0
  11
15.29001
  21
-0.060906
  31
0
  0
LINE
  5
26e
  100
AcDbEntity
  8
1
  100
AcDbLine
  10
15.29001
  20
-0.060906
  30
0
  11
15.24451
  21
-0.02905
  31
0
  0
LINE
  5
26f
  100
AcDbEntity
  8
1
  100
AcDbLine
  10
15.24451
  20
-0.02905
  30
0
  11
15.19901
  21
0.002809
  31
0
  0
LINE
  5
270
  100
AcDbEntity
  8
1
  100
AcDbLine
  10
15.19901
  20
0.002809
  30
0
  11
15.15351
  21
0.034667
  31
0
  0
LINE
  5
271
  100
AcDbEntity
  8
1
  100
AcDbLine
  10
15.15351
  20
0.034667
  30
0
  11
15.10801
  21
0.066522
  31
0
  0
LINE
  5
272
  100
AcDbEntity
  8
1
  100
AcDbLine
  10
15.10801
  20
0.066522
  30
0
  11
15.06251
  21
0.098369
  31
0
  0
LINE
  5
273
  100
AcDbEntity
  8
1
  100
AcDbLine
  10
15.06251
  20
0.098369
  30
0
  11
15.01701
  21
0.130205
  31
0
  0
LINE
  5
274
  100
AcDbEntity
  8
1
  100
AcDbLine
  10
15.01701
  20
0.130205
  30
0
  11
14.97151
  21
0.162027
  31
0
  0
LINE
  5
275
  100
AcDbEntity
  8
1
  100
AcDbLine
  10
14.97151
  20
0.162027
  30
0
  11
14.92601
  21
0.19383
  31
0
  0
LINE
  5
276
  100
AcDbEntity
  8
1
  100
AcDbLine
  10
14.92601
  20
0.19383
  30
0
  11
14.88051
  21
0.225611
  31
0
  0
LINE
  5
277
  100
AcDbEntity
  8
1
  100
AcDbLine
  10
14.88051
  20
0.225611
  30
0
  11
14.83501
  21
0.257367
  31
0
  0
LINE
  5
278
  100
AcDbEntity
  8
1
  100
AcDbLine
  10
14.83501
  20
0.257367
  30
0
  11
14.78951
  21
0.289094
  31
0
  0
LINE
  5
279
  100
AcDbEntity
  8
1
  100
AcDbLine
  10
14.78951
  20
0.289094
  30
0
  11
14.74401
  21
0.320789
  31
0
  0
LINE
  5
27a
  100
AcDbEntity
  8
1
  100
AcDbLine
  10
14.74401
  20
0.320789
  30
0
  11
14.69851
  21
0.352447
  31
0
  0
LINE
  5
27b
  100
AcDbEntity
  8
1
  100
AcDbLine
  10
14.69851
  20
0.352447
  30
0
  11
14.65301
  21
0.384065
  31
0
  0
LINE
  5
27c
  100
AcDbEntity
  8
1
  100
AcDbLine
  10
14.65301
  20
0.384065
  30
0
  11
14.60751
  21
0.41564
  31
0
  0
LINE
  5
27d
  100
AcDbEntity
  8
1
  100
AcDbLine
  10
14.60751
  20
0.41564
  30
0
  11
14.56201
  21
0.447168
  31
0
  0
LINE
  5
27e
  100
AcDbEntity
  8
1
  100
AcDbLine
  10
14.56201
  20
0.447168
  30
0
  11
14.51651
  21
0.478646
  31
0
  0
LINE
  5
27f
  100
AcDbEntity
  8
1
  100
AcDbLine
  10
14.51651
  20
0.478646
  30
0
  11
14.47101
  21
0.51007
  31
0
  0
LINE
  5
280
  100
AcDbEntity
  8
1
  100
AcDbLine
  10
14.47101
  20
0.51007
  30
0
  11
14.42551
  21
0.541436
  31
0
  0
LINE
  5
281
  100
AcDbEntity
  8
1
  100
AcDbLine
  10
14.42551
  20
0.541436
  30
0
  11
14.38001
  21
0.572741
  31
0
  0
LINE
  5
282
  100
AcDbEntity
  8
1
  100
AcDbLine
  10
14.38001
  20
0.572741
  30
0
  11
14.33451
  21
0.603982
  31
0
  0
LINE
  5
283
  100
AcDbEntity
  8
1
  100
AcDbLine
  10
14.33451
  20
0.603982
  30
0
  11
14.28901
  21
0.635154
  31
0
  0
LINE
  5
284
  100
AcDbEntity
  8
1
  100
AcDbLine
  10
14.28901
  20
0.635154
  30
0
  11
14.24351
  21
0.666255
  31
0
  0
LINE
  5
285
  100
AcDbEntity
  8
1
  100
AcDbLine
  10
14.24351
  20
0.666255
  30
0
  11
14.19801
  21
0.697281
  31
0
  0
LINE
  5
286
  100
AcDbEntity
  8
1
  100
AcDbLine
  10
14.19801
  20
0.697281
  30
0
  11
14.15251
  21
0.728228
  31
0
  0
LINE
  5
287
  100
AcDbEntity
  8
1
  100
AcDbLine
  10
14.15251
  20
0.728228
  30
0
  11
14.10701
  21
0.759092
  31
0
  0
LINE
  5
288
  100
AcDbEntity
  8
1
  100
AcDbLine
  10
14.10701
  20
0.759092
  30
0
  11
14.06151
  21
0.789872
  31
0
  0
LINE
  5
289
  100
AcDbEntity
  8
1
  100
AcDbLine
  10
14.06151
  20
0.789872
  30
0
  11
14.01601
  21
0.820562
  31
0
  0
LINE
  5
28a
  100
AcDbEntity
  8
1
  100
AcDbLine
  10
14.01601
  20
0.820562
  30
0
  11
13.97051
  21
0.85116
  31
0
  0
LINE
  5
28b
  100
AcDbEntity
  8
1
  100
AcDbLine
  10
13.97051
  20
0.85116
  30
0
  11
13.92501
  21
0.881661
  31
0
  0
LINE
  5
28c
  100
AcDbEntity
  8
1
  100
AcDbLine
  10
13.92501
  20
0.881661
  30
0
  11
13.87951
  21
0.912064
  31
0
  0
LINE
  5
28d
  100
AcDbEntity
  8
1
  100
AcDbLine
  10
13.87951
  20
0.912064
  30
0
  11
13.83401
  21
0.942363
  31
0
  0
LINE
  5
28e
  100
AcDbEntity
  8
1
  100
AcDbLine
  10
13.83401
  20
0.942363
  30
0
  11
13.78851
  21
0.972556
  31
0
  0
LINE
  5
28f
  100
AcDbEntity
  8
1
  100
AcDbLine
  10
13.78851
  20
0.972556
  30
0
  11
13.74301
  21
1.002639
  31
0
  0
LINE
  5
290
  100
AcDbEntity
  8
1
  100
AcDbLine
  10
13.74301
  20
1.002639
  30
0
  11
13.69751
  21
1.03261
  31
0
  0
LINE
  5
291
  100
AcDbEntity
  8
1
  100
AcDbLine
  10
13.69751
  20
1.03261
  30
0
  11
13.65201
  21
1.062464
  31
0
  0
LINE
  5
292
  100
AcDbEntity
  8
1
  100
AcDbLine
  10
13.65201
  20
1.062464
  30
0
  11
13.60651
  21
1.092198
  31
0
  0
LINE
  5
293
  100
AcDbEntity
  8
1
  100
AcDbLine
  10
13.60651
  20
1.092198
  30
0
  11
13.56101
  21
1.121809
  31
0
  0
LINE
  5
294
  100
AcDbEntity
  8
1
  100
AcDbLine
  10
13.56101
  20
1.121809
  30
0
  11
13.51551
  21
1.151293
  31
0
  0
LINE
  5
295
  100
AcDbEntity
  8
1
  100
AcDbLine
  10
13.51551
  20
1.151293
  30
0
  11
13.47001
  21
1.180648
  31
0
  0
LINE
  5
296
  100
AcDbEntity
  8
1
  100
AcDbLine
  10
13.47001
  20
1.180648
  30
0
  11
13.42451
  21
1.209869
  31
0
  0
LINE
  5
297
  100
AcDbEntity
  8
1
  100
AcDbLine
  10
13.42451
  20
1.209869
  30
0
  11
13.37901
  21
1.238954
  31
0
  0
LINE
  5
298
  100
AcDbEntity
  8
1
  100
AcDbLine
  10
13.37901
  20
1.238954
  30
0
  11
13.33351
  21
1.267899
  31
0
  0
LINE
  5
299
  100
AcDbEntity
  8
1
  100
AcDbLine
  10
13.33351
  20
1.267899
  30
0
  11
13.28801
  21
1.296701
  31
0
  0
LINE
  5
29a
  100
AcDbEntity
  8
1
  100
AcDbLine
  10
13.28801
  20
1.296701
  30
0
  11
13.24251
  21
1.325357
  31
0
  0
LINE
  5
29b
  100
AcDbEntity
  8
1
  100
AcDbLine
  10
13.24251
  20
1.325357
  30
0
  11
13.19701
  21
1.353864
  31
0
  0
LINE
  5
29c
  100
AcDbEntity
  8
1
  100
AcDbLine
  10
13.19701
  20
1.353864
  30
0
  11
13.15151
  21
1.382217
  31
0
  0
LINE
  5
29d
  100
AcDbEntity
  8
1
  100
AcDbLine
  10
13.15151
  20
1.382217
  30
0
  11
13.10601
  21
1.410415
  31
0
  0
LINE
  5
29e
  100
AcDbEntity
  8
1
  100
AcDbLine
  10
13.10601
  20
1.410415
  30
0
  11
13.06051
  21
1.438454
  31
0
  0
LINE
  5
29f
  100
AcDbEntity
  8
1
  100
AcDbLine
  10
13.06051
  20
1.438454
  30
0
  11
13.01501
  21
1.466331
  31
0
  0
LINE
  5
2a0
  100
AcDbEntity
  8
1
  100
AcDbLine
  10
13.01501
  20
1.466331
  30
0
  11
12.96951
  21
1.494042
  31
0
  0
LINE
  5
2a1
  100
AcDbEntity
  8
1
  100
AcDbLine
  10
12.96951
  20
1.494042
  30
0
  11
12.92401
  21
1.521585
  31
0
  0
LINE
  5
2a2
  100
AcDbEntity
  8
1
  100
AcDbLine
  10
12.92401
  20
1.521585
  30
0
  11
12.87851
  21
1.548956
  31
0
  0
LINE
  5
2a3
  100
AcDbEntity
  8
1
  100
AcDbLine
  10
12.87851
  20
1.548956
  30
0
  11
12.83301
  21
1.576152
  31
0
  0
LINE
  5
2a4
  100
AcDbEntity
  8
1
  100
AcDbLine
  10
12.83301
  20
1.576152
  30
0
  11
12.78751
  21
1.603171
  31
0
  0
LINE
  5
2a5
  100
AcDbEntity
  8
1
  100
AcDbLine
  10
12.78751
  20
1.603171
  30
0
  11
12.74201
  21
1.630009
  31
0
  0
LINE
  5
2a6
  100
AcDbEntity
  8
1
  100
AcDbLine
  10
12.74201
  20
1.630009
  30
0
  11
12.69651
  21
1.656663
  31
0
  0
LINE
  5
2a7
  100
AcDbEntity
  8
1
  100
AcDbLine
  10
12.69651
  20
1.656663
  30
0
  11
12.65101
  21
1.68313
  31
0
  0
LINE
  5
2a8
  100
AcDbEntity
  8
1
  100
AcDbLine
  10
12.65101
  20
1.68313
  30
0
  11
12.60551
  21
1.709408
  31
0
  0
LINE
  5
2a9
  100
AcDbEntity
  8
1
  100
AcDbLine
  10
12.60551
  20
1.709408
  30
0
  11
12.56001
  21
1.735492
  31
0
  0
LINE
  5
2aa
  100
AcDbEntity
  8
1
  100
AcDbLine
  10
12.56001
  20
1.735492
  30
0
  11
12.51451
  21
1.761381
  31
0
  0
LINE
  5
2ab
  100
AcDbEntity
  8
1
  100
AcDbLine
  10
12.51451
  20
1.761381
  30
0
  11
12.46901
  21
1.787072
  31
0
  0
LINE
  5
2ac
  100
AcDbEntity
  8
1
  100
AcDbLine
  10
12.46901
  20
1.787072
  30
0
  11
12.42351
  21
1.81256
  31
0
  0
LINE
  5
2ad
  100
AcDbEntity
  8
1
  100
AcDbLine
  10
12.42351
  20
1.81256
  30
0
  11
12.37801
  21
1.837844
  31
0
  0
LINE
  5
2ae
  100
AcDbEntity
  8
1
  100
AcDbLine
  10
12.37801
  20
1.837844
  30
0
  11
12.33251
  21
1.862922
  31
0
  0
LINE
  5
2af
  100
AcDbEntity
  8
1
  100
AcDbLine
  10
12.33251
  20
1.862922
  30
0
  11
12.28701
  21
1.887788
  31
0
  0
LINE
  5
2b0
  100
AcDbEntity
  8
1
  100
AcDbLine
  10
12.28701
  20
1.887788
  30
0
  11
12.24151
  21
1.912442
  31
0
  0
LINE
  5
2b1
  100
AcDbEntity
  8
1
  100
AcDbLine
  10
12.24151
  20
1.912442
  30
0
  11
12.19601
  21
1.936881
  31
0
  0
LINE
  5
2b2
  100
AcDbEntity
  8
1
  100
AcDbLine
  10
12.19601
  20
1.936881
  30
0
  11
12.15051
  21
1.961101
  31
0
  0
LINE
  5
2b3
  100
AcDbEntity
  8
1
  100
AcDbLine
  10
12.15051
  20
1.961101
  30
0
  11
12.10501
  21
1.985099
  31
0
  0
LINE
  5
2b4
  100
AcDbEntity
  8
1
  100
AcDbLine
  10
12.10501
  20
1.985099
  30
0
  11
12.05951
  21
2.008874
  31
0
  0
LINE
  5
2b5
  100
AcDbEntity
  8
1
  100
AcDbLine
  10
12.05951
  20
2.008874
  30
0
  11
12.01401
  21
2.032422
  31
0
  0
LINE
  5
2b6
  100
AcDbEntity
  8
1
  100
AcDbLine
  10
12.01401
  20
2.032422
  30
0
  11
11.96851
  21
2.055741
  31
0
  0
LINE
  5
2b7
  100
AcDbEntity
  8
1
  100
AcDbLine
  10
11.96851
  20
2.055741
  30
0
  11
11.92301
  21
2.078829
  31
0
  0
LINE
  5
2b8
  100
AcDbEntity
  8
1
  100
AcDbLine
  10
11.92301
  20
2.078829
  30
0
  11
11.87751
  21
2.101681
  31
0
  0
LINE
  5
2b9
  100
AcDbEntity
  8
1
  100
AcDbLine
  10
11.87751
  20
2.101681
  30
0
  11
11.83201
  21
2.124297
  31
0
  0
LINE
  5
2ba
  100
AcDbEntity
  8
1
  100
AcDbLine
  10
11.83201
  20
2.124297
  30
0
  11
11.78651
  21
2.146673
  31
0
  0
LINE
  5
2bb
  100
AcDbEntity
  8
1
  100
AcDbLine
  10
11.78651
  20
2.146673
  30
0
  11
11.74101
  21
2.168807
  31
0
  0
LINE
  5
2bc
  100
AcDbEntity
  8
1
  100
AcDbLine
  10
11.74101
  20
2.168807
  30
0
  11
11.69551
  21
2.190697
  31
0
  0
LINE
  5
2bd
  100
AcDbEntity
  8
1
  100
AcDbLine
  10
11.69551
  20
2.190697
  30
0
  11
11.65001
  21
2.212339
  31
0
  0
LINE
  5
2be
  100
AcDbEntity
  8
1
  100
AcDbLine
  10
11.65001
  20
2.212339
  30
0
  11
11.60451
  21
2.233732
  31
0
  0
LINE
  5
2bf
  100
AcDbEntity
  8
1
  100
AcDbLine
  10
11.60451
  20
2.233732
  30
0
  11
11.55901
  21
2.254873
  31
0
  0
LINE
  5
2c0
  100
AcDbEntity
  8
1
  100
AcDbLine
  10
11.55901
  20
2.254873
  30
0
  11
11.51351
  21
2.27576
  31
0
  0
LINE
  5
2c1
  100
AcDbEntity
  8
1
  100
AcDbLine
  10
11.51351
  20
2.27576
  30
0
  11
11.46801
  21
2.29639
  31
0
  0
LINE
  5
2c2
  100
AcDbEntity
  8
1
  100
AcDbLine
  10
11.46801
  20
2.29639
  30
0
  11
11.42251
  21
2.316761
  31
0
  0
LINE
  5
2c3
  100
AcDbEntity
  8
1
  100
AcDbLine
  10
11.42251
  20
2.316761
  30
0
  11
11.37701
  21
2.336871
  31
0
  0
LINE
  5
2c4
  100
AcDbEntity
  8
1
  100
AcDbLine
  10
11.37701
  20
2.336871
  30
0
  11
11.33151
  21
2.356717
  31
0
  0
LINE
  5
2c5
  100
AcDbEntity
  8
1
  100
AcDbLine
  10
11.33151
  20
2.356717
  30
0
  11
11.28601
  21
2.376297
  31
0
  0
LINE
  5
2c6
  100
AcDbEntity
  8
1
  100
AcDbLine
  10
11.28601
  20
2.376297
  30
0
  11
11.24051
  21
2.39561
  31
0
  0
LINE
  5
2c7
  100
AcDbEntity
  8
1
  100
AcDbLine
  10
11.24051
  20
2.39561
  30
0
  11
11.19501
  21
2.414652
  31
0
  0
LINE
  5
2c8
  100
AcDbEntity
  8
1
  100
AcDbLine
  10
11.19501
  20
2.414652
  30
0
  11
11.14951
  21
2.433422
  31
0
  0
LINE
  5
2c9
  100
AcDbEntity
  8
1
  100
AcDbLine
  10
11.14951
  20
2.433422
  30
0
  11
11.10401
  21
2.451917
  31
0
  0
LINE
  5
2ca
  100
AcDbEntity
  8
1
  100
AcDbLine
  10
11.10401
  20
2.451917
  30
0
  11
11.05851
  21
2.470136
  31
0
  0
LINE
  5
2cb
  100
AcDbEntity
  8
1
  100
AcDbLine
  10
11.05851
  20
2.470136
  30
0
  11
11.01301
  21
2.488076
  31
0
  0
LINE
  5
2cc
  100
AcDbEntity
  8
1
  100
AcDbLine
  10
11.01301
  20
2.488076
  30
0
  11
10.96751
  21
2.505736
  31
0
  0
LINE
  5
2cd
  100
AcDbEntity
  8
1
  100
AcDbLine
  10
10.96751
  20
2.505736
  30
0
  11
10.92201
  21
2.523113
  31
0
  0
LINE
  5
2ce
  100
AcDbEntity
  8
1
  100
AcDbLine
  10
10.92201
  20
2.523113
  30
0
  11
10.87651
  21
2.540206
  31
0
  0
LINE
  5
2cf
  100
AcDbEntity
  8
1
  100
AcDbLine
  10
10.87651
  20
2.540206
  30
0
  11
10.83101
  21
2.557012
  31
0
  0
LINE
  5
2d0
  100
AcDbEntity
  8
1
  100
AcDbLine
  10
10.83101
  20
2.557012
  30
0
  11
10.78551
  21
2.57353
  31
0
  0
LINE
  5
2d1
  100
AcDbEntity
  8
1
  100
AcDbLine
  10
10.78551
  20
2.57353
  30
0
  11
10.74001
  21
2.589757
  31
0
  0
LINE
  5
2d2
  100
AcDbEntity
  8
1
  100
AcDbLine
  10
10.74001
  20
2.589757
  30
0
  11
10.69451
  21
2.605693
  31
0
  0
LINE
  5
2d3
  100
AcDbEntity
  8
1
  100
AcDbLine
  10
10.69451
  20
2.605693
  30
0
  11
10.64901
  21
2.621334
  31
0
  0
LINE
  5
2d4
  100
AcDbEntity
  8
1
  100
AcDbLine
  10
10.64901
  20
2.621334
  30
0
  11
10.60351
  21
2.63668
  31
0
  0
LINE
  5
2d5
  100
AcDbEntity
  8
1
  100
AcDbLine
  10
10.60351
  20
2.63668
  30
0
  11
10.55801
  21
2.651729
  31
0
  0
LINE
  5
2d6
  100
AcDbEntity
  8
1
  100
AcDbLine
  10
10.55801
  20
2.651729
  30
0
  11
10.51251
  21
2.666478
  31
0
  0
LINE
  5
2d7
  100
AcDbEntity
  8
1
  100
AcDbLine
  10
10.51251
  20
2.666478
  30
0
  11
10.46701
  21
2.680927
  31
0
  0
LINE
  5
2d8
  100
AcDbEntity
  8
1
  100
AcDbLine
  10
10.46701
  20
2.680927
  30
0
  11
10.42151
  21
2.695074
  31
0
  0
LINE
  5
2d9
  100
AcDbEntity
  8
1
  100
AcDbLine
  10
10.42151
  20
2.695074
  30
0
  11
10.37601
  21
2.708916
  31
0
  0
LINE
  5
2da
  100
AcDbEntity
  8
1
  100
AcDbLine
  10
10.37601
  20
2.708916
  30
0
  11
10.33051
  21
2.722453
  31
0
  0
LINE
  5
2db
  100
AcDbEntity
  8
1
  100
AcDbLine
  10
10.33051
  20
2.722453
  30
0
  11
10.28501
  21
2.735683
  31
0
  0
LINE
  5
2dc
  100
AcDbEntity
  8
1
  100
AcDbLine
  10
10.28501
  20
2.735683
  30
0
  11
10.23951
  21
2.748604
  31
0
  0
LINE
  5
2dd
  100
AcDbEntity
  8
1
  100
AcDbLine
  10
10.23951
  20
2.748604
  30
0
  11
10.19401
  21
2.761216
  31
0
  0
LINE
  5
2de
  100
AcDbEntity
  8
1
  100
AcDbLine
  10
10.19401
  20
2.761216
  30
0
  11
10.14851
  21
2.773516
  31
0
  0
LINE
  5
2df
  100
AcDbEntity
  8
1
  100
AcDbLine
  10
10.14851
  20
2.773516
  30
0
  11
10.10301
  21
2.785503
  31
0
  0
LINE
  5
2e0
  100
AcDbEntity
  8
1
  100
AcDbLine
  10
10.10301
  20
2.785503
  30
0
  11
10.05751
  21
2.797176
  31
0
  0
LINE
  5
2e1
  100
AcDbEntity
  8
1
  100
AcDbLine
  10
10.05751
  20
2.797176
  30
0
  11
10.01201
  21
2.808534
  31
0
  0
LINE
  5
2e2
  100
AcDbEntity
  8
1
  100
AcDbLine
  10
10.01201
  20
2.808534
  30
0
  11
9.96651
  21
2.819575
  31
0
  0
LINE
  5
2e3
  100
AcDbEntity
  8
1
  100
AcDbLine
  10
9.96651
  20
2.819575
  30
0
  11
9.92101
  21
2.830297
  31
0
  0
LINE
  5
2e4
  100
AcDbEntity
  8
1
  100
AcDbLine
  10
9.92101
  20
2.830297
  30
0
  11
9.87551
  21
2.840701
  31
0
  0
LINE
  5
2e5
  100
AcDbEntity
  8
1
  100
AcDbLine
  10
9.87551
  20
2.840701
  30
0
  11
9.83001
  21
2.850784
  31
0
  0
LINE
  5
2e6
  100
AcDbEntity
  8
1
  100
AcDbLine
  10
9.83001
  20
2.850784
  30
0
  11
9.78451
  21
2.860546
  31
0
  0
LINE
  5
2e7
  100
AcDbEntity
  8
1
  100
AcDbLine
  10
9.78451
  20
2.860546
  30
0
  11
9.73901
  21
2.869985
  31
0
  0
LINE
  5
2e8
  100
AcDbEntity
  8
1
  100
AcDbLine
  10
9.73901
  20
2.869985
  30
0
  11
9.69351
  21
2.879101
  31
0
  0
LINE
  5
2e9
  100
AcDbEntity
  8
1
  100
AcDbLine
  10
9.69351
  20
2.879101
  30
0
  11
9.64801
  21
2.887892
  31
0
  0
LINE
  5
2ea
  100
AcDbEntity
  8
1
  100
AcDbLine
  10
9.64801
  20
2.887892
  30
0
  11
9.60251
  21
2.896357
  31
0
  0
LINE
  5
2eb
  100
AcDbEntity
  8
1
  100
AcDbLine
  10
9.60251
  20
2.896357
  30
0
  11
9.55701
  21
2.904495
  31
0
  0
LINE
  5
2ec
  100
AcDbEntity
  8
1
  100
AcDbLine
  10
9.55701
  20
2.904495
  30
0
  11
9.51151
  21
2.912306
  31
0
  0
LINE
  5
2ed
  100
AcDbEntity
  8
1
  100
AcDbLine
  10
9.51151
  20
2.912306
  30
0
  11
9.46601
  21
2.919789
  31
0
  0
LINE
  5
2ee
  100
AcDbEntity
  8
1
  100
AcDbLine
  10
9.46601
  20
2.919789
  30
0
  11
9.42051
  21
2.926942
  31
0
  0
LINE
  5
2ef
  100
AcDbEntity
  8
1
  100
AcDbLine
  10
9.42051
  20
2.926942
  30
0
  11
9.37501
  21
2.933765
  31
0
  0
LINE
  5
2f0
  100
AcDbEntity
  8
1
  100
AcDbLine
  10
9.37501
  20
2.933765
  30
0
  11
9.32951
  21
2.940257
  31
0
  0
LINE
  5
2f1
  100
AcDbEntity
  8
1
  100
AcDbLine
  10
9.32951
  20
2.940257
  30
0
  11
9.28401
  21
2.946417
  31
0
  0
LINE
  5
2f2
  100
AcDbEntity
  8
1
  100
AcDbLine
  10
9.28401
  20
2.946417
  30
0
  11
9.23851
  21
2.952246
  31
0
  0
LINE
  5
2f3
  100
AcDbEntity
  8
1
  100
AcDbLine
  10
9.23851
  20
2.952246
  30
0
  11
9.19301
  21
2.957741
  31
0
  0
LINE
  5
2f4
  100
AcDbEntity
  8
1
  100
AcDbLine
  10
9.19301
  20
2.957741
  30
0
  11
9.14751
  21
2.962903
  31
0
  0
LINE
  5
2f5
  100
AcDbEntity
  8
1
  100
AcDbLine
  10
9.14751
  20
2.962903
  30
0
  11
9.10201
  21
2.96773
  31
0
  0
LINE
  5
2f6
  100
AcDbEntity
  8
1
  100
AcDbLine
  10
9.10201
  20
2.96773
  30
0
  11
9.05651
  21
2.972223
  31
0
  0
LINE
  5
2f7
  100
AcDbEntity
  8
1
  100
AcDbLine
  10
9.05651
  20
2.972223
  30
0
  11
9.01101
  21
2.976381
  31
0
  0
LINE
  5
2f8
  100
AcDbEntity
  8
1
  100
AcDbLine
  10
9.01101
  20
2.976381
  30
0
  11
8.96551
  21
2.980203
  31
0
  0
LINE
  5
2f9
  100
AcDbEntity
  8
1
  100
AcDbLine
  10
8.96551
  20
2.980203
  30
0
  11
8.92001
  21
2.738487
  31
0
  0
LINE
  5
2fa
  100
AcDbEntity
  8
1
  100
AcDbLine
  10
8.92001
  20
2.738487
  30
0
  11
8.87451
  21
2.741002
  31
0
  0
LINE
  5
2fb
  100
AcDbEntity
  8
1
  100
AcDbLine
  10
8.87451
  20
2.741002
  30
0
  11
8.82901
  21
2.743208
  31
0
  0
LINE
  5
2fc
  100
AcDbEntity
  8
1
  100
AcDbLine
  10
8.82901
  20
2.743208
  30
0
  11
8.78351
  21
2.745104
  31
0
  0
LINE
  5
2fd
  100
AcDbEntity
  8
1
  100
AcDbLine
  10
8.78351
  20
2.745104
  30
0
  11
8.73801
  21
2.746691
  31
0
  0
LINE
  5
2fe
  100
AcDbEntity
  8
1
  100
AcDbLine
  10
8.73801
  20
2.746691
  30
0
  11
8.69251
  21
2.747968
  31
0
  0
LINE
  5
2ff
  100
AcDbEntity
  8
1
  100
AcDbLine
  10
8.69251
  20
2.747968
  30
0
  11
8.64701
  21
2.748934
  31
0
  0
LINE
  5
300
  100
AcDbEntity
  8
1
  100
AcDbLine
  10
8.64701
  20
2.748934
  30
0
  11
8.60151
  21
2.749586
  31
0
  0
LINE
  5
301
  100
AcDbEntity
  8
1
  100
AcDbLine
  10
8.60151
  20
2.749586
  30
0
  11
8.55601
  21
2.749927
  31
0
  0
LINE
  5
302
  100
AcDbEntity
  8
1
  100
AcDbLine
  10
8.55601
  20
2.749927
  30
0
  11
8.517185
  21
2.75
  31
0
  0
LINE
  5
303
  100
AcDbEntity
  8
1
  100
AcDbLine
  10
8.438474
  20
2.75
  30
0
  11
8.41951
  21
2.749981
  31
0
  0
LINE
  5
304
  100
AcDbEntity
  8
1
  100
AcDbLine
  10
8.41951
  20
2.749981
  30
0
  11
8.37401
  21
2.7473
  31
0
  0
LINE
  5
305
  100
AcDbEntity
  8
1
  100
AcDbLine
  10
8.37401
  20
2.7473
  30
0
  11
8.32851
  21
2.715473
  31
0
  0
LINE
  5
306
  100
AcDbEntity
  8
1
  100
AcDbLine
  10
8.32851
  20
2.715473
  30
0
  11
8.28301
  21
2.496265
  31
0
  0
LINE
  5
307
  100
AcDbEntity
  8
1
  100
AcDbLine
  10
8.28301
  20
2.496265
  30
0
  11
8.28301
  21
2.513732
  31
0
  0
LINE
  5
308
  100
AcDbEntity
  8
1
  100
AcDbLine
  10
8.28301
  20
2.513732
  30
0
  11
8.32851
  21
2.121103
  31
0
  0
LINE
  5
309
  100
AcDbEntity
  8
1
  100
AcDbLine
  10
8.32851
  20
2.121103
  30
0
  11
8.37401
  21
1.751624
  31
0
  0
LINE
  5
30a
  100
AcDbEntity
  8
1
  100
AcDbLine
  10
8.37401
  20
1.751624
  30
0
  11
8.41951
  21
1.461222
  31
0
  0
LINE
  5
30b
  100
AcDbEntity
  8
1
  100
AcDbLine
  10
8.41951
  20
1.461222
  30
0
  11
8.46501
  21
1.251902
  31
0
  0
LINE
  5
30c
  100
AcDbEntity
  8
1
  100
AcDbLine
  10
8.46501
  20
1.251902
  30
0
  11
8.51051
  21
1.107881
  31
0
  0
LINE
  5
30d
  100
AcDbEntity
  8
1
  100
AcDbLine
  10
8.51051
  20
1.107881
  30
0
  11
8.55601
  21
1.010662
  31
0
  0
LINE
  5
30e
  100
AcDbEntity
  8
1
  100
AcDbLine
  10
8.55601
  20
1.010662
  30
0
  11
8.60151
  21
0.944352
  31
0
  0
LINE
  5
30f
  100
AcDbEntity
  8
1
  100
AcDbLine
  10
8.60151
  20
0.944352
  30
0
  11
8.64701
  21
0.896968
  31
0
  0
LINE
  5
310
  100
AcDbEntity
  8
1
  100
AcDbLine
  10
8.64701
  20
0.896968
  30
0
  11
8.69251
  21
0.860233
  31
0
  0
LINE
  5
311
  100
AcDbEntity
  8
1
  100
AcDbLine
  10
8.69251
  20
0.860233
  30
0
  11
8.73801
  21
0.828876
  31
0
  0
LINE
  5
312
  100
AcDbEntity
  8
1
  100
AcDbLine
  10
8.73801
  20
0.828876
  30
0
  11
8.78351
  21
0.79985
  31
0
  0
LINE
  5
313
  100
AcDbEntity
  8
1
  100
AcDbLine
  10
8.78351
  20
0.79985
  30
0
  11
8.82901
  21
0.771607
  31
0
  0
LINE
  5
314
  100
AcDbEntity
  8
1
  100
AcDbLine
  10
8.82901
  20
0.771607
  30
0
  11
8.87451
  21
0.7435
  31
0
  0
LINE
  5
315
  100
AcDbEntity
  8
1
  100
AcDbLine
  10
8.87451
  20
0.7435
  30
0
  11
8.92001
  21
0.715341
  31
0
  0
LINE
  5
316
  100
AcDbEntity
  8
1
  100
AcDbLine
  10
8.92001
  20
0.715341
  30
0
  11
8.96551
  21
0.593696
  31
0
  0
LINE
  5
317
  100
AcDbEntity
  8
1
  100
AcDbLine
  10
8.96551
  20
0.593696
  30
0
  11
9.01101
  21
0.562434
  31
0
  0
LINE
  5
318
  100
AcDbEntity
  8
1
  100
AcDbLine
  10
9.01101
  20
0.562434
  30
0
  11
9.05651
  21
0.531108
  31
0
  0
LINE
  5
319
  100
AcDbEntity
  8
1
  100
AcDbLine
  10
9.05651
  20
0.531108
  30
0
  11
9.10201
  21
0.499722
  31
0
  0
LINE
  5
31a
  100
AcDbEntity
  8
1
  100
AcDbLine
  10
9.10201
  20
0.499722
  30
0
  11
9.14751
  21
0.468281
  31
0
  0
LINE
  5
31b
  100
AcDbEntity
  8
1
  100
AcDbLine
  10
9.14751
  20
0.468281
  30
0
  11
9.19301
  21
0.436786
  31
0
  0
LINE
  5
31c
  100
AcDbEntity
  8
1
  100
AcDbLine
  10
9.19301
  20
0.436786
  30
0
  11
9.23851
  21
0.405242
  31
0
  0
LINE
  5
31d
  100
AcDbEntity
  8
1
  100
AcDbLine
  10
9.23851
  20
0.405242
  30
0
  11
9.28401
  21
0.373652
  31
0
  0
LINE
  5
31e
  100
AcDbEntity
  8
1
  100
AcDbLine
  10
9.28401
  20
0.373652
  30
0
  11
9.32951
  21
0.34202
  31
0
  0
LINE
  5
31f
  100
AcDbEntity
  8
1
  100
AcDbLine
  10
9.32951
  20
0.34202
  30
0
  11
9.37501
  21
0.31035
  31
0
  0
LINE
  5
320
  100
AcDbEntity
  8
1
  100
AcDbLine
  10
9.37501
  20
0.31035
  30
0
  11
9.42051
  21
0.278644
  31
0
  0
LINE
  5
321
  100
AcDbEntity
  8
1
  100
AcDbLine
  10
9.42051
  20
0.278644
  30
0
  11
9.46601
  21
0.246908
  31
0
  0
LINE
  5
322
  100
AcDbEntity
  8
1
  100
AcDbLine
  10
9.46601
  20
0.246908
  30
0
  11
9.51151
  21
0.215143
  31
0
  0
LINE
  5
323
  100
AcDbEntity
  8
1
  100
AcDbLine
  10
9.51151
  20
0.215143
  30
0
  11
9.55701
  21
0.183354
  31
0
  0
LINE
  5
324
  100
AcDbEntity
  8
1
  100
AcDbLine
  10
9.55701
  20
0.183354
  30
0
  11
9.60251
  21
0.151544
  31
0
  0
LINE
  5
325
  100
AcDbEntity
  8
1
  100
AcDbLine
  10
9.60251
  20
0.151544
  30
0
  11
9.64801
  21
0.119718
  31
0
  0
LINE
  5
326
  100
AcDbEntity
  8
1
  100
AcDbLine
  10
9.64801
  20
0.119718
  30
0
  11
9.69351
  21
0.087877
  31
0
  0
LINE
  5
327
  100
AcDbEntity
  8
1
  100
AcDbLine
  10
9.69351
  20
0.087877
  30
0
  11
9.73901
  21
0.056027
  31
0
  0
LINE
  5
328
  100
AcDbEntity
  8
1
  100
AcDbLine
  10
9.73901
  20
0.056027
  30
0
  11
9.78451
  21
0.024171
  31
0
  0
LINE
  5
329
  100
AcDbEntity
  8
1
  100
AcDbLine
  10
9.78451
  20
0.024171
  30
0
  11
9.83001
  21
-0.007688
  31
0
  0
LINE
  5
32a
  100
AcDbEntity
  8
1
  100
AcDbLine
  10
9.83001
  20
-0.007688
  30
0
  11
9.87551
  21
-0.039547
  31
0
  0
LINE
  5
32b
  100
AcDbEntity
  8
1
  100
AcDbLine
  10
9.87551
  20
-0.039547
  30
0
  11
9.92101
  21
-0.0714
  31
0
  0
LINE
  5
32c
  100
AcDbEntity
  8
1
  100
AcDbLine
  10
9.92101
  20
-0.0714
  30
0
  11
9.96651
  21
-0.103246
  31
0
  0
LINE
  5
32d
  100
AcDbEntity
  8
1
  100
AcDbLine
  10
9.96651
  20
-0.103246
  30
0
  11
10.01201
  21
-0.13508
  31
0
  0
LINE
  5
32e
  100
AcDbEntity
  8
1
  100
AcDbLine
  10
10.01201
  20
-0.13508
  30
0
  11
10.05751
  21
-0.166899
  31
0
  0
LINE
  5
32f
  100
AcDbEntity
  8
1
  100
AcDbLine
  10
10.05751
  20
-0.166899
  30
0
  11
10.10301
  21
-0.198699
  31
0
  0
LINE
  5
330
  100
AcDbEntity
  8
1
  100
AcDbLine
  10
10.10301
  20
-0.198699
  30
0
  11
10.14851
  21
-0.230477
  31
0
  0
LINE
  5
331
  100
AcDbEntity
  8
1
  100
AcDbLine
  10
10.14851
  20
-0.230477
  30
0
  11
10.19401
  21
-0.262229
  31
0
  0
LINE
  5
332
  100
AcDbEntity
  8
1
  100
AcDbLine
  10
10.19401
  20
-0.262229
  30
0
  11
10.23951
  21
-0.293951
  31
0
  0
LINE
  5
333
  100
AcDbEntity
  8
1
  100
AcDbLine
  10
10.23951
  20
-0.293951
  30
0
  11
10.28501
  21
-0.32564
  31
0
  0
LINE
  5
334
  100
AcDbEntity
  8
1
  100
AcDbLine
  10
10.28501
  20
-0.32564
  30
0
  11
10.33051
  21
-0.357292
  31
0
  0
LINE
  5
335
  100
AcDbEntity
  8
1
  100
AcDbLine
  10
10.33051
  20
-0.357292
  30
0
  11
10.37601
  21
-0.388904
  31
0
  0
LINE
  5
336
  100
AcDbEntity
  8
1
  100
AcDbLine
  10
10.37601
  20
-0.388904
  30
0
  11
10.42151
  21
-0.420472
  31
0
  0
LINE
  5
337
  100
AcDbEntity
  8
1
  100
AcDbLine
  10
10.42151
  20
-0.420472
  30
0
  11
10.46701
  21
-0.451993
  31
0
  0
LINE
  5
338
  100
AcDbEntity
  8
1
  100
AcDbLine
  10
10.46701
  20
-0.451993
  30
0
  11
10.51251
  21
-0.483462
  31
0
  0
LINE
  5
339
  100
AcDbEntity
  8
1
  100
AcDbLine
  10
10.51251
  20
-0.483462
  30
0
  11
10.55801
  21
-0.514878
  31
0
  0
LINE
  5
33a
  100
AcDbEntity
  8
1
  100
AcDbLine
  10
10.55801
  20
-0.514878
  30
0
  11
10.60351
  21
-0.546235
  31
0
  0
LINE
  5
33b
  100
AcDbEntity
  8
1
  100
AcDbLine
  10
10.60351
  20
-0.546235
  30
0
  11
10.64901
  21
-0.57753
  31
0
  0
LINE
  5
33c
  100
AcDbEntity
  8
1
  100
AcDbLine
  10
10.64901
  20
-0.57753
  30
0
  11
10.69451
  21
-0.608761
  31
0
  0
LINE
  5
33d
  100
AcDbEntity
  8
1
  100
AcDbLine
  10
10.69451
  20
-0.608761
  30
0
  11
10.74001
  21
-0.639922
  31
0
  0
LINE
  5
33e
  100
AcDbEntity
  8
1
  100
AcDbLine
  10
10.74001
  20
-0.639922
  30
0
  11
10.78551
  21
-0.671012
  31
0
  0
LINE
  5
33f
  100
AcDbEntity
  8
1
  100
AcDbLine
  10
10.78551
  20
-0.671012
  30
0
  11
10.83101
  21
-0.702026
  31
0
  0
LINE
  5
340
  100
AcDbEntity
  8
1
  100
AcDbLine
  10
10.83101
  20
-0.702026
  30
0
  11
10.87651
  21
-0.73296
  31
0
  0
LINE
  5
341
  100
AcDbEntity
  8
1
  100
AcDbLine
  10
10.87651
  20
-0.73296
  30
0
  11
10.92201
  21
-0.763812
  31
0
  0
LINE
  5
342
  100
AcDbEntity
  8
1
  100
AcDbLine
  10
10.92201
  20
-0.763812
  30
0
  11
10.96751
  21
-0.794578
  31
0
  0
LINE
  5
343
  100
AcDbEntity
  8
1
  100
AcDbLine
  10
10.96751
  20
-0.794578
  30
0
  11
11.01301
  21
-0.825255
  31
0
  0
LINE
  5
344
  100
AcDbEntity
  8
1
  100
AcDbLine
  10
11.01301
  20
-0.825255
  30
0
  11
11.05851
  21
-0.855838
  31
0
  0
LINE
  5
345
  100
AcDbEntity
  8
1
  100
AcDbLine
  10
11.05851
  20
-0.855838
  30
0
  11
11.10401
  21
-0.886324
  31
0
  0
LINE
  5
346
  100
AcDbEntity
  8
1
  100
AcDbLine
  10
11.10401
  20
-0.886324
  30
0
  11
11.14951
  21
-0.916711
  31
0
  0
LINE
  5
347
  100
AcDbEntity
  8
1
  100
AcDbLine
  10
11.14951
  20
-0.916711
  30
0
  11
11.19501
  21
-0.946994
  31
0
  0
LINE
  5
348
  100
AcDbEntity
  8
1
  100
AcDbLine
  10
11.19501
  20
-0.946994
  30
0
  11
11.24051
  21
-0.977171
  31
0
  0
LINE
  5
349
  100
AcDbEntity
  8
1
  100
AcDbLine
  10
11.24051
  20
-0.977171
  30
0
  11
11.28601
  21
-1.007237
  31
0
  0
LINE
  5
34a
  100
AcDbEntity
  8
1
  100
AcDbLine
  10
11.28601
  20
-1.007237
  30
0
  11
11.33151
  21
-1.03719
  31
0
  0
LINE
  5
34b
  100
AcDbEntity
  8
1
  100
AcDbLine
  10
11.33151
  20
-1.03719
  30
0
  11
11.37701
  21
-1.067026
  31
0
  0
LINE
  5
34c
  100
AcDbEntity
  8
1
  100
AcDbLine
  10
11.37701
  20
-1.067026
  30
0
  11
11.42251
  21
-1.096741
  31
0
  0
LINE
  5
34d
  100
AcDbEntity
  8
1
  100
AcDbLine
  10
11.42251
  20
-1.096741
  30
0
  11
11.46801
  21
-1.126333
  31
0
  0
LINE
  5
34e
  100
AcDbEntity
  8
1
  100
AcDbLine
  10
11.46801
  20
-1.126333
  30
0
  11
11.51351
  21
-1.155798
  31
0
  0
LINE
  5
34f
  100
AcDbEntity
  8
1
  100
AcDbLine
  10
11.51351
  20
-1.155798
  30
0
  11
11.55901
  21
-1.185132
  31
0
  0
LINE
  5
350
  100
AcDbEntity
  8
1
  100
AcDbLine
  10
11.55901
  20
-1.185132
  30
0
  11
11.60451
  21
-1.214333
  31
0
  0
LINE
  5
351
  100
AcDbEntity
  8
1
  100
AcDbLine
  10
11.60451
  20
-1.214333
  30
0
  11
11.65001
  21
-1.243396
  31
0
  0
LINE
  5
352
  100
AcDbEntity
  8
1
  100
AcDbLine
  10
11.65001
  20
-1.243396
  30
0
  11
11.69551
  21
-1.27232
  31
0
  0
LINE
  5
353
  100
AcDbEntity
  8
1
  100
AcDbLine
  10
11.69551
  20
-1.27232
  30
0
  11
11.74101
  21
-1.3011
  31
0
  0
LINE
  5
354
  100
AcDbEntity
  8
1
  100
AcDbLine
  10
11.74101
  20
-1.3011
  30
0
  11
11.78651
  21
-1.329733
  31
0
  0
LINE
  5
355
  100
AcDbEntity
  8
1
  100
AcDbLine
  10
11.78651
  20
-1.329733
  30
0
  11
11.83201
  21
-1.358216
  31
0
  0
LINE
  5
356
  100
AcDbEntity
  8
1
  100
AcDbLine
  10
11.83201
  20
-1.358216
  30
0
  11
11.87751
  21
-1.386547
  31
0
  0
LINE
  5
357
  100
AcDbEntity
  8
1
  100
AcDbLine
  10
11.87751
  20
-1.386547
  30
0
  11
11.92301
  21
-1.41472
  31
0
  0
LINE
  5
358
  100
AcDbEntity
  8
1
  100
AcDbLine
  10
11.92301
  20
-1.41472
  30
0
  11
11.96851
  21
-1.442735
  31
0
  0
LINE
  5
359
  100
AcDbEntity
  8
1
  100
AcDbLine
  10
11.96851
  20
-1.442735
  30
0
  11
12.01401
  21
-1.470586
  31
0
  0
LINE
  5
35a
  100
AcDbEntity
  8
1
  100
AcDbLine
  10
12.01401
  20
-1.470586
  30
0
  11
12.05951
  21
-1.498272
  31
0
  0
LINE
  5
35b
  100
AcDbEntity
  8
1
  100
AcDbLine
  10
12.05951
  20
-1.498272
  30
0
  11
12.10501
  21
-1.525788
  31
0
  0
LINE
  5
35c
  100
AcDbEntity
  8
1
  100
AcDbLine
  10
12.10501
  20
-1.525788
  30
0
  11
12.15051
  21
-1.553133
  31
0
  0
LINE
  5
35d
  100
AcDbEntity
  8
1
  100
AcDbLine
  10
12.15051
  20
-1.553133
  30
0
  11
12.19601
  21
-1.580302
  31
0
  0
LINE
  5
35e
  100
AcDbEntity
  8
1
  100
AcDbLine
  10
12.19601
  20
-1.580302
  30
0
  11
12.24151
  21
-1.607294
  31
0
  0
LINE
  5
35f
  100
AcDbEntity
  8
1
  100
AcDbLine
  10
12.24151
  20
-1.607294
  30
0
  11
12.28701
  21
-1.634104
  31
0
  0
LINE
  5
360
  100
AcDbEntity
  8
1
  100
AcDbLine
  10
12.28701
  20
-1.634104
  30
0
  11
12.33251
  21
-1.660729
  31
0
  0
LINE
  5
361
  100
AcDbEntity
  8
1
  100
AcDbLine
  10
12.33251
  20
-1.660729
  30
0
  11
12.37801
  21
-1.687168
  31
0
  0
LINE
  5
362
  100
AcDbEntity
  8
1
  100
AcDbLine
  10
12.37801
  20
-1.687168
  30
0
  11
12.42351
  21
-1.713416
  31
0
  0
LINE
  5
363
  100
AcDbEntity
  8
1
  100
AcDbLine
  10
12.42351
  20
-1.713416
  30
0
  11
12.46901
  21
-1.73947
  31
0
  0
LINE
  5
364
  100
AcDbEntity
  8
1
  100
AcDbLine
  10
12.46901
  20
-1.73947
  30
0
  11
12.51451
  21
-1.765329
  31
0
  0
LINE
  5
365
  100
AcDbEntity
  8
1
  100
AcDbLine
  10
12.51451
  20
-1.765329
  30
0
  11
12.56001
  21
-1.790989
  31
0
  0
LINE
  5
366
  100
AcDbEntity
  8
1
  100
AcDbLine
  10
12.56001
  20
-1.790989
  30
0
  11
12.60551
  21
-1.816446
  31
0
  0
LINE
  5
367
  100
AcDbEntity
  8
1
  100
AcDbLine
  10
12.60551
  20
-1.816446
  30
0
  11
12.65101
  21
-1.841699
  31
0
  0
LINE
  5
368
  100
AcDbEntity
  8
1
  100
AcDbLine
  10
12.65101
  20
-1.841699
  30
0
  11
12.69651
  21
-1.866744
  31
0
  0
LINE
  5
369
  100
AcDbEntity
  8
1
  100
AcDbLine
  10
12.69651
  20
-1.866744
  30
0
  11
12.74201
  21
-1.891578
  31
0
  0
LINE
  5
36a
  100
AcDbEntity
  8
1
  100
AcDbLine
  10
12.74201
  20
-1.891578
  30
0
  11
12.78751
  21
-1.9162
  31
0
  0
LINE
  5
36b
  100
AcDbEntity
  8
1
  100
AcDbLine
  10
12.78751
  20
-1.9162
  30
0
  11
12.83301
  21
-1.940605
  31
0
  0
LINE
  5
36c
  100
AcDbEntity
  8
1
  100
AcDbLine
  10
12.83301
  20
-1.940605
  30
0
  11
12.87851
  21
-1.964791
  31
0
  0
LINE
  5
36d
  100
AcDbEntity
  8
1
  100
AcDbLine
  10
12.87851
  20
-1.964791
  30
0
  11
12.92401
  21
-1.988755
  31
0
  0
LINE
  5
36e
  100
AcDbEntity
  8
1
  100
AcDbLine
  10
12.92401
  20
-1.988755
  30
0
  11
12.96951
  21
-2.012496
  31
0
  0
LINE
  5
36f
  100
AcDbEntity
  8
1
  100
AcDbLine
  10
12.96951
  20
-2.012496
  30
0
  11
13.01501
  21
-2.036009
  31
0
  0
LINE
  5
370
  100
AcDbEntity
  8
1
  100
AcDbLine
  10
13.01501
  20
-2.036009
  30
0
  11
13.06051
  21
-2.059293
  31
0
  0
LINE
  5
371
  100
AcDbEntity
  8
1
  100
AcDbLine
  10
13.06051
  20
-2.059293
  30
0
  11
13.10601
  21
-2.082344
  31
0
  0
LINE
  5
372
  100
AcDbEntity
  8
1
  100
AcDbLine
  10
13.10601
  20
-2.082344
  30
0
  11
13.15151
  21
-2.105161
  31
0
  0
LINE
  5
373
  100
AcDbEntity
  8
1
  100
AcDbLine
  10
13.15151
  20
-2.105161
  30
0
  11
13.19701
  21
-2.12774
  31
0
  0
LINE
  5
374
  100
AcDbEntity
  8
1
  100
AcDbLine
  10
13.19701
  20
-2.12774
  30
0
  11
13.24251
  21
-2.150079
  31
0
  0
LINE
  5
375
  100
AcDbEntity
  8
1
  100
AcDbLine
  10
13.24251
  20
-2.150079
  30
0
  11
13.28801
  21
-2.172176
  31
0
  0
LINE
  5
376
  100
AcDbEntity
  8
1
  100
AcDbLine
  10
13.28801
  20
-2.172176
  30
0
  11
13.33351
  21
-2.194028
  31
0
  0
LINE
  5
377
  100
AcDbEntity
  8
1
  100
AcDbLine
  10
13.33351
  20
-2.194028
  30
0
  11
13.37901
  21
-2.215632
  31
0
  0
LINE
  5
378
  100
AcDbEntity
  8
1
  100
AcDbLine
  10
13.37901
  20
-2.215632
  30
0
  11
13.42451
  21
-2.236987
  31
0
  0
LINE
  5
379
  100
AcDbEntity
  8
1
  100
AcDbLine
  10
13.42451
  20
-2.236987
  30
0
  11
13.47001
  21
-2.258089
  31
0
  0
LINE
  5
37a
  100
AcDbEntity
  8
1
  100
AcDbLine
  10
13.47001
  20
-2.258089
  30
0
  11
13.51551
  21
-2.278936
  31
0
  0
LINE
  5
37b
  100
AcDbEntity
  8
1
  100
AcDbLine
  10
13.51551
  20
-2.278936
  30
0
  11
13.56101
  21
-2.299527
  31
0
  0
LINE
  5
37c
  100
AcDbEntity
  8
1
  100
AcDbLine
  10
13.56101
  20
-2.299527
  30
0
  11
13.60651
  21
-2.319858
  31
0
  0
LINE
  5
37d
  100
AcDbEntity
  8
1
  100
AcDbLine
  10
13.60651
  20
-2.319858
  30
0
  11
13.65201
  21
-2.339927
  31
0
  0
LINE
  5
37e
  100
AcDbEntity
  8
1
  100
AcDbLine
  10
13.65201
  20
-2.339927
  30
0
  11
13.69751
  21
-2.359733
  31
0
  0
LINE
  5
37f
  100
AcDbEntity
  8
1
  100
AcDbLine
  10
13.69751
  20
-2.359733
  30
0
  11
13.74301
  21
-2.379273
  31
0
  0
LINE
  5
380
  100
AcDbEntity
  8
1
  100
AcDbLine
  10
13.74301
  20
-2.379273
  30
0
  11
13.78851
  21
-2.398544
  31
0
  0
LINE
  5
381
  100
AcDbEntity
  8
1
  100
AcDbLine
  10
13.78851
  20
-2.398544
  30
0
  11
13.83401
  21
-2.417544
  31
0
  0
LINE
  5
382
  100
AcDbEntity
  8
1
  100
AcDbLine
  10
13.83401
  20
-2.417544
  30
0
  11
13.87951
  21
-2.436272
  31
0
  0
LINE
  5
383
  100
AcDbEntity
  8
1
  100
AcDbLine
  10
13.87951
  20
-2.436272
  30
0
  11
13.92501
  21
-2.454726
  31
0
  0
LINE
  5
384
  100
AcDbEntity
  8
1
  100
AcDbLine
  10
13.92501
  20
-2.454726
  30
0
  11
13.97051
  21
-2.472902
  31
0
  0
LINE
  5
385
  100
AcDbEntity
  8
1
  100
AcDbLine
  10
13.97051
  20
-2.472902
  30
0
  11
14.01601
  21
-2.4908
  31
0
  0
LINE
  5
386
  100
AcDbEntity
  8
1
  100
AcDbLine
  10
14.01601
  20
-2.4908
  30
0
  11
14.06151
  21
-2.508416
  31
0
  0
LINE
  5
387
  100
AcDbEntity
  8
1
  100
AcDbLine
  10
14.06151
  20
-2.508416
  30
0
  11
14.10701
  21
-2.52575
  31
0
  0
LINE
  5
388
  100
AcDbEntity
  8
1
  100
AcDbLine
  10
14.10701
  20
-2.52575
  30
0
  11
14.15251
  21
-2.542799
  31
0
  0
LINE
  5
389
  100
AcDbEntity
  8
1
  100
AcDbLine
  10
14.15251
  20
-2.542799
  30
0
  11
14.19801
  21
-2.559561
  31
0
  0
LINE
  5
38a
  100
AcDbEntity
  8
1
  100
AcDbLine
  10
14.19801
  20
-2.559561
  30
0
  11
14.24351
  21
-2.576034
  31
0
  0
LINE
  5
38b
  100
AcDbEntity
  8
1
  100
AcDbLine
  10
14.24351
  20
-2.576034
  30
0
  11
14.28901
  21
-2.592217
  31
0
  0
LINE
  5
38c
  100
AcDbEntity
  8
1
  100
AcDbLine
  10
14.28901
  20
-2.592217
  30
0
  11
14.33451
  21
-2.608108
  31
0
  0
LINE
  5
38d
  100
AcDbEntity
  8
1
  100
AcDbLine
  10
14.33451
  20
-2.608108
  30
0
  11
14.38001
  21
-2.623704
  31
0
  0
LINE
  5
38e
  100
AcDbEntity
  8
1
  100
AcDbLine
  10
14.38001
  20
-2.623704
  30
0
  11
14.42551
  21
-2.639005
  31
0
  0
LINE
  5
38f
  100
AcDbEntity
  8
1
  100
AcDbLine
  10
14.42551
  20
-2.639005
  30
0
  11
14.47101
  21
-2.654007
  31
0
  0
LINE
  5
390
  100
AcDbEntity
  8
1
  100
AcDbLine
  10
14.47101
  20
-2.654007
  30
0
  11
14.51651
  21
-2.668711
  31
0
  0
LINE
  5
391
  100
AcDbEntity
  8
1
  100
AcDbLine
  10
14.51651
  20
-2.668711
  30
0
  11
14.56201
  21
-2.683114
  31
0
  0
LINE
  5
392
  100
AcDbEntity
  8
1
  100
AcDbLine
  10
14.56201
  20
-2.683114
  30
0
  11
14.60751
  21
-2.697213
  31
0
  0
LINE
  5
393
  100
AcDbEntity
  8
1
  100
AcDbLine
  10
14.60751
  20
-2.697213
  30
0
  11
14.65301
  21
-2.711009
  31
0
  0
LINE
  5
394
  100
AcDbEntity
  8
1
  100
AcDbLine
  10
14.65301
  20
-2.711009
  30
0
  11
14.69851
  21
-2.724499
  31
0
  0
LINE
  5
395
  100
AcDbEntity
  8
1
  100
AcDbLine
  10
14.69851
  20
-2.724499
  30
0
  11
14.74401
  21
-2.737682
  31
0
  0
LINE
  5
396
  100
AcDbEntity
  8
1
  100
AcDbLine
  10
14.74401
  20
-2.737682
  30
0
  11
14.78951
  21
-2.750556
  31
0
  0
LINE
  5
397
  100
AcDbEntity
  8
1
  100
AcDbLine
  10
14.78951
  20
-2.750556
  30
0
  11
14.83501
  21
-2.76312
  31
0
  0
LINE
  5
398
  100
AcDbEntity
  8
1
  100
AcDbLine
  10
14.83501
  20
-2.76312
  30
0
  11
14.88051
  21
-2.775372
  31
0
  0
LINE
  5
399
  100
AcDbEntity
  8
1
  100
AcDbLine
  10
14.88051
  20
-2.775372
  30
0
  11
14.92601
  21
-2.787311
  31
0
  0
LINE
  5
39a
  100
AcDbEntity
  8
1
  100
AcDbLine
  10
14.92601
  20
-2.787311
  30
0
  11
14.97151
  21
-2.798936
  31
0
  0
LINE
  5
39b
  100
AcDbEntity
  8
1
  100
AcDbLine
  10
14.97151
  20
-2.798936
  30
0
  11
15.01701
  21
-2.810245
  31
0
  0
LINE
  5
39c
  100
AcDbEntity
  8
1
  100
AcDbLine
  10
15.01701
  20
-2.810245
  30
0
  11
15.06251
  21
-2.821238
  31
0
  0
LINE
  5
39d
  100
AcDbEntity
  8
1
  100
AcDbLine
  10
15.06251
  20
-2.821238
  30
0
  11
15.10801
  21
-2.831912
  31
0
  0
LINE
  5
39e
  100
AcDbEntity
  8
1
  100
AcDbLine
  10
15.10801
  20
-2.831912
  30
0
  11
15.15351
  21
-2.842266
  31
0
  0
LINE
  5
39f
  100
AcDbEntity
  8
1
  100
AcDbLine
  10
15.15351
  20
-2.842266
  30
0
  11
15.19901
  21
-2.8523
  31
0
  0
LINE
  5
3a0
  100
AcDbEntity
  8
1
  100
AcDbLine
  10
15.19901
  20
-2.8523
  30
0
  11
15.24451
  21
-2.862013
  31
0
  0
LINE
  5
3a1
  100
AcDbEntity
  8
1
  100
AcDbLine
  10
15.24451
  20
-2.862013
  30
0
  11
15.29001
  21
-2.871403
  31
0
  0
LINE
  5
3a2
  100
AcDbEntity
  8
1
  100
AcDbLine
  10
15.29001
  20
-2.871403
  30
0
  11
15.33551
  21
-2.880468
  31
0
  0
LINE
  5
3a3
  100
AcDbEntity
  8
1
  100
AcDbLine
  10
15.33551
  20
-2.880468
  30
0
  11
15.38101
  21
-2.889209
  31
0
  0
LINE
  5
3a4
  100
AcDbEntity
  8
1
  100
AcDbLine
  10
15.38101
  20
-2.889209
  30
0
  11
15.42651
  21
-2.897624
  31
0
  0
LINE
  5
3a5
  100
AcDbEntity
  8
1
  100
AcDbLine
  10
15.42651
  20
-2.897624
  30
0
  11
15.47201
  21
-2.905713
  31
0
  0
LINE
  5
3a6
  100
AcDbEntity
  8
1
  100
AcDbLine
  10
15.47201
  20
-2.905713
  30
0
  11
15.51751
  21
-2.913473
  31
0
  0
LINE
  5
3a7
  100
AcDbEntity
  8
1
  100
AcDbLine
  10
15.51751
  20
-2.913473
  30
0
  11
15.56301
  21
-2.920905
  31
0
  0
LINE
  5
3a8
  100
AcDbEntity
  8
1
  100
AcDbLine
  10
15.56301
  20
-2.920905
  30
0
  11
15.60851
  21
-2.928008
  31
0
  0
LINE
  5
3a9
  100
AcDbEntity
  8
1
  100
AcDbLine
  10
15.60851
  20
-2.928008
  30
0
  11
15.65401
  21
-2.934781
  31
0
  0
LINE
  5
3aa
  100
AcDbEntity
  8
1
  100
AcDbLine
  10
15.65401
  20
-2.934781
  30
0
  11
15.69951
  21
-2.941222
  31
0
  0
LINE
  5
3ab
  100
AcDbEntity
  8
1
  100
AcDbLine
  10
15.69951
  20
-2.941222
  30
0
  11
15.74501
  21
-2.947332
  31
0
  0
LINE
  5
3ac
  100
AcDbEntity
  8
1
  100
AcDbLine
  10
15.74501
  20
-2.947332
  30
0
  11
15.79051
  21
-2.953109
  31
0
  0
LINE
  5
3ad
  100
AcDbEntity
  8
1
  100
AcDbLine
  10
15.79051
  20
-2.953109
  30
0
  11
15.83601
  21
-2.958553
  31
0
  0
LINE
  5
3ae
  100
AcDbEntity
  8
1
  100
AcDbLine
  10
15.83601
  20
-2.958553
  30
0
  11
15.88151
  21
-2.963664
  31
0
  0
LINE
  5
3af
  100
AcDbEntity
  8
1
  100
AcDbLine
  10
15.88151
  20
-2.963664
  30
0
  11
15.92701
  21
-2.96844
  31
0
  0
LINE
  5
3b0
  100
AcDbEntity
  8
1
  100
AcDbLine
  10
15.92701
  20
-2.96844
  30
0
  11
15.97251
  21
-2.972882
  31
0
  0
LINE
  5
3b1
  100
AcDbEntity
  8
1
  100
AcDbLine
  10
15.97251
  20
-2.972882
  30
0
  11
16.01801
  21
-2.976988
  31
0
  0
LINE
  5
3b2
  100
AcDbEntity
  8
1
  100
AcDbLine
  10
16.01801
  20
-2.976988
  30
0
  11
16.06351
  21
-2.980759
  31
0
  0
LINE
  5
3b3
  100
AcDbEntity
  8
1
  100
AcDbLine
  10
16.06351
  20
-2.980759
  30
0
  11
16.10901
  21
-2.984193
  31
0
  0
LINE
  5
3b4
  100
AcDbEntity
  8
1
  100
AcDbLine
  10
16.10901
  20
-2.984193
  30
0
  11
16.15451
  21
-2.987291
  31
0
  0
LINE
  5
3b5
  100
AcDbEntity
  8
1
  100
AcDbLine
  10
16.15451
  20
-2.987291
  30
0
  11
16.20001
  21
-2.990052
  31
0
  0
LINE
  5
3b6
  100
AcDbEntity
  8
1
  100
AcDbLine
  10
16.20001
  20
-2.990052
  30
0
  11
16.24551
  21
-2.992476
  31
0
  0
LINE
  5
3b7
  100
AcDbEntity
  8
1
  100
AcDbLine
  10
16.24551
  20
-2.992476
  30
0
  11
16.29101
  21
-2.994562
  31
0
  0
LINE
  5
3b8
  100
AcDbEntity
  8
1
  100
AcDbLine
  10
16.29101
  20
-2.994562
  30
0
  11
16.33651
  21
-2.996311
  31
0
  0
LINE
  5
3b9
  100
AcDbEntity
  8
1
  100
AcDbLine
  10
16.33651
  20
-2.996311
  30
0
  11
16.38201
  21
-2.997721
  31
0
  0
LINE
  5
3ba
  100
AcDbEntity
  8
1
  100
AcDbLine
  10
16.38201
  20
-2.997721
  30
0
  11
16.42751
  21
-2.998794
  31
0
  0
LINE
  5
3bb
  100
AcDbEntity
  8
1
  100
AcDbLine
  10
16.42751
  20
-2.998794
  30
0
  11
16.47301
  21
-2.999528
  31
0
  0
LINE
  5
3bc
  100
AcDbEntity
  8
1
  100
AcDbLine
  10
16.47301
  20
-2.999528
  30
0
  11
16.51851
  21
-2.999924
  31
0
  0
LINE
  5
3bd
  100
AcDbEntity
  8
1
  100
AcDbLine
  10
16.51851
  20
-2.999924
  30
0
  11
16.549019
  21
-3
  31
0
  0
LINE
  5
3be
  100
AcDbEntity
  8
1
  100
AcDbLine
  10
15.630984
  20
-3
  30
0
  11
15.60851
  21
-2.962633
  31
0
  0
LINE
  5
3bf
  100
AcDbEntity
  8
1
  100
AcDbLine
  10
15.60851
  20
-2.962633
  30
0
  11
15.56301
  21
-2.9623
  31
0
  0
LINE
  5
3c0
  100
AcDbEntity
  8
1
  100
AcDbLine
  10
15.56301
  20
-2.9623
  30
0
  11
15.51751
  21
-2.961634
  31
0
  0
LINE
  5
3c1
  100
AcDbEntity
  8
1
  100
AcDbLine
  10
15.51751
  20
-2.961634
  30
0
  11
15.47201
  21
-2.960634
  31
0
  0
LINE
  5
3c2
  100
AcDbEntity
  8
1
  100
AcDbLine
  10
15.47201
  20
-2.960634
  30
0
  11
15.42651
  21
-2.9593
  31
0
  0
LINE
  5
3c3
  100
AcDbEntity
  8
1
  100
AcDbLine
  10
15.42651
  20
-2.9593
  30
0
  11
15.38101
  21
-2.957632
  31
0
  0
LINE
  5
3c4
  100
AcDbEntity
  8
1
  100
AcDbLine
  10
15.38101
  20
-2.957632
  30
0
  11
15.33551
  21
-2.955631
  31
0
  0
LINE
  5
3c5
  100
AcDbEntity
  8
1
  100
AcDbLine
  10
15.33551
  20
-2.955631
  30
0
  11
15.29001
  21
-2.953296
  31
0
  0
LINE
  5
3c6
  100
AcDbEntity
  8
1
  100
AcDbLine
  10
15.29001
  20
-2.953296
  30
0
  11
15.24451
  21
-2.950628
  31
0
  0
LINE
  5
3c7
  100
AcDbEntity
  8
1
  100
AcDbLine
  10
15.24451
  20
-2.950628
  30
0
  11
15.19901
  21
-2.947628
  31
0
  0
LINE
  5
3c8
  100
AcDbEntity
  8
1
  100
AcDbLine
  10
15.19901
  20
-2.947628
  30
0
  11
15.15351
  21
-2.944295
  31
0
  0
LINE
  5
3c9
  100
AcDbEntity
  8
1
  100
AcDbLine
  10
15.15351
  20
-2.944295
  30
0
  11
15.10801
  21
-2.94063
  31
0
  0
LINE
  5
3ca
  100
AcDbEntity
  8
1
  100
AcDbLine
  10
15.10801
  20
-2.94063
  30
0
  11
15.06251
  21
-2.936633
  31
0
  0
LINE
  5
3cb
  100
AcDbEntity
  8
1
  100
AcDbLine
  10
15.06251
  20
-2.936633
  30
0
  11
15.01701
  21
-2.932305
  31
0
  0
LINE
  5
3cc
  100
AcDbEntity
  8
1
  100
AcDbLine
  10
15.01701
  20
-2.932305
  30
0
  11
14.97151
  21
-2.927646
  31
0
  0
LINE
  5
3cd
  100
AcDbEntity
  8
1
  100
AcDbLine
  10
14.97151
  20
-2.927646
  30
0
  11
14.92601
  21
-2.922658
  31
0
  0
LINE
  5
3ce
  100
AcDbEntity
  8
1
  100
AcDbLine
  10
14.92601
  20
-2.922658
  30
0
  11
14.88051
  21
-2.917339
  31
0
  0
LINE
  5
3cf
  100
AcDbEntity
  8
1
  100
AcDbLine
  10
14.88051
  20
-2.917339
  30
0
  11
14.83501
  21
-2.911692
  31
0
  0
LINE
  5
3d0
  100
AcDbEntity
  8
1
  100
AcDbLine
  10
14.83501
  20
-2.911692
  30
0
  11
14.78951
  21
-2.905716
  31
0
  0
LINE
  5
3d1
  100
AcDbEntity
  8
1
  100
AcDbLine
  10
14.78951
  20
-2.905716
  30
0
  11
14.74401
  21
-2.899413
  31
0
  0
LINE
  5
3d2
  100
AcDbEntity
  8
1
  100
AcDbLine
  10
14.74401
  20
-2.899413
  30
0
  11
14.69851
  21
-2.892782
  31
0
  0
LINE
  5
3d3
  100
AcDbEntity
  8
1
  100
AcDbLine
  10
14.69851
  20
-2.892782
  30
0
  11
14.65301
  21
-2.885825
  31
0
  0
LINE
  5
3d4
  100
AcDbEntity
  8
1
  100
AcDbLine
  10
14.65301
  20
-2.885825
  30
0
  11
14.60751
  21
-2.878543
  31
0
  0
LINE
  5
3d5
  100
AcDbEntity
  8
1
  100
AcDbLine
  10
14.60751
  20
-2.878543
  30
0
  11
14.56201
  21
-2.870936
  31
0
  0
LINE
  5
3d6
  100
AcDbEntity
  8
1
  100
AcDbLine
  10
14.56201
  20
-2.870936
  30
0
  11
14.51651
  21
-2.863006
  31
0
  0
LINE
  5
3d7
  100
AcDbEntity
  8
1
  100
AcDbLine
  10
14.51651
  20
-2.863006
  30
0
  11
14.47101
  21
-2.854752
  31
0
  0
LINE
  5
3d8
  100
AcDbEntity
  8
1
  100
AcDbLine
  10
14.47101
  20
-2.854752
  30
0
  11
14.42551
  21
-2.846177
  31
0
  0
LINE
  5
3d9
  100
AcDbEntity
  8
1
  100
AcDbLine
  10
14.42551
  20
-2.846177
  30
0
  11
14.38001
  21
-2.83728
  31
0
  0
LINE
  5
3da
  100
AcDbEntity
  8
1
  100
AcDbLine
  10
14.38001
  20
-2.83728
  30
0
  11
14.33451
  21
-2.828064
  31
0
  0
LINE
  5
3db
  100
AcDbEntity
  8
1
  100
AcDbLine
  10
14.33451
  20
-2.828064
  30
0
  11
14.28901
  21
-2.818528
  31
0
  0
LINE
  5
3dc
  100
AcDbEntity
  8
1
  100
AcDbLine
  10
14.28901
  20
-2.818528
  30
0
  11
14.24351
  21
-2.808675
  31
0
  0
LINE
  5
3dd
  100
AcDbEntity
  8
1
  100
AcDbLine
  10
14.24351
  20
-2.808675
  30
0
  11
14.19801
  21
-2.798505
  31
0
  0
LINE
  5
3de
  100
AcDbEntity
  8
1
  100
AcDbLine
  10
14.19801
  20
-2.798505
  30
0
  11
14.15251
  21
-2.78802
  31
0
  0
LINE
  5
3df
  100
AcDbEntity
  8
1
  100
AcDbLine
  10
14.15251
  20
-2.78802
  30
0
  11
14.10701
  21
-2.777219
  31
0
  0
LINE
  5
3e0
  100
AcDbEntity
  8
1
  100
AcDbLine
  10
14.10701
  20
-2.777219
  30
0
  11
14.06151
  21
-2.766106
  31
0
  0
LINE
  5
3e1
  100
AcDbEntity
  8
1
  100
AcDbLine
  10
14.06151
  20
-2.766106
  30
0
  11
14.01601
  21
-2.754681
  31
0
  0
LINE
  5
3e2
  100
AcDbEntity
  8
1
  100
AcDbLine
  10
14.01601
  20
-2.754681
  30
0
  11
13.97051
  21
-2.742945
  31
0
  0
LINE
  5
3e3
  100
AcDbEntity
  8
1
  100
AcDbLine
  10
13.97051
  20
-2.742945
  30
0
  11
13.92501
  21
-2.7309
  31
0
  0
LINE
  5
3e4
  100
AcDbEntity
  8
1
  100
AcDbLine
  10
13.92501
  20
-2.7309
  30
0
  11
13.87951
  21
-2.718547
  31
0
  0
LINE
  5
3e5
  100
AcDbEntity
  8
1
  100
AcDbLine
  10
13.87951
  20
-2.718547
  30
0
  11
13.83401
  21
-2.705887
  31
0
  0
LINE
  5
3e6
  100
AcDbEntity
  8
1
  100
AcDbLine
  10
13.83401
  20
-2.705887
  30
0
  11
13.78851
  21
-2.692922
  31
0
  0
LINE
  5
3e7
  100
AcDbEntity
  8
1
  100
AcDbLine
  10
13.78851
  20
-2.692922
  30
0
  11
13.74301
  21
-2.679653
  31
0
  0
LINE
  5
3e8
  100
AcDbEntity
  8
1
  100
AcDbLine
  10
13.74301
  20
-2.679653
  30
0
  11
13.69751
  21
-2.666082
  31
0
  0
LINE
  5
3e9
  100
AcDbEntity
  8
1
  100
AcDbLine
  10
13.69751
  20
-2.666082
  30
0
  11
13.65201
  21
-2.65221
  31
0
  0
LINE
  5
3ea
  100
AcDbEntity
  8
1
  100
AcDbLine
  10
13.65201
  20
-2.65221
  30
0
  11
13.60651
  21
-2.63804
  31
0
  0
LINE
  5
3eb
  100
AcDbEntity
  8
1
  100
AcDbLine
  10
13.60651
  20
-2.63804
  30
0
  11
13.56101
  21
-2.623571
  31
0
  0
LINE
  5
3ec
  100
AcDbEntity
  8
1
  100
AcDbLine
  10
13.56101
  20
-2.623571
  30
0
  11
13.51551
  21
-2.608807
  31
0
  0
LINE
  5
3ed
  100
AcDbEntity
  8
1
  100
AcDbLine
  10
13.51551
  20
-2.608807
  30
0
  11
13.47001
  21
-2.593749
  31
0
  0
LINE
  5
3ee
  100
AcDbEntity
  8
1
  100
AcDbLine
  10
13.47001
  20
-2.593749
  30
0
  11
13.42451
  21
-2.578398
  31
0
  0
LINE
  5
3ef
  100
AcDbEntity
  8
1
  100
AcDbLine
  10
13.42451
  20
-2.578398
  30
0
  11
13.37901
  21
-2.562756
  31
0
  0
LINE
  5
3f0
  100
AcDbEntity
  8
1
  100
AcDbLine
  10
13.37901
  20
-2.562756
  30
0
  11
13.33351
  21
-2.546826
  31
0
  0
LINE
  5
3f1
  100
AcDbEntity
  8
1
  100
AcDbLine
  10
13.33351
  20
-2.546826
  30
0
  11
13.28801
  21
-2.530608
  31
0
  0
LINE
  5
3f2
  100
AcDbEntity
  8
1
  100
AcDbLine
  10
13.28801
  20
-2.530608
  30
0
  11
13.24251
  21
-2.514105
  31
0
  0
LINE
  5
3f3
  100
AcDbEntity
  8
1
  100
AcDbLine
  10
13.24251
  20
-2.514105
  30
0
  11
13.19701
  21
-2.497318
  31
0
  0
LINE
  5
3f4
  100
AcDbEntity
  8
1
  100
AcDbLine
  10
13.19701
  20
-2.497318
  30
0
  11
13.15151
  21
-2.480249
  31
0
  0
LINE
  5
3f5
  100
AcDbEntity
  8
1
  100
AcDbLine
  10
13.15151
  20
-2.480249
  30
0
  11
13.10601
  21
-2.462901
  31
0
  0
LINE
  5
3f6
  100
AcDbEntity
  8
1
  100
AcDbLine
  10
13.10601
  20
-2.462901
  30
0
  11
13.06051
  21
-2.445275
  31
0
  0
LINE
  5
3f7
  100
AcDbEntity
  8
1
  100
AcDbLine
  10
13.06051
  20
-2.445275
  30
0
  11
13.01501
  21
-2.427373
  31
0
  0
LINE
  5
3f8
  100
AcDbEntity
  8
1
  100
AcDbLine
  10
13.01501
  20
-2.427373
  30
0
  11
12.96951
  21
-2.409198
  31
0
  0
LINE
  5
3f9
  100
AcDbEntity
  8
1
  100
AcDbLine
  10
12.96951
  20
-2.409198
  30
0
  11
12.92401
  21
-2.390751
  31
0
  0
LINE
  5
3fa
  100
AcDbEntity
  8
1
  100
AcDbLine
  10
12.92401
  20
-2.390751
  30
0
  11
12.87851
  21
-2.372034
  31
0
  0
LINE
  5
3fb
  100
AcDbEntity
  8
1
  100
AcDbLine
  10
12.87851
  20
-2.372034
  30
0
  11
12.83301
  21
-2.353049
  31
0
  0
LINE
  5
3fc
  100
AcDbEntity
  8
1
  100
AcDbLine
  10
12.83301
  20
-2.353049
  30
0
  11
12.78751
  21
-2.3338
  31
0
  0
LINE
  5
3fd
  100
AcDbEntity
  8
1
  100
AcDbLine
  10
12.78751
  20
-2.3338
  30
0
  11
12.74201
  21
-2.314287
  31
0
  0
LINE
  5
3fe
  100
AcDbEntity
  8
1
  100
AcDbLine
  10
12.74201
  20
-2.314287
  30
0
  11
12.69651
  21
-2.294513
  31
0
  0
LINE
  5
3ff
  100
AcDbEntity
  8
1
  100
AcDbLine
  10
12.69651
  20
-2.294513
  30
0
  11
12.65101
  21
-2.27448
  31
0
  0
LINE
  5
400
  100
AcDbEntity
  8
1
  100
AcDbLine
  10
12.65101
  20
-2.27448
  30
0
  11
12.60551
  21
-2.254191
  31
0
  0
LINE
  5
401
  100
AcDbEntity
  8
1
  100
AcDbLine
  10
12.60551
  20
-2.254191
  30
0
  11
12.56001
  21
-2.233647
  31
0
  0
LINE
  5
402
  100
AcDbEntity
  8
1
  100
AcDbLine
  10
12.56001
  20
-2.233647
  30
0
  11
12.51451
  21
-2.212852
  31
0
  0
LINE
  5
403
  100
AcDbEntity
  8
1
  100
AcDbLine
  10
12.51451
  20
-2.212852
  30
0
  11
12.46901
  21
-2.191807
  31
0
  0
LINE
  5
404
  100
AcDbEntity
  8
1
  100
AcDbLine
  10
12.46901
  20
-2.191807
  30
0
  11
12.42351
  21
-2.170515
  31
0
  0
LINE
  5
405
  100
AcDbEntity
  8
1
  100
AcDbLine
  10
12.42351
  20
-2.170515
  30
0
  11
12.37801
  21
-2.148978
  31
0
  0
LINE
  5
406
  100
AcDbEntity
  8
1
  100
AcDbLine
  10
12.37801
  20
-2.148978
  30
0
  11
12.33251
  21
-2.127199
  31
0
  0
LINE
  5
407
  100
AcDbEntity
  8
1
  100
AcDbLine
  10
12.33251
  20
-2.127199
  30
0
  11
12.28701
  21
-2.105179
  31
0
  0
LINE
  5
408
  100
AcDbEntity
  8
1
  100
AcDbLine
  10
12.28701
  20
-2.105179
  30
0
  11
12.24151
  21
-2.082923
  31
0
  0
LINE
  5
409
  100
AcDbEntity
  8
1
  100
AcDbLine
  10
12.24151
  20
-2.082923
  30
0
  11
12.19601
  21
-2.060431
  31
0
  0
LINE
  5
40a
  100
AcDbEntity
  8
1
  100
AcDbLine
  10
12.19601
  20
-2.060431
  30
0
  11
12.15051
  21
-2.037707
  31
0
  0
LINE
  5
40b
  100
AcDbEntity
  8
1
  100
AcDbLine
  10
12.15051
  20
-2.037707
  30
0
  11
12.10501
  21
-2.014754
  31
0
  0
LINE
  5
40c
  100
AcDbEntity
  8
1
  100
AcDbLine
  10
12.10501
  20
-2.014754
  30
0
  11
12.05951
  21
-1.991573
  31
0
  0
LINE
  5
40d
  100
AcDbEntity
  8
1
  100
AcDbLine
  10
12.05951
  20
-1.991573
  30
0
  11
12.01401
  21
-1.968167
  31
0
  0
LINE
  5
40e
  100
AcDbEntity
  8
1
  100
AcDbLine
  10
12.01401
  20
-1.968167
  30
0
  11
11.96851
  21
-1.94454
  31
0
  0
LINE
  5
40f
  100
AcDbEntity
  8
1
  100
AcDbLine
  10
11.96851
  20
-1.94454
  30
0
  11
11.92301
  21
-1.920693
  31
0
  0
LINE
  5
410
  100
AcDbEntity
  8
1
  100
AcDbLine
  10
11.92301
  20
-1.920693
  30
0
  11
11.87751
  21
-1.89663
  31
0
  0
LINE
  5
411
  100
AcDbEntity
  8
1
  100
AcDbLine
  10
11.87751
  20
-1.89663
  30
0
  11
11.83201
  21
-1.872352
  31
0
  0
LINE
  5
412
  100
AcDbEntity
  8
1
  100
AcDbLine
  10
11.83201
  20
-1.872352
  30
0
  11
11.78651
  21
-1.847864
  31
0
  0
LINE
  5
413
  100
AcDbEntity
  8
1
  100
AcDbLine
  10
11.78651
  20
-1.847864
  30
0
  11
11.74101
  21
-1.823167
  31
0
  0
LINE
  5
414
  100
AcDbEntity
  8
1
  100
AcDbLine
  10
11.74101
  20
-1.823167
  30
0
  11
11.69551
  21
-1.798264
  31
0
  0
LINE
  5
415
  100
AcDbEntity
  8
1
  100
AcDbLine
  10
11.69551
  20
-1.798264
  30
0
  11
11.65001
  21
-1.773159
  31
0
  0
LINE
  5
416
  100
AcDbEntity
  8
1
  100
AcDbLine
  10
11.65001
  20
-1.773159
  30
0
  11
11.60451
  21
-1.747854
  31
0
  0
LINE
  5
417
  100
AcDbEntity
  8
1
  100
AcDbLine
  10
11.60451
  20
-1.747854
  30
0
  11
11.55901
  21
-1.722351
  31
0
  0
LINE
  5
418
  100
AcDbEntity
  8
1
  100
AcDbLine
  10
11.55901
  20
-1.722351
  30
0
  11
11.51351
  21
-1.696655
  31
0
  0
LINE
  5
419
  100
AcDbEntity
  8
1
  100
AcDbLine
  10
11.51351
  20
-1.696655
  30
0
  11
11.46801
  21
-1.670767
  31
0
  0
LINE
  5
41a
  100
AcDbEntity
  8
1
  100
AcDbLine
  10
11.46801
  20
-1.670767
  30
0
  11
11.42251
  21
-1.64469
  31
0
  0
LINE
  5
41b
  100
AcDbEntity
  8
1
  100
AcDbLine
  10
11.42251
  20
-1.64469
  30
0
  11
11.37701
  21
-1.618428
  31
0
  0
LINE
  5
41c
  100
AcDbEntity
  8
1
  100
AcDbLine
  10
11.37701
  20
-1.618428
  30
0
  11
11.33151
  21
-1.591984
  31
0
  0
LINE
  5
41d
  100
AcDbEntity
  8
1
  100
AcDbLine
  10
11.33151
  20
-1.591984
  30
0
  11
11.28601
  21
-1.56536
  31
0
  0
LINE
  5
41e
  100
AcDbEntity
  8
1
  100
AcDbLine
  10
11.28601
  20
-1.56536
  30
0
  11
11.24051
  21
-1.53856
  31
0
  0
LINE
  5
41f
  100
AcDbEntity
  8
1
  100
AcDbLine
  10
11.24051
  20
-1.53856
  30
0
  11
11.19501
  21
-1.511585
  31
0
  0
LINE
  5
420
  100
AcDbEntity
  8
1
  100
AcDbLine
  10
11.19501
  20
-1.511585
  30
0
  11
11.14951
  21
-1.484441
  31
0
  0
LINE
  5
421
  100
AcDbEntity
  8
1
  100
AcDbLine
  10
11.14951
  20
-1.484441
  30
0
  11
11.10401
  21
-1.457129
  31
0
  0
LINE
  5
422
  100
AcDbEntity
  8
1
  100
AcDbLine
  10
11.10401
  20
-1.457129
  30
0
  11
11.05851
  21
-1.429653
  31
0
  0
LINE
  5
423
  100
AcDbEntity
  8
1
  100
AcDbLine
  10
11.05851
  20
-1.429653
  30
0
  11
11.01301
  21
-1.402015
  31
0
  0
LINE
  5
424
  100
AcDbEntity
  8
1
  100
AcDbLine
  10
11.01301
  20
-1.402015
  30
0
  11
10.96751
  21
-1.37422
  31
0
  0
LINE
  5
425
  100
AcDbEntity
  8
1
  100
AcDbLine
  10
10.96751
  20
-1.37422
  30
0
  11
10.92201
  21
-1.346269
  31
0
  0
LINE
  5
426
  100
AcDbEntity
  8
1
  100
AcDbLine
  10
10.92201
  20
-1.346269
  30
0
  11
10.87651
  21
-1.318167
  31
0
  0
LINE
  5
427
  100
AcDbEntity
  8
1
  100
AcDbLine
  10
10.87651
  20
-1.318167
  30
0
  11
10.83101
  21
-1.289916
  31
0
  0
LINE
  5
428
  100
AcDbEntity
  8
1
  100
AcDbLine
  10
10.83101
  20
-1.289916
  30
0
  11
10.78551
  21
-1.261519
  31
0
  0
LINE
  5
429
  100
AcDbEntity
  8
1
  100
AcDbLine
  10
10.78551
  20
-1.261519
  30
0
  11
10.74001
  21
-1.23298
  31
0
  0
LINE
  5
42a
  100
AcDbEntity
  8
1
  100
AcDbLine
  10
10.74001
  20
-1.23298
  30
0
  11
10.69451
  21
-1.204302
  31
0
  0
LINE
  5
42b
  100
AcDbEntity
  8
1
  100
AcDbLine
  10
10.69451
  20
-1.204302
  30
0
  11
10.64901
  21
-1.175489
  31
0
  0
LINE
  5
42c
  100
AcDbEntity
  8
1
  100
AcDbLine
  10
10.64901
  20
-1.175489
  30
0
  11
10.60351
  21
-1.146542
  31
0
  0
LINE
  5
42d
  100
AcDbEntity
  8
1
  100
AcDbLine
  10
10.60351
  20
-1.146542
  30
0
  11
10.55801
  21
-1.117467
  31
0
  0
LINE
  5
42e
  100
AcDbEntity
  8
1
  100
AcDbLine
  10
10.55801
  20
-1.117467
  30
0
  11
10.51251
  21
-1.088265
  31
0
  0
LINE
  5
42f
  100
AcDbEntity
  8
1
  100
AcDbLine
  10
10.51251
  20
-1.088265
  30
0
  11
10.46701
  21
-1.058941
  31
0
  0
LINE
  5
430
  100
AcDbEntity
  8
1
  100
AcDbLine
  10
10.46701
  20
-1.058941
  30
0
  11
10.42151
  21
-1.029497
  31
0
  0
LINE
  5
431
  100
AcDbEntity
  8
1
  100
AcDbLine
  10
10.42151
  20
-1.029497
  30
0
  11
10.37601
  21
-0.999937
  31
0
  0
LINE
  5
432
  100
AcDbEntity
  8
1
  100
AcDbLine
  10
10.37601
  20
-0.999937
  30
0
  11
10.33051
  21
-0.970264
  31
0
  0
LINE
  5
433
  100
AcDbEntity
  8
1
  100
AcDbLine
  10
10.33051
  20
-0.970264
  30
0
  11
10.28501
  21
-0.940482
  31
0
  0
LINE
  5
434
  100
AcDbEntity
  8
1
  100
AcDbLine
  10
10.28501
  20
-0.940482
  30
0
  11
10.23951
  21
-0.910594
  31
0
  0
LINE
  5
435
  100
AcDbEntity
  8
1
  100
AcDbLine
  10
10.23951
  20
-0.910594
  30
0
  11
10.19401
  21
-0.880603
  31
0
  0
LINE
  5
436
  100
AcDbEntity
  8
1
  100
AcDbLine
  10
10.19401
  20
-0.880603
  30
0
  11
10.14851
  21
-0.850513
  31
0
  0
LINE
  5
437
  100
AcDbEntity
  8
1
  100
AcDbLine
  10
10.14851
  20
-0.850513
  30
0
  11
10.10301
  21
-0.820327
  31
0
  0
LINE
  5
438
  100
AcDbEntity
  8
1
  100
AcDbLine
  10
10.10301
  20
-0.820327
  30
0
  11
10.05751
  21
-0.790048
  31
0
  0
LINE
  5
439
  100
AcDbEntity
  8
1
  100
AcDbLine
  10
10.05751
  20
-0.790048
  30
0
  11
10.01201
  21
-0.759681
  31
0
  0
LINE
  5
43a
  100
AcDbEntity
  8
1
  100
AcDbLine
  10
10.01201
  20
-0.759681
  30
0
  11
9.96651
  21
-0.729227
  31
0
  0
LINE
  5
43b
  100
AcDbEntity
  8
1
  100
AcDbLine
  10
9.96651
  20
-0.729227
  30
0
  11
9.92101
  21
-0.698692
  31
0
  0
LINE
  5
43c
  100
AcDbEntity
  8
1
  100
AcDbLine
  10
9.92101
  20
-0.698692
  30
0
  11
9.87551
  21
-0.668077
  31
0
  0
LINE
  5
43d
  100
AcDbEntity
  8
1
  100
AcDbLine
  10
9.87551
  20
-0.668077
  30
0
  11
9.83001
  21
-0.637388
  31
0
  0
LINE
  5
43e
  100
AcDbEntity
  8
1
  100
AcDbLine
  10
9.83001
  20
-0.637388
  30
0
  11
9.78451
  21
-0.606626
  31
0
  0
LINE
  5
43f
  100
AcDbEntity
  8
1
  100
AcDbLine
  10
9.78451
  20
-0.606626
  30
0
  11
9.73901
  21
-0.575796
  31
0
  0
LINE
  5
440
  100
AcDbEntity
  8
1
  100
AcDbLine
  10
9.73901
  20
-0.575796
  30
0
  11
9.69351
  21
-0.544901
  31
0
  0
LINE
  5
441
  100
AcDbEntity
  8
1
  100
AcDbLine
  10
9.69351
  20
-0.544901
  30
0
  11
9.64801
  21
-0.513944
  31
0
  0
LINE
  5
442
  100
AcDbEntity
  8
1
  100
AcDbLine
  10
9.64801
  20
-0.513944
  30
0
  11
9.60251
  21
-0.48293
  31
0
  0
LINE
  5
443
  100
AcDbEntity
  8
1
  100
AcDbLine
  10
9.60251
  20
-0.48293
  30
0
  11
9.55701
  21
-0.451861
  31
0
  0
LINE
  5
444
  100
AcDbEntity
  8
1
  100
AcDbLine
  10
9.55701
  20
-0.451861
  30
0
  11
9.51151
  21
-0.420741
  31
0
  0
LINE
  5
445
  100
AcDbEntity
  8
1
  100
AcDbLine
  10
9.51151
  20
-0.420741
  30
0
  11
9.46601
  21
-0.389574
  31
0
  0
LINE
  5
446
  100
AcDbEntity
  8
1
  100
AcDbLine
  10
9.46601
  20
-0.389574
  30
0
  11
9.42051
  21
-0.358363
  31
0
  0
LINE
  5
447
  100
AcDbEntity
  8
1
  100
AcDbLine
  10
9.42051
  20
-0.358363
  30
0
  11
9.37501
  21
-0.327111
  31
0
  0
LINE
  5
448
  100
AcDbEntity
  8
1
  100
AcDbLine
  10
9.37501
  20
-0.327111
  30
0
  11
9.32951
  21
-0.295823
  31
0
  0
LINE
  5
449
  100
AcDbEntity
  8
1
  100
AcDbLine
  10
9.32951
  20
-0.295823
  30
0
  11
9.28401
  21
-0.264501
  31
0
  0
LINE
  5
44a
  100
AcDbEntity
  8
1
  100
AcDbLine
  10
9.28401
  20
-0.264501
  30
0
  11
9.23851
  21
-0.233149
  31
0
  0
LINE
  5
44b
  100
AcDbEntity
  8
1
  100
AcDbLine
  10
9.23851
  20
-0.233149
  30
0
  11
9.19301
  21
-0.201771
  31
0
  0
LINE
  5
44c
  100
AcDbEntity
  8
1
  100
AcDbLine
  10
9.19301
  20
-0.201771
  30
0
  11
9.14751
  21
-0.17037
  31
0
  0
LINE
  5
44d
  100
AcDbEntity
  8
1
  100
AcDbLine
  10
9.14751
  20
-0.17037
  30
0
  11
9.10201
  21
-0.13895
  31
0
  0
LINE
  5
44e
  100
AcDbEntity
  8
1
  100
AcDbLine
  10
9.10201
  20
-0.13895
  30
0
  11
9.05651
  21
-0.107514
  31
0
  0
LINE
  5
44f
  100
AcDbEntity
  8
1
  100
AcDbLine
  10
9.05651
  20
-0.107514
  30
0
  11
9.01101
  21
-0.076067
  31
0
  0
LINE
  5
450
  100
AcDbEntity
  8
1
  100
AcDbLine
  10
9.01101
  20
-0.076067
  30
0
  11
8.96551
  21
-0.04461
  31
0
  0
LINE
  5
451
  100
AcDbEntity
  8
1
  100
AcDbLine
  10
8.93301
  20
-2.75
  30
0
  11
8.93301
  21
2.75
  31
0
  0
LINE
  5
452
  100
AcDbEntity
  8
1
  100
AcDbLine
  10
8.96551
  20
2.962337
  30
0
  11
9.01101
  21
2.961697
  31
0
  0
LINE
  5
453
  100
AcDbEntity
  8
1
  100
AcDbLine
  10
9.01101
  20
2.961697
  30
0
  11
9.05651
  21
2.960722
  31
0
  0
LINE
  5
454
  100
AcDbEntity
  8
1
  100
AcDbLine
  10
9.05651
  20
2.960722
  30
0
  11
9.10201
  21
2.959413
  31
0
  0
LINE
  5
455
  100
AcDbEntity
  8
1
  100
AcDbLine
  10
9.10201
  20
2.959413
  30
0
  11
9.14751
  21
2.957771
  31
0
  0
LINE
  5
456
  100
AcDbEntity
  8
1
  100
AcDbLine
  10
9.14751
  20
2.957771
  30
0
  11
9.19301
  21
2.955795
  31
0
  0
LINE
  5
457
  100
AcDbEntity
  8
1
  100
AcDbLine
  10
9.19301
  20
2.955795
  30
0
  11
9.23851
  21
2.953485
  31
0
  0
LINE
  5
458
  100
AcDbEntity
  8
1
  100
AcDbLine
  10
9.23851
  20
2.953485
  30
0
  11
9.28401
  21
2.950843
  31
0
  0
LINE
  5
459
  100
AcDbEntity
  8
1
  100
AcDbLine
  10
9.28401
  20
2.950843
  30
0
  11
9.32951
  21
2.947867
  31
0
  0
LINE
  5
45a
  100
AcDbEntity
  8
1
  100
AcDbLine
  10
9.32951
  20
2.947867
  30
0
  11
9.37501
  21
2.94456
  31
0
  0
LINE
  5
45b
  100
AcDbEntity
  8
1
  100
AcDbLine
  10
9.37501
  20
2.94456
  30
0
  11
9.42051
  21
2.94092
  31
0
  0
LINE
  5
45c
  100
AcDbEntity
  8
1
  100
AcDbLine
  10
9.42051
  20
2.94092
  30
0
  11
9.46601
  21
2.936948
  31
0
  0
LINE
  5
45d
  100
AcDbEntity
  8
1
  100
AcDbLine
  10
9.46601
  20
2.936948
  30
0
  11
9.51151
  21
2.932646
  31
0
  0
LINE
  5
45e
  100
AcDbEntity
  8
1
  100
AcDbLine
  10
9.51151
  20
2.932646
  30
0
  11
9.55701
  21
2.928012
  31
0
  0
LINE
  5
45f
  100
AcDbEntity
  8
1
  100
AcDbLine
  10
9.55701
  20
2.928012
  30
0
  11
9.60251
  21
2.923048
  31
0
  0
LINE
  5
460
  100
AcDbEntity
  8
1
  100
AcDbLine
  10
9.60251
  20
2.923048
  30
0
  11
9.64801
  21
2.917755
  31
0
  0
LINE
  5
461
  100
AcDbEntity
  8
1
  100
AcDbLine
  10
9.64801
  20
2.917755
  30
0
  11
9.69351
  21
2.912133
  31
0
  0
LINE
  5
462
  100
AcDbEntity
  8
1
  100
AcDbLine
  10
9.69351
  20
2.912133
  30
0
  11
9.73901
  21
2.906182
  31
0
  0
LINE
  5
463
  100
AcDbEntity
  8
1
  100
AcDbLine
  10
9.73901
  20
2.906182
  30
0
  11
9.78451
  21
2.899903
  31
0
  0
LINE
  5
464
  100
AcDbEntity
  8
1
  100
AcDbLine
  10
9.78451
  20
2.899903
  30
0
  11
9.83001
  21
2.893298
  31
0
  0
LINE
  5
465
  100
AcDbEntity
  8
1
  100
AcDbLine
  10
9.83001
  20
2.893298
  30
0
  11
9.87551
  21
2.886366
  31
0
  0
LINE
  5
466
  100
AcDbEntity
  8
1
  100
AcDbLine
  10
9.87551
  20
2.886366
  30
0
  11
9.92101
  21
2.879108
  31
0
  0
LINE
  5
467
  100
AcDbEntity
  8
1
  100
AcDbLine
  10
9.92101
  20
2.879108
  30
0
  11
9.96651
  21
2.871526
  31
0
  0
LINE
  5
468
  100
AcDbEntity
  8
1
  100
AcDbLine
  10
9.96651
  20
2.871526
  30
0
  11
10.01201
  21
2.86362
  31
0
  0
LINE
  5
469
  100
AcDbEntity
  8
1
  100
AcDbLine
  10
10.01201
  20
2.86362
  30
0
  11
10.05751
  21
2.855391
  31
0
  0
LINE
  5
46a
  100
AcDbEntity
  8
1
  100
AcDbLine
  10
10.05751
  20
2.855391
  30
0
  11
10.10301
  21
2.84684
  31
0
  0
LINE
  5
46b
  100
AcDbEntity
  8
1
  100
AcDbLine
  10
10.10301
  20
2.84684
  30
0
  11
10.14851
  21
2.837968
  31
0
  0
LINE
  5
46c
  100
AcDbEntity
  8
1
  100
AcDbLine
  10
10.14851
  20
2.837968
  30
0
  11
10.19401
  21
2.828776
  31
0
  0
LINE
  5
46d
  100
AcDbEntity
  8
1
  100
AcDbLine
  10
10.19401
  20
2.828776
  30
0
  11
10.23951
  21
2.819264
  31
0
  0
LINE
  5
46e
  100
AcDbEntity
  8
1
  100
AcDbLine
  10
10.23951
  20
2.819264
  30
0
  11
10.28501
  21
2.809435
  31
0
  0
LINE
  5
46f
  100
AcDbEntity
  8
1
  100
AcDbLine
  10
10.28501
  20
2.809435
  30
0
  11
10.33051
  21
2.799289
  31
0
  0
LINE
  5
470
  100
AcDbEntity
  8
1
  100
AcDbLine
  10
10.33051
  20
2.799289
  30
0
  11
10.37601
  21
2.788828
  31
0
  0
LINE
  5
471
  100
AcDbEntity
  8
1
  100
AcDbLine
  10
10.37601
  20
2.788828
  30
0
  11
10.42151
  21
2.778051
  31
0
  0
LINE
  5
472
  100
AcDbEntity
  8
1
  100
AcDbLine
  10
10.42151
  20
2.778051
  30
0
  11
10.46701
  21
2.766962
  31
0
  0
LINE
  5
473
  100
AcDbEntity
  8
1
  100
AcDbLine
  10
10.46701
  20
2.766962
  30
0
  11
10.51251
  21
2.75556
  31
0
  0
LINE
  5
474
  100
AcDbEntity
  8
1
  100
AcDbLine
  10
10.51251
  20
2.75556
  30
0
  11
10.55801
  21
2.743848
  31
0
  0
LINE
  5
475
  100
AcDbEntity
  8
1
  100
AcDbLine
  10
10.55801
  20
2.743848
  30
0
  11
10.60351
  21
2.731826
  31
0
  0
LINE
  5
476
  100
AcDbEntity
  8
1
  100
AcDbLine
  10
10.60351
  20
2.731826
  30
0
  11
10.64901
  21
2.719496
  31
0
  0
LINE
  5
477
  100
AcDbEntity
  8
1
  100
AcDbLine
  10
10.64901
  20
2.719496
  30
0
  11
10.69451
  21
2.70686
  31
0
  0
LINE
  5
478
  100
AcDbEntity
  8
1
  100
AcDbLine
  10
10.69451
  20
2.70686
  30
0
  11
10.74001
  21
2.693918
  31
0
  0
LINE
  5
479
  100
AcDbEntity
  8
1
  100
AcDbLine
  10
10.74001
  20
2.693918
  30
0
  11
10.78551
  21
2.680672
  31
0
  0
LINE
  5
47a
  100
AcDbEntity
  8
1
  100
AcDbLine
  10
10.78551
  20
2.680672
  30
0
  11
10.83101
  21
2.667124
  31
0
  0
LINE
  5
47b
  100
AcDbEntity
  8
1
  100
AcDbLine
  10
10.83101
  20
2.667124
  30
0
  11
10.87651
  21
2.653275
  31
0
  0
LINE
  5
47c
  100
AcDbEntity
  8
1
  100
AcDbLine
  10
10.87651
  20
2.653275
  30
0
  11
10.92201
  21
2.639127
  31
0
  0
LINE
  5
47d
  100
AcDbEntity
  8
1
  100
AcDbLine
  10
10.92201
  20
2.639127
  30
0
  11
10.96751
  21
2.624682
  31
0
  0
LINE
  5
47e
  100
AcDbEntity
  8
1
  100
AcDbLine
  10
10.96751
  20
2.624682
  30
0
  11
11.01301
  21
2.60994
  31
0
  0
LINE
  5
47f
  100
AcDbEntity
  8
1
  100
AcDbLine
  10
11.01301
  20
2.60994
  30
0
  11
11.05851
  21
2.594904
  31
0
  0
LINE
  5
480
  100
AcDbEntity
  8
1
  100
AcDbLine
  10
11.05851
  20
2.594904
  30
0
  11
11.10401
  21
2.579575
  31
0
  0
LINE
  5
481
  100
AcDbEntity
  8
1
  100
AcDbLine
  10
11.10401
  20
2.579575
  30
0
  11
11.14951
  21
2.563956
  31
0
  0
LINE
  5
482
  100
AcDbEntity
  8
1
  100
AcDbLine
  10
11.14951
  20
2.563956
  30
0
  11
11.19501
  21
2.548047
  31
0
  0
LINE
  5
483
  100
AcDbEntity
  8
1
  100
AcDbLine
  10
11.19501
  20
2.548047
  30
0
  11
11.24051
  21
2.531851
  31
0
  0
LINE
  5
484
  100
AcDbEntity
  8
1
  100
AcDbLine
  10
11.24051
  20
2.531851
  30
0
  11
11.28601
  21
2.515369
  31
0
  0
LINE
  5
485
  100
AcDbEntity
  8
1
  100
AcDbLine
  10
11.28601
  20
2.515369
  30
0
  11
11.33151
  21
2.498604
  31
0
  0
LINE
  5
486
  100
AcDbEntity
  8
1
  100
AcDbLine
  10
11.33151
  20
2.498604
  30
0
  11
11.37701
  21
2.481556
  31
0
  0
LINE
  5
487
  100
AcDbEntity
  8
1
  100
AcDbLine
  10
11.37701
  20
2.481556
  30
0
  11
11.42251
  21
2.464229
  31
0
  0
LINE
  5
488
  100
AcDbEntity
  8
1
  100
AcDbLine
  10
11.42251
  20
2.464229
  30
0
  11
11.46801
  21
2.446625
  31
0
  0
LINE
  5
489
  100
AcDbEntity
  8
1
  100
AcDbLine
  10
11.46801
  20
2.446625
  30
0
  11
11.51351
  21
2.428744
  31
0
  0
LINE
  5
48a
  100
AcDbEntity
  8
1
  100
AcDbLine
  10
11.51351
  20
2.428744
  30
0
  11
11.55901
  21
2.410589
  31
0
  0
LINE
  5
48b
  100
AcDbEntity
  8
1
  100
AcDbLine
  10
11.55901
  20
2.410589
  30
0
  11
11.60451
  21
2.392162
  31
0
  0
LINE
  5
48c
  100
AcDbEntity
  8
1
  100
AcDbLine
  10
11.60451
  20
2.392162
  30
0
  11
11.65001
  21
2.373466
  31
0
  0
LINE
  5
48d
  100
AcDbEntity
  8
1
  100
AcDbLine
  10
11.65001
  20
2.373466
  30
0
  11
11.69551
  21
2.354502
  31
0
  0
LINE
  5
48e
  100
AcDbEntity
  8
1
  100
AcDbLine
  10
11.69551
  20
2.354502
  30
0
  11
11.74101
  21
2.335272
  31
0
  0
LINE
  5
48f
  100
AcDbEntity
  8
1
  100
AcDbLine
  10
11.74101
  20
2.335272
  30
0
  11
11.78651
  21
2.315779
  31
0
  0
LINE
  5
490
  100
AcDbEntity
  8
1
  100
AcDbLine
  10
11.78651
  20
2.315779
  30
0
  11
11.83201
  21
2.296025
  31
0
  0
LINE
  5
491
  100
AcDbEntity
  8
1
  100
AcDbLine
  10
11.83201
  20
2.296025
  30
0
  11
11.87751
  21
2.276012
  31
0
  0
LINE
  5
492
  100
AcDbEntity
  8
1
  100
AcDbLine
  10
11.87751
  20
2.276012
  30
0
  11
11.92301
  21
2.255742
  31
0
  0
LINE
  5
493
  100
AcDbEntity
  8
1
  100
AcDbLine
  10
11.92301
  20
2.255742
  30
0
  11
11.96851
  21
2.235218
  31
0
  0
LINE
  5
494
  100
AcDbEntity
  8
1
  100
AcDbLine
  10
11.96851
  20
2.235218
  30
0
  11
12.01401
  21
2.214441
  31
0
  0
LINE
  5
495
  100
AcDbEntity
  8
1
  100
AcDbLine
  10
12.01401
  20
2.214441
  30
0
  11
12.05951
  21
2.193415
  31
0
  0
LINE
  5
496
  100
AcDbEntity
  8
1
  100
AcDbLine
  10
12.05951
  20
2.193415
  30
0
  11
12.10501
  21
2.172142
  31
0
  0
LINE
  5
497
  100
AcDbEntity
  8
1
  100
AcDbLine
  10
12.10501
  20
2.172142
  30
0
  11
12.15051
  21
2.150624
  31
0
  0
LINE
  5
498
  100
AcDbEntity
  8
1
  100
AcDbLine
  10
12.15051
  20
2.150624
  30
0
  11
12.19601
  21
2.128863
  31
0
  0
LINE
  5
499
  100
AcDbEntity
  8
1
  100
AcDbLine
  10
12.19601
  20
2.128863
  30
0
  11
12.24151
  21
2.106862
  31
0
  0
LINE
  5
49a
  100
AcDbEntity
  8
1
  100
AcDbLine
  10
12.24151
  20
2.106862
  30
0
  11
12.28701
  21
2.084623
  31
0
  0
LINE
  5
49b
  100
AcDbEntity
  8
1
  100
AcDbLine
  10
12.28701
  20
2.084623
  30
0
  11
12.33251
  21
2.062149
  31
0
  0
LINE
  5
49c
  100
AcDbEntity
  8
1
  100
AcDbLine
  10
12.33251
  20
2.062149
  30
0
  11
12.37801
  21
2.039443
  31
0
  0
LINE
  5
49d
  100
AcDbEntity
  8
1
  100
AcDbLine
  10
12.37801
  20
2.039443
  30
0
  11
12.42351
  21
2.016507
  31
0
  0
LINE
  5
49e
  100
AcDbEntity
  8
1
  100
AcDbLine
  10
12.42351
  20
2.016507
  30
0
  11
12.46901
  21
1.993343
  31
0
  0
LINE
  5
49f
  100
AcDbEntity
  8
1
  100
AcDbLine
  10
12.46901
  20
1.993343
  30
0
  11
12.51451
  21
1.969954
  31
0
  0
LINE
  5
4a0
  100
AcDbEntity
  8
1
  100
AcDbLine
  10
12.51451
  20
1.969954
  30
0
  11
12.56001
  21
1.946344
  31
0
  0
LINE
  5
4a1
  100
AcDbEntity
  8
1
  100
AcDbLine
  10
12.56001
  20
1.946344
  30
0
  11
12.60551
  21
1.922513
  31
0
  0
LINE
  5
4a2
  100
AcDbEntity
  8
1
  100
AcDbLine
  10
12.60551
  20
1.922513
  30
0
  11
12.65101
  21
1.898466
  31
0
  0
LINE
  5
4a3
  100
AcDbEntity
  8
1
  100
AcDbLine
  10
12.65101
  20
1.898466
  30
0
  11
12.69651
  21
1.874205
  31
0
  0
LINE
  5
4a4
  100
AcDbEntity
  8
1
  100
AcDbLine
  10
12.69651
  20
1.874205
  30
0
  11
12.74201
  21
1.849733
  31
0
  0
LINE
  5
4a5
  100
AcDbEntity
  8
1
  100
AcDbLine
  10
12.74201
  20
1.849733
  30
0
  11
12.78751
  21
1.825051
  31
0
  0
LINE
  5
4a6
  100
AcDbEntity
  8
1
  100
AcDbLine
  10
12.78751
  20
1.825051
  30
0
  11
12.83301
  21
1.800164
  31
0
  0
LINE
  5
4a7
  100
AcDbEntity
  8
1
  100
AcDbLine
  10
12.83301
  20
1.800164
  30
0
  11
12.87851
  21
1.775074
  31
0
  0
LINE
  5
4a8
  100
AcDbEntity
  8
1
  100
AcDbLine
  10
12.87851
  20
1.775074
  30
0
  11
12.92401
  21
1.749784
  31
0
  0
LINE
  5
4a9
  100
AcDbEntity
  8
1
  100
AcDbLine
  10
12.92401
  20
1.749784
  30
0
  11
12.96951
  21
1.724297
  31
0
  0
LINE
  5
4aa
  100
AcDbEntity
  8
1
  100
AcDbLine
  10
12.96951
  20
1.724297
  30
0
  11
13.01501
  21
1.698615
  31
0
  0
LINE
  5
4ab
  100
AcDbEntity
  8
1
  100
AcDbLine
  10
13.01501
  20
1.698615
  30
0
  11
13.06051
  21
1.672741
  31
0
  0
LINE
  5
4ac
  100
AcDbEntity
  8
1
  100
AcDbLine
  10
13.06051
  20
1.672741
  30
0
  11
13.10601
  21
1.646679
  31
0
  0
LINE
  5
4ad
  100
AcDbEntity
  8
1
  100
AcDbLine
  10
13.10601
  20
1.646679
  30
0
  11
13.15151
  21
1.620431
  31
0
  0
LINE
  5
4ae
  100
AcDbEntity
  8
1
  100
AcDbLine
  10
13.15151
  20
1.620431
  30
0
  11
13.19701
  21
1.594
  31
0
  0
LINE
  5
4af
  100
AcDbEntity
  8
1
  100
AcDbLine
  10
13.19701
  20
1.594
  30
0
  11
13.24251
  21
1.56739
  31
0
  0
LINE
  5
4b0
  100
AcDbEntity
  8
1
  100
AcDbLine
  10
13.24251
  20
1.56739
  30
0
  11
13.28801
  21
1.540603
  31
0
  0
LINE
  5
4b1
  100
AcDbEntity
  8
1
  100
AcDbLine
  10
13.28801
  20
1.540603
  30
0
  11
13.33351
  21
1.513642
  31
0
  0
LINE
  5
4b2
  100
AcDbEntity
  8
1
  100
AcDbLine
  10
13.33351
  20
1.513642
  30
0
  11
13.37901
  21
1.48651
  31
0
  0
LINE
  5
4b3
  100
AcDbEntity
  8
1
  100
AcDbLine
  10
13.37901
  20
1.48651
  30
0
  11
13.42451
  21
1.459211
  31
0
  0
LINE
  5
4b4
  100
AcDbEntity
  8
1
  100
AcDbLine
  10
13.42451
  20
1.459211
  30
0
  11
13.47001
  21
1.431747
  31
0
  0
LINE
  5
4b5
  100
AcDbEntity
  8
1
  100
AcDbLine
  10
13.47001
  20
1.431747
  30
0
  11
13.51551
  21
1.404122
  31
0
  0
LINE
  5
4b6
  100
AcDbEntity
  8
1
  100
AcDbLine
  10
13.51551
  20
1.404122
  30
0
  11
13.56101
  21
1.376338
  31
0
  0
LINE
  5
4b7
  100
AcDbEntity
  8
1
  100
AcDbLine
  10
13.56101
  20
1.376338
  30
0
  11
13.60651
  21
1.348399
  31
0
  0
LINE
  5
4b8
  100
AcDbEntity
  8
1
  100
AcDbLine
  10
13.60651
  20
1.348399
  30
0
  11
13.65201
  21
1.320308
  31
0
  0
LINE
  5
4b9
  100
AcDbEntity
  8
1
  100
AcDbLine
  10
13.65201
  20
1.320308
  30
0
  11
13.69751
  21
1.292068
  31
0
  0
LINE
  5
4ba
  100
AcDbEntity
  8
1
  100
AcDbLine
  10
13.69751
  20
1.292068
  30
0
  11
13.74301
  21
1.263682
  31
0
  0
LINE
  5
4bb
  100
AcDbEntity
  8
1
  100
AcDbLine
  10
13.74301
  20
1.263682
  30
0
  11
13.78851
  21
1.235154
  31
0
  0
LINE
  5
4bc
  100
AcDbEntity
  8
1
  100
AcDbLine
  10
13.78851
  20
1.235154
  30
0
  11
13.83401
  21
1.206487
  31
0
  0
LINE
  5
4bd
  100
AcDbEntity
  8
1
  100
AcDbLine
  10
13.83401
  20
1.206487
  30
0
  11
13.87951
  21
1.177683
  31
0
  0
LINE
  5
4be
  100
AcDbEntity
  8
1
  100
AcDbLine
  10
13.87951
  20
1.177683
  30
0
  11
13.92501
  21
1.148747
  31
0
  0
LINE
  5
4bf
  100
AcDbEntity
  8
1
  100
AcDbLine
  10
13.92501
  20
1.148747
  30
0
  11
13.97051
  21
1.119681
  31
0
  0
LINE
  5
4c0
  100
AcDbEntity
  8
1
  100
AcDbLine
  10
13.97051
  20
1.119681
  30
0
  11
14.01601
  21
1.090489
  31
0
  0
LINE
  5
4c1
  100
AcDbEntity
  8
1
  100
AcDbLine
  10
14.01601
  20
1.090489
  30
0
  11
14.06151
  21
1.061174
  31
0
  0
LINE
  5
4c2
  100
AcDbEntity
  8
1
  100
AcDbLine
  10
14.06151
  20
1.061174
  30
0
  11
14.10701
  21
1.031739
  31
0
  0
LINE
  5
4c3
  100
AcDbEntity
  8
1
  100
AcDbLine
  10
14.10701
  20
1.031739
  30
0
  11
14.15251
  21
1.002188
  31
0
  0
LINE
  5
4c4
  100
AcDbEntity
  8
1
  100
AcDbLine
  10
14.15251
  20
1.002188
  30
0
  11
14.19801
  21
0.972524
  31
0
  0
LINE
  5
4c5
  100
AcDbEntity
  8
1
  100
AcDbLine
  10
14.19801
  20
0.972524
  30
0
  11
14.24351
  21
0.94275
  31
0
  0
LINE
  5
4c6
  100
AcDbEntity
  8
1
  100
AcDbLine
  10
14.24351
  20
0.94275
  30
0
  11
14.28901
  21
0.91287
  31
0
  0
LINE
  5
4c7
  100
AcDbEntity
  8
1
  100
AcDbLine
  10
14.28901
  20
0.91287
  30
0
  11
14.33451
  21
0.882886
  31
0
  0
LINE
  5
4c8
  100
AcDbEntity
  8
1
  100
AcDbLine
  10
14.33451
  20
0.882886
  30
0
  11
14.38001
  21
0.852804
  31
0
  0
LINE
  5
4c9
  100
AcDbEntity
  8
1
  100
AcDbLine
  10
14.38001
  20
0.852804
  30
0
  11
14.42551
  21
0.822625
  31
0
  0
LINE
  5
4ca
  100
AcDbEntity
  8
1
  100
AcDbLine
  10
14.42551
  20
0.822625
  30
0
  11
14.47101
  21
0.792353
  31
0
  0
LINE
  5
4cb
  100
AcDbEntity
  8
1
  100
AcDbLine
  10
14.47101
  20
0.792353
  30
0
  11
14.51651
  21
0.761992
  31
0
  0
LINE
  5
4cc
  100
AcDbEntity
  8
1
  100
AcDbLine
  10
14.51651
  20
0.761992
  30
0
  11
14.56201
  21
0.731545
  31
0
  0
LINE
  5
4cd
  100
AcDbEntity
  8
1
  100
AcDbLine
  10
14.56201
  20
0.731545
  30
0
  11
14.60751
  21
0.701016
  31
0
  0
LINE
  5
4ce
  100
AcDbEntity
  8
1
  100
AcDbLine
  10
14.60751
  20
0.701016
  30
0
  11
14.65301
  21
0.670407
  31
0
  0
LINE
  5
4cf
  100
AcDbEntity
  8
1
  100
AcDbLine
  10
14.65301
  20
0.670407
  30
0
  11
14.69851
  21
0.639723
  31
0
  0
LINE
  5
4d0
  100
AcDbEntity
  8
1
  100
AcDbLine
  10
14.69851
  20
0.639723
  30
0
  11
14.74401
  21
0.608967
  31
0
  0
LINE
  5
4d1
  100
AcDbEntity
  8
1
  100
AcDbLine
  10
14.74401
  20
0.608967
  30
0
  11
14.78951
  21
0.578142
  31
0
  0
LINE
  5
4d2
  100
AcDbEntity
  8
1
  100
AcDbLine
  10
14.78951
  20
0.578142
  30
0
  11
14.83501
  21
0.547251
  31
0
  0
LINE
  5
4d3
  100
AcDbEntity
  8
1
  100
AcDbLine
  10
14.83501
  20
0.547251
  30
0
  11
14.88051
  21
0.516299
  31
0
  0
LINE
  5
4d4
  100
AcDbEntity
  8
1
  100
AcDbLine
  10
14.88051
  20
0.516299
  30
0
  11
14.92601
  21
0.485289
  31
0
  0
LINE
  5
4d5
  100
AcDbEntity
  8
1
  100
AcDbLine
  10
14.92601
  20
0.485289
  30
0
  11
14.97151
  21
0.454224
  31
0
  0
LINE
  5
4d6
  100
AcDbEntity
  8
1
  100
AcDbLine
  10
14.97151
  20
0.454224
  30
0
  11
15.01701
  21
0.423108
  31
0
  0
LINE
  5
4d7
  100
AcDbEntity
  8
1
  100
AcDbLine
  10
15.01701
  20
0.423108
  30
0
  11
15.06251
  21
0.391945
  31
0
  0
LINE
  5
4d8
  100
AcDbEntity
  8
1
  100
AcDbLine
  10
15.06251
  20
0.391945
  30
0
  11
15.10801
  21
0.360737
  31
0
  0
LINE
  5
4d9
  100
AcDbEntity
  8
1
  100
AcDbLine
  10
15.10801
  20
0.360737
  30
0
  11
15.15351
  21
0.329488
  31
0
  0
LINE
  5
4da
  100
AcDbEntity
  8
1
  100
AcDbLine
  10
15.15351
  20
0.329488
  30
0
  11
15.19901
  21
0.298202
  31
0
  0
LINE
  5
4db
  100
AcDbEntity
  8
1
  100
AcDbLine
  10
15.19901
  20
0.298202
  30
0
  11
15.24451
  21
0.266883
  31
0
  0
LINE
  5
4dc
  100
AcDbEntity
  8
1
  100
AcDbLine
  10
15.24451
  20
0.266883
  30
0
  11
15.29001
  21
0.235533
  31
0
  0
LINE
  5
4dd
  100
AcDbEntity
  8
1
  100
AcDbLine
  10
15.29001
  20
0.235533
  30
0
  11
15.33551
  21
0.204157
  31
0
  0
LINE
  5
4de
  100
AcDbEntity
  8
1
  100
AcDbLine
  10
15.33551
  20
0.204157
  30
0
  11
15.38101
  21
0.172758
  31
0
  0
LINE
  5
4df
  100
AcDbEntity
  8
1
  100
AcDbLine
  10
15.38101
  20
0.172758
  30
0
  11
15.42651
  21
0.141339
  31
0
  0
LINE
  5
4e0
  100
AcDbEntity
  8
1
  100
AcDbLine
  10
15.42651
  20
0.141339
  30
0
  11
15.47201
  21
0.109904
  31
0
  0
LINE
  5
4e1
  100
AcDbEntity
  8
1
  100
AcDbLine
  10
15.47201
  20
0.109904
  30
0
  11
15.51751
  21
0.078457
  31
0
  0
LINE
  5
4e2
  100
AcDbEntity
  8
1
  100
AcDbLine
  10
15.51751
  20
0.078457
  30
0
  11
15.56301
  21
0.047002
  31
0
  0
LINE
  5
4e3
  100
AcDbEntity
  8
1
  100
AcDbLine
  10
15.56301
  20
0.047002
  30
0
  11
15.60851
  21
0.01554
  31
0
  0
LINE
  5
4e4
  100
AcDbEntity
  8
1
  100
AcDbLine
  10
15.60851
  20
0.01554
  30
0
  11
15.65401
  21
-0.015922
  31
0
  0
LINE
  5
4e5
  100
AcDbEntity
  8
1
  100
AcDbLine
  10
15.65401
  20
-0.015922
  30
0
  11
15.69951
  21
-0.047384
  31
0
  0
LINE
  5
4e6
  100
AcDbEntity
  8
1
  100
AcDbLine
  10
15.69951
  20
-0.047384
  30
0
  11
15.74501
  21
-0.078839
  31
0
  0
LINE
  5
4e7
  100
AcDbEntity
  8
1
  100
AcDbLine
  10
15.74501
  20
-0.078839
  30
0
  11
15.79051
  21
-0.110286
  31
0
  0
LINE
  5
4e8
  100
AcDbEntity
  8
1
  100
AcDbLine
  10
15.79051
  20
-0.110286
  30
0
  11
15.83601
  21
-0.141721
  31
0
  0
LINE
  5
4e9
  100
AcDbEntity
  8
1
  100
AcDbLine
  10
15.83601
  20
-0.141721
  30
0
  11
15.88151
  21
-0.173139
  31
0
  0
LINE
  5
4ea
  100
AcDbEntity
  8
1
  100
AcDbLine
  10
15.88151
  20
-0.173139
  30
0
  11
15.92701
  21
-0.204538
  31
0
  0
LINE
  5
4eb
  100
AcDbEntity
  8
1
  100
AcDbLine
  10
15.92701
  20
-0.204538
  30
0
  11
15.97251
  21
-0.235914
  31
0
  0
LINE
  5
4ec
  100
AcDbEntity
  8
1
  100
AcDbLine
  10
15.97251
  20
-0.235914
  30
0
  11
16.01801
  21
-0.267263
  31
0
  0
LINE
  5
4ed
  100
AcDbEntity
  8
1
  100
AcDbLine
  10
16.01801
  20
-0.267263
  30
0
  11
16.06351
  21
-0.298582
  31
0
  0
LINE
  5
4ee
  100
AcDbEntity
  8
1
  100
AcDbLine
  10
16.06351
  20
-0.298582
  30
0
  11
16.10901
  21
-0.329868
  31
0
  0
LINE
  5
4ef
  100
AcDbEntity
  8
1
  100
AcDbLine
  10
16.10901
  20
-0.329868
  30
0
  11
16.15451
  21
-0.361116
  31
0
  0
LINE
  5
4f0
  100
AcDbEntity
  8
1
  100
AcDbLine
  10
16.15451
  20
-0.361116
  30
0
  11
16.20001
  21
-0.392323
  31
0
  0
LINE
  5
4f1
  100
AcDbEntity
  8
1
  100
AcDbLine
  10
16.20001
  20
-0.392323
  30
0
  11
16.24551
  21
-0.423487
  31
0
  0
LINE
  5
4f2
  100
AcDbEntity
  8
1
  100
AcDbLine
  10
16.24551
  20
-0.423487
  30
0
  11
16.29101
  21
-0.454602
  31
0
  0
LINE
  5
4f3
  100
AcDbEntity
  8
1
  100
AcDbLine
  10
16.29101
  20
-0.454602
  30
0
  11
16.33651
  21
-0.485666
  31
0
  0
LINE
  5
4f4
  100
AcDbEntity
  8
1
  100
AcDbLine
  10
16.33651
  20
-0.485666
  30
0
  11
16.38201
  21
-0.516676
  31
0
  0
LINE
  5
4f5
  100
AcDbEntity
  8
1
  100
AcDbLine
  10
16.38201
  20
-0.516676
  30
0
  11
16.42751
  21
-0.547627
  31
0
  0
LINE
  5
4f6
  100
AcDbEntity
  8
1
  100
AcDbLine
  10
16.42751
  20
-0.547627
  30
0
  11
16.47301
  21
-0.578516
  31
0
  0
LINE
  5
4f7
  100
AcDbEntity
  8
1
  100
AcDbLine
  10
16.47301
  20
-0.578516
  30
0
  11
16.51851
  21
-0.60934
  31
0
  0
LINE
  5
4f8
  100
AcDbEntity
  8
1
  100
AcDbLine
  10
16.51851
  20
-0.60934
  30
0
  11
16.56401
  21
-0.640096
  31
0
  0
LINE
  5
4f9
  100
AcDbEntity
  8
1
  100
AcDbLine
  10
16.56401
  20
-0.640096
  30
0
  11
16.60951
  21
-0.670779
  31
0
  0
LINE
  5
4fa
  100
AcDbEntity
  8
1
  100
AcDbLine
  10
16.60951
  20
-0.670779
  30
0
  11
16.65501
  21
-0.701387
  31
0
  0
LINE
  5
4fb
  100
AcDbEntity
  8
1
  100
AcDbLine
  10
16.65501
  20
-0.701387
  30
0
  11
16.70051
  21
-0.731915
  31
0
  0
LINE
  5
4fc
  100
AcDbEntity
  8
1
  100
AcDbLine
  10
16.70051
  20
-0.731915
  30
0
  11
16.74601
  21
-0.762361
  31
0
  0
LINE
  5
4fd
  100
AcDbEntity
  8
1
  100
AcDbLine
  10
16.74601
  20
-0.762361
  30
0
  11
16.79151
  21
-0.792721
  31
0
  0
LINE
  5
4fe
  100
AcDbEntity
  8
1
  100
AcDbLine
  10
16.79151
  20
-0.792721
  30
0
  11
16.83701
  21
-0.822992
  31
0
  0
LINE
  5
4ff
  100
AcDbEntity
  8
1
  100
AcDbLine
  10
16.83701
  20
-0.822992
  30
0
  11
16.88251
  21
-0.85317
  31
0
  0
LINE
  5
500
  100
AcDbEntity
  8
1
  100
AcDbLine
  10
16.88251
  20
-0.85317
  30
0
  11
16.92801
  21
-0.883251
  31
0
  0
LINE
  5
501
  100
AcDbEntity
  8
1
  100
AcDbLine
  10
16.92801
  20
-0.883251
  30
0
  11
16.97351
  21
-0.913233
  31
0
  0
LINE
  5
502
  100
AcDbEntity
  8
1
  100
AcDbLine
  10
16.97351
  20
-0.913233
  30
0
  11
17.01901
  21
-0.943112
  31
0
  0
LINE
  5
503
  100
AcDbEntity
  8
1
  100
AcDbLine
  10
17.01901
  20
-0.943112
  30
0
  11
17.06451
  21
-0.972885
  31
0
  0
LINE
  5
504
  100
AcDbEntity
  8
1
  100
AcDbLine
  10
17.06451
  20
-0.972885
  30
0
  11
17.11001
  21
-1.002547
  31
0
  0
LINE
  5
505
  100
AcDbEntity
  8
1
  100
AcDbLine
  10
17.11001
  20
-1.002547
  30
0
  11
17.15551
  21
-1.032097
  31
0
  0
LINE
  5
506
  100
AcDbEntity
  8
1
  100
AcDbLine
  10
17.15551
  20
-1.032097
  30
0
  11
17.20101
  21
-1.061531
  31
0
  0
LINE
  5
507
  100
AcDbEntity
  8
1
  100
AcDbLine
  10
17.20101
  20
-1.061531
  30
0
  11
17.24651
  21
-1.090844
  31
0
  0
LINE
  5
508
  100
AcDbEntity
  8
1
  100
AcDbLine
  10
17.24651
  20
-1.090844
  30
0
  11
17.29201
  21
-1.120035
  31
0
  0
LINE
  5
509
  100
AcDbEntity
  8
1
  100
AcDbLine
  10
17.29201
  20
-1.120035
  30
0
  11
17.33751
  21
-1.149099
  31
0
  0
LINE
  5
50a
  100
AcDbEntity
  8
1
  100
AcDbLine
  10
17.33751
  20
-1.149099
  30
0
  11
17.38301
  21
-1.178034
  31
0
  0
LINE
  5
50b
  100
AcDbEntity
  8
1
  100
AcDbLine
  10
17.38301
  20
-1.178034
  30
0
  11
17.42851
  21
-1.206836
  31
0
  0
LINE
  5
50c
  100
AcDbEntity
  8
1
  100
AcDbLine
  10
17.42851
  20
-1.206836
  30
0
  11
17.47401
  21
-1.235502
  31
0
  0
LINE
  5
50d
  100
AcDbEntity
  8
1
  100
AcDbLine
  10
17.47401
  20
-1.235502
  30
0
  11
17.51951
  21
-1.264028
  31
0
  0
LINE
  5
50e
  100
AcDbEntity
  8
1
  100
AcDbLine
  10
17.51951
  20
-1.264028
  30
0
  11
17.56501
  21
-1.292412
  31
0
  0
LINE
  5
50f
  100
AcDbEntity
  8
1
  100
AcDbLine
  10
17.56501
  20
-1.292412
  30
0
  11
17.61051
  21
-1.32065
  31
0
  0
LINE
  5
510
  100
AcDbEntity
  8
1
  100
AcDbLine
  10
17.61051
  20
-1.32065
  30
0
  11
17.65601
  21
-1.348739
  31
0
  0
LINE
  5
511
  100
AcDbEntity
  8
1
  100
AcDbLine
  10
17.65601
  20
-1.348739
  30
0
  11
17.70151
  21
-1.376676
  31
0
  0
LINE
  5
512
  100
AcDbEntity
  8
1
  100
AcDbLine
  10
17.70151
  20
-1.376676
  30
0
  11
17.74701
  21
-1.404458
  31
0
  0
LINE
  5
513
  100
AcDbEntity
  8
1
  100
AcDbLine
  10
17.74701
  20
-1.404458
  30
0
  11
17.79251
  21
-1.432081
  31
0
  0
LINE
  5
514
  100
AcDbEntity
  8
1
  100
AcDbLine
  10
17.79251
  20
-1.432081
  30
0
  11
17.83801
  21
-1.459543
  31
0
  0
LINE
  5
515
  100
AcDbEntity
  8
1
  100
AcDbLine
  10
17.83801
  20
-1.459543
  30
0
  11
17.88351
  21
-1.486841
  31
0
  0
LINE
  5
516
  100
AcDbEntity
  8
1
  100
AcDbLine
  10
17.88351
  20
-1.486841
  30
0
  11
17.92901
  21
-1.51397
  31
0
  0
LINE
  5
517
  100
AcDbEntity
  8
1
  100
AcDbLine
  10
17.92901
  20
-1.51397
  30
0
  11
17.97451
  21
-1.540929
  31
0
  0
LINE
  5
518
  100
AcDbEntity
  8
1
  100
AcDbLine
  10
17.97451
  20
-1.540929
  30
0
  11
18.02001
  21
-1.567714
  31
0
  0
LINE
  5
519
  100
AcDbEntity
  8
1
  100
AcDbLine
  10
18.02001
  20
-1.567714
  30
0
  11
18.06551
  21
-1.594323
  31
0
  0
LINE
  5
51a
  100
AcDbEntity
  8
1
  100
AcDbLine
  10
18.06551
  20
-1.594323
  30
0
  11
18.11101
  21
-1.620751
  31
0
  0
LINE
  5
51b
  100
AcDbEntity
  8
1
  100
AcDbLine
  10
18.11101
  20
-1.620751
  30
0
  11
18.15651
  21
-1.646997
  31
0
  0
LINE
  5
51c
  100
AcDbEntity
  8
1
  100
AcDbLine
  10
18.15651
  20
-1.646997
  30
0
  11
18.20201
  21
-1.673057
  31
0
  0
LINE
  5
51d
  100
AcDbEntity
  8
1
  100
AcDbLine
  10
18.20201
  20
-1.673057
  30
0
  11
18.24751
  21
-1.698928
  31
0
  0
LINE
  5
51e
  100
AcDbEntity
  8
1
  100
AcDbLine
  10
18.24751
  20
-1.698928
  30
0
  11
18.29301
  21
-1.724607
  31
0
  0
LINE
  5
51f
  100
AcDbEntity
  8
1
  100
AcDbLine
  10
18.29301
  20
-1.724607
  30
0
  11
18.33851
  21
-1.750093
  31
0
  0
LINE
  5
520
  100
AcDbEntity
  8
1
  100
AcDbLine
  10
18.33851
  20
-1.750093
  30
0
  11
18.38401
  21
-1.77538
  31
0
  0
LINE
  5
521
  100
AcDbEntity
  8
1
  100
AcDbLine
  10
18.38401
  20
-1.77538
  30
0
  11
18.42951
  21
-1.800468
  31
0
  0
LINE
  5
522
  100
AcDbEntity
  8
1
  100
AcDbLine
  10
18.42951
  20
-1.800468
  30
0
  11
18.47501
  21
-1.825352
  31
0
  0
LINE
  5
523
  100
AcDbEntity
  8
1
  100
AcDbLine
  10
18.47501
  20
-1.825352
  30
0
  11
18.52051
  21
-1.850031
  31
0
  0
LINE
  5
524
  100
AcDbEntity
  8
1
  100
AcDbLine
  10
18.52051
  20
-1.850031
  30
0
  11
18.56601
  21
-1.874501
  31
0
  0
LINE
  5
525
  100
AcDbEntity
  8
1
  100
AcDbLine
  10
18.56601
  20
-1.874501
  30
0
  11
18.61151
  21
-1.89876
  31
0
  0
LINE
  5
526
  100
AcDbEntity
  8
1
  100
AcDbLine
  10
18.61151
  20
-1.89876
  30
0
  11
18.65701
  21
-1.922804
  31
0
  0
LINE
  5
527
  100
AcDbEntity
  8
1
  100
AcDbLine
  10
18.65701
  20
-1.922804
  30
0
  11
18.70251
  21
-1.946632
  31
0
  0
LINE
  5
528
  100
AcDbEntity
  8
1
  100
AcDbLine
  10
18.70251
  20
-1.946632
  30
0
  11
18.74801
  21
-1.97024
  31
0
  0
LINE
  5
529
  100
AcDbEntity
  8
1
  100
AcDbLine
  10
18.74801
  20
-1.97024
  30
0
  11
18.79351
  21
-1.993625
  31
0
  0
LINE
  5
52a
  100
AcDbEntity
  8
1
  100
AcDbLine
  10
18.79351
  20
-1.993625
  30
0
  11
18.83901
  21
-2.016786
  31
0
  0
LINE
  5
52b
  100
AcDbEntity
  8
1
  100
AcDbLine
  10
18.83901
  20
-2.016786
  30
0
  11
18.88451
  21
-2.03972
  31
0
  0
LINE
  5
52c
  100
AcDbEntity
  8
1
  100
AcDbLine
  10
18.88451
  20
-2.03972
  30
0
  11
18.93001
  21
-2.062423
  31
0
  0
LINE
  5
52d
  100
AcDbEntity
  8
1
  100
AcDbLine
  10
18.93001
  20
-2.062423
  30
0
  11
18.97551
  21
-2.084894
  31
0
  0
LINE
  5
52e
  100
AcDbEntity
  8
1
  100
AcDbLine
  10
18.97551
  20
-2.084894
  30
0
  11
19.02101
  21
-2.10713
  31
0
  0
LINE
  5
52f
  100
AcDbEntity
  8
1
  100
AcDbLine
  10
19.02101
  20
-2.10713
  30
0
  11
19.06651
  21
-2.129128
  31
0
  0
LINE
  5
530
  100
AcDbEntity
  8
1
  100
AcDbLine
  10
19.06651
  20
-2.129128
  30
0
  11
19.11201
  21
-2.150886
  31
0
  0
LINE
  5
531
  100
AcDbEntity
  8
1
  100
AcDbLine
  10
19.11201
  20
-2.150886
  30
0
  11
19.15751
  21
-2.172402
  31
0
  0
LINE
  5
532
  100
AcDbEntity
  8
1
  100
AcDbLine
  10
19.15751
  20
-2.172402
  30
0
  11
19.20301
  21
-2.193672
  31
0
  0
LINE
  5
533
  100
AcDbEntity
  8
1
  100
AcDbLine
  10
19.20301
  20
-2.193672
  30
0
  11
19.24851
  21
-2.214695
  31
0
  0
LINE
  5
534
  100
AcDbEntity
  8
1
  100
AcDbLine
  10
19.24851
  20
-2.214695
  30
0
  11
19.29401
  21
-2.235468
  31
0
  0
LINE
  5
535
  100
AcDbEntity
  8
1
  100
AcDbLine
  10
19.29401
  20
-2.235468
  30
0
  11
19.33951
  21
-2.25599
  31
0
  0
LINE
  5
536
  100
AcDbEntity
  8
1
  100
AcDbLine
  10
19.33951
  20
-2.25599
  30
0
  11
19.38501
  21
-2.276256
  31
0
  0
LINE
  5
537
  100
AcDbEntity
  8
1
  100
AcDbLine
  10
19.38501
  20
-2.276256
  30
0
  11
19.43051
  21
-2.296266
  31
0
  0
LINE
  5
538
  100
AcDbEntity
  8
1
  100
AcDbLine
  10
19.43051
  20
-2.296266
  30
0
  11
19.47601
  21
-2.316017
  31
0
  0
LINE
  5
539
  100
AcDbEntity
  8
1
  100
AcDbLine
  10
19.47601
  20
-2.316017
  30
0
  11
19.52151
  21
-2.335507
  31
0
  0
LINE
  5
53a
  100
AcDbEntity
  8
1
  100
AcDbLine
  10
19.52151
  20
-2.335507
  30
0
  11
19.56701
  21
-2.354734
  31
0
  0
LINE
  5
53b
  100
AcDbEntity
  8
1
  100
AcDbLine
  10
19.56701
  20
-2.354734
  30
0
  11
19.61251
  21
-2.373694
  31
0
  0
LINE
  5
53c
  100
AcDbEntity
  8
1
  100
AcDbLine
  10
19.61251
  20
-2.373694
  30
0
  11
19.65801
  21
-2.392388
  31
0
  0
LINE
  5
53d
  100
AcDbEntity
  8
1
  100
AcDbLine
  10
19.65801
  20
-2.392388
  30
0
  11
19.70351
  21
-2.410811
  31
0
  0
LINE
  5
53e
  100
AcDbEntity
  8
1
  100
AcDbLine
  10
19.70351
  20
-2.410811
  30
0
  11
19.74901
  21
-2.428962
  31
0
  0
LINE
  5
53f
  100
AcDbEntity
  8
1
  100
AcDbLine
  10
19.74901
  20
-2.428962
  30
0
  11
19.79451
  21
-2.44684
  31
0
  0
LINE
  5
540
  100
AcDbEntity
  8
1
  100
AcDbLine
  10
19.79451
  20
-2.44684
  30
0
  11
19.84001
  21
-2.464442
  31
0
  0
LINE
  5
541
  100
AcDbEntity
  8
1
  100
AcDbLine
  10
19.84001
  20
-2.464442
  30
0
  11
19.88551
  21
-2.481765
  31
0
  0
LINE
  5
542
  100
AcDbEntity
  8
1
  100
AcDbLine
  10
19.88551
  20
-2.481765
  30
0
  11
19.93101
  21
-2.498809
  31
0
  0
LINE
  5
543
  100
AcDbEntity
  8
1
  100
AcDbLine
  10
19.93101
  20
-2.498809
  30
0
  11
19.97651
  21
-2.515571
  31
0
  0
LINE
  5
544
  100
AcDbEntity
  8
1
  100
AcDbLine
  10
19.97651
  20
-2.515571
  30
0
  11
20.02201
  21
-2.532049
  31
0
  0
LINE
  5
545
  100
AcDbEntity
  8
1
  100
AcDbLine
  10
20.02201
  20
-2.532049
  30
0
  11
20.06751
  21
-2.548242
  31
0
  0
LINE
  5
546
  100
AcDbEntity
  8
1
  100
AcDbLine
  10
20.06751
  20
-2.548242
  30
0
  11
20.11301
  21
-2.564147
  31
0
  0
LINE
  5
547
  100
AcDbEntity
  8
1
  100
AcDbLine
  10
20.11301
  20
-2.564147
  30
0
  11
20.15851
  21
-2.579763
  31
0
  0
LINE
  5
548
  100
AcDbEntity
  8
1
  100
AcDbLine
  10
20.15851
  20
-2.579763
  30
0
  11
20.20401
  21
-2.595088
  31
0
  0
LINE
  5
549
  100
AcDbEntity
  8
1
  100
AcDbLine
  10
20.20401
  20
-2.595088
  30
0
  11
20.24951
  21
-2.610121
  31
0
  0
LINE
  5
54a
  100
AcDbEntity
  8
1
  100
AcDbLine
  10
20.24951
  20
-2.610121
  30
0
  11
20.29501
  21
-2.624859
  31
0
  0
LINE
  5
54b
  100
AcDbEntity
  8
1
  100
AcDbLine
  10
20.29501
  20
-2.624859
  30
0
  11
20.34051
  21
-2.639301
  31
0
  0
LINE
  5
54c
  100
AcDbEntity
  8
1
  100
AcDbLine
  10
20.34051
  20
-2.639301
  30
0
  11
20.38601
  21
-2.653445
  31
0
  0
LINE
  5
54d
  100
AcDbEntity
  8
1
  100
AcDbLine
  10
20.38601
  20
-2.653445
  30
0
  11
20.43151
  21
-2.66729
  31
0
  0
LINE
  5
54e
  100
AcDbEntity
  8
1
  100
AcDbLine
  10
20.43151
  20
-2.66729
  30
0
  11
20.47701
  21
-2.680835
  31
0
  0
LINE
  5
54f
  100
AcDbEntity
  8
1
  100
AcDbLine
  10
20.47701
  20
-2.680835
  30
0
  11
20.52251
  21
-2.694077
  31
0
  0
LINE
  5
550
  100
AcDbEntity
  8
1
  100
AcDbLine
  10
20.52251
  20
-2.694077
  30
0
  11
20.56801
  21
-2.707015
  31
0
  0
LINE
  5
551
  100
AcDbEntity
  8
1
  100
AcDbLine
  10
20.56801
  20
-2.707015
  30
0
  11
20.61351
  21
-2.719648
  31
0
  0
LINE
  5
552
  100
AcDbEntity
  8
1
  100
AcDbLine
  10
20.61351
  20
-2.719648
  30
0
  11
20.65901
  21
-2.731974
  31
0
  0
LINE
  5
553
  100
AcDbEntity
  8
1
  100
AcDbLine
  10
20.65901
  20
-2.731974
  30
0
  11
20.70451
  21
-2.743992
  31
0
  0
LINE
  5
554
  100
AcDbEntity
  8
1
  100
AcDbLine
  10
20.70451
  20
-2.743992
  30
0
  11
20.75001
  21
-2.755701
  31
0
  0
LINE
  5
555
  100
AcDbEntity
  8
1
  100
AcDbLine
  10
20.75001
  20
-2.755701
  30
0
  11
20.79551
  21
-2.767098
  31
0
  0
LINE
  5
556
  100
AcDbEntity
  8
1
  100
AcDbLine
  10
20.79551
  20
-2.767098
  30
0
  11
20.84101
  21
-2.778184
  31
0
  0
LINE
  5
557
  100
AcDbEntity
  8
1
  100
AcDbLine
  10
20.84101
  20
-2.778184
  30
0
  11
20.88651
  21
-2.788957
  31
0
  0
LINE
  5
558
  100
AcDbEntity
  8
1
  100
AcDbLine
  10
20.88651
  20
-2.788957
  30
0
  11
20.93201
  21
-2.799414
  31
0
  0
LINE
  5
559
  100
AcDbEntity
  8
1
  100
AcDbLine
  10
20.93201
  20
-2.799414
  30
0
  11
20.97751
  21
-2.809557
  31
0
  0
LINE
  5
55a
  100
AcDbEntity
  8
1
  100
AcDbLine
  10
20.97751
  20
-2.809557
  30
0
  11
21.02301
  21
-2.819382
  31
0
  0
LINE
  5
55b
  100
AcDbEntity
  8
1
  100
AcDbLine
  10
21.02301
  20
-2.819382
  30
0
  11
21.06851
  21
-2.828889
  31
0
  0
LINE
  5
55c
  100
AcDbEntity
  8
1
  100
AcDbLine
  10
21.06851
  20
-2.828889
  30
0
  11
21.11401
  21
-2.838077
  31
0
  0
LINE
  5
55d
  100
AcDbEntity
  8
1
  100
AcDbLine
  10
21.11401
  20
-2.838077
  30
0
  11
21.15951
  21
-2.846946
  31
0
  0
LINE
  5
55e
  100
AcDbEntity
  8
1
  100
AcDbLine
  10
21.15951
  20
-2.846946
  30
0
  11
21.20501
  21
-2.855493
  31
0
  0
LINE
  5
55f
  100
AcDbEntity
  8
1
  100
AcDbLine
  10
21.20501
  20
-2.855493
  30
0
  11
21.25051
  21
-2.863718
  31
0
  0
LINE
  5
560
  100
AcDbEntity
  8
1
  100
AcDbLine
  10
21.25051
  20
-2.863718
  30
0
  11
21.29601
  21
-2.87162
  31
0
  0
LINE
  5
561
  100
AcDbEntity
  8
1
  100
AcDbLine
  10
21.29601
  20
-2.87162
  30
0
  11
21.34151
  21
-2.879198
  31
0
  0
LINE
  5
562
  100
AcDbEntity
  8
1
  100
AcDbLine
  10
21.34151
  20
-2.879198
  30
0
  11
21.38701
  21
-2.886452
  31
0
  0
LINE
  5
563
  100
AcDbEntity
  8
1
  100
AcDbLine
  10
21.38701
  20
-2.886452
  30
0
  11
21.43251
  21
-2.89338
  31
0
  0
LINE
  5
564
  100
AcDbEntity
  8
1
  100
AcDbLine
  10
21.43251
  20
-2.89338
  30
0
  11
21.47801
  21
-2.899981
  31
0
  0
LINE
  5
565
  100
AcDbEntity
  8
1
  100
AcDbLine
  10
21.47801
  20
-2.899981
  30
0
  11
21.52351
  21
-2.906256
  31
0
  0
LINE
  5
566
  100
AcDbEntity
  8
1
  100
AcDbLine
  10
21.52351
  20
-2.906256
  30
0
  11
21.56901
  21
-2.912203
  31
0
  0
LINE
  5
567
  100
AcDbEntity
  8
1
  100
AcDbLine
  10
21.56901
  20
-2.912203
  30
0
  11
21.61451
  21
-2.917821
  31
0
  0
LINE
  5
568
  100
AcDbEntity
  8
1
  100
AcDbLine
  10
21.61451
  20
-2.917821
  30
0
  11
21.66001
  21
-2.923111
  31
0
  0
LINE
  5
569
  100
AcDbEntity
  8
1
  100
AcDbLine
  10
21.66001
  20
-2.923111
  30
0
  11
21.70551
  21
-2.92807
  31
0
  0
LINE
  5
56a
  100
AcDbEntity
  8
1
  100
AcDbLine
  10
21.70551
  20
-2.92807
  30
0
  11
21.75101
  21
-2.914359
  31
0
  0
LINE
  5
56b
  100
AcDbEntity
  8
1
  100
AcDbLine
  10
21.75101
  20
-2.914359
  30
0
  11
21.79651
  21
-2.872341
  31
0
  0
LINE
  5
56c
  100
AcDbEntity
  8
1
  100
AcDbLine
  10
21.79651
  20
-2.872341
  30
0
  11
21.84201
  21
-2.830065
  31
0
  0
LINE
  5
56d
  100
AcDbEntity
  8
1
  100
AcDbLine
  10
21.84201
  20
-2.830065
  30
0
  11
21.88751
  21
-2.787547
  31
0
  0
LINE
  5
56e
  100
AcDbEntity
  8
1
  100
AcDbLine
  10
21.88751
  20
-2.787547
  30
0
  11
21.93301
  21
-2.744799
  31
0
  0
LINE
  5
56f
  100
AcDbEntity
  8
1
  100
AcDbLine
  10
21.93301
  20
-2.624531
  30
0
  11
21.88751
  21
-2.666674
  31
0
  0
LINE
  5
570
  100
AcDbEntity
  8
1
  100
AcDbLine
  10
21.88751
  20
-2.666674
  30
0
  11
21.84201
  21
-2.708417
  31
0
  0
LINE
  5
571
  100
AcDbEntity
  8
1
  100
AcDbLine
  10
21.84201
  20
-2.708417
  30
0
  11
21.79651
  21
-2.749763
  31
0
  0
LINE
  5
572
  100
AcDbEntity
  8
1
  100
AcDbLine
  10
21.79651
  20
-2.749763
  30
0
  11
21.75101
  21
-2.790712
  31
0
  0
LINE
  5
573
  100
AcDbEntity
  8
1
  100
AcDbLine
  10
21.75101
  20
-2.790712
  30
0
  11
21.70551
  21
-2.799946
  31
0
  0
LINE
  5
574
  100
AcDbEntity
  8
1
  100
AcDbLine
  10
21.70551
  20
-2.799946
  30
0
  11
21.66001
  21
-2.788349
  31
0
  0
LINE
  5
575
  100
AcDbEntity
  8
1
  100
AcDbLine
  10
21.66001
  20
-2.788349
  30
0
  11
21.61451
  21
-2.776437
  31
0
  0
LINE
  5
576
  100
AcDbEntity
  8
1
  100
AcDbLine
  10
21.61451
  20
-2.776437
  30
0
  11
21.56901
  21
-2.764213
  31
0
  0
LINE
  5
577
  100
AcDbEntity
  8
1
  100
AcDbLine
  10
21.56901
  20
-2.764213
  30
0
  11
21.52351
  21
-2.751676
  31
0
  0
LINE
  5
578
  100
AcDbEntity
  8
1
  100
AcDbLine
  10
21.52351
  20
-2.751676
  30
0
  11
21.47801
  21
-2.738829
  31
0
  0
LINE
  5
579
  100
AcDbEntity
  8
1
  100
AcDbLine
  10
21.47801
  20
-2.738829
  30
0
  11
21.43251
  21
-2.725674
  31
0
  0
LINE
  5
57a
  100
AcDbEntity
  8
1
  100
AcDbLine
  10
21.43251
  20
-2.725674
  30
0
  11
21.38701
  21
-2.712211
  31
0
  0
LINE
  5
57b
  100
AcDbEntity
  8
1
  100
AcDbLine
  10
21.38701
  20
-2.712211
  30
0
  11
21.34151
  21
-2.698442
  31
0
  0
LINE
  5
57c
  100
AcDbEntity
  8
1
  100
AcDbLine
  10
21.34151
  20
-2.698442
  30
0
  11
21.29601
  21
-2.684369
  31
0
  0
LINE
  5
57d
  100
AcDbEntity
  8
1
  100
AcDbLine
  10
21.29601
  20
-2.684369
  30
0
  11
21.25051
  21
-2.669993
  31
0
  0
LINE
  5
57e
  100
AcDbEntity
  8
1
  100
AcDbLine
  10
21.25051
  20
-2.669993
  30
0
  11
21.20501
  21
-2.655316
  31
0
  0
LINE
  5
57f
  100
AcDbEntity
  8
1
  100
AcDbLine
  10
21.20501
  20
-2.655316
  30
0
  11
21.15951
  21
-2.640339
  31
0
  0
LINE
  5
580
  100
AcDbEntity
  8
1
  100
AcDbLine
  10
21.15951
  20
-2.640339
  30
0
  11
21.11401
  21
-2.625065
  31
0
  0
LINE
  5
581
  100
AcDbEntity
  8
1
  100
AcDbLine
  10
21.11401
  20
-2.625065
  30
0
  11
21.06851
  21
-2.609494
  31
0
  0
LINE
  5
582
  100
AcDbEntity
  8
1
  100
AcDbLine
  10
21.06851
  20
-2.609494
  30
0
  11
21.02301
  21
-2.59363
  31
0
  0
LINE
  5
583
  100
AcDbEntity
  8
1
  100
AcDbLine
  10
21.02301
  20
-2.59363
  30
0
  11
20.97751
  21
-2.577473
  31
0
  0
LINE
  5
584
  100
AcDbEntity
  8
1
  100
AcDbLine
  10
20.97751
  20
-2.577473
  30
0
  11
20.93201
  21
-2.561025
  31
0
  0
LINE
  5
585
  100
AcDbEntity
  8
1
  100
AcDbLine
  10
20.93201
  20
-2.561025
  30
0
  11
20.88651
  21
-2.544288
  31
0
  0
LINE
  5
586
  100
AcDbEntity
  8
1
  100
AcDbLine
  10
20.88651
  20
-2.544288
  30
0
  11
20.84101
  21
-2.527264
  31
0
  0
LINE
  5
587
  100
AcDbEntity
  8
1
  100
AcDbLine
  10
20.84101
  20
-2.527264
  30
0
  11
20.79551
  21
-2.509956
  31
0
  0
LINE
  5
588
  100
AcDbEntity
  8
1
  100
AcDbLine
  10
20.79551
  20
-2.509956
  30
0
  11
20.75001
  21
-2.492364
  31
0
  0
LINE
  5
589
  100
AcDbEntity
  8
1
  100
AcDbLine
  10
20.75001
  20
-2.492364
  30
0
  11
20.70451
  21
-2.474491
  31
0
  0
LINE
  5
58a
  100
AcDbEntity
  8
1
  100
AcDbLine
  10
20.70451
  20
-2.474491
  30
0
  11
20.65901
  21
-2.456339
  31
0
  0
LINE
  5
58b
  100
AcDbEntity
  8
1
  100
AcDbLine
  10
20.65901
  20
-2.456339
  30
0
  11
20.61351
  21
-2.43791
  31
0
  0
LINE
  5
58c
  100
AcDbEntity
  8
1
  100
AcDbLine
  10
20.61351
  20
-2.43791
  30
0
  11
20.56801
  21
-2.419206
  31
0
  0
LINE
  5
58d
  100
AcDbEntity
  8
1
  100
AcDbLine
  10
20.56801
  20
-2.419206
  30
0
  11
20.52251
  21
-2.40023
  31
0
  0
LINE
  5
58e
  100
AcDbEntity
  8
1
  100
AcDbLine
  10
20.52251
  20
-2.40023
  30
0
  11
20.47701
  21
-2.380982
  31
0
  0
LINE
  5
58f
  100
AcDbEntity
  8
1
  100
AcDbLine
  10
20.47701
  20
-2.380982
  30
0
  11
20.43151
  21
-2.361466
  31
0
  0
LINE
  5
590
  100
AcDbEntity
  8
1
  100
AcDbLine
  10
20.43151
  20
-2.361466
  30
0
  11
20.38601
  21
-2.341684
  31
0
  0
LINE
  5
591
  100
AcDbEntity
  8
1
  100
AcDbLine
  10
20.38601
  20
-2.341684
  30
0
  11
20.34051
  21
-2.321638
  31
0
  0
LINE
  5
592
  100
AcDbEntity
  8
1
  100
AcDbLine
  10
20.34051
  20
-2.321638
  30
0
  11
20.29501
  21
-2.30133
  31
0
  0
LINE
  5
593
  100
AcDbEntity
  8
1
  100
AcDbLine
  10
20.29501
  20
-2.30133
  30
0
  11
20.24951
  21
-2.280762
  31
0
  0
LINE
  5
594
  100
AcDbEntity
  8
1
  100
AcDbLine
  10
20.24951
  20
-2.280762
  30
0
  11
20.20401
  21
-2.259937
  31
0
  0
LINE
  5
595
  100
AcDbEntity
  8
1
  100
AcDbLine
  10
20.20401
  20
-2.259937
  30
0
  11
20.15851
  21
-2.238857
  31
0
  0
LINE
  5
596
  100
AcDbEntity
  8
1
  100
AcDbLine
  10
20.15851
  20
-2.238857
  30
0
  11
20.11301
  21
-2.217525
  31
0
  0
LINE
  5
597
  100
AcDbEntity
  8
1
  100
AcDbLine
  10
20.11301
  20
-2.217525
  30
0
  11
20.06751
  21
-2.195942
  31
0
  0
LINE
  5
598
  100
AcDbEntity
  8
1
  100
AcDbLine
  10
20.06751
  20
-2.195942
  30
0
  11
20.02201
  21
-2.174112
  31
0
  0
LINE
  5
599
  100
AcDbEntity
  8
1
  100
AcDbLine
  10
20.02201
  20
-2.174112
  30
0
  11
19.97651
  21
-2.152037
  31
0
  0
LINE
  5
59a
  100
AcDbEntity
  8
1
  100
AcDbLine
  10
19.97651
  20
-2.152037
  30
0
  11
19.93101
  21
-2.129719
  31
0
  0
LINE
  5
59b
  100
AcDbEntity
  8
1
  100
AcDbLine
  10
19.93101
  20
-2.129719
  30
0
  11
19.88551
  21
-2.107161
  31
0
  0
LINE
  5
59c
  100
AcDbEntity
  8
1
  100
AcDbLine
  10
19.88551
  20
-2.107161
  30
0
  11
19.84001
  21
-2.084365
  31
0
  0
LINE
  5
59d
  100
AcDbEntity
  8
1
  100
AcDbLine
  10
19.84001
  20
-2.084365
  30
0
  11
19.79451
  21
-2.061334
  31
0
  0
LINE
  5
59e
  100
AcDbEntity
  8
1
  100
AcDbLine
  10
19.79451
  20
-2.061334
  30
0
  11
19.74901
  21
-2.038071
  31
0
  0
LINE
  5
59f
  100
AcDbEntity
  8
1
  100
AcDbLine
  10
19.74901
  20
-2.038071
  30
0
  11
19.70351
  21
-2.014578
  31
0
  0
LINE
  5
5a0
  100
AcDbEntity
  8
1
  100
AcDbLine
  10
19.70351
  20
-2.014578
  30
0
  11
19.65801
  21
-1.990857
  31
0
  0
LINE
  5
5a1
  100
AcDbEntity
  8
1
  100
AcDbLine
  10
19.65801
  20
-1.990857
  30
0
  11
19.61251
  21
-1.966912
  31
0
  0
LINE
  5
5a2
  100
AcDbEntity
  8
1
  100
AcDbLine
  10
19.61251
  20
-1.966912
  30
0
  11
19.56701
  21
-1.942746
  31
0
  0
LINE
  5
5a3
  100
AcDbEntity
  8
1
  100
AcDbLine
  10
19.56701
  20
-1.942746
  30
0
  11
19.52151
  21
-1.91836
  31
0
  0
LINE
  5
5a4
  100
AcDbEntity
  8
1
  100
AcDbLine
  10
19.52151
  20
-1.91836
  30
0
  11
19.47601
  21
-1.893758
  31
0
  0
LINE
  5
5a5
  100
AcDbEntity
  8
1
  100
AcDbLine
  10
19.47601
  20
-1.893758
  30
0
  11
19.43051
  21
-1.868942
  31
0
  0
LINE
  5
5a6
  100
AcDbEntity
  8
1
  100
AcDbLine
  10
19.43051
  20
-1.868942
  30
0
  11
19.38501
  21
-1.843915
  31
0
  0
LINE
  5
5a7
  100
AcDbEntity
  8
1
  100
AcDbLine
  10
19.38501
  20
-1.843915
  30
0
  11
19.33951
  21
-1.818681
  31
0
  0
LINE
  5
5a8
  100
AcDbEntity
  8
1
  100
AcDbLine
  10
19.33951
  20
-1.818681
  30
0
  11
19.29401
  21
-1.793241
  31
0
  0
LINE
  5
5a9
  100
AcDbEntity
  8
1
  100
AcDbLine
  10
19.29401
  20
-1.793241
  30
0
  11
19.24851
  21
-1.767599
  31
0
  0
LINE
  5
5aa
  100
AcDbEntity
  8
1
  100
AcDbLine
  10
19.24851
  20
-1.767599
  30
0
  11
19.20301
  21
-1.741758
  31
0
  0
LINE
  5
5ab
  100
AcDbEntity
  8
1
  100
AcDbLine
  10
19.20301
  20
-1.741758
  30
0
  11
19.15751
  21
-1.71572
  31
0
  0
LINE
  5
5ac
  100
AcDbEntity
  8
1
  100
AcDbLine
  10
19.15751
  20
-1.71572
  30
0
  11
19.11201
  21
-1.689489
  31
0
  0
LINE
  5
5ad
  100
AcDbEntity
  8
1
  100
AcDbLine
  10
19.11201
  20
-1.689489
  30
0
  11
19.06651
  21
-1.663067
  31
0
  0
LINE
  5
5ae
  100
AcDbEntity
  8
1
  100
AcDbLine
  10
19.06651
  20
-1.663067
  30
0
  11
19.02101
  21
-1.636458
  31
0
  0
LINE
  5
5af
  100
AcDbEntity
  8
1
  100
AcDbLine
  10
19.02101
  20
-1.636458
  30
0
  11
18.97551
  21
-1.609664
  31
0
  0
LINE
  5
5b0
  100
AcDbEntity
  8
1
  100
AcDbLine
  10
18.97551
  20
-1.609664
  30
0
  11
18.93001
  21
-1.582689
  31
0
  0
LINE
  5
5b1
  100
AcDbEntity
  8
1
  100
AcDbLine
  10
18.93001
  20
-1.582689
  30
0
  11
18.88451
  21
-1.555535
  31
0
  0
LINE
  5
5b2
  100
AcDbEntity
  8
1
  100
AcDbLine
  10
18.88451
  20
-1.555535
  30
0
  11
18.83901
  21
-1.528206
  31
0
  0
LINE
  5
5b3
  100
AcDbEntity
  8
1
  100
AcDbLine
  10
18.83901
  20
-1.528206
  30
0
  11
18.79351
  21
-1.500704
  31
0
  0
LINE
  5
5b4
  100
AcDbEntity
  8
1
  100
AcDbLine
  10
18.79351
  20
-1.500704
  30
0
  11
18.74801
  21
-1.473033
  31
0
  0
LINE
  5
5b5
  100
AcDbEntity
  8
1
  100
AcDbLine
  10
18.74801
  20
-1.473033
  30
0
  11
18.70251
  21
-1.445196
  31
0
  0
LINE
  5
5b6
  100
AcDbEntity
  8
1
  100
AcDbLine
  10
18.70251
  20
-1.445196
  30
0
  11
18.65701
  21
-1.417196
  31
0
  0
LINE
  5
5b7
  100
AcDbEntity
  8
1
  100
AcDbLine
  10
18.65701
  20
-1.417196
  30
0
  11
18.61151
  21
-1.389037
  31
0
  0
LINE
  5
5b8
  100
AcDbEntity
  8
1
  100
AcDbLine
  10
18.61151
  20
-1.389037
  30
0
  11
18.56601
  21
-1.36072
  31
0
  0
LINE
  5
5b9
  100
AcDbEntity
  8
1
  100
AcDbLine
  10
18.56601
  20
-1.36072
  30
0
  11
18.52051
  21
-1.33225
  31
0
  0
LINE
  5
5ba
  100
AcDbEntity
  8
1
  100
AcDbLine
  10
18.52051
  20
-1.33225
  30
0
  11
18.47501
  21
-1.30363
  31
0
  0
LINE
  5
5bb
  100
AcDbEntity
  8
1
  100
AcDbLine
  10
18.47501
  20
-1.30363
  30
0
  11
18.42951
  21
-1.274863
  31
0
  0
LINE
  5
5bc
  100
AcDbEntity
  8
1
  100
AcDbLine
  10
18.42951
  20
-1.274863
  30
0
  11
18.38401
  21
-1.245952
  31
0
  0
LINE
  5
5bd
  100
AcDbEntity
  8
1
  100
AcDbLine
  10
18.38401
  20
-1.245952
  30
0
  11
18.33851
  21
-1.2169
  31
0
  0
LINE
  5
5be
  100
AcDbEntity
  8
1
  100
AcDbLine
  10
18.33851
  20
-1.2169
  30
0
  11
18.29301
  21
-1.187712
  31
0
  0
LINE
  5
5bf
  100
AcDbEntity
  8
1
  100
AcDbLine
  10
18.29301
  20
-1.187712
  30
0
  11
18.24751
  21
-1.158389
  31
0
  0
LINE
  5
5c0
  100
AcDbEntity
  8
1
  100
AcDbLine
  10
18.24751
  20
-1.158389
  30
0
  11
18.20201
  21
-1.128936
  31
0
  0
LINE
  5
5c1
  100
AcDbEntity
  8
1
  100
AcDbLine
  10
18.20201
  20
-1.128936
  30
0
  11
18.15651
  21
-1.099355
  31
0
  0
LINE
  5
5c2
  100
AcDbEntity
  8
1
  100
AcDbLine
  10
18.15651
  20
-1.099355
  30
0
  11
18.11101
  21
-1.06965
  31
0
  0
LINE
  5
5c3
  100
AcDbEntity
  8
1
  100
AcDbLine
  10
18.11101
  20
-1.06965
  30
0
  11
18.06551
  21
-1.039825
  31
0
  0
LINE
  5
5c4
  100
AcDbEntity
  8
1
  100
AcDbLine
  10
18.06551
  20
-1.039825
  30
0
  11
18.02001
  21
-1.009882
  31
0
  0
LINE
  5
5c5
  100
AcDbEntity
  8
1
  100
AcDbLine
  10
18.02001
  20
-1.009882
  30
0
  11
17.97451
  21
-0.979826
  31
0
  0
LINE
  5
5c6
  100
AcDbEntity
  8
1
  100
AcDbLine
  10
17.97451
  20
-0.979826
  30
0
  11
17.92901
  21
-0.949659
  31
0
  0
LINE
  5
5c7
  100
AcDbEntity
  8
1
  100
AcDbLine
  10
17.92901
  20
-0.949659
  30
0
  11
17.88351
  21
-0.919385
  31
0
  0
LINE
  5
5c8
  100
AcDbEntity
  8
1
  100
AcDbLine
  10
17.88351
  20
-0.919385
  30
0
  11
17.83801
  21
-0.889007
  31
0
  0
LINE
  5
5c9
  100
AcDbEntity
  8
1
  100
AcDbLine
  10
17.83801
  20
-0.889007
  30
0
  11
17.79251
  21
-0.858529
  31
0
  0
LINE
  5
5ca
  100
AcDbEntity
  8
1
  100
AcDbLine
  10
17.79251
  20
-0.858529
  30
0
  11
17.74701
  21
-0.827954
  31
0
  0
LINE
  5
5cb
  100
AcDbEntity
  8
1
  100
AcDbLine
  10
17.74701
  20
-0.827954
  30
0
  11
17.70151
  21
-0.797286
  31
0
  0
LINE
  5
5cc
  100
AcDbEntity
  8
1
  100
AcDbLine
  10
17.70151
  20
-0.797286
  30
0
  11
17.65601
  21
-0.766528
  31
0
  0
LINE
  5
5cd
  100
AcDbEntity
  8
1
  100
AcDbLine
  10
17.65601
  20
-0.766528
  30
0
  11
17.61051
  21
-0.735684
  31
0
  0
LINE
  5
5ce
  100
AcDbEntity
  8
1
  100
AcDbLine
  10
17.61051
  20
-0.735684
  30
0
  11
17.56501
  21
-0.704756
  31
0
  0
LINE
  5
5cf
  100
AcDbEntity
  8
1
  100
AcDbLine
  10
17.56501
  20
-0.704756
  30
0
  11
17.51951
  21
-0.673749
  31
0
  0
LINE
  5
5d0
  100
AcDbEntity
  8
1
  100
AcDbLine
  10
17.51951
  20
-0.673749
  30
0
  11
17.47401
  21
-0.642666
  31
0
  0
LINE
  5
5d1
  100
AcDbEntity
  8
1
  100
AcDbLine
  10
17.47401
  20
-0.642666
  30
0
  11
17.42851
  21
-0.61151
  31
0
  0
LINE
  5
5d2
  100
AcDbEntity
  8
1
  100
AcDbLine
  10
17.42851
  20
-0.61151
  30
0
  11
17.38301
  21
-0.580286
  31
0
  0
LINE
  5
5d3
  100
AcDbEntity
  8
1
  100
AcDbLine
  10
17.38301
  20
-0.580286
  30
0
  11
17.33751
  21
-0.548996
  31
0
  0
LINE
  5
5d4
  100
AcDbEntity
  8
1
  100
AcDbLine
  10
17.33751
  20
-0.548996
  30
0
  11
17.29201
  21
-0.517644
  31
0
  0
LINE
  5
5d5
  100
AcDbEntity
  8
1
  100
AcDbLine
  10
17.29201
  20
-0.517644
  30
0
  11
17.24651
  21
-0.486234
  31
0
  0
LINE
  5
5d6
  100
AcDbEntity
  8
1
  100
AcDbLine
  10
17.24651
  20
-0.486234
  30
0
  11
17.20101
  21
-0.454769
  31
0
  0
LINE
  5
5d7
  100
AcDbEntity
  8
1
  100
AcDbLine
  10
17.20101
  20
-0.454769
  30
0
  11
17.15551
  21
-0.423253
  31
0
  0
LINE
  5
5d8
  100
AcDbEntity
  8
1
  100
AcDbLine
  10
17.15551
  20
-0.423253
  30
0
  11
17.11001
  21
-0.391689
  31
0
  0
LINE
  5
5d9
  100
AcDbEntity
  8
1
  100
AcDbLine
  10
17.11001
  20
-0.391689
  30
0
  11
17.06451
  21
-0.360081
  31
0
  0
LINE
  5
5da
  100
AcDbEntity
  8
1
  100
AcDbLine
  10
17.06451
  20
-0.360081
  30
0
  11
17.01901
  21
-0.328432
  31
0
  0
LINE
  5
5db
  100
AcDbEntity
  8
1
  100
AcDbLine
  10
17.01901
  20
-0.328432
  30
0
  11
16.97351
  21
-0.296746
  31
0
  0
LINE
  5
5dc
  100
AcDbEntity
  8
1
  100
AcDbLine
  10
16.97351
  20
-0.296746
  30
0
  11
16.92801
  21
-0.265027
  31
0
  0
LINE
  5
5dd
  100
AcDbEntity
  8
1
  100
AcDbLine
  10
16.92801
  20
-0.265027
  30
0
  11
16.88251
  21
-0.233277
  31
0
  0
LINE
  5
5de
  100
AcDbEntity
  8
1
  100
AcDbLine
  10
16.88251
  20
-0.233277
  30
0
  11
16.83701
  21
-0.201502
  31
0
  0
LINE
  5
5df
  100
AcDbEntity
  8
1
  100
AcDbLine
  10
16.83701
  20
-0.201502
  30
0
  11
16.79151
  21
-0.169703
  31
0
  0
LINE
  5
5e0
  100
AcDbEntity
  8
1
  100
AcDbLine
  10
16.79151
  20
-0.169703
  30
0
  11
16.74601
  21
-0.137886
  31
0
  0
LINE
  5
5e1
  100
AcDbEntity
  8
1
  100
AcDbLine
  10
16.74601
  20
-0.137886
  30
0
  11
16.70051
  21
-0.106053
  31
0
  0
LINE
  5
5e2
  100
AcDbEntity
  8
1
  100
AcDbLine
  10
16.70051
  20
-0.106053
  30
0
  11
16.65501
  21
-0.074208
  31
0
  0
LINE
  5
5e3
  100
AcDbEntity
  8
1
  100
AcDbLine
  10
16.65501
  20
-0.074208
  30
0
  11
16.60951
  21
-0.042355
  31
0
  0
LINE
  5
5e4
  100
AcDbEntity
  8
1
  100
AcDbLine
  10
16.60951
  20
-0.042355
  30
0
  11
16.56401
  21
-0.010497
  31
0
  0
LINE
  5
5e5
  100
AcDbEntity
  8
1
  100
AcDbLine
  10
16.56401
  20
-0.010497
  30
0
  11
16.51851
  21
0.021362
  31
0
  0
LINE
  5
5e6
  100
AcDbEntity
  8
1
  100
AcDbLine
  10
16.51851
  20
0.021362
  30
0
  11
16.47301
  21
0.053219
  31
0
  0
LINE
  5
5e7
  100
AcDbEntity
  8
1
  100
AcDbLine
  10
16.47301
  20
0.053219
  30
0
  11
16.42751
  21
0.08507
  31
0
  0
LINE
  5
5e8
  100
AcDbEntity
  8
1
  100
AcDbLine
  10
16.42751
  20
0.08507
  30
0
  11
16.38201
  21
0.116911
  31
0
  0
LINE
  5
5e9
  100
AcDbEntity
  8
1
  100
AcDbLine
  10
16.38201
  20
0.116911
  30
0
  11
16.33651
  21
0.148739
  31
0
  0
LINE
  5
5ea
  100
AcDbEntity
  8
1
  100
AcDbLine
  10
16.33651
  20
0.148739
  30
0
  11
16.29101
  21
0.180551
  31
0
  0
LINE
  5
5eb
  100
AcDbEntity
  8
1
  100
AcDbLine
  10
16.29101
  20
0.180551
  30
0
  11
16.24551
  21
0.212341
  31
0
  0
LINE
  5
5ec
  100
AcDbEntity
  8
1
  100
AcDbLine
  10
16.24551
  20
0.212341
  30
0
  11
16.20001
  21
0.244108
  31
0
  0
LINE
  5
5ed
  100
AcDbEntity
  8
1
  100
AcDbLine
  10
16.20001
  20
0.244108
  30
0
  11
16.15451
  21
0.275848
  31
0
  0
LINE
  5
5ee
  100
AcDbEntity
  8
1
  100
AcDbLine
  10
16.15451
  20
0.275848
  30
0
  11
16.10901
  21
0.307556
  31
0
  0
LINE
  5
5ef
  100
AcDbEntity
  8
1
  100
AcDbLine
  10
16.10901
  20
0.307556
  30
0
  11
16.06351
  21
0.33923
  31
0
  0
LINE
  5
5f0
  100
AcDbEntity
  8
1
  100
AcDbLine
  10
16.06351
  20
0.33923
  30
0
  11
16.01801
  21
0.370865
  31
0
  0
LINE
  5
5f1
  100
AcDbEntity
  8
1
  100
AcDbLine
  10
16.01801
  20
0.370865
  30
0
  11
15.97251
  21
0.402459
  31
0
  0
LINE
  5
5f2
  100
AcDbEntity
  8
1
  100
AcDbLine
  10
15.97251
  20
0.402459
  30
0
  11
15.92701
  21
0.434007
  31
0
  0
LINE
  5
5f3
  100
AcDbEntity
  8
1
  100
AcDbLine
  10
15.92701
  20
0.434007
  30
0
  11
15.88151
  21
0.465506
  31
0
  0
LINE
  5
5f4
  100
AcDbEntity
  8
1
  100
AcDbLine
  10
15.88151
  20
0.465506
  30
0
  11
15.83601
  21
0.496953
  31
0
  0
LINE
  5
5f5
  100
AcDbEntity
  8
1
  100
AcDbLine
  10
15.83601
  20
0.496953
  30
0
  11
15.79051
  21
0.528344
  31
0
  0
LINE
  5
5f6
  100
AcDbEntity
  8
1
  100
AcDbLine
  10
15.79051
  20
0.528344
  30
0
  11
15.74501
  21
0.559675
  31
0
  0
LINE
  5
5f7
  100
AcDbEntity
  8
1
  100
AcDbLine
  10
15.74501
  20
0.559675
  30
0
  11
15.69951
  21
0.590943
  31
0
  0
LINE
  5
5f8
  100
AcDbEntity
  8
1
  100
AcDbLine
  10
15.69951
  20
0.590943
  30
0
  11
15.65401
  21
0.622144
  31
0
  0
LINE
  5
5f9
  100
AcDbEntity
  8
1
  100
AcDbLine
  10
15.65401
  20
0.622144
  30
0
  11
15.60851
  21
0.653275
  31
0
  0
LINE
  5
5fa
  100
AcDbEntity
  8
1
  100
AcDbLine
  10
15.60851
  20
0.653275
  30
0
  11
15.56301
  21
0.684333
  31
0
  0
LINE
  5
5fb
  100
AcDbEntity
  8
1
  100
AcDbLine
  10
15.56301
  20
0.684333
  30
0
  11
15.51751
  21
0.715313
  31
0
  0
LINE
  5
5fc
  100
AcDbEntity
  8
1
  100
AcDbLine
  10
15.51751
  20
0.715313
  30
0
  11
15.47201
  21
0.746213
  31
0
  0
LINE
  5
5fd
  100
AcDbEntity
  8
1
  100
AcDbLine
  10
15.47201
  20
0.746213
  30
0
  11
15.42651
  21
0.777028
  31
0
  0
LINE
  5
5fe
  100
AcDbEntity
  8
1
  100
AcDbLine
  10
15.42651
  20
0.777028
  30
0
  11
15.38101
  21
0.807756
  31
0
  0
LINE
  5
5ff
  100
AcDbEntity
  8
1
  100
AcDbLine
  10
15.38101
  20
0.807756
  30
0
  11
15.33551
  21
0.838393
  31
0
  0
LINE
  5
600
  100
AcDbEntity
  8
1
  100
AcDbLine
  10
15.33551
  20
0.838393
  30
0
  11
15.29001
  21
0.868935
  31
0
  0
LINE
  5
601
  100
AcDbEntity
  8
1
  100
AcDbLine
  10
15.29001
  20
0.868935
  30
0
  11
15.24451
  21
0.899379
  31
0
  0
LINE
  5
602
  100
AcDbEntity
  8
1
  100
AcDbLine
  10
15.24451
  20
0.899379
  30
0
  11
15.19901
  21
0.929722
  31
0
  0
LINE
  5
603
  100
AcDbEntity
  8
1
  100
AcDbLine
  10
15.19901
  20
0.929722
  30
0
  11
15.15351
  21
0.95996
  31
0
  0
LINE
  5
604
  100
AcDbEntity
  8
1
  100
AcDbLine
  10
15.15351
  20
0.95996
  30
0
  11
15.10801
  21
0.990089
  31
0
  0
LINE
  5
605
  100
AcDbEntity
  8
1
  100
AcDbLine
  10
15.10801
  20
0.990089
  30
0
  11
15.06251
  21
1.020107
  31
0
  0
LINE
  5
606
  100
AcDbEntity
  8
1
  100
AcDbLine
  10
15.06251
  20
1.020107
  30
0
  11
15.01701
  21
1.05001
  31
0
  0
LINE
  5
607
  100
AcDbEntity
  8
1
  100
AcDbLine
  10
15.01701
  20
1.05001
  30
0
  11
14.97151
  21
1.079795
  31
0
  0
LINE
  5
608
  100
AcDbEntity
  8
1
  100
AcDbLine
  10
14.97151
  20
1.079795
  30
0
  11
14.92601
  21
1.109457
  31
0
  0
LINE
  5
609
  100
AcDbEntity
  8
1
  100
AcDbLine
  10
14.92601
  20
1.109457
  30
0
  11
14.88051
  21
1.138995
  31
0
  0
LINE
  5
60a
  100
AcDbEntity
  8
1
  100
AcDbLine
  10
14.88051
  20
1.138995
  30
0
  11
14.83501
  21
1.168404
  31
0
  0
LINE
  5
60b
  100
AcDbEntity
  8
1
  100
AcDbLine
  10
14.83501
  20
1.168404
  30
0
  11
14.78951
  21
1.197682
  31
0
  0
LINE
  5
60c
  100
AcDbEntity
  8
1
  100
AcDbLine
  10
14.78951
  20
1.197682
  30
0
  11
14.74401
  21
1.226824
  31
0
  0
LINE
  5
60d
  100
AcDbEntity
  8
1
  100
AcDbLine
  10
14.74401
  20
1.226824
  30
0
  11
14.69851
  21
1.255828
  31
0
  0
LINE
  5
60e
  100
AcDbEntity
  8
1
  100
AcDbLine
  10
14.69851
  20
1.255828
  30
0
  11
14.65301
  21
1.28469
  31
0
  0
LINE
  5
60f
  100
AcDbEntity
  8
1
  100
AcDbLine
  10
14.65301
  20
1.28469
  30
0
  11
14.60751
  21
1.313408
  31
0
  0
LINE
  5
610
  100
AcDbEntity
  8
1
  100
AcDbLine
  10
14.60751
  20
1.313408
  30
0
  11
14.56201
  21
1.341977
  31
0
  0
LINE
  5
611
  100
AcDbEntity
  8
1
  100
AcDbLine
  10
14.56201
  20
1.341977
  30
0
  11
14.51651
  21
1.370395
  31
0
  0
LINE
  5
612
  100
AcDbEntity
  8
1
  100
AcDbLine
  10
14.51651
  20
1.370395
  30
0
  11
14.47101
  21
1.398658
  31
0
  0
LINE
  5
613
  100
AcDbEntity
  8
1
  100
AcDbLine
  10
14.47101
  20
1.398658
  30
0
  11
14.42551
  21
1.426764
  31
0
  0
LINE
  5
614
  100
AcDbEntity
  8
1
  100
AcDbLine
  10
14.42551
  20
1.426764
  30
0
  11
14.38001
  21
1.454709
  31
0
  0
LINE
  5
615
  100
AcDbEntity
  8
1
  100
AcDbLine
  10
14.38001
  20
1.454709
  30
0
  11
14.33451
  21
1.482489
  31
0
  0
LINE
  5
616
  100
AcDbEntity
  8
1
  100
AcDbLine
  10
14.33451
  20
1.482489
  30
0
  11
14.28901
  21
1.510103
  31
0
  0
LINE
  5
617
  100
AcDbEntity
  8
1
  100
AcDbLine
  10
14.28901
  20
1.510103
  30
0
  11
14.24351
  21
1.537546
  31
0
  0
LINE
  5
618
  100
AcDbEntity
  8
1
  100
AcDbLine
  10
14.24351
  20
1.537546
  30
0
  11
14.19801
  21
1.564816
  31
0
  0
LINE
  5
619
  100
AcDbEntity
  8
1
  100
AcDbLine
  10
14.19801
  20
1.564816
  30
0
  11
14.15251
  21
1.591909
  31
0
  0
LINE
  5
61a
  100
AcDbEntity
  8
1
  100
AcDbLine
  10
14.15251
  20
1.591909
  30
0
  11
14.10701
  21
1.618823
  31
0
  0
LINE
  5
61b
  100
AcDbEntity
  8
1
  100
AcDbLine
  10
14.10701
  20
1.618823
  30
0
  11
14.06151
  21
1.645554
  31
0
  0
LINE
  5
61c
  100
AcDbEntity
  8
1
  100
AcDbLine
  10
14.06151
  20
1.645554
  30
0
  11
14.01601
  21
1.6721
  31
0
  0
LINE
  5
61d
  100
AcDbEntity
  8
1
  100
AcDbLine
  10
14.01601
  20
1.6721
  30
0
  11
13.97051
  21
1.698457
  31
0
  0
LINE
  5
61e
  100
AcDbEntity
  8
1
  100
AcDbLine
  10
13.97051
  20
1.698457
  30
0
  11
13.92501
  21
1.724622
  31
0
  0
LINE
  5
61f
  100
AcDbEntity
  8
1
  100
AcDbLine
  10
13.92501
  20
1.724622
  30
0
  11
13.87951
  21
1.750593
  31
0
  0
LINE
  5
620
  100
AcDbEntity
  8
1
  100
AcDbLine
  10
13.87951
  20
1.750593
  30
0
  11
13.83401
  21
1.776367
  31
0
  0
LINE
  5
621
  100
AcDbEntity
  8
1
  100
AcDbLine
  10
13.83401
  20
1.776367
  30
0
  11
13.78851
  21
1.80194
  31
0
  0
LINE
  5
622
  100
AcDbEntity
  8
1
  100
AcDbLine
  10
13.78851
  20
1.80194
  30
0
  11
13.74301
  21
1.82731
  31
0
  0
LINE
  5
623
  100
AcDbEntity
  8
1
  100
AcDbLine
  10
13.74301
  20
1.82731
  30
0
  11
13.69751
  21
1.852474
  31
0
  0
LINE
  5
624
  100
AcDbEntity
  8
1
  100
AcDbLine
  10
13.69751
  20
1.852474
  30
0
  11
13.65201
  21
1.877429
  31
0
  0
LINE
  5
625
  100
AcDbEntity
  8
1
  100
AcDbLine
  10
13.65201
  20
1.877429
  30
0
  11
13.60651
  21
1.902172
  31
0
  0
LINE
  5
626
  100
AcDbEntity
  8
1
  100
AcDbLine
  10
13.60651
  20
1.902172
  30
0
  11
13.56101
  21
1.926701
  31
0
  0
LINE
  5
627
  100
AcDbEntity
  8
1
  100
AcDbLine
  10
13.56101
  20
1.926701
  30
0
  11
13.51551
  21
1.951012
  31
0
  0
LINE
  5
628
  100
AcDbEntity
  8
1
  100
AcDbLine
  10
13.51551
  20
1.951012
  30
0
  11
13.47001
  21
1.975104
  31
0
  0
LINE
  5
629
  100
AcDbEntity
  8
1
  100
AcDbLine
  10
13.47001
  20
1.975104
  30
0
  11
13.42451
  21
1.998972
  31
0
  0
LINE
  5
62a
  100
AcDbEntity
  8
1
  100
AcDbLine
  10
13.42451
  20
1.998972
  30
0
  11
13.37901
  21
2.022616
  31
0
  0
LINE
  5
62b
  100
AcDbEntity
  8
1
  100
AcDbLine
  10
13.37901
  20
2.022616
  30
0
  11
13.33351
  21
2.046031
  31
0
  0
LINE
  5
62c
  100
AcDbEntity
  8
1
  100
AcDbLine
  10
13.33351
  20
2.046031
  30
0
  11
13.28801
  21
2.069215
  31
0
  0
LINE
  5
62d
  100
AcDbEntity
  8
1
  100
AcDbLine
  10
13.28801
  20
2.069215
  30
0
  11
13.24251
  21
2.092166
  31
0
  0
LINE
  5
62e
  100
AcDbEntity
  8
1
  100
AcDbLine
  10
13.24251
  20
2.092166
  30
0
  11
13.19701
  21
2.114881
  31
0
  0
LINE
  5
62f
  100
AcDbEntity
  8
1
  100
AcDbLine
  10
13.19701
  20
2.114881
  30
0
  11
13.15151
  21
2.137358
  31
0
  0
LINE
  5
630
  100
AcDbEntity
  8
1
  100
AcDbLine
  10
13.15151
  20
2.137358
  30
0
  11
13.10601
  21
2.159593
  31
0
  0
LINE
  5
631
  100
AcDbEntity
  8
1
  100
AcDbLine
  10
13.10601
  20
2.159593
  30
0
  11
13.06051
  21
2.181585
  31
0
  0
LINE
  5
632
  100
AcDbEntity
  8
1
  100
AcDbLine
  10
13.06051
  20
2.181585
  30
0
  11
13.01501
  21
2.203331
  31
0
  0
LINE
  5
633
  100
AcDbEntity
  8
1
  100
AcDbLine
  10
13.01501
  20
2.203331
  30
0
  11
12.96951
  21
2.224828
  31
0
  0
LINE
  5
634
  100
AcDbEntity
  8
1
  100
AcDbLine
  10
12.96951
  20
2.224828
  30
0
  11
12.92401
  21
2.246075
  31
0
  0
LINE
  5
635
  100
AcDbEntity
  8
1
  100
AcDbLine
  10
12.92401
  20
2.246075
  30
0
  11
12.87851
  21
2.267068
  31
0
  0
LINE
  5
636
  100
AcDbEntity
  8
1
  100
AcDbLine
  10
12.87851
  20
2.267068
  30
0
  11
12.83301
  21
2.287805
  31
0
  0
LINE
  5
637
  100
AcDbEntity
  8
1
  100
AcDbLine
  10
12.83301
  20
2.287805
  30
0
  11
12.78751
  21
2.308285
  31
0
  0
LINE
  5
638
  100
AcDbEntity
  8
1
  100
AcDbLine
  10
12.78751
  20
2.308285
  30
0
  11
12.74201
  21
2.328504
  31
0
  0
LINE
  5
639
  100
AcDbEntity
  8
1
  100
AcDbLine
  10
12.74201
  20
2.328504
  30
0
  11
12.69651
  21
2.348461
  31
0
  0
LINE
  5
63a
  100
AcDbEntity
  8
1
  100
AcDbLine
  10
12.69651
  20
2.348461
  30
0
  11
12.65101
  21
2.368152
  31
0
  0
LINE
  5
63b
  100
AcDbEntity
  8
1
  100
AcDbLine
  10
12.65101
  20
2.368152
  30
0
  11
12.60551
  21
2.387577
  31
0
  0
LINE
  5
63c
  100
AcDbEntity
  8
1
  100
AcDbLine
  10
12.60551
  20
2.387577
  30
0
  11
12.56001
  21
2.406732
  31
0
  0
LINE
  5
63d
  100
AcDbEntity
  8
1
  100
AcDbLine
  10
12.56001
  20
2.406732
  30
0
  11
12.51451
  21
2.425616
  31
0
  0
LINE
  5
63e
  100
AcDbEntity
  8
1
  100
AcDbLine
  10
12.51451
  20
2.425616
  30
0
  11
12.46901
  21
2.444226
  31
0
  0
LINE
  5
63f
  100
AcDbEntity
  8
1
  100
AcDbLine
  10
12.46901
  20
2.444226
  30
0
  11
12.42351
  21
2.462561
  31
0
  0
LINE
  5
640
  100
AcDbEntity
  8
1
  100
AcDbLine
  10
12.42351
  20
2.462561
  30
0
  11
12.37801
  21
2.480618
  31
0
  0
LINE
  5
641
  100
AcDbEntity
  8
1
  100
AcDbLine
  10
12.37801
  20
2.480618
  30
0
  11
12.33251
  21
2.498395
  31
0
  0
LINE
  5
642
  100
AcDbEntity
  8
1
  100
AcDbLine
  10
12.33251
  20
2.498395
  30
0
  11
12.28701
  21
2.515891
  31
0
  0
LINE
  5
643
  100
AcDbEntity
  8
1
  100
AcDbLine
  10
12.28701
  20
2.515891
  30
0
  11
12.24151
  21
2.533102
  31
0
  0
LINE
  5
644
  100
AcDbEntity
  8
1
  100
AcDbLine
  10
12.24151
  20
2.533102
  30
0
  11
12.19601
  21
2.550028
  31
0
  0
LINE
  5
645
  100
AcDbEntity
  8
1
  100
AcDbLine
  10
12.19601
  20
2.550028
  30
0
  11
12.15051
  21
2.566667
  31
0
  0
LINE
  5
646
  100
AcDbEntity
  8
1
  100
AcDbLine
  10
12.15051
  20
2.566667
  30
0
  11
12.10501
  21
2.583016
  31
0
  0
LINE
  5
647
  100
AcDbEntity
  8
1
  100
AcDbLine
  10
12.10501
  20
2.583016
  30
0
  11
12.05951
  21
2.599073
  31
0
  0
LINE
  5
648
  100
AcDbEntity
  8
1
  100
AcDbLine
  10
12.05951
  20
2.599073
  30
0
  11
12.01401
  21
2.614838
  31
0
  0
LINE
  5
649
  100
AcDbEntity
  8
1
  100
AcDbLine
  10
12.01401
  20
2.614838
  30
0
  11
11.96851
  21
2.630307
  31
0
  0
LINE
  5
64a
  100
AcDbEntity
  8
1
  100
AcDbLine
  10
11.96851
  20
2.630307
  30
0
  11
11.92301
  21
2.64548
  31
0
  0
LINE
  5
64b
  100
AcDbEntity
  8
1
  100
AcDbLine
  10
11.92301
  20
2.64548
  30
0
  11
11.87751
  21
2.660355
  31
0
  0
LINE
  5
64c
  100
AcDbEntity
  8
1
  100
AcDbLine
  10
11.87751
  20
2.660355
  30
0
  11
11.83201
  21
2.67493
  31
0
  0
LINE
  5
64d
  100
AcDbEntity
  8
1
  100
AcDbLine
  10
11.83201
  20
2.67493
  30
0
  11
11.78651
  21
2.689202
  31
0
  0
LINE
  5
64e
  100
AcDbEntity
  8
1
  100
AcDbLine
  10
11.78651
  20
2.689202
  30
0
  11
11.74101
  21
2.703172
  31
0
  0
LINE
  5
64f
  100
AcDbEntity
  8
1
  100
AcDbLine
  10
11.74101
  20
2.703172
  30
0
  11
11.69551
  21
2.716837
  31
0
  0
LINE
  5
650
  100
AcDbEntity
  8
1
  100
AcDbLine
  10
11.69551
  20
2.716837
  30
0
  11
11.65001
  21
2.730195
  31
0
  0
LINE
  5
651
  100
AcDbEntity
  8
1
  100
AcDbLine
  10
11.65001
  20
2.730195
  30
0
  11
11.60451
  21
2.743246
  31
0
  0
LINE
  5
652
  100
AcDbEntity
  8
1
  100
AcDbLine
  10
11.60451
  20
2.743246
  30
0
  11
11.55901
  21
2.755987
  31
0
  0
LINE
  5
653
  100
AcDbEntity
  8
1
  100
AcDbLine
  10
11.55901
  20
2.755987
  30
0
  11
11.51351
  21
2.768417
  31
0
  0
LINE
  5
654
  100
AcDbEntity
  8
1
  100
AcDbLine
  10
11.51351
  20
2.768417
  30
0
  11
11.46801
  21
2.780535
  31
0
  0
LINE
  5
655
  100
AcDbEntity
  8
1
  100
AcDbLine
  10
11.46801
  20
2.780535
  30
0
  11
11.42251
  21
2.792339
  31
0
  0
LINE
  5
656
  100
AcDbEntity
  8
1
  100
AcDbLine
  10
11.42251
  20
2.792339
  30
0
  11
11.37701
  21
2.803829
  31
0
  0
LINE
  5
657
  100
AcDbEntity
  8
1
  100
AcDbLine
  10
11.37701
  20
2.803829
  30
0
  11
11.33151
  21
2.815002
  31
0
  0
LINE
  5
658
  100
AcDbEntity
  8
1
  100
AcDbLine
  10
11.33151
  20
2.815002
  30
0
  11
11.28601
  21
2.825858
  31
0
  0
LINE
  5
659
  100
AcDbEntity
  8
1
  100
AcDbLine
  10
11.28601
  20
2.825858
  30
0
  11
11.24051
  21
2.836395
  31
0
  0
LINE
  5
65a
  100
AcDbEntity
  8
1
  100
AcDbLine
  10
11.24051
  20
2.836395
  30
0
  11
11.19501
  21
2.846612
  31
0
  0
LINE
  5
65b
  100
AcDbEntity
  8
1
  100
AcDbLine
  10
11.19501
  20
2.846612
  30
0
  11
11.14951
  21
2.856508
  31
0
  0
LINE
  5
65c
  100
AcDbEntity
  8
1
  100
AcDbLine
  10
11.14951
  20
2.856508
  30
0
  11
11.10401
  21
2.866083
  31
0
  0
LINE
  5
65d
  100
AcDbEntity
  8
1
  100
AcDbLine
  10
11.10401
  20
2.866083
  30
0
  11
11.05851
  21
2.875333
  31
0
  0
LINE
  5
65e
  100
AcDbEntity
  8
1
  100
AcDbLine
  10
11.05851
  20
2.875333
  30
0
  11
11.01301
  21
2.88426
  31
0
  0
LINE
  5
65f
  100
AcDbEntity
  8
1
  100
AcDbLine
  10
11.01301
  20
2.88426
  30
0
  11
10.96751
  21
2.892861
  31
0
  0
LINE
  5
660
  100
AcDbEntity
  8
1
  100
AcDbLine
  10
10.96751
  20
2.892861
  30
0
  11
10.92201
  21
2.901136
  31
0
  0
LINE
  5
661
  100
AcDbEntity
  8
1
  100
AcDbLine
  10
10.92201
  20
2.901136
  30
0
  11
10.87651
  21
2.909084
  31
0
  0
LINE
  5
662
  100
AcDbEntity
  8
1
  100
AcDbLine
  10
10.87651
  20
2.909084
  30
0
  11
10.83101
  21
2.916704
  31
0
  0
LINE
  5
663
  100
AcDbEntity
  8
1
  100
AcDbLine
  10
10.83101
  20
2.916704
  30
0
  11
10.78551
  21
2.923994
  31
0
  0
LINE
  5
664
  100
AcDbEntity
  8
1
  100
AcDbLine
  10
10.78551
  20
2.923994
  30
0
  11
10.74001
  21
2.930955
  31
0
  0
LINE
  5
665
  100
AcDbEntity
  8
1
  100
AcDbLine
  10
10.74001
  20
2.930955
  30
0
  11
10.69451
  21
2.937586
  31
0
  0
LINE
  5
666
  100
AcDbEntity
  8
1
  100
AcDbLine
  10
10.69451
  20
2.937586
  30
0
  11
10.64901
  21
2.943885
  31
0
  0
LINE
  5
667
  100
AcDbEntity
  8
1
  100
AcDbLine
  10
10.64901
  20
2.943885
  30
0
  11
10.60351
  21
2.949852
  31
0
  0
LINE
  5
668
  100
AcDbEntity
  8
1
  100
AcDbLine
  10
10.60351
  20
2.949852
  30
0
  11
10.55801
  21
2.955487
  31
0
  0
LINE
  5
669
  100
AcDbEntity
  8
1
  100
AcDbLine
  10
10.55801
  20
2.955487
  30
0
  11
10.51251
  21
2.960788
  31
0
  0
LINE
  5
66a
  100
AcDbEntity
  8
1
  100
AcDbLine
  10
10.51251
  20
2.960788
  30
0
  11
10.46701
  21
2.965755
  31
0
  0
LINE
  5
66b
  100
AcDbEntity
  8
1
  100
AcDbLine
  10
10.46701
  20
2.965755
  30
0
  11
10.42151
  21
2.970388
  31
0
  0
LINE
  5
66c
  100
AcDbEntity
  8
1
  100
AcDbLine
  10
10.42151
  20
2.970388
  30
0
  11
10.37601
  21
2.974685
  31
0
  0
LINE
  5
66d
  100
AcDbEntity
  8
1
  100
AcDbLine
  10
10.37601
  20
2.974685
  30
0
  11
10.33051
  21
2.978648
  31
0
  0
LINE
  5
66e
  100
AcDbEntity
  8
1
  100
AcDbLine
  10
10.33051
  20
2.978648
  30
0
  11
10.28501
  21
2.982274
  31
0
  0
LINE
  5
66f
  100
AcDbEntity
  8
1
  100
AcDbLine
  10
10.28501
  20
2.982274
  30
0
  11
10.23951
  21
2.985564
  31
0
  0
LINE
  5
670
  100
AcDbEntity
  8
1
  100
AcDbLine
  10
10.23951
  20
2.985564
  30
0
  11
10.19401
  21
2.988517
  31
0
  0
LINE
  5
671
  100
AcDbEntity
  8
1
  100
AcDbLine
  10
10.19401
  20
2.988517
  30
0
  11
10.14851
  21
2.991134
  31
0
  0
LINE
  5
672
  100
AcDbEntity
  8
1
  100
AcDbLine
  10
10.14851
  20
2.991134
  30
0
  11
10.10301
  21
2.993413
  31
0
  0
LINE
  5
673
  100
AcDbEntity
  8
1
  100
AcDbLine
  10
10.10301
  20
2.993413
  30
0
  11
10.05751
  21
2.995354
  31
0
  0
LINE
  5
674
  100
AcDbEntity
  8
1
  100
AcDbLine
  10
10.05751
  20
2.995354
  30
0
  11
10.01201
  21
2.996957
  31
0
  0
LINE
  5
675
  100
AcDbEntity
  8
1
  100
AcDbLine
  10
10.01201
  20
2.996957
  30
0
  11
9.96651
  21
2.998223
  31
0
  0
LINE
  5
676
  100
AcDbEntity
  8
1
  100
AcDbLine
  10
9.96651
  20
2.998223
  30
0
  11
9.92101
  21
2.99915
  31
0
  0
LINE
  5
677
  100
AcDbEntity
  8
1
  100
AcDbLine
  10
9.92101
  20
2.99915
  30
0
  11
9.87551
  21
2.999739
  31
0
  0
LINE
  5
678
  100
AcDbEntity
  8
1
  100
AcDbLine
  10
9.87551
  20
2.999739
  30
0
  11
9.83001
  21
2.99999
  31
0
  0
LINE
  5
679
  100
AcDbEntity
  8
1
  100
AcDbLine
  10
9.83001
  20
2.99999
  30
0
  11
9.81903
  21
3
  31
0
  0
LINE
  5
67a
  100
AcDbEntity
  8
1
  100
AcDbLine
  10
8.93301
  20
3
  30
0
  11
8.93301
  21
-3
  31
0
  0
LINE
  5
67b
  100
AcDbEntity
  8
1
  100
AcDbLine
  10
8.517185
  20
-2.75
  30
0
  11
8.51051
  21
-2.749998
  31
0
  0
LINE
  5
67c
  100
AcDbEntity
  8
1
  100
AcDbLine
  10
8.51051
  20
-2.749998
  30
0
  11
8.46501
  21
-2.749964
  31
0
  0
LINE
  5
67d
  100
AcDbEntity
  8
1
  100
AcDbLine
  10
8.46501
  20
-2.749964
  30
0
  11
8.438474
  21
-2.75
  31
0
  0
LINE
  5
67e
  100
AcDbEntity
  8
1
  100
AcDbLine
  10
9.81903
  20
-3
  30
0
  11
9.78451
  21
-2.999903
  31
0
  0
LINE
  5
67f
  100
AcDbEntity
  8
1
  100
AcDbLine
  10
9.78451
  20
-2.999903
  30
0
  11
9.73901
  21
-2.999477
  31
0
  0
LINE
  5
680
  100
AcDbEntity
  8
1
  100
AcDbLine
  10
9.73901
  20
-2.999477
  30
0
  11
9.69351
  21
-2.998713
  31
0
  0
LINE
  5
681
  100
AcDbEntity
  8
1
  100
AcDbLine
  10
9.69351
  20
-2.998713
  30
0
  11
9.64801
  21
-2.99761
  31
0
  0
LINE
  5
682
  100
AcDbEntity
  8
1
  100
AcDbLine
  10
9.64801
  20
-2.99761
  30
0
  11
9.60251
  21
-2.99617
  31
0
  0
LINE
  5
683
  100
AcDbEntity
  8
1
  100
AcDbLine
  10
9.60251
  20
-2.99617
  30
0
  11
9.55701
  21
-2.994392
  31
0
  0
LINE
  5
684
  100
AcDbEntity
  8
1
  100
AcDbLine
  10
9.55701
  20
-2.994392
  30
0
  11
9.51151
  21
-2.992276
  31
0
  0
LINE
  5
685
  100
AcDbEntity
  8
1
  100
AcDbLine
  10
9.51151
  20
-2.992276
  30
0
  11
9.46601
  21
-2.989822
  31
0
  0
LINE
  5
686
  100
AcDbEntity
  8
1
  100
AcDbLine
  10
9.46601
  20
-2.989822
  30
0
  11
9.42051
  21
-2.987032
  31
0
  0
LINE
  5
687
  100
AcDbEntity
  8
1
  100
AcDbLine
  10
9.42051
  20
-2.987032
  30
0
  11
9.37501
  21
-2.983904
  31
0
  0
LINE
  5
688
  100
AcDbEntity
  8
1
  100
AcDbLine
  10
9.37501
  20
-2.983904
  30
0
  11
9.32951
  21
-2.98044
  31
0
  0
LINE
  5
689
  100
AcDbEntity
  8
1
  100
AcDbLine
  10
9.32951
  20
-2.98044
  30
0
  11
9.28401
  21
-2.97664
  31
0
  0
LINE
  5
68a
  100
AcDbEntity
  8
1
  100
AcDbLine
  10
9.28401
  20
-2.97664
  30
0
  11
9.23851
  21
-2.972504
  31
0
  0
LINE
  5
68b
  100
AcDbEntity
  8
1
  100
AcDbLine
  10
9.23851
  20
-2.972504
  30
0
  11
9.19301
  21
-2.968033
  31
0
  0
LINE
  5
68c
  100
AcDbEntity
  8
1
  100
AcDbLine
  10
9.19301
  20
-2.968033
  30
0
  11
9.14751
  21
-2.963227
  31
0
  0
LINE
  5
68d
  100
AcDbEntity
  8
1
  100
AcDbLine
  10
9.14751
  20
-2.963227
  30
0
  11
9.10201
  21
-2.958087
  31
0
  0
LINE
  5
68e
  100
AcDbEntity
  8
1
  100
AcDbLine
  10
9.10201
  20
-2.958087
  30
0
  11
9.05651
  21
-2.952613
  31
0
  0
LINE
  5
68f
  100
AcDbEntity
  8
1
  100
AcDbLine
  10
9.05651
  20
-2.952613
  30
0
  11
9.01101
  21
-2.946806
  31
0
  0
LINE
  5
690
  100
AcDbEntity
  8
1
  100
AcDbLine
  10
9.01101
  20
-2.946806
  30
0
  11
8.96551
  21
-2.940667
  31
0
  0
LINE
  5
691
  100
AcDbEntity
  8
1
  100
AcDbLine
  10
8.96551
  20
-2.940667
  30
0
  11
8.92001
  21
-2.655332
  31
0
  0
LINE
  5
692
  100
AcDbEntity
  8
1
  100
AcDbLine
  10
8.92001
  20
-2.655332
  30
0
  11
8.87451
  21
-2.647585
  31
0
  0
LINE
  5
693
  100
AcDbEntity
  8
1
  100
AcDbLine
  10
8.87451
  20
-2.647585
  30
0
  11
8.82901
  21
-2.639531
  31
0
  0
LINE
  5
694
  100
AcDbEntity
  8
1
  100
AcDbLine
  10
8.82901
  20
-2.639531
  30
0
  11
8.78351
  21
-2.63111
  31
0
  0
LINE
  5
695
  100
AcDbEntity
  8
1
  100
AcDbLine
  10
8.78351
  20
-2.63111
  30
0
  11
8.73801
  21
-2.622111
  31
0
  0
LINE
  5
696
  100
AcDbEntity
  8
1
  100
AcDbLine
  10
8.73801
  20
-2.622111
  30
0
  11
8.69251
  21
-2.611992
  31
0
  0
LINE
  5
697
  100
AcDbEntity
  8
1
  100
AcDbLine
  10
8.69251
  20
-2.611992
  30
0
  11
8.64701
  21
-2.599605
  31
0
  0
LINE
  5
698
  100
AcDbEntity
  8
1
  100
AcDbLine
  10
8.64701
  20
-2.599605
  30
0
  11
8.60151
  21
-2.58277
  31
0
  0
LINE
  5
699
  100
AcDbEntity
  8
1
  100
AcDbLine
  10
8.60151
  20
-2.58277
  30
0
  11
8.55601
  21
-2.55755
  31
0
  0
LINE
  5
69a
  100
AcDbEntity
  8
1
  100
AcDbLine
  10
8.55601
  20
-2.55755
  30
0
  11
8.51051
  21
-2.516962
  31
0
  0
LINE
  5
69b
  100
AcDbEntity
  8
1
  100
AcDbLine
  10
8.51051
  20
-2.516962
  30
0
  11
8.46501
  21
-2.448518
  31
0
  0
LINE
  5
69c
  100
AcDbEntity
  8
1
  100
AcDbLine
  10
8.46501
  20
-2.448518
  30
0
  11
8.41951
  21
-2.329663
  31
0
  0
LINE
  5
69d
  100
AcDbEntity
  8
1
  100
AcDbLine
  10
8.41951
  20
-2.329663
  30
0
  11
8.37401
  21
-2.119979
  31
0
  0
LINE
  5
69e
  100
AcDbEntity
  8
1
  100
AcDbLine
  10
8.37401
  20
-2.119979
  30
0
  11
8.32851
  21
-1.750264
  31
0
  0
LINE
  5
69f
  100
AcDbEntity
  8
1
  100
AcDbLine
  10
8.32851
  20
-1.750264
  30
0
  11
8.28301
  21
-1.115192
  31
0
  0
LINE
  5
6a0
  100
AcDbEntity
  8
1
  100
AcDbLine
  10
8.28301
  20
-1.115192
  30
0
  11
8.28301
  21
-1.15376
  31
0
  0
LINE
  5
6a1
  100
AcDbEntity
  8
1
  100
AcDbLine
  10
8.28301
  20
-1.15376
  30
0
  11
8.32851
  21
-0.434403
  31
0
  0
LINE
  5
6a2
  100
AcDbEntity
  8
1
  100
AcDbLine
  10
8.32851
  20
-0.434403
  30
0
  11
8.37401
  21
-0.121826
  31
0
  0
LINE
  5
6a3
  100
AcDbEntity
  8
1
  100
AcDbLine
  10
8.37401
  20
-0.121826
  30
0
  11
8.41951
  21
-0.010119
  31
0
  0
LINE
  5
6a4
  100
AcDbEntity
  8
1
  100
AcDbLine
  10
8.41951
  20
-0.010119
  30
0
  11
8.46501
  21
0.014159
  31
0
  0
LINE
  5
6a5
  100
AcDbEntity
  8
1
  100
AcDbLine
  10
8.46501
  20
0.014159
  30
0
  11
8.51051
  21
0.003446
  31
0
  0
LINE
  5
6a6
  100
AcDbEntity
  8
1
  100
AcDbLine
  10
8.51051
  20
0.003446
  30
0
  11
8.55601
  21
-0.020045
  31
0
  0
LINE
  5
6a7
  100
AcDbEntity
  8
1
  100
AcDbLine
  10
8.55601
  20
-0.020045
  30
0
  11
8.60151
  21
-0.047712
  31
0
  0
LINE
  5
6a8
  100
AcDbEntity
  8
1
  100
AcDbLine
  10
8.60151
  20
-0.047712
  30
0
  11
8.64701
  21
-0.076562
  31
0
  0
LINE
  5
6a9
  100
AcDbEntity
  8
1
  100
AcDbLine
  10
8.64701
  20
-0.076562
  30
0
  11
8.69251
  21
-0.105688
  31
0
  0
LINE
  5
6aa
  100
AcDbEntity
  8
1
  100
AcDbLine
  10
8.69251
  20
-0.105688
  30
0
  11
8.73801
  21
-0.134857
  31
0
  0
LINE
  5
6ab
  100
AcDbEntity
  8
1
  100
AcDbLine
  10
8.73801
  20
-0.134857
  30
0
  11
8.78351
  21
-0.164017
  31
0
  0
LINE
  5
6ac
  100
AcDbEntity
  8
1
  100
AcDbLine
  10
8.78351
  20
-0.164017
  30
0
  11
8.82901
  21
-0.19316
  31
0
  0
LINE
  5
6ad
  100
AcDbEntity
  8
1
  100
AcDbLine
  10
8.82901
  20
-0.19316
  30
0
  11
8.87451
  21
-0.222281
  31
0
  0
LINE
  5
6ae
  100
AcDbEntity
  8
1
  100
AcDbLine
  10
8.87451
  20
-0.222281
  30
0
  11
8.92001
  21
-0.251377
  31
0
  0
LINE
  5
6af
  100
AcDbEntity
  8
1
  100
AcDbLine
  10
8.92001
  20
-0.251377
  30
0
  11
8.96551
  21
-0.344078
  31
0
  0
LINE
  5
6b0
  100
AcDbEntity
  8
1
  100
AcDbLine
  10
8.96551
  20
-0.344078
  30
0
  11
9.01101
  21
-0.375707
  31
0
  0
LINE
  5
6b1
  100
AcDbEntity
  8
1
  100
AcDbLine
  10
9.01101
  20
-0.375707
  30
0
  11
9.05651
  21
-0.407294
  31
0
  0
LINE
  5
6b2
  100
AcDbEntity
  8
1
  100
AcDbLine
  10
9.05651
  20
-0.407294
  30
0
  11
9.10201
  21
-0.438835
  31
0
  0
LINE
  5
6b3
  100
AcDbEntity
  8
1
  100
AcDbLine
  10
9.10201
  20
-0.438835
  30
0
  11
9.14751
  21
-0.470326
  31
0
  0
LINE
  5
6b4
  100
AcDbEntity
  8
1
  100
AcDbLine
  10
9.14751
  20
-0.470326
  30
0
  11
9.19301
  21
-0.501765
  31
0
  0
LINE
  5
6b5
  100
AcDbEntity
  8
1
  100
AcDbLine
  10
9.19301
  20
-0.501765
  30
0
  11
9.23851
  21
-0.533146
  31
0
  0
LINE
  5
6b6
  100
AcDbEntity
  8
1
  100
AcDbLine
  10
9.23851
  20
-0.533146
  30
0
  11
9.28401
  21
-0.564468
  31
0
  0
LINE
  5
6b7
  100
AcDbEntity
  8
1
  100
AcDbLine
  10
9.28401
  20
-0.564468
  30
0
  11
9.32951
  21
-0.595726
  31
0
  0
LINE
  5
6b8
  100
AcDbEntity
  8
1
  100
AcDbLine
  10
9.32951
  20
-0.595726
  30
0
  11
9.37501
  21
-0.626917
  31
0
  0
LINE
  5
6b9
  100
AcDbEntity
  8
1
  100
AcDbLine
  10
9.37501
  20
-0.626917
  30
0
  11
9.42051
  21
-0.658037
  31
0
  0
LINE
  5
6ba
  100
AcDbEntity
  8
1
  100
AcDbLine
  10
9.42051
  20
-0.658037
  30
0
  11
9.46601
  21
-0.689083
  31
0
  0
LINE
  5
6bb
  100
AcDbEntity
  8
1
  100
AcDbLine
  10
9.46601
  20
-0.689083
  30
0
  11
9.51151
  21
-0.720051
  31
0
  0
LINE
  5
6bc
  100
AcDbEntity
  8
1
  100
AcDbLine
  10
9.51151
  20
-0.720051
  30
0
  11
9.55701
  21
-0.750938
  31
0
  0
LINE
  5
6bd
  100
AcDbEntity
  8
1
  100
AcDbLine
  10
9.55701
  20
-0.750938
  30
0
  11
9.60251
  21
-0.78174
  31
0
  0
LINE
  5
6be
  100
AcDbEntity
  8
1
  100
AcDbLine
  10
9.60251
  20
-0.78174
  30
0
  11
9.64801
  21
-0.812454
  31
0
  0
LINE
  5
6bf
  100
AcDbEntity
  8
1
  100
AcDbLine
  10
9.64801
  20
-0.812454
  30
0
  11
9.69351
  21
-0.843077
  31
0
  0
LINE
  5
6c0
  100
AcDbEntity
  8
1
  100
AcDbLine
  10
9.69351
  20
-0.843077
  30
0
  11
9.73901
  21
-0.873604
  31
0
  0
LINE
  5
6c1
  100
AcDbEntity
  8
1
  100
AcDbLine
  10
9.73901
  20
-0.873604
  30
0
  11
9.78451
  21
-0.904033
  31
0
  0
LINE
  5
6c2
  100
AcDbEntity
  8
1
  100
AcDbLine
  10
9.78451
  20
-0.904033
  30
0
  11
9.83001
  21
-0.93436
  31
0
  0
LINE
  5
6c3
  100
AcDbEntity
  8
1
  100
AcDbLine
  10
9.83001
  20
-0.93436
  30
0
  11
9.87551
  21
-0.964582
  31
0
  0
LINE
  5
6c4
  100
AcDbEntity
  8
1
  100
AcDbLine
  10
9.87551
  20
-0.964582
  30
0
  11
9.92101
  21
-0.994694
  31
0
  0
LINE
  5
6c5
  100
AcDbEntity
  8
1
  100
AcDbLine
  10
9.92101
  20
-0.994694
  30
0
  11
9.96651
  21
-1.024695
  31
0
  0
LINE
  5
6c6
  100
AcDbEntity
  8
1
  100
AcDbLine
  10
9.96651
  20
-1.024695
  30
0
  11
10.01201
  21
-1.05458
  31
0
  0
LINE
  5
6c7
  100
AcDbEntity
  8
1
  100
AcDbLine
  10
10.01201
  20
-1.05458
  30
0
  11
10.05751
  21
-1.084346
  31
0
  0
LINE
  5
6c8
  100
AcDbEntity
  8
1
  100
AcDbLine
  10
10.05751
  20
-1.084346
  30
0
  11
10.10301
  21
-1.11399
  31
0
  0
LINE
  5
6c9
  100
AcDbEntity
  8
1
  100
AcDbLine
  10
10.10301
  20
-1.11399
  30
0
  11
10.14851
  21
-1.143508
  31
0
  0
LINE
  5
6ca
  100
AcDbEntity
  8
1
  100
AcDbLine
  10
10.14851
  20
-1.143508
  30
0
  11
10.19401
  21
-1.172897
  31
0
  0
LINE
  5
6cb
  100
AcDbEntity
  8
1
  100
AcDbLine
  10
10.19401
  20
-1.172897
  30
0
  11
10.23951
  21
-1.202154
  31
0
  0
LINE
  5
6cc
  100
AcDbEntity
  8
1
  100
AcDbLine
  10
10.23951
  20
-1.202154
  30
0
  11
10.28501
  21
-1.231275
  31
0
  0
LINE
  5
6cd
  100
AcDbEntity
  8
1
  100
AcDbLine
  10
10.28501
  20
-1.231275
  30
0
  11
10.33051
  21
-1.260258
  31
0
  0
LINE
  5
6ce
  100
AcDbEntity
  8
1
  100
AcDbLine
  10
10.33051
  20
-1.260258
  30
0
  11
10.37601
  21
-1.289098
  31
0
  0
LINE
  5
6cf
  100
AcDbEntity
  8
1
  100
AcDbLine
  10
10.37601
  20
-1.289098
  30
0
  11
10.42151
  21
-1.317793
  31
0
  0
LINE
  5
6d0
  100
AcDbEntity
  8
1
  100
AcDbLine
  10
10.42151
  20
-1.317793
  30
0
  11
10.46701
  21
-1.346339
  31
0
  0
LINE
  5
6d1
  100
AcDbEntity
  8
1
  100
AcDbLine
  10
10.46701
  20
-1.346339
  30
0
  11
10.51251
  21
-1.374734
  31
0
  0
LINE
  5
6d2
  100
AcDbEntity
  8
1
  100
AcDbLine
  10
10.51251
  20
-1.374734
  30
0
  11
10.55801
  21
-1.402973
  31
0
  0
LINE
  5
6d3
  100
AcDbEntity
  8
1
  100
AcDbLine
  10
10.55801
  20
-1.402973
  30
0
  11
10.60351
  21
-1.431055
  31
0
  0
LINE
  5
6d4
  100
AcDbEntity
  8
1
  100
AcDbLine
  10
10.60351
  20
-1.431055
  30
0
  11
10.64901
  21
-1.458974
  31
0
  0
LINE
  5
6d5
  100
AcDbEntity
  8
1
  100
AcDbLine
  10
10.64901
  20
-1.458974
  30
0
  11
10.69451
  21
-1.48673
  31
0
  0
LINE
  5
6d6
  100
AcDbEntity
  8
1
  100
AcDbLine
  10
10.69451
  20
-1.48673
  30
0
  11
10.74001
  21
-1.514317
  31
0
  0
LINE
  5
6d7
  100
AcDbEntity
  8
1
  100
AcDbLine
  10
10.74001
  20
-1.514317
  30
0
  11
10.78551
  21
-1.541734
  31
0
  0
LINE
  5
6d8
  100
AcDbEntity
  8
1
  100
AcDbLine
  10
10.78551
  20
-1.541734
  30
0
  11
10.83101
  21
-1.568977
  31
0
  0
LINE
  5
6d9
  100
AcDbEntity
  8
1
  100
AcDbLine
  10
10.83101
  20
-1.568977
  30
0
  11
10.87651
  21
-1.596043
  31
0
  0
LINE
  5
6da
  100
AcDbEntity
  8
1
  100
AcDbLine
  10
10.87651
  20
-1.596043
  30
0
  11
10.92201
  21
-1.622929
  31
0
  0
LINE
  5
6db
  100
AcDbEntity
  8
1
  100
AcDbLine
  10
10.92201
  20
-1.622929
  30
0
  11
10.96751
  21
-1.649632
  31
0
  0
LINE
  5
6dc
  100
AcDbEntity
  8
1
  100
AcDbLine
  10
10.96751
  20
-1.649632
  30
0
  11
11.01301
  21
-1.676149
  31
0
  0
LINE
  5
6dd
  100
AcDbEntity
  8
1
  100
AcDbLine
  10
11.01301
  20
-1.676149
  30
0
  11
11.05851
  21
-1.702477
  31
0
  0
LINE
  5
6de
  100
AcDbEntity
  8
1
  100
AcDbLine
  10
11.05851
  20
-1.702477
  30
0
  11
11.10401
  21
-1.728613
  31
0
  0
LINE
  5
6df
  100
AcDbEntity
  8
1
  100
AcDbLine
  10
11.10401
  20
-1.728613
  30
0
  11
11.14951
  21
-1.754554
  31
0
  0
LINE
  5
6e0
  100
AcDbEntity
  8
1
  100
AcDbLine
  10
11.14951
  20
-1.754554
  30
0
  11
11.19501
  21
-1.780297
  31
0
  0
LINE
  5
6e1
  100
AcDbEntity
  8
1
  100
AcDbLine
  10
11.19501
  20
-1.780297
  30
0
  11
11.24051
  21
-1.805839
  31
0
  0
LINE
  5
6e2
  100
AcDbEntity
  8
1
  100
AcDbLine
  10
11.24051
  20
-1.805839
  30
0
  11
11.28601
  21
-1.831178
  31
0
  0
LINE
  5
6e3
  100
AcDbEntity
  8
1
  100
AcDbLine
  10
11.28601
  20
-1.831178
  30
0
  11
11.33151
  21
-1.85631
  31
0
  0
LINE
  5
6e4
  100
AcDbEntity
  8
1
  100
AcDbLine
  10
11.33151
  20
-1.85631
  30
0
  11
11.37701
  21
-1.881233
  31
0
  0
LINE
  5
6e5
  100
AcDbEntity
  8
1
  100
AcDbLine
  10
11.37701
  20
-1.881233
  30
0
  11
11.42251
  21
-1.905943
  31
0
  0
LINE
  5
6e6
  100
AcDbEntity
  8
1
  100
AcDbLine
  10
11.42251
  20
-1.905943
  30
0
  11
11.46801
  21
-1.930439
  31
0
  0
LINE
  5
6e7
  100
AcDbEntity
  8
1
  100
AcDbLine
  10
11.46801
  20
-1.930439
  30
0
  11
11.51351
  21
-1.954717
  31
0
  0
LINE
  5
6e8
  100
AcDbEntity
  8
1
  100
AcDbLine
  10
11.51351
  20
-1.954717
  30
0
  11
11.55901
  21
-1.978774
  31
0
  0
LINE
  5
6e9
  100
AcDbEntity
  8
1
  100
AcDbLine
  10
11.55901
  20
-1.978774
  30
0
  11
11.60451
  21
-2.002608
  31
0
  0
LINE
  5
6ea
  100
AcDbEntity
  8
1
  100
AcDbLine
  10
11.60451
  20
-2.002608
  30
0
  11
11.65001
  21
-2.026217
  31
0
  0
LINE
  5
6eb
  100
AcDbEntity
  8
1
  100
AcDbLine
  10
11.65001
  20
-2.026217
  30
0
  11
11.69551
  21
-2.049597
  31
0
  0
LINE
  5
6ec
  100
AcDbEntity
  8
1
  100
AcDbLine
  10
11.69551
  20
-2.049597
  30
0
  11
11.74101
  21
-2.072746
  31
0
  0
LINE
  5
6ed
  100
AcDbEntity
  8
1
  100
AcDbLine
  10
11.74101
  20
-2.072746
  30
0
  11
11.78651
  21
-2.095661
  31
0
  0
LINE
  5
6ee
  100
AcDbEntity
  8
1
  100
AcDbLine
  10
11.78651
  20
-2.095661
  30
0
  11
11.83201
  21
-2.118339
  31
0
  0
LINE
  5
6ef
  100
AcDbEntity
  8
1
  100
AcDbLine
  10
11.83201
  20
-2.118339
  30
0
  11
11.87751
  21
-2.140779
  31
0
  0
LINE
  5
6f0
  100
AcDbEntity
  8
1
  100
AcDbLine
  10
11.87751
  20
-2.140779
  30
0
  11
11.92301
  21
-2.162977
  31
0
  0
LINE
  5
6f1
  100
AcDbEntity
  8
1
  100
AcDbLine
  10
11.92301
  20
-2.162977
  30
0
  11
11.96851
  21
-2.184932
  31
0
  0
LINE
  5
6f2
  100
AcDbEntity
  8
1
  100
AcDbLine
  10
11.96851
  20
-2.184932
  30
0
  11
12.01401
  21
-2.20664
  31
0
  0
LINE
  5
6f3
  100
AcDbEntity
  8
1
  100
AcDbLine
  10
12.01401
  20
-2.20664
  30
0
  11
12.05951
  21
-2.228099
  31
0
  0
LINE
  5
6f4
  100
AcDbEntity
  8
1
  100
AcDbLine
  10
12.05951
  20
-2.228099
  30
0
  11
12.10501
  21
-2.249307
  31
0
  0
LINE
  5
6f5
  100
AcDbEntity
  8
1
  100
AcDbLine
  10
12.10501
  20
-2.249307
  30
0
  11
12.15051
  21
-2.270261
  31
0
  0
LINE
  5
6f6
  100
AcDbEntity
  8
1
  100
AcDbLine
  10
12.15051
  20
-2.270261
  30
0
  11
12.19601
  21
-2.290959
  31
0
  0
LINE
  5
6f7
  100
AcDbEntity
  8
1
  100
AcDbLine
  10
12.19601
  20
-2.290959
  30
0
  11
12.24151
  21
-2.311399
  31
0
  0
LINE
  5
6f8
  100
AcDbEntity
  8
1
  100
AcDbLine
  10
12.24151
  20
-2.311399
  30
0
  11
12.28701
  21
-2.331578
  31
0
  0
LINE
  5
6f9
  100
AcDbEntity
  8
1
  100
AcDbLine
  10
12.28701
  20
-2.331578
  30
0
  11
12.33251
  21
-2.351494
  31
0
  0
LINE
  5
6fa
  100
AcDbEntity
  8
1
  100
AcDbLine
  10
12.33251
  20
-2.351494
  30
0
  11
12.37801
  21
-2.371145
  31
0
  0
LINE
  5
6fb
  100
AcDbEntity
  8
1
  100
AcDbLine
  10
12.37801
  20
-2.371145
  30
0
  11
12.42351
  21
-2.390528
  31
0
  0
LINE
  5
6fc
  100
AcDbEntity
  8
1
  100
AcDbLine
  10
12.42351
  20
-2.390528
  30
0
  11
12.46901
  21
-2.409642
  31
0
  0
LINE
  5
6fd
  100
AcDbEntity
  8
1
  100
AcDbLine
  10
12.46901
  20
-2.409642
  30
0
  11
12.51451
  21
-2.428484
  31
0
  0
LINE
  5
6fe
  100
AcDbEntity
  8
1
  100
AcDbLine
  10
12.51451
  20
-2.428484
  30
0
  11
12.56001
  21
-2.447053
  31
0
  0
LINE
  5
6ff
  100
AcDbEntity
  8
1
  100
AcDbLine
  10
12.56001
  20
-2.447053
  30
0
  11
12.60551
  21
-2.465345
  31
0
  0
LINE
  5
700
  100
AcDbEntity
  8
1
  100
AcDbLine
  10
12.60551
  20
-2.465345
  30
0
  11
12.65101
  21
-2.483359
  31
0
  0
LINE
  5
701
  100
AcDbEntity
  8
1
  100
AcDbLine
  10
12.65101
  20
-2.483359
  30
0
  11
12.69651
  21
-2.501093
  31
0
  0
LINE
  5
702
  100
AcDbEntity
  8
1
  100
AcDbLine
  10
12.69651
  20
-2.501093
  30
0
  11
12.74201
  21
-2.518545
  31
0
  0
LINE
  5
703
  100
AcDbEntity
  8
1
  100
AcDbLine
  10
12.74201
  20
-2.518545
  30
0
  11
12.78751
  21
-2.535713
  31
0
  0
LINE
  5
704
  100
AcDbEntity
  8
1
  100
AcDbLine
  10
12.78751
  20
-2.535713
  30
0
  11
12.83301
  21
-2.552595
  31
0
  0
LINE
  5
705
  100
AcDbEntity
  8
1
  100
AcDbLine
  10
12.83301
  20
-2.552595
  30
0
  11
12.87851
  21
-2.56919
  31
0
  0
LINE
  5
706
  100
AcDbEntity
  8
1
  100
AcDbLine
  10
12.87851
  20
-2.56919
  30
0
  11
12.92401
  21
-2.585494
  31
0
  0
LINE
  5
707
  100
AcDbEntity
  8
1
  100
AcDbLine
  10
12.92401
  20
-2.585494
  30
0
  11
12.96951
  21
-2.601507
  31
0
  0
LINE
  5
708
  100
AcDbEntity
  8
1
  100
AcDbLine
  10
12.96951
  20
-2.601507
  30
0
  11
13.01501
  21
-2.617226
  31
0
  0
LINE
  5
709
  100
AcDbEntity
  8
1
  100
AcDbLine
  10
13.01501
  20
-2.617226
  30
0
  11
13.06051
  21
-2.632651
  31
0
  0
LINE
  5
70a
  100
AcDbEntity
  8
1
  100
AcDbLine
  10
13.06051
  20
-2.632651
  30
0
  11
13.10601
  21
-2.647778
  31
0
  0
LINE
  5
70b
  100
AcDbEntity
  8
1
  100
AcDbLine
  10
13.10601
  20
-2.647778
  30
0
  11
13.15151
  21
-2.662607
  31
0
  0
LINE
  5
70c
  100
AcDbEntity
  8
1
  100
AcDbLine
  10
13.15151
  20
-2.662607
  30
0
  11
13.19701
  21
-2.677135
  31
0
  0
LINE
  5
70d
  100
AcDbEntity
  8
1
  100
AcDbLine
  10
13.19701
  20
-2.677135
  30
0
  11
13.24251
  21
-2.691362
  31
0
  0
LINE
  5
70e
  100
AcDbEntity
  8
1
  100
AcDbLine
  10
13.24251
  20
-2.691362
  30
0
  11
13.28801
  21
-2.705285
  31
0
  0
LINE
  5
70f
  100
AcDbEntity
  8
1
  100
AcDbLine
  10
13.28801
  20
-2.705285
  30
0
  11
13.33351
  21
-2.718903
  31
0
  0
LINE
  5
710
  100
AcDbEntity
  8
1
  100
AcDbLine
  10
13.33351
  20
-2.718903
  30
0
  11
13.37901
  21
-2.732214
  31
0
  0
LINE
  5
711
  100
AcDbEntity
  8
1
  100
AcDbLine
  10
13.37901
  20
-2.732214
  30
0
  11
13.42451
  21
-2.745217
  31
0
  0
LINE
  5
712
  100
AcDbEntity
  8
1
  100
AcDbLine
  10
13.42451
  20
-2.745217
  30
0
  11
13.47001
  21
-2.757911
  31
0
  0
LINE
  5
713
  100
AcDbEntity
  8
1
  100
AcDbLine
  10
13.47001
  20
-2.757911
  30
0
  11
13.51551
  21
-2.770293
  31
0
  0
LINE
  5
714
  100
AcDbEntity
  8
1
  100
AcDbLine
  10
13.51551
  20
-2.770293
  30
0
  11
13.56101
  21
-2.782363
  31
0
  0
LINE
  5
715
  100
AcDbEntity
  8
1
  100
AcDbLine
  10
13.56101
  20
-2.782363
  30
0
  11
13.60651
  21
-2.79412
  31
0
  0
LINE
  5
716
  100
AcDbEntity
  8
1
  100
AcDbLine
  10
13.60651
  20
-2.79412
  30
0
  11
13.65201
  21
-2.805561
  31
0
  0
LINE
  5
717
  100
AcDbEntity
  8
1
  100
AcDbLine
  10
13.65201
  20
-2.805561
  30
0
  11
13.69751
  21
-2.816685
  31
0
  0
LINE
  5
718
  100
AcDbEntity
  8
1
  100
AcDbLine
  10
13.69751
  20
-2.816685
  30
0
  11
13.74301
  21
-2.827493
  31
0
  0
LINE
  5
719
  100
AcDbEntity
  8
1
  100
AcDbLine
  10
13.74301
  20
-2.827493
  30
0
  11
13.78851
  21
-2.837981
  31
0
  0
LINE
  5
71a
  100
AcDbEntity
  8
1
  100
AcDbLine
  10
13.78851
  20
-2.837981
  30
0
  11
13.83401
  21
-2.848149
  31
0
  0
LINE
  5
71b
  100
AcDbEntity
  8
1
  100
AcDbLine
  10
13.83401
  20
-2.848149
  30
0
  11
13.87951
  21
-2.857996
  31
0
  0
LINE
  5
71c
  100
AcDbEntity
  8
1
  100
AcDbLine
  10
13.87951
  20
-2.857996
  30
0
  11
13.92501
  21
-2.86752
  31
0
  0
LINE
  5
71d
  100
AcDbEntity
  8
1
  100
AcDbLine
  10
13.92501
  20
-2.86752
  30
0
  11
13.97051
  21
-2.876722
  31
0
  0
LINE
  5
71e
  100
AcDbEntity
  8
1
  100
AcDbLine
  10
13.97051
  20
-2.876722
  30
0
  11
14.01601
  21
-2.885598
  31
0
  0
LINE
  5
71f
  100
AcDbEntity
  8
1
  100
AcDbLine
  10
14.01601
  20
-2.885598
  30
0
  11
14.06151
  21
-2.89415
  31
0
  0
LINE
  5
720
  100
AcDbEntity
  8
1
  100
AcDbLine
  10
14.06151
  20
-2.89415
  30
0
  11
14.10701
  21
-2.902375
  31
0
  0
LINE
  5
721
  100
AcDbEntity
  8
1
  100
AcDbLine
  10
14.10701
  20
-2.902375
  30
0
  11
14.15251
  21
-2.910272
  31
0
  0
LINE
  5
722
  100
AcDbEntity
  8
1
  100
AcDbLine
  10
14.15251
  20
-2.910272
  30
0
  11
14.19801
  21
-2.917842
  31
0
  0
LINE
  5
723
  100
AcDbEntity
  8
1
  100
AcDbLine
  10
14.19801
  20
-2.917842
  30
0
  11
14.24351
  21
-2.925082
  31
0
  0
LINE
  5
724
  100
AcDbEntity
  8
1
  100
AcDbLine
  10
14.24351
  20
-2.925082
  30
0
  11
14.28901
  21
-2.931992
  31
0
  0
LINE
  5
725
  100
AcDbEntity
  8
1
  100
AcDbLine
  10
14.28901
  20
-2.931992
  30
0
  11
14.33451
  21
-2.938572
  31
0
  0
LINE
  5
726
  100
AcDbEntity
  8
1
  100
AcDbLine
  10
14.33451
  20
-2.938572
  30
0
  11
14.38001
  21
-2.94482
  31
0
  0
LINE
  5
727
  100
AcDbEntity
  8
1
  100
AcDbLine
  10
14.38001
  20
-2.94482
  30
0
  11
14.42551
  21
-2.950737
  31
0
  0
LINE
  5
728
  100
AcDbEntity
  8
1
  100
AcDbLine
  10
14.42551
  20
-2.950737
  30
0
  11
14.47101
  21
-2.95632
  31
0
  0
LINE
  5
729
  100
AcDbEntity
  8
1
  100
AcDbLine
  10
14.47101
  20
-2.95632
  30
0
  11
14.51651
  21
-2.96157
  31
0
  0
LINE
  5
72a
  100
AcDbEntity
  8
1
  100
AcDbLine
  10
14.51651
  20
-2.96157
  30
0
  11
14.56201
  21
-2.966486
  31
0
  0
LINE
  5
72b
  100
AcDbEntity
  8
1
  100
AcDbLine
  10
14.56201
  20
-2.966486
  30
0
  11
14.60751
  21
-2.971068
  31
0
  0
LINE
  5
72c
  100
AcDbEntity
  8
1
  100
AcDbLine
  10
14.60751
  20
-2.971068
  30
0
  11
14.65301
  21
-2.975314
  31
0
  0
LINE
  5
72d
  100
AcDbEntity
  8
1
  100
AcDbLine
  10
14.65301
  20
-2.975314
  30
0
  11
14.69851
  21
-2.979225
  31
0
  0
LINE
  5
72e
  100
AcDbEntity
  8
1
  100
AcDbLine
  10
14.69851
  20
-2.979225
  30
0
  11
14.74401
  21
-2.9828
  31
0
  0
LINE
  5
72f
  100
AcDbEntity
  8
1
  100
AcDbLine
  10
14.74401
  20
-2.9828
  30
0
  11
14.78951
  21
-2.986038
  31
0
  0
LINE
  5
730
  100
AcDbEntity
  8
1
  100
AcDbLine
  10
14.78951
  20
-2.986038
  30
0
  11
14.83501
  21
-2.98894
  31
0
  0
LINE
  5
731
  100
AcDbEntity
  8
1
  100
AcDbLine
  10
14.83501
  20
-2.98894
  30
0
  11
14.88051
  21
-2.991505
  31
0
  0
LINE
  5
732
  100
AcDbEntity
  8
1
  100
AcDbLine
  10
14.88051
  20
-2.991505
  30
0
  11
14.92601
  21
-2.993732
  31
0
  0
LINE
  5
733
  100
AcDbEntity
  8
1
  100
AcDbLine
  10
14.92601
  20
-2.993732
  30
0
  11
14.97151
  21
-2.995621
  31
0
  0
LINE
  5
734
  100
AcDbEntity
  8
1
  100
AcDbLine
  10
14.97151
  20
-2.995621
  30
0
  11
15.01701
  21
-2.997173
  31
0
  0
LINE
  5
735
  100
AcDbEntity
  8
1
  100
AcDbLine
  10
15.01701
  20
-2.997173
  30
0
  11
15.06251
  21
-2.998387
  31
0
  0
LINE
  5
736
  100
AcDbEntity
  8
1
  100
AcDbLine
  10
15.06251
  20
-2.998387
  30
0
  11
15.10801
  21
-2.999262
  31
0
  0
LINE
  5
737
  100
AcDbEntity
  8
1
  100
AcDbLine
  10
15.10801
  20
-2.999262
  30
0
  11
15.15351
  21
-2.9998
  31
0
  0
LINE
  5
738
  100
AcDbEntity
  8
1
  100
AcDbLine
  10
15.15351
  20
-2.9998
  30
0
  11
15.19901
  21
-2.999999
  31
0
  0
LINE
  5
739
  100
AcDbEntity
  8
1
  100
AcDbLine
  10
15.19901
  20
-2.999999
  30
0
  11
15.203021
  21
-3
  31
0
  0
LINE
  5
73a
  100
AcDbEntity
  8
1
  100
AcDbLine
  10
0.93301
  20
-2.75
  30
0
  11
0.93301
  21
2.75
  31
0
  0
LINE
  5
73b
  100
AcDbEntity
  8
1
  100
AcDbLine
  10
-0
  20
3
  30
0
  11
-0
  21
-3
  31
0
  0
LINE
  5
73c
  100
AcDbEntity
  8
1
  100
AcDbLine
  10
-0
  20
-3
  30
0
  11
-0
  21
3
  31
0
  0
LINE
  5
73d
  100
AcDbEntity
  8
SK1
  100
AcDbLine
  10
-0
  20
3
  30
0
  11
-10.66699
  21
3
  31
0
  0
LINE
  5
73e
  100
AcDbEntity
  8
SK1
  100
AcDbLine
  10
-10.66699
  20
3
  30
0
  11
-11.56699
  21
2.1
  31
0
  0
LINE
  5
73f
  100
AcDbEntity
  8
SK1
  100
AcDbLine
  10
-11.56699
  20
2.1
  30
0
  11
-18.56699
  21
2.1
  31
0
  0
LINE
  5
740
  100
AcDbEntity
  8
SK1
  100
AcDbLine
  10
-18.56699
  20
2.1
  30
0
  11
-19.46699
  21
3
  31
0
  0
LINE
  5
741
  100
AcDbEntity
  8
SK1
  100
AcDbLine
  10
-19.46699
  20
3
  30
0
  11
-34.56699
  21
3
  31
0
  0
LINE
  5
742
  100
AcDbEntity
  8
SK1
  100
AcDbLine
  10
-34.56699
  20
3
  30
0
  11
-35.06699
  21
2.5
  31
0
  0
LINE
  5
743
  100
AcDbEntity
  8
SK1
  100
AcDbLine
  10
-0
  20
-3
  30
0
  11
-34.56699
  21
-3
  31
0
  0
LINE
  5
744
  100
AcDbEntity
  8
SK1
  100
AcDbLine
  10
-34.56699
  20
-3
  30
0
  11
-35.06699
  21
-2.5
  31
0
  0
LINE
  5
745
  100
AcDbEntity
  8
SK1
  100
AcDbLine
  10
-0
  20
3
  30
0
  11
-0
  21
-3
  31
0
  0
LINE
  5
746
  100
AcDbEntity
  8
SK1
  100
AcDbLine
  10
-0
  20
3
  30
0
  11
-0
  21
-3
  31
0
  0
LINE
  5
747
  100
AcDbEntity
  8
SK1
  100
AcDbLine
  10
-34.56699
  20
3
  30
0
  11
-34.56699
  21
-3
  31
0
  0
LINE
  5
748
  100
AcDbEntity
  8
SK1
  100
AcDbLine
  10
-35.06699
  20
2.5
  30
0
  11
-35.06699
  21
-2.5
  31
0
  0
LINE
  5
7ab
  100
AcDbEntity
  8
NOCUT
  100
AcDbLine
  10
8.93301
  20
0
  30
0
  11
8.93301
  21
2.75
  31
0
  0
LINE
  5
7ac
  100
AcDbEntity
  8
NOCUT
  100
AcDbLine
  10
8.93301
  20
2.75
  30
0
  11
0.93301
  21
2.75
  31
0
  0
LINE
  5
7ad
  100
AcDbEntity
  8
NOCUT
  100
AcDbLine
  10
0.93301
  20
2.75
  30
0
  11
-0
  21
3
  31
0
  0
LINE
  5
7ae
  100
AcDbEntity
  8
NOCUT
  100
AcDbLine
  10
-0
  20
3
  30
0
  11
-10.66699
  21
3
  31
0
  0
LINE
  5
7af
  100
AcDbEntity
  8
NOCUT
  100
AcDbLine
  10
-10.66699
  20
3
  30
0
  11
-11.56699
  21
2.1
  31
0
  0
LINE
  5
7b0
  100
AcDbEntity
  8
NOCUT
  100
AcDbLine
  10
-11.56699
  20
2.1
  30
0
  11
-18.56699
  21
2.1
  31
0
  0
LINE
  5
7b1
  100
AcDbEntity
  8
NOCUT
  100
AcDbLine
  10
-18.56699
  20
2.1
  30
0
  11
-19.46699
  21
3
  31
0
  0
LINE
  5
7b2
  100
AcDbEntity
  8
NOCUT
  100
AcDbLine
  10
-19.46699
  20
3
  30
0
  11
-34.56699
  21
3
  31
0
  0
LINE
  5
7b3
  100
AcDbEntity
  8
NOCUT
  100
AcDbLine
  10
-34.56699
  20
3
  30
0
  11
-35.06699
  21
2.5
  31
0
  0
LINE
  5
7b4
  100
AcDbEntity
  8
NOCUT
  100
AcDbLine
  10
-35.06699
  20
2.5
  30
0
  11
-35.06699
  21
0
  31
0
  0
LINE
  5
7b5
  100
AcDbEntity
  8
NOCUT
  100
AcDbLine
  10
-35.06699
  20
0
  30
0
  11
8.93301
  21
0
  31
0
  0
LINE
  5
7b6
  100
AcDbEntity
  8
CUT
  100
AcDbLine
  10
21.93301
  20
0
  30
0
  11
21.93301
  21
2.8
  31
0
  0
LINE
  5
7b7
  100
AcDbEntity
  8
CUT
  100
AcDbLine
  10
21.93301
  20
2.8
  30
0
  11
21.73301
  21
3
  31
0
  0
LINE
  5
7b8
  100
AcDbEntity
  8
CUT
  100
AcDbLine
  10
21.73301
  20
3
  30
0
  11
8.93301
  21
3
  31
0
  0
LINE
  5
7b9
  100
AcDbEntity
  8
CUT
  100
AcDbLine
  10
8.93301
  20
3
  30
0
  11
8.93301
  21
0
  31
0
  0
LINE
  5
7ba
  100
AcDbEntity
  8
CUT
  100
AcDbLine
  10
8.93301
  20
0
  30
0
  11
21.93301
  21
0
  31
0
  0
LINE
  5
7bb
  100
AcDbEntity
  8
4
  100
AcDbLine
  10
-35.06699
  20
0
  30
0
  11
21.93301
  21
0
  31
0
  0
LINE
  5
7bc
  100
AcDbEntity
  8
INFTOTAL
  100
AcDbLine
  10
-51.509693
  20
48.927313
  30
0
  11
46.229775
  21
48.927313
  31
0
  0
LINE
  5
7bd
  100
AcDbEntity
  8
INFTOTAL
  100
AcDbLine
  10
46.229775
  20
48.927313
  30
0
  11
46.229775
  21
-18.283007
  31
0
  0
LINE
  5
7be
  100
AcDbEntity
  8
INFTOTAL
  100
AcDbLine
  10
46.229775
  20
-18.283007
  30
0
  11
-51.509693
  21
-18.283007
  31
0
  0
LINE
  5
7bf
  100
AcDbEntity
  8
INFTOTAL
  100
AcDbLine
  10
-51.509693
  20
-18.283007
  30
0
  11
-51.509693
  21
48.927313
  31
0
  0
ENDSEC
  0
SECTION
  2
OBJECTS
  0
DICTIONARY
  5
7c0
  330
0
100
AcDbDictionary
281
    1
  3
ACAD_GROUP
  350
7c1
  0
DICTIONARY
  5
7c1
102
{ACAD_REACTORS
  330
7c0
102
}
  330
7c0
100
AcDbDictionary
281
    1
  0
ENDSEC
  0
EOF
