  0
SECTION
  2
HEADER
  9
$ACADVER
  1
AC1015
  9
$DWGCODEPAGE
  3
ansi_1252
  9
$HANDSEED
  5
106AB90
  9
$INSUNITS
  70
4
  0
ENDSEC
  0
SECTION
  2
TABLES
  0
TABLE
  2
VPORT
  5
2
  330
0
  100
AcDbSymbolTable
  70
    0
  0
ENDTAB
  0
TABLE
  2
LTYPE
  5
3
  330
0
  100
AcDbSymbolTable
  70
    4
  0
LTYPE
  5
4
  330
3
  100
AcDbSymbolTableRecord
  100
AcDbLinetypeTableRecord
  2
ByBlock
  70
    0
  3

  72
65
  73
    0
  40
0
  0
LTYPE
  5
5
  330
3
  100
AcDbSymbolTableRecord
  100
AcDbLinetypeTableRecord
  2
ByLayer
  70
    0
  3

  72
65
  73
    0
  40
0
  0
LTYPE
  5
6
  330
3
  100
AcDbSymbolTableRecord
  100
AcDbLinetypeTableRecord
  2
CONTINUOUS
  70
    0
  3
Solid Line
  72
65
  73
    0
  40
0
  0
LTYPE
  5
7
  330
3
  100
AcDbSymbolTableRecord
  100
AcDbLinetypeTableRecord
  2
DASH
  70
    0
  3
Hidden
  72
65
  73
2
  40
2.5
  49
1.5
  74
0
  49
-1
  74
0
  0
LTYPE
  5
8
  330
3
  100
AcDbSymbolTableRecord
  100
AcDbLinetypeTableRecord
  2
LONGDASHDASH
  70
    0
  3
__ . __
  72
65
  73
    4
  40
7
  49
4
  74
    0
  49
-1
  74
    0
  49
1
  74
    0
  49
-1
  74
    0
  0
ENDTAB
  0
TABLE
  2
LAYER
  5
9
  330
0
  100
AcDbSymbolTable
  70
    40
  0
LAYER
  5
a
  330
9
  100
AcDbSymbolTableRecord
  100
AcDbLayerTableRecord
  2
0
  70
    0
  62
    0
  6
CONTINUOUS
  390
0
  0
LAYER
  5
b
  330
9
  100
AcDbSymbolTableRecord
  100
AcDbLayerTableRecord
  2
DEFPOINT
  70
    0
  62
    0
  6
CONTINUOUS
  390
0
  0
LAYER
  5
c
  330
9
  100
AcDbSymbolTableRecord
  100
AcDbLayerTableRecord
  2
1
  70
    0
  62
    4
  6
CONTINUOUS
  370
50
  390
0
  0
LAYER
  5
d
  330
9
  100
AcDbSymbolTableRecord
  100
AcDbLayerTableRecord
  2
2
  70
    0
  62
    7
  6
CONTINUOUS
  370
25
  390
0
  0
LAYER
  5
e
  330
9
  100
AcDbSymbolTableRecord
  100
AcDbLayerTableRecord
  2
3
  70
    0
  62
    1
  6
DASH
  370
35
  390
0
  0
LAYER
  5
f
  330
9
  100
AcDbSymbolTableRecord
  100
AcDbLayerTableRecord
  2
4
  70
    0
  62
    2
  6
LONGDASHDASH
  370
25
  390
0
  0
LAYER
  5
10
  330
9
  100
AcDbSymbolTableRecord
  100
AcDbLayerTableRecord
  2
6
  70
    0
  62
    5
  6
CONTINUOUS
  390
0
  0
LAYER
  5
11
  330
9
  100
AcDbSymbolTableRecord
  100
AcDbLayerTableRecord
  2
7
  70
    0
  62
    5
  6
CONTINUOUS
  370
25
  390
0
  0
LAYER
  5
12
  330
9
  100
AcDbSymbolTableRecord
  100
AcDbLayerTableRecord
  2
11
  70
    0
  62
    4
  6
CONTINUOUS
  370
25
  390
0
  0
LAYER
  5
13
  330
9
  100
AcDbSymbolTableRecord
  100
AcDbLayerTableRecord
  2
SK1
  70
    0
  62
    4
  6
CONTINUOUS
  370
50
  390
0
  0
LAYER
  5
14
  330
9
  100
AcDbSymbolTableRecord
  100
AcDbLayerTableRecord
  2
SK2
  70
    0
  62
    7
  6
CONTINUOUS
  370
25
  390
0
  0
LAYER
  5
15
  330
9
  100
AcDbSymbolTableRecord
  100
AcDbLayerTableRecord
  2
SK3
  70
    0
  62
    1
  6
DASH
  370
35
  390
0
  0
LAYER
  5
16
  330
9
  100
AcDbSymbolTableRecord
  100
AcDbLayerTableRecord
  2
SK4
  70
    0
  62
    2
  6
LONGDASHDASH
  370
25
  390
0
  0
LAYER
  5
17
  330
9
  100
AcDbSymbolTableRecord
  100
AcDbLayerTableRecord
  2
SK6
  70
    0
  62
    5
  6
CONTINUOUS
  390
0
  0
LAYER
  5
18
  330
9
  100
AcDbSymbolTableRecord
  100
AcDbLayerTableRecord
  2
SK7
  70
    0
  62
    5
  6
CONTINUOUS
  370
25
  390
0
  0
LAYER
  5
19
  330
9
  100
AcDbSymbolTableRecord
  100
AcDbLayerTableRecord
  2
SK11
  70
    0
  62
    4
  6
CONTINUOUS
  370
25
  390
0
  0
LAYER
  5
1a
  330
9
  100
AcDbSymbolTableRecord
  100
AcDbLayerTableRecord
  2
SKVIEW1
  70
    0
  62
    4
  6
CONTINUOUS
  370
50
  390
0
  0
LAYER
  5
1b
  330
9
  100
AcDbSymbolTableRecord
  100
AcDbLayerTableRecord
  2
SKVIEW2
  70
    0
  62
    7
  6
CONTINUOUS
  370
25
  390
0
  0
LAYER
  5
1c
  330
9
  100
AcDbSymbolTableRecord
  100
AcDbLayerTableRecord
  2
SKVIEW3
  70
    0
  62
    1
  6
DASH
  370
35
  390
0
  0
LAYER
  5
1d
  330
9
  100
AcDbSymbolTableRecord
  100
AcDbLayerTableRecord
  2
SKVIEW4
  70
    0
  62
    2
  6
LONGDASHDASH
  370
25
  390
0
  0
LAYER
  5
1e
  330
9
  100
AcDbSymbolTableRecord
  100
AcDbLayerTableRecord
  2
SKVIEW6
  70
    0
  62
    5
  6
CONTINUOUS
  390
0
  0
LAYER
  5
1f
  330
9
  100
AcDbSymbolTableRecord
  100
AcDbLayerTableRecord
  2
SKVIEW7
  70
    0
  62
    5
  6
CONTINUOUS
  370
25
  390
0
  0
LAYER
  5
20
  330
9
  100
AcDbSymbolTableRecord
  100
AcDbLayerTableRecord
  2
SKVIEW11
  70
    0
  62
    4
  6
CONTINUOUS
  370
25
  390
0
  0
LAYER
  5
21
  330
9
  100
AcDbSymbolTableRecord
  100
AcDbLayerTableRecord
  2
NOCUT
  70
    0
  62
    7
  6
CONTINUOUS
  370
25
  390
0
  0
LAYER
  5
22
  330
9
  100
AcDbSymbolTableRecord
  100
AcDbLayerTableRecord
  2
CUT
  70
    0
  62
    1
  6
CONTINUOUS
  370
25
  390
0
  0
LAYER
  5
23
  330
9
  100
AcDbSymbolTableRecord
  100
AcDbLayerTableRecord
  2
FRAME50
  70
    0
  62
    7
  6
CONTINUOUS
  390
0
  0
LAYER
  5
24
  330
9
  100
AcDbSymbolTableRecord
  100
AcDbLayerTableRecord
  2
53
  70
    0
  62
    5
  6
CONTINUOUS
  390
0
  0
LAYER
  5
25
  330
9
  100
AcDbSymbolTableRecord
  100
AcDbLayerTableRecord
  2
INFTEXT
  70
    0
  62
    5
  6
CONTINUOUS
  390
0
  0
LAYER
  5
26
  330
9
  100
AcDbSymbolTableRecord
  100
AcDbLayerTableRecord
  2
INFTOTAL
  70
    0
  62
    9
  6
CONTINUOUS
  370
18
  390
0
  0
ENDTAB
  0
TABLE
  2
STYLE
  5
27
  330
0
  100
AcDbSymbolTable
  70
    1
  0
STYLE
  5
28
  330
27
  100
AcDbSymbolTableRecord
  100
AcDbTextStyleTableRecord
  2
Monospac821 BT
  70
    0
  40
    3.5
  41
1
  50
0
  71
0
  42
3
  3

  4

  1001
ACAD
  1000
Monospac821 BT
  1071
256
  0
ENDTAB
  0
TABLE
  2
VIEW
  5
29
  330
0
  100
AcDbSymbolTable
  70
    0
  0
ENDTAB
  0
TABLE
  2
UCS
  5
2a
  330
0
  100
AcDbSymbolTable
  70
    0
  0
ENDTAB
  0
TABLE
  2
APPID
  5
2b
  330
0
  100
AcDbSymbolTable
  70
    1
  0
APPID
  5
2c
  330
2b
  100
AcDbSymbolTableRecord
  100
AcDbRegAppTableRecord
  2
ACAD
  70
    0
  0
ENDTAB
  0
TABLE
  2
DIMSTYLE
  5
2d
  330
0
  100
AcDbSymbolTable
  70
    1
  100
AcDbDimStyleTable
  0
DIMSTYLE
  105
2e
  330
2d
  100
AcDbSymbolTableRecord
  100
AcDbDimStyleTableRecord
  2
STANDARD
  70
    0
  41
    3
  42
0.5
  44
1
  73
0
  77
1
  78
1
  140
3.5
  141
2.5
  143
0.03937
  147
0.8
  172
1
  174
1
  178
0
  179
1
  271
2
  279
1
  284
1
  340
28
  0
ENDTAB
  0
TABLE
  2
BLOCK_RECORD
  5
2f
  330
0
  100
AcDbSymbolTable
  70
    2
  0
BLOCK_RECORD
  5
30
  330
2f
  100
AcDbSymbolTableRecord
  100
AcDbBlockTableRecord
  2
*Model_Space
  0
BLOCK_RECORD
  5
31
  330
2f
  100
AcDbSymbolTableRecord
  100
AcDbBlockTableRecord
  2
*Paper_Space
  0
BLOCK_RECORD
  5
821
  330
2f
  100
AcDbSymbolTableRecord
  100
AcDbBlockTableRecord
  2
*D820
  340
0
  0
BLOCK_RECORD
  5
82f
  330
2f
  100
AcDbSymbolTableRecord
  100
AcDbBlockTableRecord
  2
*D82e
  340
0
  0
BLOCK_RECORD
  5
83d
  330
2f
  100
AcDbSymbolTableRecord
  100
AcDbBlockTableRecord
  2
*D83c
  340
0
  0
BLOCK_RECORD
  5
84b
  330
2f
  100
AcDbSymbolTableRecord
  100
AcDbBlockTableRecord
  2
*D84a
  340
0
  0
BLOCK_RECORD
  5
859
  330
2f
  100
AcDbSymbolTableRecord
  100
AcDbBlockTableRecord
  2
*D858
  340
0
  0
BLOCK_RECORD
  5
867
  330
2f
  100
AcDbSymbolTableRecord
  100
AcDbBlockTableRecord
  2
*D866
  340
0
  0
BLOCK_RECORD
  5
875
  330
2f
  100
AcDbSymbolTableRecord
  100
AcDbBlockTableRecord
  2
*D874
  340
0
  0
ENDTAB
  0
ENDSEC
  0
SECTION
  2
BLOCKS
  0
BLOCK
  5
32
  330
30
  100
AcDbEntity
  8
0
  100
AcDbBlockBegin
  2
*Model_Space
  70
    0
  10
0
  20
0
  30
0
  3
*Model_Space
  1

  0
ENDBLK
  5
33
  330
30
  100
AcDbEntity
  8
0
  100
AcDbBlockEnd
  0
BLOCK
  5
34
  330
31
  100
AcDbEntity
  8
0
  100
AcDbBlockBegin
  2
*Paper_Space
  70
    0
  10
0
  20
0
  30
0
  3
*Paper_Space
  1

  0
ENDBLK
  5
35
  330
31
  100
AcDbEntity
  8
0
  100
AcDbBlockEnd
  0
BLOCK
  5
81f
  330
821
  100
AcDbEntity
  8
SK2
  100
AcDbBlockBegin
  2
*D820
  70
1
  10
0
  20
0
  30
0
  3
*D820
  1

  0
LINE
  5
822
  330
821
  100
AcDbEntity
  8
SK2
  100
AcDbLine
  10
44.93301
  20
0
  30
0
  11
44.93301
  21
44.48461
  31
0
  0
LINE
  5
823
  330
821
  100
AcDbEntity
  8
SK2
  100
AcDbLine
  10
-47.06699
  20
7.5
  30
0
  11
-47.06699
  21
44.48461
  31
0
  0
LINE
  5
824
  330
821
  100
AcDbEntity
  8
SK2
  100
AcDbLine
  10
44.93301
  20
42.48461
  30
0
  11
-47.06699
  21
42.48461
  31
0
  0
SOLID
  5
825
  330
821
  100
AcDbEntity
  8
SK2
  100
AcDbTrace
  10
44.93301
  20
42.48461
  30
0
  11
42.454398
  21
42.158294
  31
0
  12
42.454398
  22
42.810925
  32
0
  13
42.454398
  23
42.810925
  33
0
  0
SOLID
  5
826
  330
821
  100
AcDbEntity
  8
SK2
  100
AcDbTrace
  10
-47.06699
  20
42.48461
  30
0
  11
-44.588378
  21
42.810925
  31
0
  12
-44.588378
  22
42.158294
  32
0
  13
-44.588378
  23
42.158294
  33
0
  0
MTEXT
  5
827
  330
821
  100
AcDbEntity
  8
SK2
  100
AcDbMText
  10
-1.06699
  20
42.48461
  30
0
  11
1
  21
-0
  31
0
  40
2
  41
0
  71
8
  72
1
  1
92+2
  0
POINT
  5
828
  330
821
  100
AcDbEntity
  8
SK2
  62
0
  100
AcDbPoint
  10
44.93301
  20
0
  30
0
  0
POINT
  5
829
  330
821
  100
AcDbEntity
  8
SK2
  62
0
  100
AcDbPoint
  10
-47.06699
  20
7.5
  30
0
  0
POINT
  5
82a
  330
821
  100
AcDbEntity
  8
SK2
  62
0
  100
AcDbPoint
  10
-47.06699
  20
42.48461
  30
0
  0
ENDBLK
  5
82b
  330
821
  100
AcDbEntity
  8
SK2
  100
AcDbBlockEnd
  0
BLOCK
  5
82d
  330
82f
  100
AcDbEntity
  8
SK2
  100
AcDbBlockBegin
  2
*D82e
  70
1
  10
0
  20
0
  30
0
  3
*D82e
  1

  0
LINE
  5
830
  330
82f
  100
AcDbEntity
  8
SK2
  100
AcDbLine
  10
-46.56699
  20
-8
  30
0
  11
-59.06699
  21
-8
  31
0
  0
LINE
  5
831
  330
82f
  100
AcDbEntity
  8
SK2
  100
AcDbLine
  10
-46.56699
  20
8
  30
0
  11
-59.06699
  21
8
  31
0
  0
LINE
  5
832
  330
82f
  100
AcDbEntity
  8
SK2
  100
AcDbLine
  10
-57.06699
  20
-8
  30
0
  11
-57.06699
  21
8
  31
0
  0
SOLID
  5
833
  330
82f
  100
AcDbEntity
  8
SK2
  100
AcDbTrace
  10
-57.06699
  20
-8
  30
0
  11
-57.393306
  21
-5.521388
  31
0
  12
-56.740675
  22
-5.521388
  32
0
  13
-56.740675
  23
-5.521388
  33
0
  0
SOLID
  5
834
  330
82f
  100
AcDbEntity
  8
SK2
  100
AcDbTrace
  10
-57.06699
  20
8
  30
0
  11
-56.740675
  21
5.521388
  31
0
  12
-57.393306
  22
5.521388
  32
0
  13
-57.393306
  23
5.521388
  33
0
  0
MTEXT
  5
835
  330
82f
  100
AcDbEntity
  8
SK2
  100
AcDbMText
  10
-57.06699
  20
0
  30
0
  11
0
  21
1
  31
0
  40
2
  41
0
  71
8
  72
1
  1
Ø16h6
  0
POINT
  5
836
  330
82f
  100
AcDbEntity
  8
SK2
  62
0
  100
AcDbPoint
  10
-46.56699
  20
-8
  30
0
  0
POINT
  5
837
  330
82f
  100
AcDbEntity
  8
SK2
  62
0
  100
AcDbPoint
  10
-46.56699
  20
8
  30
0
  0
POINT
  5
838
  330
82f
  100
AcDbEntity
  8
SK2
  62
0
  100
AcDbPoint
  10
-57.06699
  20
8
  30
0
  0
ENDBLK
  5
839
  330
82f
  100
AcDbEntity
  8
SK2
  100
AcDbBlockEnd
  0
BLOCK
  5
83b
  330
83d
  100
AcDbEntity
  8
2
  100
AcDbBlockBegin
  2
*D83c
  70
1
  10
0
  20
0
  30
0
  3
*D83c
  1

  0
LINE
  5
83e
  330
83d
  100
AcDbEntity
  8
2
  100
AcDbLine
  10
44.93301
  20
7.6
  30
0
  11
44.93301
  21
17
  31
0
  0
LINE
  5
83f
  330
83d
  100
AcDbEntity
  8
2
  100
AcDbLine
  10
44.53301
  20
8
  30
0
  11
44.53301
  21
17
  31
0
  0
LINE
  5
840
  330
83d
  100
AcDbEntity
  8
2
  100
AcDbLine
  10
65.076046
  20
15
  30
0
  11
44.53301
  21
15
  31
0
  0
SOLID
  5
841
  330
83d
  100
AcDbEntity
  8
2
  100
AcDbTrace
  10
44.93301
  20
15
  30
0
  11
47.411622
  21
15.326315
  31
0
  12
47.411622
  22
14.673685
  32
0
  13
47.411622
  23
14.673685
  33
0
  0
SOLID
  5
842
  330
83d
  100
AcDbEntity
  8
2
  100
AcDbTrace
  10
44.53301
  20
15
  30
0
  11
42.054398
  21
14.673685
  31
0
  12
42.054398
  22
15.326315
  32
0
  13
42.054398
  23
15.326315
  33
0
  0
MTEXT
  5
843
  330
83d
  100
AcDbEntity
  8
2
  100
AcDbMText
  10
52.104222
  20
15
  30
0
  11
1
  21
-0
  31
0
  40
2
  41
0
  71
7
  72
1
  1
0.4 x 45°
  0
POINT
  5
844
  330
83d
  100
AcDbEntity
  8
2
  62
0
  100
AcDbPoint
  10
44.93301
  20
7.6
  30
0
  0
POINT
  5
845
  330
83d
  100
AcDbEntity
  8
2
  62
0
  100
AcDbPoint
  10
44.53301
  20
8
  30
0
  0
POINT
  5
846
  330
83d
  100
AcDbEntity
  8
2
  62
0
  100
AcDbPoint
  10
44.53301
  20
15
  30
0
  0
ENDBLK
  5
847
  330
83d
  100
AcDbEntity
  8
2
  100
AcDbBlockEnd
  0
BLOCK
  5
849
  330
84b
  100
AcDbEntity
  8
2
  100
AcDbBlockBegin
  2
*D84a
  70
1
  10
0
  20
0
  30
0
  3
*D84a
  1

  0
LINE
  5
84c
  330
84b
  100
AcDbEntity
  8
2
  100
AcDbLine
  10
44.53301
  20
-8
  30
0
  11
56.93301
  21
-8
  31
0
  0
LINE
  5
84d
  330
84b
  100
AcDbEntity
  8
2
  100
AcDbLine
  10
44.53301
  20
8
  30
0
  11
56.93301
  21
8
  31
0
  0
LINE
  5
84e
  330
84b
  100
AcDbEntity
  8
2
  100
AcDbLine
  10
54.93301
  20
-19.695817
  30
0
  11
54.93301
  21
8
  31
0
  0
SOLID
  5
84f
  330
84b
  100
AcDbEntity
  8
2
  100
AcDbTrace
  10
54.93301
  20
-8
  30
0
  11
54.606694
  21
-5.521388
  31
0
  12
55.259325
  22
-5.521388
  32
0
  13
55.259325
  23
-5.521388
  33
0
  0
SOLID
  5
850
  330
84b
  100
AcDbEntity
  8
2
  100
AcDbTrace
  10
54.93301
  20
8
  30
0
  11
55.259325
  21
5.521388
  31
0
  12
54.606694
  22
5.521388
  32
0
  13
54.606694
  23
5.521388
  33
0
  0
MTEXT
  5
851
  330
84b
  100
AcDbEntity
  8
2
  100
AcDbMText
  10
54.93301
  20
-15.023709
  30
0
  11
0
  21
1
  31
0
  40
2
  41
0
  71
8
  72
1
  1
Ø16h10
  0
POINT
  5
852
  330
84b
  100
AcDbEntity
  8
2
  62
0
  100
AcDbPoint
  10
44.53301
  20
-8
  30
0
  0
POINT
  5
853
  330
84b
  100
AcDbEntity
  8
2
  62
0
  100
AcDbPoint
  10
44.53301
  20
8
  30
0
  0
POINT
  5
854
  330
84b
  100
AcDbEntity
  8
2
  62
0
  100
AcDbPoint
  10
54.93301
  20
8
  30
0
  0
ENDBLK
  5
855
  330
84b
  100
AcDbEntity
  8
2
  100
AcDbBlockEnd
  0
BLOCK
  5
857
  330
859
  100
AcDbEntity
  8
2
  100
AcDbBlockBegin
  2
*D858
  70
1
  10
0
  20
0
  30
0
  3
*D858
  1

  0
LINE
  5
85a
  330
859
  100
AcDbEntity
  8
2
  100
AcDbLine
  10
12.93301
  20
-7.75
  30
0
  11
10.93301
  21
-7.75
  31
0
  0
LINE
  5
85b
  330
859
  100
AcDbEntity
  8
2
  100
AcDbLine
  10
12.93301
  20
7.75
  30
0
  11
10.93301
  21
7.75
  31
0
  0
LINE
  5
85c
  330
859
  100
AcDbEntity
  8
2
  100
AcDbLine
  10
12.93301
  20
-20.361217
  30
0
  11
12.93301
  21
7.75
  31
0
  0
SOLID
  5
85d
  330
859
  100
AcDbEntity
  8
2
  100
AcDbTrace
  10
12.93301
  20
-7.75
  30
0
  11
12.606694
  21
-5.271388
  31
0
  12
13.259325
  22
-5.271388
  32
0
  13
13.259325
  23
-5.271388
  33
0
  0
SOLID
  5
85e
  330
859
  100
AcDbEntity
  8
2
  100
AcDbTrace
  10
12.93301
  20
7.75
  30
0
  11
13.259325
  21
5.271388
  31
0
  12
12.606694
  22
5.271388
  32
0
  13
12.606694
  23
5.271388
  33
0
  0
MTEXT
  5
85f
  330
859
  100
AcDbEntity
  8
2
  100
AcDbMText
  10
12.93301
  20
-20.340164
  30
0
  11
0
  21
1
  31
0
  40
2
  41
0
  71
7
  72
1
  1
Ø15.5
  0
POINT
  5
860
  330
859
  100
AcDbEntity
  8
2
  62
0
  100
AcDbPoint
  10
10.93301
  20
-7.75
  30
0
  0
POINT
  5
861
  330
859
  100
AcDbEntity
  8
2
  62
0
  100
AcDbPoint
  10
10.93301
  20
7.75
  30
0
  0
POINT
  5
862
  330
859
  100
AcDbEntity
  8
2
  62
0
  100
AcDbPoint
  10
12.93301
  20
7.75
  30
0
  0
ENDBLK
  5
863
  330
859
  100
AcDbEntity
  8
2
  100
AcDbBlockEnd
  0
BLOCK
  5
865
  330
867
  100
AcDbEntity
  8
2
  100
AcDbBlockBegin
  2
*D866
  70
1
  10
0
  20
0
  30
0
  3
*D866
  1

  0
LINE
  5
868
  330
867
  100
AcDbEntity
  8
2
  100
AcDbLine
  10
44.93301
  20
7.6
  30
0
  11
44.93301
  21
32
  31
0
  0
LINE
  5
869
  330
867
  100
AcDbEntity
  8
2
  100
AcDbLine
  10
0.93301
  20
7.75
  30
0
  11
0.93301
  21
32
  31
0
  0
LINE
  5
86a
  330
867
  100
AcDbEntity
  8
2
  100
AcDbLine
  10
44.93301
  20
30
  30
0
  11
0.93301
  21
30
  31
0
  0
SOLID
  5
86b
  330
867
  100
AcDbEntity
  8
2
  100
AcDbTrace
  10
44.93301
  20
30
  30
0
  11
42.454398
  21
29.673685
  31
0
  12
42.454398
  22
30.326315
  32
0
  13
42.454398
  23
30.326315
  33
0
  0
SOLID
  5
86c
  330
867
  100
AcDbEntity
  8
2
  100
AcDbTrace
  10
0.93301
  20
30
  30
0
  11
3.411622
  21
30.326315
  31
0
  12
3.411622
  22
29.673685
  32
0
  13
3.411622
  23
29.673685
  33
0
  0
MTEXT
  5
86d
  330
867
  100
AcDbEntity
  8
2
  100
AcDbMText
  10
22.93301
  20
30
  30
0
  11
1
  21
-0
  31
0
  40
2
  41
0
  71
8
  72
1
  1
44
  0
POINT
  5
86e
  330
867
  100
AcDbEntity
  8
2
  62
0
  100
AcDbPoint
  10
44.93301
  20
7.6
  30
0
  0
POINT
  5
86f
  330
867
  100
AcDbEntity
  8
2
  62
0
  100
AcDbPoint
  10
0.93301
  20
7.75
  30
0
  0
POINT
  5
870
  330
867
  100
AcDbEntity
  8
2
  62
0
  100
AcDbPoint
  10
0.93301
  20
30
  30
0
  0
ENDBLK
  5
871
  330
867
  100
AcDbEntity
  8
2
  100
AcDbBlockEnd
  0
BLOCK
  5
873
  330
875
  100
AcDbEntity
  8
2
  100
AcDbBlockBegin
  2
*D874
  70
1
  10
0
  20
0
  30
0
  3
*D874
  1

  0
LINE
  5
876
  330
875
  100
AcDbEntity
  8
2
  100
AcDbLine
  10
44.93301
  20
0
  30
0
  11
44.93301
  21
20.754355
  31
0
  0
LINE
  5
877
  330
875
  100
AcDbEntity
  8
2
  100
AcDbLine
  10
12.93301
  20
8
  30
0
  11
12.93301
  21
20.754355
  31
0
  0
LINE
  5
878
  330
875
  100
AcDbEntity
  8
2
  100
AcDbLine
  10
44.93301
  20
18.754355
  30
0
  11
12.93301
  21
18.754355
  31
0
  0
SOLID
  5
879
  330
875
  100
AcDbEntity
  8
2
  100
AcDbTrace
  10
44.93301
  20
18.754355
  30
0
  11
42.454398
  21
18.428039
  31
0
  12
42.454398
  22
19.08067
  32
0
  13
42.454398
  23
19.08067
  33
0
  0
SOLID
  5
87a
  330
875
  100
AcDbEntity
  8
2
  100
AcDbTrace
  10
12.93301
  20
18.754355
  30
0
  11
15.411622
  21
19.08067
  31
0
  12
15.411622
  22
18.428039
  32
0
  13
15.411622
  23
18.428039
  33
0
  0
MTEXT
  5
87b
  330
875
  100
AcDbEntity
  8
2
  100
AcDbMText
  10
28.93301
  20
18.754355
  30
0
  11
1
  21
-0
  31
0
  40
2
  41
0
  71
8
  72
1
  1
32
  0
POINT
  5
87c
  330
875
  100
AcDbEntity
  8
2
  62
0
  100
AcDbPoint
  10
44.93301
  20
0
  30
0
  0
POINT
  5
87d
  330
875
  100
AcDbEntity
  8
2
  62
0
  100
AcDbPoint
  10
12.93301
  20
8
  30
0
  0
POINT
  5
87e
  330
875
  100
AcDbEntity
  8
2
  62
0
  100
AcDbPoint
  10
12.93301
  20
18.754355
  30
0
  0
ENDBLK
  5
87f
  330
875
  100
AcDbEntity
  8
2
  100
AcDbBlockEnd
  0
ENDSEC
  0
SECTION
  2
ENTITIES
  0
DIMENSION
  5
82c
  100
AcDbEntity
  8
SK2
  100
AcDbDimension
  2
*D820
  10
-47.06699
  20
42.48461
  30
0
  11
-1.06699
  21
42.48461
  31
0
  70
160
  1
<>+2
  71
5
  3
STANDARD
  42
92
  100
AcDbAlignedDimension
  13
44.93301
  23
0
  33
0
  14
-47.06699
  24
7.5
  34
0
  50
0
  100
AcDbRotatedDimension
  0
DIMENSION
  5
83a
  100
AcDbEntity
  8
SK2
  100
AcDbDimension
  2
*D82e
  10
-57.06699
  20
8
  30
0
  11
-57.06699
  21
0
  31
0
  70
160
  1
%%c<>h6
  71
5
  3
STANDARD
  42
16
  100
AcDbAlignedDimension
  13
-46.56699
  23
-8
  33
0
  14
-46.56699
  24
8
  34
0
  50
-90
  100
AcDbRotatedDimension
  0
DIMENSION
  5
848
  100
AcDbEntity
  8
2
  100
AcDbDimension
  2
*D83c
  10
44.53301
  20
15
  30
0
  11
52.104222
  21
15
  31
0
  70
160
  1
<>
  71
5
  3
STANDARD
  42
0.4
  100
AcDbAlignedDimension
  13
44.93301
  23
7.6
  33
0
  14
44.53301
  24
8
  34
0
  50
0
  100
AcDbRotatedDimension
  0
DIMENSION
  5
856
  100
AcDbEntity
  8
2
  100
AcDbDimension
  2
*D84a
  10
54.93301
  20
8
  30
0
  11
54.93301
  21
-15.023709
  31
0
  70
160
  1
%%c<>h10
  71
5
  3
STANDARD
  42
16
  100
AcDbAlignedDimension
  13
44.53301
  23
-8
  33
0
  14
44.53301
  24
8
  34
0
  50
-90
  100
AcDbRotatedDimension
  0
DIMENSION
  5
864
  100
AcDbEntity
  8
2
  100
AcDbDimension
  2
*D858
  10
12.93301
  20
7.75
  30
0
  11
12.93301
  21
-20.340164
  31
0
  70
160
  1
%%c<>
  71
5
  3
STANDARD
  42
15.5
  100
AcDbAlignedDimension
  13
10.93301
  23
-7.75
  33
0
  14
10.93301
  24
7.75
  34
0
  50
-90
  100
AcDbRotatedDimension
  0
DIMENSION
  5
872
  100
AcDbEntity
  8
2
  100
AcDbDimension
  2
*D866
  10
0.93301
  20
30
  30
0
  11
22.93301
  21
30
  31
0
  70
160
  1
<>
  71
5
  3
STANDARD
  42
44
  100
AcDbAlignedDimension
  13
44.93301
  23
7.6
  33
0
  14
0.93301
  24
7.75
  34
0
  50
0
  100
AcDbRotatedDimension
  0
DIMENSION
  5
880
  100
AcDbEntity
  8
2
  100
AcDbDimension
  2
*D874
  10
12.93301
  20
18.754355
  30
0
  11
28.93301
  21
18.754355
  31
0
  70
160
  1
<>
  71
5
  3
STANDARD
  42
32
  100
AcDbAlignedDimension
  13
44.93301
  23
0
  33
0
  14
12.93301
  24
8
  34
0
  50
0
  100
AcDbRotatedDimension
  0
LINE
  5
36
  100
AcDbEntity
  8
1
  100
AcDbLine
  10
44.93301
  20
0
  30
0
  11
44.93301
  21
7.6
  31
0
  0
LINE
  5
37
  100
AcDbEntity
  8
1
  100
AcDbLine
  10
44.93301
  20
7.6
  30
0
  11
44.53301
  21
8
  31
0
  0
LINE
  5
38
  100
AcDbEntity
  8
1
  100
AcDbLine
  10
44.53301
  20
8
  30
0
  11
12.93301
  21
8
  31
0
  0
LINE
  5
39
  100
AcDbEntity
  8
1
  100
AcDbLine
  10
12.93301
  20
8
  30
0
  11
12.93301
  21
7.75
  31
0
  0
LINE
  5
3a
  100
AcDbEntity
  8
1
  100
AcDbLine
  10
12.93301
  20
7.75
  30
0
  11
0.93301
  21
7.75
  31
0
  0
LINE
  5
3b
  100
AcDbEntity
  8
1
  100
AcDbLine
  10
0.93301
  20
7.75
  30
0
  11
-0
  21
8
  31
0
  0
LINE
  5
3c
  100
AcDbEntity
  8
1
  100
AcDbLine
  10
-0
  20
8
  30
0
  11
-0
  21
-8
  31
0
  0
LINE
  5
3d
  100
AcDbEntity
  8
1
  100
AcDbLine
  10
-0
  20
-8
  30
0
  11
0.93301
  21
-7.75
  31
0
  0
LINE
  5
3e
  100
AcDbEntity
  8
1
  100
AcDbLine
  10
0.93301
  20
-7.75
  30
0
  11
12.93301
  21
-7.75
  31
0
  0
LINE
  5
3f
  100
AcDbEntity
  8
1
  100
AcDbLine
  10
12.93301
  20
-7.75
  30
0
  11
12.93301
  21
-8
  31
0
  0
LINE
  5
40
  100
AcDbEntity
  8
1
  100
AcDbLine
  10
12.93301
  20
-8
  30
0
  11
44.53301
  21
-8
  31
0
  0
LINE
  5
41
  100
AcDbEntity
  8
1
  100
AcDbLine
  10
44.53301
  20
-8
  30
0
  11
44.93301
  21
-7.6
  31
0
  0
LINE
  5
42
  100
AcDbEntity
  8
1
  100
AcDbLine
  10
44.93301
  20
-7.6
  30
0
  11
44.93301
  21
0
  31
0
  0
LINE
  5
43
  100
AcDbEntity
  8
1
  100
AcDbLine
  10
-0
  20
-8
  30
0
  11
-0
  21
8
  31
0
  0
LINE
  5
44
  100
AcDbEntity
  8
1
  100
AcDbLine
  10
-0
  20
8
  30
0
  11
-0
  21
-8
  31
0
  0
LINE
  5
45
  100
AcDbEntity
  8
1
  100
AcDbLine
  10
0.93301
  20
7.75
  30
0
  11
0.93301
  21
-7.75
  31
0
  0
LINE
  5
46
  100
AcDbEntity
  8
1
  100
AcDbLine
  10
26.986373
  20
-8
  30
0
  11
26.93301
  21
-7.999913
  31
0
  0
LINE
  5
47
  100
AcDbEntity
  8
1
  100
AcDbLine
  10
26.93301
  20
-7.999913
  30
0
  11
26.83301
  21
-7.999279
  31
0
  0
LINE
  5
48
  100
AcDbEntity
  8
1
  100
AcDbLine
  10
26.83301
  20
-7.999279
  30
0
  11
26.73301
  21
-7.998033
  31
0
  0
LINE
  5
49
  100
AcDbEntity
  8
1
  100
AcDbLine
  10
26.73301
  20
-7.998033
  30
0
  11
26.63301
  21
-7.996174
  31
0
  0
LINE
  5
4a
  100
AcDbEntity
  8
1
  100
AcDbLine
  10
26.63301
  20
-7.996174
  30
0
  11
26.53301
  21
-7.993702
  31
0
  0
LINE
  5
4b
  100
AcDbEntity
  8
1
  100
AcDbLine
  10
26.53301
  20
-7.993702
  30
0
  11
26.43301
  21
-7.990619
  31
0
  0
LINE
  5
4c
  100
AcDbEntity
  8
1
  100
AcDbLine
  10
26.43301
  20
-7.990619
  30
0
  11
26.33301
  21
-7.986923
  31
0
  0
LINE
  5
4d
  100
AcDbEntity
  8
1
  100
AcDbLine
  10
26.33301
  20
-7.986923
  30
0
  11
26.23301
  21
-7.982615
  31
0
  0
LINE
  5
4e
  100
AcDbEntity
  8
1
  100
AcDbLine
  10
26.23301
  20
-7.982615
  30
0
  11
26.13301
  21
-7.977695
  31
0
  0
LINE
  5
4f
  100
AcDbEntity
  8
1
  100
AcDbLine
  10
26.13301
  20
-7.977695
  30
0
  11
26.03301
  21
-7.972165
  31
0
  0
LINE
  5
50
  100
AcDbEntity
  8
1
  100
AcDbLine
  10
26.03301
  20
-7.972165
  30
0
  11
25.93301
  21
-7.966023
  31
0
  0
LINE
  5
51
  100
AcDbEntity
  8
1
  100
AcDbLine
  10
25.93301
  20
-7.966023
  30
0
  11
25.83301
  21
-7.959272
  31
0
  0
LINE
  5
52
  100
AcDbEntity
  8
1
  100
AcDbLine
  10
25.83301
  20
-7.959272
  30
0
  11
25.73301
  21
-7.95191
  31
0
  0
LINE
  5
53
  100
AcDbEntity
  8
1
  100
AcDbLine
  10
25.73301
  20
-7.95191
  30
0
  11
25.63301
  21
-7.94394
  31
0
  0
LINE
  5
54
  100
AcDbEntity
  8
1
  100
AcDbLine
  10
25.63301
  20
-7.94394
  30
0
  11
25.53301
  21
-7.935361
  31
0
  0
LINE
  5
55
  100
AcDbEntity
  8
1
  100
AcDbLine
  10
25.53301
  20
-7.935361
  30
0
  11
25.43301
  21
-7.926174
  31
0
  0
LINE
  5
56
  100
AcDbEntity
  8
1
  100
AcDbLine
  10
25.43301
  20
-7.926174
  30
0
  11
25.33301
  21
-7.91638
  31
0
  0
LINE
  5
57
  100
AcDbEntity
  8
1
  100
AcDbLine
  10
25.33301
  20
-7.91638
  30
0
  11
25.23301
  21
-7.905979
  31
0
  0
LINE
  5
58
  100
AcDbEntity
  8
1
  100
AcDbLine
  10
25.23301
  20
-7.905979
  30
0
  11
25.13301
  21
-7.894973
  31
0
  0
LINE
  5
59
  100
AcDbEntity
  8
1
  100
AcDbLine
  10
25.13301
  20
-7.894973
  30
0
  11
25.03301
  21
-7.883362
  31
0
  0
LINE
  5
5a
  100
AcDbEntity
  8
1
  100
AcDbLine
  10
25.03301
  20
-7.883362
  30
0
  11
24.93301
  21
-7.871147
  31
0
  0
LINE
  5
5b
  100
AcDbEntity
  8
1
  100
AcDbLine
  10
24.93301
  20
-7.871147
  30
0
  11
24.83301
  21
-7.858329
  31
0
  0
LINE
  5
5c
  100
AcDbEntity
  8
1
  100
AcDbLine
  10
24.83301
  20
-7.858329
  30
0
  11
24.73301
  21
-7.844909
  31
0
  0
LINE
  5
5d
  100
AcDbEntity
  8
1
  100
AcDbLine
  10
24.73301
  20
-7.844909
  30
0
  11
24.63301
  21
-7.830888
  31
0
  0
LINE
  5
5e
  100
AcDbEntity
  8
1
  100
AcDbLine
  10
24.63301
  20
-7.830888
  30
0
  11
24.53301
  21
-7.816267
  31
0
  0
LINE
  5
5f
  100
AcDbEntity
  8
1
  100
AcDbLine
  10
24.53301
  20
-7.816267
  30
0
  11
24.43301
  21
-7.801047
  31
0
  0
LINE
  5
60
  100
AcDbEntity
  8
1
  100
AcDbLine
  10
24.43301
  20
-7.801047
  30
0
  11
24.33301
  21
-7.78523
  31
0
  0
LINE
  5
61
  100
AcDbEntity
  8
1
  100
AcDbLine
  10
24.33301
  20
-7.78523
  30
0
  11
24.23301
  21
-7.768816
  31
0
  0
LINE
  5
62
  100
AcDbEntity
  8
1
  100
AcDbLine
  10
24.23301
  20
-7.768816
  30
0
  11
24.13301
  21
-7.751807
  31
0
  0
LINE
  5
63
  100
AcDbEntity
  8
1
  100
AcDbLine
  10
24.13301
  20
-7.751807
  30
0
  11
24.03301
  21
-7.734205
  31
0
  0
LINE
  5
64
  100
AcDbEntity
  8
1
  100
AcDbLine
  10
24.03301
  20
-7.734205
  30
0
  11
23.93301
  21
-7.716009
  31
0
  0
LINE
  5
65
  100
AcDbEntity
  8
1
  100
AcDbLine
  10
23.93301
  20
-7.716009
  30
0
  11
23.83301
  21
-7.697223
  31
0
  0
LINE
  5
66
  100
AcDbEntity
  8
1
  100
AcDbLine
  10
23.83301
  20
-7.697223
  30
0
  11
23.73301
  21
-7.677847
  31
0
  0
LINE
  5
67
  100
AcDbEntity
  8
1
  100
AcDbLine
  10
23.73301
  20
-7.677847
  30
0
  11
23.63301
  21
-7.657883
  31
0
  0
LINE
  5
68
  100
AcDbEntity
  8
1
  100
AcDbLine
  10
23.63301
  20
-7.657883
  30
0
  11
23.53301
  21
-7.637332
  31
0
  0
LINE
  5
69
  100
AcDbEntity
  8
1
  100
AcDbLine
  10
23.53301
  20
-7.637332
  30
0
  11
23.43301
  21
-7.616196
  31
0
  0
LINE
  5
6a
  100
AcDbEntity
  8
1
  100
AcDbLine
  10
23.43301
  20
-7.616196
  30
0
  11
23.33301
  21
-7.594477
  31
0
  0
LINE
  5
6b
  100
AcDbEntity
  8
1
  100
AcDbLine
  10
23.33301
  20
-7.594477
  30
0
  11
23.23301
  21
-7.572176
  31
0
  0
LINE
  5
6c
  100
AcDbEntity
  8
1
  100
AcDbLine
  10
23.23301
  20
-7.572176
  30
0
  11
23.13301
  21
-7.549295
  31
0
  0
LINE
  5
6d
  100
AcDbEntity
  8
1
  100
AcDbLine
  10
23.13301
  20
-7.549295
  30
0
  11
23.03301
  21
-7.525835
  31
0
  0
LINE
  5
6e
  100
AcDbEntity
  8
1
  100
AcDbLine
  10
23.03301
  20
-7.525835
  30
0
  11
22.93301
  21
-7.501799
  31
0
  0
LINE
  5
6f
  100
AcDbEntity
  8
1
  100
AcDbLine
  10
22.93301
  20
-7.501799
  30
0
  11
22.83301
  21
-7.477188
  31
0
  0
LINE
  5
70
  100
AcDbEntity
  8
1
  100
AcDbLine
  10
22.83301
  20
-7.477188
  30
0
  11
22.73301
  21
-7.452005
  31
0
  0
LINE
  5
71
  100
AcDbEntity
  8
1
  100
AcDbLine
  10
22.73301
  20
-7.452005
  30
0
  11
22.63301
  21
-7.42625
  31
0
  0
LINE
  5
72
  100
AcDbEntity
  8
1
  100
AcDbLine
  10
22.63301
  20
-7.42625
  30
0
  11
22.53301
  21
-7.399927
  31
0
  0
LINE
  5
73
  100
AcDbEntity
  8
1
  100
AcDbLine
  10
22.53301
  20
-7.399927
  30
0
  11
22.43301
  21
-7.373037
  31
0
  0
LINE
  5
74
  100
AcDbEntity
  8
1
  100
AcDbLine
  10
22.43301
  20
-7.373037
  30
0
  11
22.33301
  21
-7.345582
  31
0
  0
LINE
  5
75
  100
AcDbEntity
  8
1
  100
AcDbLine
  10
22.33301
  20
-7.345582
  30
0
  11
22.23301
  21
-7.317564
  31
0
  0
LINE
  5
76
  100
AcDbEntity
  8
1
  100
AcDbLine
  10
22.23301
  20
-7.317564
  30
0
  11
22.13301
  21
-7.288985
  31
0
  0
LINE
  5
77
  100
AcDbEntity
  8
1
  100
AcDbLine
  10
22.13301
  20
-7.288985
  30
0
  11
22.03301
  21
-7.259849
  31
0
  0
LINE
  5
78
  100
AcDbEntity
  8
1
  100
AcDbLine
  10
22.03301
  20
-7.259849
  30
0
  11
21.93301
  21
-7.230156
  31
0
  0
LINE
  5
79
  100
AcDbEntity
  8
1
  100
AcDbLine
  10
21.93301
  20
-7.230156
  30
0
  11
21.83301
  21
-7.199909
  31
0
  0
LINE
  5
7a
  100
AcDbEntity
  8
1
  100
AcDbLine
  10
21.83301
  20
-7.199909
  30
0
  11
21.73301
  21
-7.169111
  31
0
  0
LINE
  5
7b
  100
AcDbEntity
  8
1
  100
AcDbLine
  10
21.73301
  20
-7.169111
  30
0
  11
21.63301
  21
-7.137763
  31
0
  0
LINE
  5
7c
  100
AcDbEntity
  8
1
  100
AcDbLine
  10
21.63301
  20
-7.137763
  30
0
  11
21.53301
  21
-7.105869
  31
0
  0
LINE
  5
7d
  100
AcDbEntity
  8
1
  100
AcDbLine
  10
21.53301
  20
-7.105869
  30
0
  11
21.43301
  21
-7.07343
  31
0
  0
LINE
  5
7e
  100
AcDbEntity
  8
1
  100
AcDbLine
  10
21.43301
  20
-7.07343
  30
0
  11
21.33301
  21
-7.040449
  31
0
  0
LINE
  5
7f
  100
AcDbEntity
  8
1
  100
AcDbLine
  10
21.33301
  20
-7.040449
  30
0
  11
21.23301
  21
-7.006929
  31
0
  0
LINE
  5
80
  100
AcDbEntity
  8
1
  100
AcDbLine
  10
21.23301
  20
-7.006929
  30
0
  11
21.13301
  21
-6.972872
  31
0
  0
LINE
  5
81
  100
AcDbEntity
  8
1
  100
AcDbLine
  10
21.13301
  20
-6.972872
  30
0
  11
21.03301
  21
-6.938281
  31
0
  0
LINE
  5
82
  100
AcDbEntity
  8
1
  100
AcDbLine
  10
21.03301
  20
-6.938281
  30
0
  11
20.93301
  21
-6.903159
  31
0
  0
LINE
  5
83
  100
AcDbEntity
  8
1
  100
AcDbLine
  10
20.93301
  20
-6.903159
  30
0
  11
20.83301
  21
-6.867508
  31
0
  0
LINE
  5
84
  100
AcDbEntity
  8
1
  100
AcDbLine
  10
20.83301
  20
-6.867508
  30
0
  11
20.73301
  21
-6.83133
  31
0
  0
LINE
  5
85
  100
AcDbEntity
  8
1
  100
AcDbLine
  10
20.73301
  20
-6.83133
  30
0
  11
20.63301
  21
-6.79463
  31
0
  0
LINE
  5
86
  100
AcDbEntity
  8
1
  100
AcDbLine
  10
20.63301
  20
-6.79463
  30
0
  11
20.53301
  21
-6.757408
  31
0
  0
LINE
  5
87
  100
AcDbEntity
  8
1
  100
AcDbLine
  10
20.53301
  20
-6.757408
  30
0
  11
20.43301
  21
-6.719669
  31
0
  0
LINE
  5
88
  100
AcDbEntity
  8
1
  100
AcDbLine
  10
20.43301
  20
-6.719669
  30
0
  11
20.33301
  21
-6.681416
  31
0
  0
LINE
  5
89
  100
AcDbEntity
  8
1
  100
AcDbLine
  10
20.33301
  20
-6.681416
  30
0
  11
20.23301
  21
-6.64265
  31
0
  0
LINE
  5
8a
  100
AcDbEntity
  8
1
  100
AcDbLine
  10
20.23301
  20
-6.64265
  30
0
  11
20.13301
  21
-6.603376
  31
0
  0
LINE
  5
8b
  100
AcDbEntity
  8
1
  100
AcDbLine
  10
20.13301
  20
-6.603376
  30
0
  11
20.03301
  21
-6.563595
  31
0
  0
LINE
  5
8c
  100
AcDbEntity
  8
1
  100
AcDbLine
  10
20.03301
  20
-6.563595
  30
0
  11
19.93301
  21
-6.523312
  31
0
  0
LINE
  5
8d
  100
AcDbEntity
  8
1
  100
AcDbLine
  10
19.93301
  20
-6.523312
  30
0
  11
19.83301
  21
-6.48253
  31
0
  0
LINE
  5
8e
  100
AcDbEntity
  8
1
  100
AcDbLine
  10
19.83301
  20
-6.48253
  30
0
  11
19.73301
  21
-6.44125
  31
0
  0
LINE
  5
8f
  100
AcDbEntity
  8
1
  100
AcDbLine
  10
19.73301
  20
-6.44125
  30
0
  11
19.63301
  21
-6.399477
  31
0
  0
LINE
  5
90
  100
AcDbEntity
  8
1
  100
AcDbLine
  10
19.63301
  20
-6.399477
  30
0
  11
19.53301
  21
-6.357214
  31
0
  0
LINE
  5
91
  100
AcDbEntity
  8
1
  100
AcDbLine
  10
19.53301
  20
-6.357214
  30
0
  11
19.43301
  21
-6.314464
  31
0
  0
LINE
  5
92
  100
AcDbEntity
  8
1
  100
AcDbLine
  10
19.43301
  20
-6.314464
  30
0
  11
19.33301
  21
-6.27123
  31
0
  0
LINE
  5
93
  100
AcDbEntity
  8
1
  100
AcDbLine
  10
19.33301
  20
-6.27123
  30
0
  11
19.23301
  21
-6.227516
  31
0
  0
LINE
  5
94
  100
AcDbEntity
  8
1
  100
AcDbLine
  10
19.23301
  20
-6.227516
  30
0
  11
19.13301
  21
-6.183324
  31
0
  0
LINE
  5
95
  100
AcDbEntity
  8
1
  100
AcDbLine
  10
19.13301
  20
-6.183324
  30
0
  11
19.03301
  21
-6.138659
  31
0
  0
LINE
  5
96
  100
AcDbEntity
  8
1
  100
AcDbLine
  10
19.03301
  20
-6.138659
  30
0
  11
18.93301
  21
-6.093524
  31
0
  0
LINE
  5
97
  100
AcDbEntity
  8
1
  100
AcDbLine
  10
18.93301
  20
-6.093524
  30
0
  11
18.83301
  21
-6.047922
  31
0
  0
LINE
  5
98
  100
AcDbEntity
  8
1
  100
AcDbLine
  10
18.83301
  20
-6.047922
  30
0
  11
18.73301
  21
-6.001856
  31
0
  0
LINE
  5
99
  100
AcDbEntity
  8
1
  100
AcDbLine
  10
18.73301
  20
-6.001856
  30
0
  11
18.63301
  21
-5.955331
  31
0
  0
LINE
  5
9a
  100
AcDbEntity
  8
1
  100
AcDbLine
  10
18.63301
  20
-5.955331
  30
0
  11
18.53301
  21
-5.90835
  31
0
  0
LINE
  5
9b
  100
AcDbEntity
  8
1
  100
AcDbLine
  10
18.53301
  20
-5.90835
  30
0
  11
18.43301
  21
-5.860916
  31
0
  0
LINE
  5
9c
  100
AcDbEntity
  8
1
  100
AcDbLine
  10
18.43301
  20
-5.860916
  30
0
  11
18.33301
  21
-5.813032
  31
0
  0
LINE
  5
9d
  100
AcDbEntity
  8
1
  100
AcDbLine
  10
18.33301
  20
-5.813032
  30
0
  11
18.23301
  21
-5.764704
  31
0
  0
LINE
  5
9e
  100
AcDbEntity
  8
1
  100
AcDbLine
  10
18.23301
  20
-5.764704
  30
0
  11
18.13301
  21
-5.715934
  31
0
  0
LINE
  5
9f
  100
AcDbEntity
  8
1
  100
AcDbLine
  10
18.13301
  20
-5.715934
  30
0
  11
18.03301
  21
-5.666726
  31
0
  0
LINE
  5
a0
  100
AcDbEntity
  8
1
  100
AcDbLine
  10
18.03301
  20
-5.666726
  30
0
  11
17.93301
  21
-5.617084
  31
0
  0
LINE
  5
a1
  100
AcDbEntity
  8
1
  100
AcDbLine
  10
17.93301
  20
-5.617084
  30
0
  11
17.83301
  21
-5.567012
  31
0
  0
LINE
  5
a2
  100
AcDbEntity
  8
1
  100
AcDbLine
  10
17.83301
  20
-5.567012
  30
0
  11
17.73301
  21
-5.516513
  31
0
  0
LINE
  5
a3
  100
AcDbEntity
  8
1
  100
AcDbLine
  10
17.73301
  20
-5.516513
  30
0
  11
17.63301
  21
-5.465592
  31
0
  0
LINE
  5
a4
  100
AcDbEntity
  8
1
  100
AcDbLine
  10
17.63301
  20
-5.465592
  30
0
  11
17.53301
  21
-5.414251
  31
0
  0
LINE
  5
a5
  100
AcDbEntity
  8
1
  100
AcDbLine
  10
17.53301
  20
-5.414251
  30
0
  11
17.43301
  21
-5.362497
  31
0
  0
LINE
  5
a6
  100
AcDbEntity
  8
1
  100
AcDbLine
  10
17.43301
  20
-5.362497
  30
0
  11
17.33301
  21
-5.310331
  31
0
  0
LINE
  5
a7
  100
AcDbEntity
  8
1
  100
AcDbLine
  10
17.33301
  20
-5.310331
  30
0
  11
17.23301
  21
-5.257758
  31
0
  0
LINE
  5
a8
  100
AcDbEntity
  8
1
  100
AcDbLine
  10
17.23301
  20
-5.257758
  30
0
  11
17.13301
  21
-5.204783
  31
0
  0
LINE
  5
a9
  100
AcDbEntity
  8
1
  100
AcDbLine
  10
17.13301
  20
-5.204783
  30
0
  11
17.03301
  21
-5.151409
  31
0
  0
LINE
  5
aa
  100
AcDbEntity
  8
1
  100
AcDbLine
  10
17.03301
  20
-5.151409
  30
0
  11
16.93301
  21
-5.09764
  31
0
  0
LINE
  5
ab
  100
AcDbEntity
  8
1
  100
AcDbLine
  10
16.93301
  20
-5.09764
  30
0
  11
16.83301
  21
-5.043481
  31
0
  0
LINE
  5
ac
  100
AcDbEntity
  8
1
  100
AcDbLine
  10
16.83301
  20
-5.043481
  30
0
  11
16.73301
  21
-4.988936
  31
0
  0
LINE
  5
ad
  100
AcDbEntity
  8
1
  100
AcDbLine
  10
16.73301
  20
-4.988936
  30
0
  11
16.63301
  21
-4.934008
  31
0
  0
LINE
  5
ae
  100
AcDbEntity
  8
1
  100
AcDbLine
  10
16.63301
  20
-4.934008
  30
0
  11
16.53301
  21
-4.878702
  31
0
  0
LINE
  5
af
  100
AcDbEntity
  8
1
  100
AcDbLine
  10
16.53301
  20
-4.878702
  30
0
  11
16.43301
  21
-4.823023
  31
0
  0
LINE
  5
b0
  100
AcDbEntity
  8
1
  100
AcDbLine
  10
16.43301
  20
-4.823023
  30
0
  11
16.33301
  21
-4.766974
  31
0
  0
LINE
  5
b1
  100
AcDbEntity
  8
1
  100
AcDbLine
  10
16.33301
  20
-4.766974
  30
0
  11
16.23301
  21
-4.71056
  31
0
  0
LINE
  5
b2
  100
AcDbEntity
  8
1
  100
AcDbLine
  10
16.23301
  20
-4.71056
  30
0
  11
16.13301
  21
-4.653785
  31
0
  0
LINE
  5
b3
  100
AcDbEntity
  8
1
  100
AcDbLine
  10
16.13301
  20
-4.653785
  30
0
  11
16.03301
  21
-4.596653
  31
0
  0
LINE
  5
b4
  100
AcDbEntity
  8
1
  100
AcDbLine
  10
16.03301
  20
-4.596653
  30
0
  11
15.93301
  21
-4.53917
  31
0
  0
LINE
  5
b5
  100
AcDbEntity
  8
1
  100
AcDbLine
  10
15.93301
  20
-4.53917
  30
0
  11
15.83301
  21
-4.481338
  31
0
  0
LINE
  5
b6
  100
AcDbEntity
  8
1
  100
AcDbLine
  10
15.83301
  20
-4.481338
  30
0
  11
15.73301
  21
-4.423164
  31
0
  0
LINE
  5
b7
  100
AcDbEntity
  8
1
  100
AcDbLine
  10
15.73301
  20
-4.423164
  30
0
  11
15.63301
  21
-4.36465
  31
0
  0
LINE
  5
b8
  100
AcDbEntity
  8
1
  100
AcDbLine
  10
15.63301
  20
-4.36465
  30
0
  11
15.53301
  21
-4.305802
  31
0
  0
LINE
  5
b9
  100
AcDbEntity
  8
1
  100
AcDbLine
  10
15.53301
  20
-4.305802
  30
0
  11
15.43301
  21
-4.246625
  31
0
  0
LINE
  5
ba
  100
AcDbEntity
  8
1
  100
AcDbLine
  10
15.43301
  20
-4.246625
  30
0
  11
15.33301
  21
-4.187121
  31
0
  0
LINE
  5
bb
  100
AcDbEntity
  8
1
  100
AcDbLine
  10
15.33301
  20
-4.187121
  30
0
  11
15.23301
  21
-4.127298
  31
0
  0
LINE
  5
bc
  100
AcDbEntity
  8
1
  100
AcDbLine
  10
15.23301
  20
-4.127298
  30
0
  11
15.13301
  21
-4.067158
  31
0
  0
LINE
  5
bd
  100
AcDbEntity
  8
1
  100
AcDbLine
  10
15.13301
  20
-4.067158
  30
0
  11
15.03301
  21
-4.006706
  31
0
  0
LINE
  5
be
  100
AcDbEntity
  8
1
  100
AcDbLine
  10
15.03301
  20
-4.006706
  30
0
  11
14.93301
  21
-3.945948
  31
0
  0
LINE
  5
bf
  100
AcDbEntity
  8
1
  100
AcDbLine
  10
14.93301
  20
-3.945948
  30
0
  11
14.83301
  21
-3.884887
  31
0
  0
LINE
  5
c0
  100
AcDbEntity
  8
1
  100
AcDbLine
  10
14.83301
  20
-3.884887
  30
0
  11
14.73301
  21
-3.823528
  31
0
  0
LINE
  5
c1
  100
AcDbEntity
  8
1
  100
AcDbLine
  10
14.73301
  20
-3.823528
  30
0
  11
14.63301
  21
-3.761877
  31
0
  0
LINE
  5
c2
  100
AcDbEntity
  8
1
  100
AcDbLine
  10
14.63301
  20
-3.761877
  30
0
  11
14.53301
  21
-3.699937
  31
0
  0
LINE
  5
c3
  100
AcDbEntity
  8
1
  100
AcDbLine
  10
14.53301
  20
-3.699937
  30
0
  11
14.43301
  21
-3.637714
  31
0
  0
LINE
  5
c4
  100
AcDbEntity
  8
1
  100
AcDbLine
  10
14.43301
  20
-3.637714
  30
0
  11
14.33301
  21
-3.575213
  31
0
  0
LINE
  5
c5
  100
AcDbEntity
  8
1
  100
AcDbLine
  10
14.33301
  20
-3.575213
  30
0
  11
14.23301
  21
-3.512437
  31
0
  0
LINE
  5
c6
  100
AcDbEntity
  8
1
  100
AcDbLine
  10
14.23301
  20
-3.512437
  30
0
  11
14.13301
  21
-3.449393
  31
0
  0
LINE
  5
c7
  100
AcDbEntity
  8
1
  100
AcDbLine
  10
14.13301
  20
-3.449393
  30
0
  11
14.03301
  21
-3.386084
  31
0
  0
LINE
  5
c8
  100
AcDbEntity
  8
1
  100
AcDbLine
  10
14.03301
  20
-3.386084
  30
0
  11
13.93301
  21
-3.322516
  31
0
  0
LINE
  5
c9
  100
AcDbEntity
  8
1
  100
AcDbLine
  10
13.93301
  20
-3.322516
  30
0
  11
13.83301
  21
-3.258693
  31
0
  0
LINE
  5
ca
  100
AcDbEntity
  8
1
  100
AcDbLine
  10
13.83301
  20
-3.258693
  30
0
  11
13.73301
  21
-3.19462
  31
0
  0
LINE
  5
cb
  100
AcDbEntity
  8
1
  100
AcDbLine
  10
13.73301
  20
-3.19462
  30
0
  11
13.63301
  21
-3.130303
  31
0
  0
LINE
  5
cc
  100
AcDbEntity
  8
1
  100
AcDbLine
  10
13.63301
  20
-3.130303
  30
0
  11
13.53301
  21
-3.065746
  31
0
  0
LINE
  5
cd
  100
AcDbEntity
  8
1
  100
AcDbLine
  10
13.53301
  20
-3.065746
  30
0
  11
13.43301
  21
-3.000954
  31
0
  0
LINE
  5
ce
  100
AcDbEntity
  8
1
  100
AcDbLine
  10
13.43301
  20
-3.000954
  30
0
  11
13.33301
  21
-2.935933
  31
0
  0
LINE
  5
cf
  100
AcDbEntity
  8
1
  100
AcDbLine
  10
13.33301
  20
-2.935933
  30
0
  11
13.23301
  21
-2.870686
  31
0
  0
LINE
  5
d0
  100
AcDbEntity
  8
1
  100
AcDbLine
  10
13.23301
  20
-2.870686
  30
0
  11
13.13301
  21
-2.80522
  31
0
  0
LINE
  5
d1
  100
AcDbEntity
  8
1
  100
AcDbLine
  10
13.13301
  20
-2.80522
  30
0
  11
13.03301
  21
-2.739538
  31
0
  0
LINE
  5
d2
  100
AcDbEntity
  8
1
  100
AcDbLine
  10
13.03301
  20
-2.739538
  30
0
  11
12.93301
  21
-2.673647
  31
0
  0
LINE
  5
d3
  100
AcDbEntity
  8
1
  100
AcDbLine
  10
12.93301
  20
-2.673647
  30
0
  11
12.93301
  21
-2.556943
  31
0
  0
LINE
  5
d4
  100
AcDbEntity
  8
1
  100
AcDbLine
  10
12.93301
  20
-2.556943
  30
0
  11
12.83301
  21
-2.492812
  31
0
  0
LINE
  5
d5
  100
AcDbEntity
  8
1
  100
AcDbLine
  10
12.83301
  20
-2.492812
  30
0
  11
12.73301
  21
-2.428489
  31
0
  0
LINE
  5
d6
  100
AcDbEntity
  8
1
  100
AcDbLine
  10
12.73301
  20
-2.428489
  30
0
  11
12.63301
  21
-2.363981
  31
0
  0
LINE
  5
d7
  100
AcDbEntity
  8
1
  100
AcDbLine
  10
12.63301
  20
-2.363981
  30
0
  11
12.53301
  21
-2.299291
  31
0
  0
LINE
  5
d8
  100
AcDbEntity
  8
1
  100
AcDbLine
  10
12.53301
  20
-2.299291
  30
0
  11
12.43301
  21
-2.234428
  31
0
  0
LINE
  5
d9
  100
AcDbEntity
  8
1
  100
AcDbLine
  10
12.43301
  20
-2.234428
  30
0
  11
12.33301
  21
-2.169417
  31
0
  0
LINE
  5
da
  100
AcDbEntity
  8
1
  100
AcDbLine
  10
12.33301
  20
-2.169417
  30
0
  11
12.23301
  21
-2.104365
  31
0
  0
LINE
  5
db
  100
AcDbEntity
  8
1
  100
AcDbLine
  10
12.23301
  20
-2.104365
  30
0
  11
12.13301
  21
-2.039716
  31
0
  0
LINE
  5
dc
  100
AcDbEntity
  8
1
  100
AcDbLine
  10
12.13301
  20
-2.039716
  30
0
  11
12.03301
  21
-1.976986
  31
0
  0
LINE
  5
dd
  100
AcDbEntity
  8
1
  100
AcDbLine
  10
12.03301
  20
-1.976986
  30
0
  11
11.93301
  21
-1.920705
  31
0
  0
LINE
  5
de
  100
AcDbEntity
  8
1
  100
AcDbLine
  10
11.93301
  20
-1.920705
  30
0
  11
11.83301
  21
-1.882919
  31
0
  0
LINE
  5
df
  100
AcDbEntity
  8
1
  100
AcDbLine
  10
11.83301
  20
-1.882919
  30
0
  11
11.73301
  21
-1.892745
  31
0
  0
LINE
  5
e0
  100
AcDbEntity
  8
1
  100
AcDbLine
  10
11.73301
  20
-1.892745
  30
0
  11
11.63301
  21
-2.014902
  31
0
  0
LINE
  5
e1
  100
AcDbEntity
  8
1
  100
AcDbLine
  10
11.63301
  20
-2.014902
  30
0
  11
11.53301
  21
-2.381936
  31
0
  0
LINE
  5
e2
  100
AcDbEntity
  8
1
  100
AcDbLine
  10
11.53301
  20
-2.381936
  30
0
  11
11.43301
  21
-3.236704
  31
0
  0
LINE
  5
e3
  100
AcDbEntity
  8
1
  100
AcDbLine
  10
11.43301
  20
-3.236704
  30
0
  11
11.33301
  21
-4.910861
  31
0
  0
LINE
  5
e4
  100
AcDbEntity
  8
1
  100
AcDbLine
  10
11.33301
  20
-4.910861
  30
0
  11
11.33301
  21
-4.976195
  31
0
  0
LINE
  5
e5
  100
AcDbEntity
  8
1
  100
AcDbLine
  10
11.33301
  20
-4.976195
  30
0
  11
11.43301
  21
-6.276885
  31
0
  0
LINE
  5
e6
  100
AcDbEntity
  8
1
  100
AcDbLine
  10
11.43301
  20
-6.276885
  30
0
  11
11.53301
  21
-6.987212
  31
0
  0
LINE
  5
e7
  100
AcDbEntity
  8
1
  100
AcDbLine
  10
11.53301
  20
-6.987212
  30
0
  11
11.63301
  21
-7.358505
  31
0
  0
LINE
  5
e8
  100
AcDbEntity
  8
1
  100
AcDbLine
  10
11.63301
  20
-7.358505
  30
0
  11
11.73301
  21
-7.547492
  31
0
  0
LINE
  5
e9
  100
AcDbEntity
  8
1
  100
AcDbLine
  10
11.73301
  20
-7.547492
  30
0
  11
11.83301
  21
-7.642586
  31
0
  0
LINE
  5
ea
  100
AcDbEntity
  8
1
  100
AcDbLine
  10
11.83301
  20
-7.642586
  30
0
  11
11.93301
  21
-7.690652
  31
0
  0
LINE
  5
eb
  100
AcDbEntity
  8
1
  100
AcDbLine
  10
11.93301
  20
-7.690652
  30
0
  11
12.03301
  21
-7.715511
  31
0
  0
LINE
  5
ec
  100
AcDbEntity
  8
1
  100
AcDbLine
  10
12.03301
  20
-7.715511
  30
0
  11
12.13301
  21
-7.728948
  31
0
  0
LINE
  5
ed
  100
AcDbEntity
  8
1
  100
AcDbLine
  10
12.13301
  20
-7.728948
  30
0
  11
12.23301
  21
-7.736704
  31
0
  0
LINE
  5
ee
  100
AcDbEntity
  8
1
  100
AcDbLine
  10
12.23301
  20
-7.736704
  30
0
  11
12.33301
  21
-7.741552
  31
0
  0
LINE
  5
ef
  100
AcDbEntity
  8
1
  100
AcDbLine
  10
12.33301
  20
-7.741552
  30
0
  11
12.43301
  21
-7.744818
  31
0
  0
LINE
  5
f0
  100
AcDbEntity
  8
1
  100
AcDbLine
  10
12.43301
  20
-7.744818
  30
0
  11
12.53301
  21
-7.74711
  31
0
  0
LINE
  5
f1
  100
AcDbEntity
  8
1
  100
AcDbLine
  10
12.53301
  20
-7.74711
  30
0
  11
12.63301
  21
-7.748687
  31
0
  0
LINE
  5
f2
  100
AcDbEntity
  8
1
  100
AcDbLine
  10
12.63301
  20
-7.748687
  30
0
  11
12.73301
  21
-7.749641
  31
0
  0
LINE
  5
f3
  100
AcDbEntity
  8
1
  100
AcDbLine
  10
12.73301
  20
-7.749641
  30
0
  11
12.83301
  21
-7.749997
  31
0
  0
LINE
  5
f4
  100
AcDbEntity
  8
1
  100
AcDbLine
  10
12.83301
  20
-7.749997
  30
0
  11
12.842957
  21
-7.75
  31
0
  0
LINE
  5
f5
  100
AcDbEntity
  8
1
  100
AcDbLine
  10
12.93301
  20
-8
  30
0
  11
12.93301
  21
8
  31
0
  0
LINE
  5
f6
  100
AcDbEntity
  8
1
  100
AcDbLine
  10
44.93301
  20
0.056246
  30
0
  11
44.83301
  21
0.10957
  31
0
  0
LINE
  5
f7
  100
AcDbEntity
  8
1
  100
AcDbLine
  10
44.83301
  20
0.10957
  30
0
  11
44.73301
  21
0.164644
  31
0
  0
LINE
  5
f8
  100
AcDbEntity
  8
1
  100
AcDbLine
  10
44.73301
  20
0.164644
  30
0
  11
44.63301
  21
0.221463
  31
0
  0
LINE
  5
f9
  100
AcDbEntity
  8
1
  100
AcDbLine
  10
44.63301
  20
0.221463
  30
0
  11
44.53301
  21
0.280026
  31
0
  0
LINE
  5
fa
  100
AcDbEntity
  8
1
  100
AcDbLine
  10
44.53301
  20
0.280026
  30
0
  11
44.43301
  21
0.349992
  31
0
  0
LINE
  5
fb
  100
AcDbEntity
  8
1
  100
AcDbLine
  10
44.43301
  20
0.349992
  30
0
  11
44.33301
  21
0.419931
  31
0
  0
LINE
  5
fc
  100
AcDbEntity
  8
1
  100
AcDbLine
  10
44.33301
  20
0.419931
  30
0
  11
44.23301
  21
0.489839
  31
0
  0
LINE
  5
fd
  100
AcDbEntity
  8
1
  100
AcDbLine
  10
44.23301
  20
0.489839
  30
0
  11
44.13301
  21
0.559708
  31
0
  0
LINE
  5
fe
  100
AcDbEntity
  8
1
  100
AcDbLine
  10
44.13301
  20
0.559708
  30
0
  11
44.03301
  21
0.629535
  31
0
  0
LINE
  5
ff
  100
AcDbEntity
  8
1
  100
AcDbLine
  10
44.03301
  20
0.629535
  30
0
  11
43.93301
  21
0.699314
  31
0
  0
LINE
  5
100
  100
AcDbEntity
  8
1
  100
AcDbLine
  10
43.93301
  20
0.699314
  30
0
  11
43.83301
  21
0.769039
  31
0
  0
LINE
  5
101
  100
AcDbEntity
  8
1
  100
AcDbLine
  10
43.83301
  20
0.769039
  30
0
  11
43.73301
  21
0.838705
  31
0
  0
LINE
  5
102
  100
AcDbEntity
  8
1
  100
AcDbLine
  10
43.73301
  20
0.838705
  30
0
  11
43.63301
  21
0.908307
  31
0
  0
LINE
  5
103
  100
AcDbEntity
  8
1
  100
AcDbLine
  10
43.63301
  20
0.908307
  30
0
  11
43.53301
  21
0.977839
  31
0
  0
LINE
  5
104
  100
AcDbEntity
  8
1
  100
AcDbLine
  10
43.53301
  20
0.977839
  30
0
  11
43.43301
  21
1.047297
  31
0
  0
LINE
  5
105
  100
AcDbEntity
  8
1
  100
AcDbLine
  10
43.43301
  20
1.047297
  30
0
  11
43.33301
  21
1.116674
  31
0
  0
LINE
  5
106
  100
AcDbEntity
  8
1
  100
AcDbLine
  10
43.33301
  20
1.116674
  30
0
  11
43.23301
  21
1.185965
  31
0
  0
LINE
  5
107
  100
AcDbEntity
  8
1
  100
AcDbLine
  10
43.23301
  20
1.185965
  30
0
  11
43.13301
  21
1.255166
  31
0
  0
LINE
  5
108
  100
AcDbEntity
  8
1
  100
AcDbLine
  10
43.13301
  20
1.255166
  30
0
  11
43.03301
  21
1.324271
  31
0
  0
LINE
  5
109
  100
AcDbEntity
  8
1
  100
AcDbLine
  10
43.03301
  20
1.324271
  30
0
  11
42.93301
  21
1.393274
  31
0
  0
LINE
  5
10a
  100
AcDbEntity
  8
1
  100
AcDbLine
  10
42.93301
  20
1.393274
  30
0
  11
42.83301
  21
1.46217
  31
0
  0
LINE
  5
10b
  100
AcDbEntity
  8
1
  100
AcDbLine
  10
42.83301
  20
1.46217
  30
0
  11
42.73301
  21
1.530955
  31
0
  0
LINE
  5
10c
  100
AcDbEntity
  8
1
  100
AcDbLine
  10
42.73301
  20
1.530955
  30
0
  11
42.63301
  21
1.599622
  31
0
  0
LINE
  5
10d
  100
AcDbEntity
  8
1
  100
AcDbLine
  10
42.63301
  20
1.599622
  30
0
  11
42.53301
  21
1.668166
  31
0
  0
LINE
  5
10e
  100
AcDbEntity
  8
1
  100
AcDbLine
  10
42.53301
  20
1.668166
  30
0
  11
42.43301
  21
1.736583
  31
0
  0
LINE
  5
10f
  100
AcDbEntity
  8
1
  100
AcDbLine
  10
42.43301
  20
1.736583
  30
0
  11
42.33301
  21
1.804867
  31
0
  0
LINE
  5
110
  100
AcDbEntity
  8
1
  100
AcDbLine
  10
42.33301
  20
1.804867
  30
0
  11
42.23301
  21
1.873012
  31
0
  0
LINE
  5
111
  100
AcDbEntity
  8
1
  100
AcDbLine
  10
42.23301
  20
1.873012
  30
0
  11
42.13301
  21
1.941014
  31
0
  0
LINE
  5
112
  100
AcDbEntity
  8
1
  100
AcDbLine
  10
42.13301
  20
1.941014
  30
0
  11
42.03301
  21
2.008868
  31
0
  0
LINE
  5
113
  100
AcDbEntity
  8
1
  100
AcDbLine
  10
42.03301
  20
2.008868
  30
0
  11
41.93301
  21
2.076567
  31
0
  0
LINE
  5
114
  100
AcDbEntity
  8
1
  100
AcDbLine
  10
41.93301
  20
2.076567
  30
0
  11
41.83301
  21
2.144107
  31
0
  0
LINE
  5
115
  100
AcDbEntity
  8
1
  100
AcDbLine
  10
41.83301
  20
2.144107
  30
0
  11
41.73301
  21
2.211483
  31
0
  0
LINE
  5
116
  100
AcDbEntity
  8
1
  100
AcDbLine
  10
41.73301
  20
2.211483
  30
0
  11
41.63301
  21
2.27869
  31
0
  0
LINE
  5
117
  100
AcDbEntity
  8
1
  100
AcDbLine
  10
41.63301
  20
2.27869
  30
0
  11
41.53301
  21
2.345722
  31
0
  0
LINE
  5
118
  100
AcDbEntity
  8
1
  100
AcDbLine
  10
41.53301
  20
2.345722
  30
0
  11
41.43301
  21
2.412575
  31
0
  0
LINE
  5
119
  100
AcDbEntity
  8
1
  100
AcDbLine
  10
41.43301
  20
2.412575
  30
0
  11
41.33301
  21
2.479242
  31
0
  0
LINE
  5
11a
  100
AcDbEntity
  8
1
  100
AcDbLine
  10
41.33301
  20
2.479242
  30
0
  11
41.23301
  21
2.54572
  31
0
  0
LINE
  5
11b
  100
AcDbEntity
  8
1
  100
AcDbLine
  10
41.23301
  20
2.54572
  30
0
  11
41.13301
  21
2.612002
  31
0
  0
LINE
  5
11c
  100
AcDbEntity
  8
1
  100
AcDbLine
  10
41.13301
  20
2.612002
  30
0
  11
41.03301
  21
2.678085
  31
0
  0
LINE
  5
11d
  100
AcDbEntity
  8
1
  100
AcDbLine
  10
41.03301
  20
2.678085
  30
0
  11
40.93301
  21
2.743962
  31
0
  0
LINE
  5
11e
  100
AcDbEntity
  8
1
  100
AcDbLine
  10
40.93301
  20
2.743962
  30
0
  11
40.83301
  21
2.809629
  31
0
  0
LINE
  5
11f
  100
AcDbEntity
  8
1
  100
AcDbLine
  10
40.83301
  20
2.809629
  30
0
  11
40.73301
  21
2.875081
  31
0
  0
LINE
  5
120
  100
AcDbEntity
  8
1
  100
AcDbLine
  10
40.73301
  20
2.875081
  30
0
  11
40.63301
  21
2.940313
  31
0
  0
LINE
  5
121
  100
AcDbEntity
  8
1
  100
AcDbLine
  10
40.63301
  20
2.940313
  30
0
  11
40.53301
  21
3.005319
  31
0
  0
LINE
  5
122
  100
AcDbEntity
  8
1
  100
AcDbLine
  10
40.53301
  20
3.005319
  30
0
  11
40.43301
  21
3.070096
  31
0
  0
LINE
  5
123
  100
AcDbEntity
  8
1
  100
AcDbLine
  10
40.43301
  20
3.070096
  30
0
  11
40.33301
  21
3.134637
  31
0
  0
LINE
  5
124
  100
AcDbEntity
  8
1
  100
AcDbLine
  10
40.33301
  20
3.134637
  30
0
  11
40.23301
  21
3.198937
  31
0
  0
LINE
  5
125
  100
AcDbEntity
  8
1
  100
AcDbLine
  10
40.23301
  20
3.198937
  30
0
  11
40.13301
  21
3.262993
  31
0
  0
LINE
  5
126
  100
AcDbEntity
  8
1
  100
AcDbLine
  10
40.13301
  20
3.262993
  30
0
  11
40.03301
  21
3.326799
  31
0
  0
LINE
  5
127
  100
AcDbEntity
  8
1
  100
AcDbLine
  10
40.03301
  20
3.326799
  30
0
  11
39.93301
  21
3.39035
  31
0
  0
LINE
  5
128
  100
AcDbEntity
  8
1
  100
AcDbLine
  10
39.93301
  20
3.39035
  30
0
  11
39.83301
  21
3.453641
  31
0
  0
LINE
  5
129
  100
AcDbEntity
  8
1
  100
AcDbLine
  10
39.83301
  20
3.453641
  30
0
  11
39.73301
  21
3.516668
  31
0
  0
LINE
  5
12a
  100
AcDbEntity
  8
1
  100
AcDbLine
  10
39.73301
  20
3.516668
  30
0
  11
39.63301
  21
3.579425
  31
0
  0
LINE
  5
12b
  100
AcDbEntity
  8
1
  100
AcDbLine
  10
39.63301
  20
3.579425
  30
0
  11
39.53301
  21
3.641908
  31
0
  0
LINE
  5
12c
  100
AcDbEntity
  8
1
  100
AcDbLine
  10
39.53301
  20
3.641908
  30
0
  11
39.43301
  21
3.704112
  31
0
  0
LINE
  5
12d
  100
AcDbEntity
  8
1
  100
AcDbLine
  10
39.43301
  20
3.704112
  30
0
  11
39.33301
  21
3.766033
  31
0
  0
LINE
  5
12e
  100
AcDbEntity
  8
1
  100
AcDbLine
  10
39.33301
  20
3.766033
  30
0
  11
39.23301
  21
3.827664
  31
0
  0
LINE
  5
12f
  100
AcDbEntity
  8
1
  100
AcDbLine
  10
39.23301
  20
3.827664
  30
0
  11
39.13301
  21
3.889003
  31
0
  0
LINE
  5
130
  100
AcDbEntity
  8
1
  100
AcDbLine
  10
39.13301
  20
3.889003
  30
0
  11
39.03301
  21
3.950043
  31
0
  0
LINE
  5
131
  100
AcDbEntity
  8
1
  100
AcDbLine
  10
39.03301
  20
3.950043
  30
0
  11
38.93301
  21
4.010782
  31
0
  0
LINE
  5
132
  100
AcDbEntity
  8
1
  100
AcDbLine
  10
38.93301
  20
4.010782
  30
0
  11
38.83301
  21
4.071212
  31
0
  0
LINE
  5
133
  100
AcDbEntity
  8
1
  100
AcDbLine
  10
38.83301
  20
4.071212
  30
0
  11
38.73301
  21
4.131331
  31
0
  0
LINE
  5
134
  100
AcDbEntity
  8
1
  100
AcDbLine
  10
38.73301
  20
4.131331
  30
0
  11
38.63301
  21
4.191134
  31
0
  0
LINE
  5
135
  100
AcDbEntity
  8
1
  100
AcDbLine
  10
38.63301
  20
4.191134
  30
0
  11
38.53301
  21
4.250615
  31
0
  0
LINE
  5
136
  100
AcDbEntity
  8
1
  100
AcDbLine
  10
38.53301
  20
4.250615
  30
0
  11
38.43301
  21
4.309771
  31
0
  0
LINE
  5
137
  100
AcDbEntity
  8
1
  100
AcDbLine
  10
38.43301
  20
4.309771
  30
0
  11
38.33301
  21
4.368596
  31
0
  0
LINE
  5
138
  100
AcDbEntity
  8
1
  100
AcDbLine
  10
38.33301
  20
4.368596
  30
0
  11
38.23301
  21
4.427087
  31
0
  0
LINE
  5
139
  100
AcDbEntity
  8
1
  100
AcDbLine
  10
38.23301
  20
4.427087
  30
0
  11
38.13301
  21
4.485239
  31
0
  0
LINE
  5
13a
  100
AcDbEntity
  8
1
  100
AcDbLine
  10
38.13301
  20
4.485239
  30
0
  11
38.03301
  21
4.543047
  31
0
  0
LINE
  5
13b
  100
AcDbEntity
  8
1
  100
AcDbLine
  10
38.03301
  20
4.543047
  30
0
  11
37.93301
  21
4.600507
  31
0
  0
LINE
  5
13c
  100
AcDbEntity
  8
1
  100
AcDbLine
  10
37.93301
  20
4.600507
  30
0
  11
37.83301
  21
4.657615
  31
0
  0
LINE
  5
13d
  100
AcDbEntity
  8
1
  100
AcDbLine
  10
37.83301
  20
4.657615
  30
0
  11
37.73301
  21
4.714365
  31
0
  0
LINE
  5
13e
  100
AcDbEntity
  8
1
  100
AcDbLine
  10
37.73301
  20
4.714365
  30
0
  11
37.63301
  21
4.770755
  31
0
  0
LINE
  5
13f
  100
AcDbEntity
  8
1
  100
AcDbLine
  10
37.63301
  20
4.770755
  30
0
  11
37.53301
  21
4.826779
  31
0
  0
LINE
  5
140
  100
AcDbEntity
  8
1
  100
AcDbLine
  10
37.53301
  20
4.826779
  30
0
  11
37.43301
  21
4.882434
  31
0
  0
LINE
  5
141
  100
AcDbEntity
  8
1
  100
AcDbLine
  10
37.43301
  20
4.882434
  30
0
  11
37.33301
  21
4.937714
  31
0
  0
LINE
  5
142
  100
AcDbEntity
  8
1
  100
AcDbLine
  10
37.33301
  20
4.937714
  30
0
  11
37.23301
  21
4.992616
  31
0
  0
LINE
  5
143
  100
AcDbEntity
  8
1
  100
AcDbLine
  10
37.23301
  20
4.992616
  30
0
  11
37.13301
  21
5.047136
  31
0
  0
LINE
  5
144
  100
AcDbEntity
  8
1
  100
AcDbLine
  10
37.13301
  20
5.047136
  30
0
  11
37.03301
  21
5.101269
  31
0
  0
LINE
  5
145
  100
AcDbEntity
  8
1
  100
AcDbLine
  10
37.03301
  20
5.101269
  30
0
  11
36.93301
  21
5.155011
  31
0
  0
LINE
  5
146
  100
AcDbEntity
  8
1
  100
AcDbLine
  10
36.93301
  20
5.155011
  30
0
  11
36.83301
  21
5.208359
  31
0
  0
LINE
  5
147
  100
AcDbEntity
  8
1
  100
AcDbLine
  10
36.83301
  20
5.208359
  30
0
  11
36.73301
  21
5.261307
  31
0
  0
LINE
  5
148
  100
AcDbEntity
  8
1
  100
AcDbLine
  10
36.73301
  20
5.261307
  30
0
  11
36.63301
  21
5.313852
  31
0
  0
LINE
  5
149
  100
AcDbEntity
  8
1
  100
AcDbLine
  10
36.63301
  20
5.313852
  30
0
  11
36.53301
  21
5.36599
  31
0
  0
LINE
  5
14a
  100
AcDbEntity
  8
1
  100
AcDbLine
  10
36.53301
  20
5.36599
  30
0
  11
36.43301
  21
5.417717
  31
0
  0
LINE
  5
14b
  100
AcDbEntity
  8
1
  100
AcDbLine
  10
36.43301
  20
5.417717
  30
0
  11
36.33301
  21
5.46903
  31
0
  0
LINE
  5
14c
  100
AcDbEntity
  8
1
  100
AcDbLine
  10
36.33301
  20
5.46903
  30
0
  11
36.23301
  21
5.519923
  31
0
  0
LINE
  5
14d
  100
AcDbEntity
  8
1
  100
AcDbLine
  10
36.23301
  20
5.519923
  30
0
  11
36.13301
  21
5.570393
  31
0
  0
LINE
  5
14e
  100
AcDbEntity
  8
1
  100
AcDbLine
  10
36.13301
  20
5.570393
  30
0
  11
36.03301
  21
5.620436
  31
0
  0
LINE
  5
14f
  100
AcDbEntity
  8
1
  100
AcDbLine
  10
36.03301
  20
5.620436
  30
0
  11
35.93301
  21
5.670049
  31
0
  0
LINE
  5
150
  100
AcDbEntity
  8
1
  100
AcDbLine
  10
35.93301
  20
5.670049
  30
0
  11
35.83301
  21
5.719228
  31
0
  0
LINE
  5
151
  100
AcDbEntity
  8
1
  100
AcDbLine
  10
35.83301
  20
5.719228
  30
0
  11
35.73301
  21
5.767968
  31
0
  0
LINE
  5
152
  100
AcDbEntity
  8
1
  100
AcDbLine
  10
35.73301
  20
5.767968
  30
0
  11
35.63301
  21
5.816267
  31
0
  0
LINE
  5
153
  100
AcDbEntity
  8
1
  100
AcDbLine
  10
35.63301
  20
5.816267
  30
0
  11
35.53301
  21
5.86412
  31
0
  0
LINE
  5
154
  100
AcDbEntity
  8
1
  100
AcDbLine
  10
35.53301
  20
5.86412
  30
0
  11
35.43301
  21
5.911524
  31
0
  0
LINE
  5
155
  100
AcDbEntity
  8
1
  100
AcDbLine
  10
35.43301
  20
5.911524
  30
0
  11
35.33301
  21
5.958475
  31
0
  0
LINE
  5
156
  100
AcDbEntity
  8
1
  100
AcDbLine
  10
35.33301
  20
5.958475
  30
0
  11
35.23301
  21
6.004969
  31
0
  0
LINE
  5
157
  100
AcDbEntity
  8
1
  100
AcDbLine
  10
35.23301
  20
6.004969
  30
0
  11
35.13301
  21
6.051003
  31
0
  0
LINE
  5
158
  100
AcDbEntity
  8
1
  100
AcDbLine
  10
35.13301
  20
6.051003
  30
0
  11
35.03301
  21
6.096574
  31
0
  0
LINE
  5
159
  100
AcDbEntity
  8
1
  100
AcDbLine
  10
35.03301
  20
6.096574
  30
0
  11
34.93301
  21
6.141678
  31
0
  0
LINE
  5
15a
  100
AcDbEntity
  8
1
  100
AcDbLine
  10
34.93301
  20
6.141678
  30
0
  11
34.83301
  21
6.186311
  31
0
  0
LINE
  5
15b
  100
AcDbEntity
  8
1
  100
AcDbLine
  10
34.83301
  20
6.186311
  30
0
  11
34.73301
  21
6.230471
  31
0
  0
LINE
  5
15c
  100
AcDbEntity
  8
1
  100
AcDbLine
  10
34.73301
  20
6.230471
  30
0
  11
34.63301
  21
6.274153
  31
0
  0
LINE
  5
15d
  100
AcDbEntity
  8
1
  100
AcDbLine
  10
34.63301
  20
6.274153
  30
0
  11
34.53301
  21
6.317354
  31
0
  0
LINE
  5
15e
  100
AcDbEntity
  8
1
  100
AcDbLine
  10
34.53301
  20
6.317354
  30
0
  11
34.43301
  21
6.360072
  31
0
  0
LINE
  5
15f
  100
AcDbEntity
  8
1
  100
AcDbLine
  10
34.43301
  20
6.360072
  30
0
  11
34.33301
  21
6.402302
  31
0
  0
LINE
  5
160
  100
AcDbEntity
  8
1
  100
AcDbLine
  10
34.33301
  20
6.402302
  30
0
  11
34.23301
  21
6.444042
  31
0
  0
LINE
  5
161
  100
AcDbEntity
  8
1
  100
AcDbLine
  10
34.23301
  20
6.444042
  30
0
  11
34.13301
  21
6.485288
  31
0
  0
LINE
  5
162
  100
AcDbEntity
  8
1
  100
AcDbLine
  10
34.13301
  20
6.485288
  30
0
  11
34.03301
  21
6.526037
  31
0
  0
LINE
  5
163
  100
AcDbEntity
  8
1
  100
AcDbLine
  10
34.03301
  20
6.526037
  30
0
  11
33.93301
  21
6.566287
  31
0
  0
LINE
  5
164
  100
AcDbEntity
  8
1
  100
AcDbLine
  10
33.93301
  20
6.566287
  30
0
  11
33.83301
  21
6.606033
  31
0
  0
LINE
  5
165
  100
AcDbEntity
  8
1
  100
AcDbLine
  10
33.83301
  20
6.606033
  30
0
  11
33.73301
  21
6.645273
  31
0
  0
LINE
  5
166
  100
AcDbEntity
  8
1
  100
AcDbLine
  10
33.73301
  20
6.645273
  30
0
  11
33.63301
  21
6.684005
  31
0
  0
LINE
  5
167
  100
AcDbEntity
  8
1
  100
AcDbLine
  10
33.63301
  20
6.684005
  30
0
  11
33.53301
  21
6.722224
  31
0
  0
LINE
  5
168
  100
AcDbEntity
  8
1
  100
AcDbLine
  10
33.53301
  20
6.722224
  30
0
  11
33.43301
  21
6.759928
  31
0
  0
LINE
  5
169
  100
AcDbEntity
  8
1
  100
AcDbLine
  10
33.43301
  20
6.759928
  30
0
  11
33.33301
  21
6.797114
  31
0
  0
LINE
  5
16a
  100
AcDbEntity
  8
1
  100
AcDbLine
  10
33.33301
  20
6.797114
  30
0
  11
33.23301
  21
6.83378
  31
0
  0
LINE
  5
16b
  100
AcDbEntity
  8
1
  100
AcDbLine
  10
33.23301
  20
6.83378
  30
0
  11
33.13301
  21
6.869922
  31
0
  0
LINE
  5
16c
  100
AcDbEntity
  8
1
  100
AcDbLine
  10
33.13301
  20
6.869922
  30
0
  11
33.03301
  21
6.905538
  31
0
  0
LINE
  5
16d
  100
AcDbEntity
  8
1
  100
AcDbLine
  10
33.03301
  20
6.905538
  30
0
  11
32.93301
  21
6.940625
  31
0
  0
LINE
  5
16e
  100
AcDbEntity
  8
1
  100
AcDbLine
  10
32.93301
  20
6.940625
  30
0
  11
32.83301
  21
6.97518
  31
0
  0
LINE
  5
16f
  100
AcDbEntity
  8
1
  100
AcDbLine
  10
32.83301
  20
6.97518
  30
0
  11
32.73301
  21
7.0092
  31
0
  0
LINE
  5
170
  100
AcDbEntity
  8
1
  100
AcDbLine
  10
32.73301
  20
7.0092
  30
0
  11
32.63301
  21
7.042684
  31
0
  0
LINE
  5
171
  100
AcDbEntity
  8
1
  100
AcDbLine
  10
32.63301
  20
7.042684
  30
0
  11
32.53301
  21
7.075629
  31
0
  0
LINE
  5
172
  100
AcDbEntity
  8
1
  100
AcDbLine
  10
32.53301
  20
7.075629
  30
0
  11
32.43301
  21
7.108031
  31
0
  0
LINE
  5
173
  100
AcDbEntity
  8
1
  100
AcDbLine
  10
32.43301
  20
7.108031
  30
0
  11
32.33301
  21
7.139888
  31
0
  0
LINE
  5
174
  100
AcDbEntity
  8
1
  100
AcDbLine
  10
32.33301
  20
7.139888
  30
0
  11
32.23301
  21
7.171199
  31
0
  0
LINE
  5
175
  100
AcDbEntity
  8
1
  100
AcDbLine
  10
32.23301
  20
7.171199
  30
0
  11
32.13301
  21
7.201961
  31
0
  0
LINE
  5
176
  100
AcDbEntity
  8
1
  100
AcDbLine
  10
32.13301
  20
7.201961
  30
0
  11
32.03301
  21
7.23217
  31
0
  0
LINE
  5
177
  100
AcDbEntity
  8
1
  100
AcDbLine
  10
32.03301
  20
7.23217
  30
0
  11
31.93301
  21
7.261826
  31
0
  0
LINE
  5
178
  100
AcDbEntity
  8
1
  100
AcDbLine
  10
31.93301
  20
7.261826
  30
0
  11
31.83301
  21
7.290925
  31
0
  0
LINE
  5
179
  100
AcDbEntity
  8
1
  100
AcDbLine
  10
31.83301
  20
7.290925
  30
0
  11
31.73301
  21
7.319466
  31
0
  0
LINE
  5
17a
  100
AcDbEntity
  8
1
  100
AcDbLine
  10
31.73301
  20
7.319466
  30
0
  11
31.63301
  21
7.347446
  31
0
  0
LINE
  5
17b
  100
AcDbEntity
  8
1
  100
AcDbLine
  10
31.63301
  20
7.347446
  30
0
  11
31.53301
  21
7.374863
  31
0
  0
LINE
  5
17c
  100
AcDbEntity
  8
1
  100
AcDbLine
  10
31.53301
  20
7.374863
  30
0
  11
31.43301
  21
7.401715
  31
0
  0
LINE
  5
17d
  100
AcDbEntity
  8
1
  100
AcDbLine
  10
31.43301
  20
7.401715
  30
0
  11
31.33301
  21
7.428
  31
0
  0
LINE
  5
17e
  100
AcDbEntity
  8
1
  100
AcDbLine
  10
31.33301
  20
7.428
  30
0
  11
31.23301
  21
7.453716
  31
0
  0
LINE
  5
17f
  100
AcDbEntity
  8
1
  100
AcDbLine
  10
31.23301
  20
7.453716
  30
0
  11
31.13301
  21
7.478862
  31
0
  0
LINE
  5
180
  100
AcDbEntity
  8
1
  100
AcDbLine
  10
31.13301
  20
7.478862
  30
0
  11
31.03301
  21
7.503434
  31
0
  0
LINE
  5
181
  100
AcDbEntity
  8
1
  100
AcDbLine
  10
31.03301
  20
7.503434
  30
0
  11
30.93301
  21
7.527431
  31
0
  0
LINE
  5
182
  100
AcDbEntity
  8
1
  100
AcDbLine
  10
30.93301
  20
7.527431
  30
0
  11
30.83301
  21
7.550852
  31
0
  0
LINE
  5
183
  100
AcDbEntity
  8
1
  100
AcDbLine
  10
30.83301
  20
7.550852
  30
0
  11
30.73301
  21
7.573694
  31
0
  0
LINE
  5
184
  100
AcDbEntity
  8
1
  100
AcDbLine
  10
30.73301
  20
7.573694
  30
0
  11
30.63301
  21
7.595956
  31
0
  0
LINE
  5
185
  100
AcDbEntity
  8
1
  100
AcDbLine
  10
30.63301
  20
7.595956
  30
0
  11
30.53301
  21
7.617636
  31
0
  0
LINE
  5
186
  100
AcDbEntity
  8
1
  100
AcDbLine
  10
30.53301
  20
7.617636
  30
0
  11
30.43301
  21
7.638733
  31
0
  0
LINE
  5
187
  100
AcDbEntity
  8
1
  100
AcDbLine
  10
30.43301
  20
7.638733
  30
0
  11
30.33301
  21
7.659244
  31
0
  0
LINE
  5
188
  100
AcDbEntity
  8
1
  100
AcDbLine
  10
30.33301
  20
7.659244
  30
0
  11
30.23301
  21
7.679169
  31
0
  0
LINE
  5
189
  100
AcDbEntity
  8
1
  100
AcDbLine
  10
30.23301
  20
7.679169
  30
0
  11
30.13301
  21
7.698505
  31
0
  0
LINE
  5
18a
  100
AcDbEntity
  8
1
  100
AcDbLine
  10
30.13301
  20
7.698505
  30
0
  11
30.03301
  21
7.717252
  31
0
  0
LINE
  5
18b
  100
AcDbEntity
  8
1
  100
AcDbLine
  10
30.03301
  20
7.717252
  30
0
  11
29.93301
  21
7.735407
  31
0
  0
LINE
  5
18c
  100
AcDbEntity
  8
1
  100
AcDbLine
  10
29.93301
  20
7.735407
  30
0
  11
29.83301
  21
7.75297
  31
0
  0
LINE
  5
18d
  100
AcDbEntity
  8
1
  100
AcDbLine
  10
29.83301
  20
7.75297
  30
0
  11
29.73301
  21
7.769939
  31
0
  0
LINE
  5
18e
  100
AcDbEntity
  8
1
  100
AcDbLine
  10
29.73301
  20
7.769939
  30
0
  11
29.63301
  21
7.786312
  31
0
  0
LINE
  5
18f
  100
AcDbEntity
  8
1
  100
AcDbLine
  10
29.63301
  20
7.786312
  30
0
  11
29.53301
  21
7.802089
  31
0
  0
LINE
  5
190
  100
AcDbEntity
  8
1
  100
AcDbLine
  10
29.53301
  20
7.802089
  30
0
  11
29.43301
  21
7.817269
  31
0
  0
LINE
  5
191
  100
AcDbEntity
  8
1
  100
AcDbLine
  10
29.43301
  20
7.817269
  30
0
  11
29.33301
  21
7.831849
  31
0
  0
LINE
  5
192
  100
AcDbEntity
  8
1
  100
AcDbLine
  10
29.33301
  20
7.831849
  30
0
  11
29.23301
  21
7.84583
  31
0
  0
LINE
  5
193
  100
AcDbEntity
  8
1
  100
AcDbLine
  10
29.23301
  20
7.84583
  30
0
  11
29.13301
  21
7.85921
  31
0
  0
LINE
  5
194
  100
AcDbEntity
  8
1
  100
AcDbLine
  10
29.13301
  20
7.85921
  30
0
  11
29.03301
  21
7.871987
  31
0
  0
LINE
  5
195
  100
AcDbEntity
  8
1
  100
AcDbLine
  10
29.03301
  20
7.871987
  30
0
  11
28.93301
  21
7.884162
  31
0
  0
LINE
  5
196
  100
AcDbEntity
  8
1
  100
AcDbLine
  10
28.93301
  20
7.884162
  30
0
  11
28.83301
  21
7.895732
  31
0
  0
LINE
  5
197
  100
AcDbEntity
  8
1
  100
AcDbLine
  10
28.83301
  20
7.895732
  30
0
  11
28.73301
  21
7.906698
  31
0
  0
LINE
  5
198
  100
AcDbEntity
  8
1
  100
AcDbLine
  10
28.73301
  20
7.906698
  30
0
  11
28.63301
  21
7.917057
  31
0
  0
LINE
  5
199
  100
AcDbEntity
  8
1
  100
AcDbLine
  10
28.63301
  20
7.917057
  30
0
  11
28.53301
  21
7.926811
  31
0
  0
LINE
  5
19a
  100
AcDbEntity
  8
1
  100
AcDbLine
  10
28.53301
  20
7.926811
  30
0
  11
28.43301
  21
7.935957
  31
0
  0
LINE
  5
19b
  100
AcDbEntity
  8
1
  100
AcDbLine
  10
28.43301
  20
7.935957
  30
0
  11
28.33301
  21
7.944495
  31
0
  0
LINE
  5
19c
  100
AcDbEntity
  8
1
  100
AcDbLine
  10
28.33301
  20
7.944495
  30
0
  11
28.23301
  21
7.952425
  31
0
  0
LINE
  5
19d
  100
AcDbEntity
  8
1
  100
AcDbLine
  10
28.23301
  20
7.952425
  30
0
  11
28.13301
  21
7.959745
  31
0
  0
LINE
  5
19e
  100
AcDbEntity
  8
1
  100
AcDbLine
  10
28.13301
  20
7.959745
  30
0
  11
28.03301
  21
7.966455
  31
0
  0
LINE
  5
19f
  100
AcDbEntity
  8
1
  100
AcDbLine
  10
28.03301
  20
7.966455
  30
0
  11
27.93301
  21
7.972556
  31
0
  0
LINE
  5
1a0
  100
AcDbEntity
  8
1
  100
AcDbLine
  10
27.93301
  20
7.972556
  30
0
  11
27.83301
  21
7.978045
  31
0
  0
LINE
  5
1a1
  100
AcDbEntity
  8
1
  100
AcDbLine
  10
27.83301
  20
7.978045
  30
0
  11
27.73301
  21
7.982924
  31
0
  0
LINE
  5
1a2
  100
AcDbEntity
  8
1
  100
AcDbLine
  10
27.73301
  20
7.982924
  30
0
  11
27.63301
  21
7.98719
  31
0
  0
LINE
  5
1a3
  100
AcDbEntity
  8
1
  100
AcDbLine
  10
27.63301
  20
7.98719
  30
0
  11
27.53301
  21
7.990845
  31
0
  0
LINE
  5
1a4
  100
AcDbEntity
  8
1
  100
AcDbLine
  10
27.53301
  20
7.990845
  30
0
  11
27.43301
  21
7.993888
  31
0
  0
LINE
  5
1a5
  100
AcDbEntity
  8
1
  100
AcDbLine
  10
27.43301
  20
7.993888
  30
0
  11
27.33301
  21
7.996318
  31
0
  0
LINE
  5
1a6
  100
AcDbEntity
  8
1
  100
AcDbLine
  10
27.33301
  20
7.996318
  30
0
  11
27.23301
  21
7.998136
  31
0
  0
LINE
  5
1a7
  100
AcDbEntity
  8
1
  100
AcDbLine
  10
27.23301
  20
7.998136
  30
0
  11
27.13301
  21
7.999341
  31
0
  0
LINE
  5
1a8
  100
AcDbEntity
  8
1
  100
AcDbLine
  10
27.13301
  20
7.999341
  30
0
  11
27.03301
  21
7.999933
  31
0
  0
LINE
  5
1a9
  100
AcDbEntity
  8
1
  100
AcDbLine
  10
27.03301
  20
7.999933
  30
0
  11
26.986373
  21
8
  31
0
  0
LINE
  5
1aa
  100
AcDbEntity
  8
1
  100
AcDbLine
  10
44.93301
  20
0.843042
  30
0
  11
44.83301
  21
0.89536
  31
0
  0
LINE
  5
1ab
  100
AcDbEntity
  8
1
  100
AcDbLine
  10
44.83301
  20
0.89536
  30
0
  11
44.73301
  21
0.949382
  31
0
  0
LINE
  5
1ac
  100
AcDbEntity
  8
1
  100
AcDbLine
  10
44.73301
  20
0.949382
  30
0
  11
44.63301
  21
1.005106
  31
0
  0
LINE
  5
1ad
  100
AcDbEntity
  8
1
  100
AcDbLine
  10
44.63301
  20
1.005106
  30
0
  11
44.53301
  21
1.062527
  31
0
  0
LINE
  5
1ae
  100
AcDbEntity
  8
1
  100
AcDbLine
  10
44.53301
  20
1.062527
  30
0
  11
44.43301
  21
1.131006
  31
0
  0
LINE
  5
1af
  100
AcDbEntity
  8
1
  100
AcDbLine
  10
44.43301
  20
1.131006
  30
0
  11
44.33301
  21
1.199399
  31
0
  0
LINE
  5
1b0
  100
AcDbEntity
  8
1
  100
AcDbLine
  10
44.33301
  20
1.199399
  30
0
  11
44.23301
  21
1.267701
  31
0
  0
LINE
  5
1b1
  100
AcDbEntity
  8
1
  100
AcDbLine
  10
44.23301
  20
1.267701
  30
0
  11
44.13301
  21
1.335905
  31
0
  0
LINE
  5
1b2
  100
AcDbEntity
  8
1
  100
AcDbLine
  10
44.13301
  20
1.335905
  30
0
  11
44.03301
  21
1.404007
  31
0
  0
LINE
  5
1b3
  100
AcDbEntity
  8
1
  100
AcDbLine
  10
44.03301
  20
1.404007
  30
0
  11
43.93301
  21
1.472001
  31
0
  0
LINE
  5
1b4
  100
AcDbEntity
  8
1
  100
AcDbLine
  10
43.93301
  20
1.472001
  30
0
  11
43.83301
  21
1.539882
  31
0
  0
LINE
  5
1b5
  100
AcDbEntity
  8
1
  100
AcDbLine
  10
43.83301
  20
1.539882
  30
0
  11
43.73301
  21
1.607646
  31
0
  0
LINE
  5
1b6
  100
AcDbEntity
  8
1
  100
AcDbLine
  10
43.73301
  20
1.607646
  30
0
  11
43.63301
  21
1.675286
  31
0
  0
LINE
  5
1b7
  100
AcDbEntity
  8
1
  100
AcDbLine
  10
43.63301
  20
1.675286
  30
0
  11
43.53301
  21
1.742798
  31
0
  0
LINE
  5
1b8
  100
AcDbEntity
  8
1
  100
AcDbLine
  10
43.53301
  20
1.742798
  30
0
  11
43.43301
  21
1.810176
  31
0
  0
LINE
  5
1b9
  100
AcDbEntity
  8
1
  100
AcDbLine
  10
43.43301
  20
1.810176
  30
0
  11
43.33301
  21
1.877416
  31
0
  0
LINE
  5
1ba
  100
AcDbEntity
  8
1
  100
AcDbLine
  10
43.33301
  20
1.877416
  30
0
  11
43.23301
  21
1.944512
  31
0
  0
LINE
  5
1bb
  100
AcDbEntity
  8
1
  100
AcDbLine
  10
43.23301
  20
1.944512
  30
0
  11
43.13301
  21
2.011459
  31
0
  0
LINE
  5
1bc
  100
AcDbEntity
  8
1
  100
AcDbLine
  10
43.13301
  20
2.011459
  30
0
  11
43.03301
  21
2.078252
  31
0
  0
LINE
  5
1bd
  100
AcDbEntity
  8
1
  100
AcDbLine
  10
43.03301
  20
2.078252
  30
0
  11
42.93301
  21
2.144886
  31
0
  0
LINE
  5
1be
  100
AcDbEntity
  8
1
  100
AcDbLine
  10
42.93301
  20
2.144886
  30
0
  11
42.83301
  21
2.211355
  31
0
  0
LINE
  5
1bf
  100
AcDbEntity
  8
1
  100
AcDbLine
  10
42.83301
  20
2.211355
  30
0
  11
42.73301
  21
2.277655
  31
0
  0
LINE
  5
1c0
  100
AcDbEntity
  8
1
  100
AcDbLine
  10
42.73301
  20
2.277655
  30
0
  11
42.63301
  21
2.343781
  31
0
  0
LINE
  5
1c1
  100
AcDbEntity
  8
1
  100
AcDbLine
  10
42.63301
  20
2.343781
  30
0
  11
42.53301
  21
2.409727
  31
0
  0
LINE
  5
1c2
  100
AcDbEntity
  8
1
  100
AcDbLine
  10
42.53301
  20
2.409727
  30
0
  11
42.43301
  21
2.475488
  31
0
  0
LINE
  5
1c3
  100
AcDbEntity
  8
1
  100
AcDbLine
  10
42.43301
  20
2.475488
  30
0
  11
42.33301
  21
2.54106
  31
0
  0
LINE
  5
1c4
  100
AcDbEntity
  8
1
  100
AcDbLine
  10
42.33301
  20
2.54106
  30
0
  11
42.23301
  21
2.606437
  31
0
  0
LINE
  5
1c5
  100
AcDbEntity
  8
1
  100
AcDbLine
  10
42.23301
  20
2.606437
  30
0
  11
42.13301
  21
2.671614
  31
0
  0
LINE
  5
1c6
  100
AcDbEntity
  8
1
  100
AcDbLine
  10
42.13301
  20
2.671614
  30
0
  11
42.03301
  21
2.736587
  31
0
  0
LINE
  5
1c7
  100
AcDbEntity
  8
1
  100
AcDbLine
  10
42.03301
  20
2.736587
  30
0
  11
41.93301
  21
2.80135
  31
0
  0
LINE
  5
1c8
  100
AcDbEntity
  8
1
  100
AcDbLine
  10
41.93301
  20
2.80135
  30
0
  11
41.83301
  21
2.865898
  31
0
  0
LINE
  5
1c9
  100
AcDbEntity
  8
1
  100
AcDbLine
  10
41.83301
  20
2.865898
  30
0
  11
41.73301
  21
2.930227
  31
0
  0
LINE
  5
1ca
  100
AcDbEntity
  8
1
  100
AcDbLine
  10
41.73301
  20
2.930227
  30
0
  11
41.63301
  21
2.994332
  31
0
  0
LINE
  5
1cb
  100
AcDbEntity
  8
1
  100
AcDbLine
  10
41.63301
  20
2.994332
  30
0
  11
41.53301
  21
3.058207
  31
0
  0
LINE
  5
1cc
  100
AcDbEntity
  8
1
  100
AcDbLine
  10
41.53301
  20
3.058207
  30
0
  11
41.43301
  21
3.121847
  31
0
  0
LINE
  5
1cd
  100
AcDbEntity
  8
1
  100
AcDbLine
  10
41.43301
  20
3.121847
  30
0
  11
41.33301
  21
3.185249
  31
0
  0
LINE
  5
1ce
  100
AcDbEntity
  8
1
  100
AcDbLine
  10
41.33301
  20
3.185249
  30
0
  11
41.23301
  21
3.248407
  31
0
  0
LINE
  5
1cf
  100
AcDbEntity
  8
1
  100
AcDbLine
  10
41.23301
  20
3.248407
  30
0
  11
41.13301
  21
3.311315
  31
0
  0
LINE
  5
1d0
  100
AcDbEntity
  8
1
  100
AcDbLine
  10
41.13301
  20
3.311315
  30
0
  11
41.03301
  21
3.37397
  31
0
  0
LINE
  5
1d1
  100
AcDbEntity
  8
1
  100
AcDbLine
  10
41.03301
  20
3.37397
  30
0
  11
40.93301
  21
3.436367
  31
0
  0
LINE
  5
1d2
  100
AcDbEntity
  8
1
  100
AcDbLine
  10
40.93301
  20
3.436367
  30
0
  11
40.83301
  21
3.4985
  31
0
  0
LINE
  5
1d3
  100
AcDbEntity
  8
1
  100
AcDbLine
  10
40.83301
  20
3.4985
  30
0
  11
40.73301
  21
3.560366
  31
0
  0
LINE
  5
1d4
  100
AcDbEntity
  8
1
  100
AcDbLine
  10
40.73301
  20
3.560366
  30
0
  11
40.63301
  21
3.621958
  31
0
  0
LINE
  5
1d5
  100
AcDbEntity
  8
1
  100
AcDbLine
  10
40.63301
  20
3.621958
  30
0
  11
40.53301
  21
3.683273
  31
0
  0
LINE
  5
1d6
  100
AcDbEntity
  8
1
  100
AcDbLine
  10
40.53301
  20
3.683273
  30
0
  11
40.43301
  21
3.744306
  31
0
  0
LINE
  5
1d7
  100
AcDbEntity
  8
1
  100
AcDbLine
  10
40.43301
  20
3.744306
  30
0
  11
40.33301
  21
3.805052
  31
0
  0
LINE
  5
1d8
  100
AcDbEntity
  8
1
  100
AcDbLine
  10
40.33301
  20
3.805052
  30
0
  11
40.23301
  21
3.865507
  31
0
  0
LINE
  5
1d9
  100
AcDbEntity
  8
1
  100
AcDbLine
  10
40.23301
  20
3.865507
  30
0
  11
40.13301
  21
3.925666
  31
0
  0
LINE
  5
1da
  100
AcDbEntity
  8
1
  100
AcDbLine
  10
40.13301
  20
3.925666
  30
0
  11
40.03301
  21
3.985523
  31
0
  0
LINE
  5
1db
  100
AcDbEntity
  8
1
  100
AcDbLine
  10
40.03301
  20
3.985523
  30
0
  11
39.93301
  21
4.045076
  31
0
  0
LINE
  5
1dc
  100
AcDbEntity
  8
1
  100
AcDbLine
  10
39.93301
  20
4.045076
  30
0
  11
39.83301
  21
4.104318
  31
0
  0
LINE
  5
1dd
  100
AcDbEntity
  8
1
  100
AcDbLine
  10
39.83301
  20
4.104318
  30
0
  11
39.73301
  21
4.163246
  31
0
  0
LINE
  5
1de
  100
AcDbEntity
  8
1
  100
AcDbLine
  10
39.73301
  20
4.163246
  30
0
  11
39.63301
  21
4.221856
  31
0
  0
LINE
  5
1df
  100
AcDbEntity
  8
1
  100
AcDbLine
  10
39.63301
  20
4.221856
  30
0
  11
39.53301
  21
4.280141
  31
0
  0
LINE
  5
1e0
  100
AcDbEntity
  8
1
  100
AcDbLine
  10
39.53301
  20
4.280141
  30
0
  11
39.43301
  21
4.338099
  31
0
  0
LINE
  5
1e1
  100
AcDbEntity
  8
1
  100
AcDbLine
  10
39.43301
  20
4.338099
  30
0
  11
39.33301
  21
4.395725
  31
0
  0
LINE
  5
1e2
  100
AcDbEntity
  8
1
  100
AcDbLine
  10
39.33301
  20
4.395725
  30
0
  11
39.23301
  21
4.453014
  31
0
  0
LINE
  5
1e3
  100
AcDbEntity
  8
1
  100
AcDbLine
  10
39.23301
  20
4.453014
  30
0
  11
39.13301
  21
4.509961
  31
0
  0
LINE
  5
1e4
  100
AcDbEntity
  8
1
  100
AcDbLine
  10
39.13301
  20
4.509961
  30
0
  11
39.03301
  21
4.566563
  31
0
  0
LINE
  5
1e5
  100
AcDbEntity
  8
1
  100
AcDbLine
  10
39.03301
  20
4.566563
  30
0
  11
38.93301
  21
4.622816
  31
0
  0
LINE
  5
1e6
  100
AcDbEntity
  8
1
  100
AcDbLine
  10
38.93301
  20
4.622816
  30
0
  11
38.83301
  21
4.678714
  31
0
  0
LINE
  5
1e7
  100
AcDbEntity
  8
1
  100
AcDbLine
  10
38.83301
  20
4.678714
  30
0
  11
38.73301
  21
4.734254
  31
0
  0
LINE
  5
1e8
  100
AcDbEntity
  8
1
  100
AcDbLine
  10
38.73301
  20
4.734254
  30
0
  11
38.63301
  21
4.789431
  31
0
  0
LINE
  5
1e9
  100
AcDbEntity
  8
1
  100
AcDbLine
  10
38.63301
  20
4.789431
  30
0
  11
38.53301
  21
4.844241
  31
0
  0
LINE
  5
1ea
  100
AcDbEntity
  8
1
  100
AcDbLine
  10
38.53301
  20
4.844241
  30
0
  11
38.43301
  21
4.89868
  31
0
  0
LINE
  5
1eb
  100
AcDbEntity
  8
1
  100
AcDbLine
  10
38.43301
  20
4.89868
  30
0
  11
38.33301
  21
4.952744
  31
0
  0
LINE
  5
1ec
  100
AcDbEntity
  8
1
  100
AcDbLine
  10
38.33301
  20
4.952744
  30
0
  11
38.23301
  21
5.006428
  31
0
  0
LINE
  5
1ed
  100
AcDbEntity
  8
1
  100
AcDbLine
  10
38.23301
  20
5.006428
  30
0
  11
38.13301
  21
5.059729
  31
0
  0
LINE
  5
1ee
  100
AcDbEntity
  8
1
  100
AcDbLine
  10
38.13301
  20
5.059729
  30
0
  11
38.03301
  21
5.112642
  31
0
  0
LINE
  5
1ef
  100
AcDbEntity
  8
1
  100
AcDbLine
  10
38.03301
  20
5.112642
  30
0
  11
37.93301
  21
5.165164
  31
0
  0
LINE
  5
1f0
  100
AcDbEntity
  8
1
  100
AcDbLine
  10
37.93301
  20
5.165164
  30
0
  11
37.83301
  21
5.21729
  31
0
  0
LINE
  5
1f1
  100
AcDbEntity
  8
1
  100
AcDbLine
  10
37.83301
  20
5.21729
  30
0
  11
37.73301
  21
5.269016
  31
0
  0
LINE
  5
1f2
  100
AcDbEntity
  8
1
  100
AcDbLine
  10
37.73301
  20
5.269016
  30
0
  11
37.63301
  21
5.320339
  31
0
  0
LINE
  5
1f3
  100
AcDbEntity
  8
1
  100
AcDbLine
  10
37.63301
  20
5.320339
  30
0
  11
37.53301
  21
5.371254
  31
0
  0
LINE
  5
1f4
  100
AcDbEntity
  8
1
  100
AcDbLine
  10
37.53301
  20
5.371254
  30
0
  11
37.43301
  21
5.421757
  31
0
  0
LINE
  5
1f5
  100
AcDbEntity
  8
1
  100
AcDbLine
  10
37.43301
  20
5.421757
  30
0
  11
37.33301
  21
5.471845
  31
0
  0
LINE
  5
1f6
  100
AcDbEntity
  8
1
  100
AcDbLine
  10
37.33301
  20
5.471845
  30
0
  11
37.23301
  21
5.521514
  31
0
  0
LINE
  5
1f7
  100
AcDbEntity
  8
1
  100
AcDbLine
  10
37.23301
  20
5.521514
  30
0
  11
37.13301
  21
5.57076
  31
0
  0
LINE
  5
1f8
  100
AcDbEntity
  8
1
  100
AcDbLine
  10
37.13301
  20
5.57076
  30
0
  11
37.03301
  21
5.619579
  31
0
  0
LINE
  5
1f9
  100
AcDbEntity
  8
1
  100
AcDbLine
  10
37.03301
  20
5.619579
  30
0
  11
36.93301
  21
5.667968
  31
0
  0
LINE
  5
1fa
  100
AcDbEntity
  8
1
  100
AcDbLine
  10
36.93301
  20
5.667968
  30
0
  11
36.83301
  21
5.715923
  31
0
  0
LINE
  5
1fb
  100
AcDbEntity
  8
1
  100
AcDbLine
  10
36.83301
  20
5.715923
  30
0
  11
36.73301
  21
5.763439
  31
0
  0
LINE
  5
1fc
  100
AcDbEntity
  8
1
  100
AcDbLine
  10
36.73301
  20
5.763439
  30
0
  11
36.63301
  21
5.810514
  31
0
  0
LINE
  5
1fd
  100
AcDbEntity
  8
1
  100
AcDbLine
  10
36.63301
  20
5.810514
  30
0
  11
36.53301
  21
5.857144
  31
0
  0
LINE
  5
1fe
  100
AcDbEntity
  8
1
  100
AcDbLine
  10
36.53301
  20
5.857144
  30
0
  11
36.43301
  21
5.903326
  31
0
  0
LINE
  5
1ff
  100
AcDbEntity
  8
1
  100
AcDbLine
  10
36.43301
  20
5.903326
  30
0
  11
36.33301
  21
5.949055
  31
0
  0
LINE
  5
200
  100
AcDbEntity
  8
1
  100
AcDbLine
  10
36.33301
  20
5.949055
  30
0
  11
36.23301
  21
5.994328
  31
0
  0
LINE
  5
201
  100
AcDbEntity
  8
1
  100
AcDbLine
  10
36.23301
  20
5.994328
  30
0
  11
36.13301
  21
6.039142
  31
0
  0
LINE
  5
202
  100
AcDbEntity
  8
1
  100
AcDbLine
  10
36.13301
  20
6.039142
  30
0
  11
36.03301
  21
6.083493
  31
0
  0
LINE
  5
203
  100
AcDbEntity
  8
1
  100
AcDbLine
  10
36.03301
  20
6.083493
  30
0
  11
35.93301
  21
6.127379
  31
0
  0
LINE
  5
204
  100
AcDbEntity
  8
1
  100
AcDbLine
  10
35.93301
  20
6.127379
  30
0
  11
35.83301
  21
6.170795
  31
0
  0
LINE
  5
205
  100
AcDbEntity
  8
1
  100
AcDbLine
  10
35.83301
  20
6.170795
  30
0
  11
35.73301
  21
6.213738
  31
0
  0
LINE
  5
206
  100
AcDbEntity
  8
1
  100
AcDbLine
  10
35.73301
  20
6.213738
  30
0
  11
35.63301
  21
6.256205
  31
0
  0
LINE
  5
207
  100
AcDbEntity
  8
1
  100
AcDbLine
  10
35.63301
  20
6.256205
  30
0
  11
35.53301
  21
6.298193
  31
0
  0
LINE
  5
208
  100
AcDbEntity
  8
1
  100
AcDbLine
  10
35.53301
  20
6.298193
  30
0
  11
35.43301
  21
6.339699
  31
0
  0
LINE
  5
209
  100
AcDbEntity
  8
1
  100
AcDbLine
  10
35.43301
  20
6.339699
  30
0
  11
35.33301
  21
6.380719
  31
0
  0
LINE
  5
20a
  100
AcDbEntity
  8
1
  100
AcDbLine
  10
35.33301
  20
6.380719
  30
0
  11
35.23301
  21
6.42125
  31
0
  0
LINE
  5
20b
  100
AcDbEntity
  8
1
  100
AcDbLine
  10
35.23301
  20
6.42125
  30
0
  11
35.13301
  21
6.461289
  31
0
  0
LINE
  5
20c
  100
AcDbEntity
  8
1
  100
AcDbLine
  10
35.13301
  20
6.461289
  30
0
  11
35.03301
  21
6.500833
  31
0
  0
LINE
  5
20d
  100
AcDbEntity
  8
1
  100
AcDbLine
  10
35.03301
  20
6.500833
  30
0
  11
34.93301
  21
6.539879
  31
0
  0
LINE
  5
20e
  100
AcDbEntity
  8
1
  100
AcDbLine
  10
34.93301
  20
6.539879
  30
0
  11
34.83301
  21
6.578424
  31
0
  0
LINE
  5
20f
  100
AcDbEntity
  8
1
  100
AcDbLine
  10
34.83301
  20
6.578424
  30
0
  11
34.73301
  21
6.616465
  31
0
  0
LINE
  5
210
  100
AcDbEntity
  8
1
  100
AcDbLine
  10
34.73301
  20
6.616465
  30
0
  11
34.63301
  21
6.654
  31
0
  0
LINE
  5
211
  100
AcDbEntity
  8
1
  100
AcDbLine
  10
34.63301
  20
6.654
  30
0
  11
34.53301
  21
6.691024
  31
0
  0
LINE
  5
212
  100
AcDbEntity
  8
1
  100
AcDbLine
  10
34.53301
  20
6.691024
  30
0
  11
34.43301
  21
6.727536
  31
0
  0
LINE
  5
213
  100
AcDbEntity
  8
1
  100
AcDbLine
  10
34.43301
  20
6.727536
  30
0
  11
34.33301
  21
6.763533
  31
0
  0
LINE
  5
214
  100
AcDbEntity
  8
1
  100
AcDbLine
  10
34.33301
  20
6.763533
  30
0
  11
34.23301
  21
6.799011
  31
0
  0
LINE
  5
215
  100
AcDbEntity
  8
1
  100
AcDbLine
  10
34.23301
  20
6.799011
  30
0
  11
34.13301
  21
6.833969
  31
0
  0
LINE
  5
216
  100
AcDbEntity
  8
1
  100
AcDbLine
  10
34.13301
  20
6.833969
  30
0
  11
34.03301
  21
6.868403
  31
0
  0
LINE
  5
217
  100
AcDbEntity
  8
1
  100
AcDbLine
  10
34.03301
  20
6.868403
  30
0
  11
33.93301
  21
6.902311
  31
0
  0
LINE
  5
218
  100
AcDbEntity
  8
1
  100
AcDbLine
  10
33.93301
  20
6.902311
  30
0
  11
33.83301
  21
6.93569
  31
0
  0
LINE
  5
219
  100
AcDbEntity
  8
1
  100
AcDbLine
  10
33.83301
  20
6.93569
  30
0
  11
33.73301
  21
6.968537
  31
0
  0
LINE
  5
21a
  100
AcDbEntity
  8
1
  100
AcDbLine
  10
33.73301
  20
6.968537
  30
0
  11
33.63301
  21
7.000851
  31
0
  0
LINE
  5
21b
  100
AcDbEntity
  8
1
  100
AcDbLine
  10
33.63301
  20
7.000851
  30
0
  11
33.53301
  21
7.032629
  31
0
  0
LINE
  5
21c
  100
AcDbEntity
  8
1
  100
AcDbLine
  10
33.53301
  20
7.032629
  30
0
  11
33.43301
  21
7.063868
  31
0
  0
LINE
  5
21d
  100
AcDbEntity
  8
1
  100
AcDbLine
  10
33.43301
  20
7.063868
  30
0
  11
33.33301
  21
7.094566
  31
0
  0
LINE
  5
21e
  100
AcDbEntity
  8
1
  100
AcDbLine
  10
33.33301
  20
7.094566
  30
0
  11
33.23301
  21
7.12472
  31
0
  0
LINE
  5
21f
  100
AcDbEntity
  8
1
  100
AcDbLine
  10
33.23301
  20
7.12472
  30
0
  11
33.13301
  21
7.154328
  31
0
  0
LINE
  5
220
  100
AcDbEntity
  8
1
  100
AcDbLine
  10
33.13301
  20
7.154328
  30
0
  11
33.03301
  21
7.183389
  31
0
  0
LINE
  5
221
  100
AcDbEntity
  8
1
  100
AcDbLine
  10
33.03301
  20
7.183389
  30
0
  11
32.93301
  21
7.211899
  31
0
  0
LINE
  5
222
  100
AcDbEntity
  8
1
  100
AcDbLine
  10
32.93301
  20
7.211899
  30
0
  11
32.83301
  21
7.239856
  31
0
  0
LINE
  5
223
  100
AcDbEntity
  8
1
  100
AcDbLine
  10
32.83301
  20
7.239856
  30
0
  11
32.73301
  21
7.267259
  31
0
  0
LINE
  5
224
  100
AcDbEntity
  8
1
  100
AcDbLine
  10
32.73301
  20
7.267259
  30
0
  11
32.63301
  21
7.294105
  31
0
  0
LINE
  5
225
  100
AcDbEntity
  8
1
  100
AcDbLine
  10
32.63301
  20
7.294105
  30
0
  11
32.53301
  21
7.320393
  31
0
  0
LINE
  5
226
  100
AcDbEntity
  8
1
  100
AcDbLine
  10
32.53301
  20
7.320393
  30
0
  11
32.43301
  21
7.346119
  31
0
  0
LINE
  5
227
  100
AcDbEntity
  8
1
  100
AcDbLine
  10
32.43301
  20
7.346119
  30
0
  11
32.33301
  21
7.371283
  31
0
  0
LINE
  5
228
  100
AcDbEntity
  8
1
  100
AcDbLine
  10
32.33301
  20
7.371283
  30
0
  11
32.23301
  21
7.395882
  31
0
  0
LINE
  5
229
  100
AcDbEntity
  8
1
  100
AcDbLine
  10
32.23301
  20
7.395882
  30
0
  11
32.13301
  21
7.419915
  31
0
  0
LINE
  5
22a
  100
AcDbEntity
  8
1
  100
AcDbLine
  10
32.13301
  20
7.419915
  30
0
  11
32.03301
  21
7.443379
  31
0
  0
LINE
  5
22b
  100
AcDbEntity
  8
1
  100
AcDbLine
  10
32.03301
  20
7.443379
  30
0
  11
31.93301
  21
7.466273
  31
0
  0
LINE
  5
22c
  100
AcDbEntity
  8
1
  100
AcDbLine
  10
31.93301
  20
7.466273
  30
0
  11
31.83301
  21
7.488595
  31
0
  0
LINE
  5
22d
  100
AcDbEntity
  8
1
  100
AcDbLine
  10
31.83301
  20
7.488595
  30
0
  11
31.73301
  21
7.510343
  31
0
  0
LINE
  5
22e
  100
AcDbEntity
  8
1
  100
AcDbLine
  10
31.73301
  20
7.510343
  30
0
  11
31.63301
  21
7.531516
  31
0
  0
LINE
  5
22f
  100
AcDbEntity
  8
1
  100
AcDbLine
  10
31.63301
  20
7.531516
  30
0
  11
31.53301
  21
7.552112
  31
0
  0
LINE
  5
230
  100
AcDbEntity
  8
1
  100
AcDbLine
  10
31.53301
  20
7.552112
  30
0
  11
31.43301
  21
7.57213
  31
0
  0
LINE
  5
231
  100
AcDbEntity
  8
1
  100
AcDbLine
  10
31.43301
  20
7.57213
  30
0
  11
31.33301
  21
7.591567
  31
0
  0
LINE
  5
232
  100
AcDbEntity
  8
1
  100
AcDbLine
  10
31.33301
  20
7.591567
  30
0
  11
31.23301
  21
7.610423
  31
0
  0
LINE
  5
233
  100
AcDbEntity
  8
1
  100
AcDbLine
  10
31.23301
  20
7.610423
  30
0
  11
31.13301
  21
7.628696
  31
0
  0
LINE
  5
234
  100
AcDbEntity
  8
1
  100
AcDbLine
  10
31.13301
  20
7.628696
  30
0
  11
31.03301
  21
7.646384
  31
0
  0
LINE
  5
235
  100
AcDbEntity
  8
1
  100
AcDbLine
  10
31.03301
  20
7.646384
  30
0
  11
30.93301
  21
7.663487
  31
0
  0
LINE
  5
236
  100
AcDbEntity
  8
1
  100
AcDbLine
  10
30.93301
  20
7.663487
  30
0
  11
30.83301
  21
7.680002
  31
0
  0
LINE
  5
237
  100
AcDbEntity
  8
1
  100
AcDbLine
  10
30.83301
  20
7.680002
  30
0
  11
30.73301
  21
7.695929
  31
0
  0
LINE
  5
238
  100
AcDbEntity
  8
1
  100
AcDbLine
  10
30.73301
  20
7.695929
  30
0
  11
30.63301
  21
7.711267
  31
0
  0
LINE
  5
239
  100
AcDbEntity
  8
1
  100
AcDbLine
  10
30.63301
  20
7.711267
  30
0
  11
30.53301
  21
7.726014
  31
0
  0
LINE
  5
23a
  100
AcDbEntity
  8
1
  100
AcDbLine
  10
30.53301
  20
7.726014
  30
0
  11
30.43301
  21
7.740169
  31
0
  0
LINE
  5
23b
  100
AcDbEntity
  8
1
  100
AcDbLine
  10
30.43301
  20
7.740169
  30
0
  11
30.33301
  21
7.753731
  31
0
  0
LINE
  5
23c
  100
AcDbEntity
  8
1
  100
AcDbLine
  10
30.33301
  20
7.753731
  30
0
  11
30.23301
  21
7.766699
  31
0
  0
LINE
  5
23d
  100
AcDbEntity
  8
1
  100
AcDbLine
  10
30.23301
  20
7.766699
  30
0
  11
30.13301
  21
7.779072
  31
0
  0
LINE
  5
23e
  100
AcDbEntity
  8
1
  100
AcDbLine
  10
30.13301
  20
7.779072
  30
0
  11
30.03301
  21
7.790849
  31
0
  0
LINE
  5
23f
  100
AcDbEntity
  8
1
  100
AcDbLine
  10
30.03301
  20
7.790849
  30
0
  11
29.93301
  21
7.802029
  31
0
  0
LINE
  5
240
  100
AcDbEntity
  8
1
  100
AcDbLine
  10
29.93301
  20
7.802029
  30
0
  11
29.83301
  21
7.812612
  31
0
  0
LINE
  5
241
  100
AcDbEntity
  8
1
  100
AcDbLine
  10
29.83301
  20
7.812612
  30
0
  11
29.73301
  21
7.822596
  31
0
  0
LINE
  5
242
  100
AcDbEntity
  8
1
  100
AcDbLine
  10
29.73301
  20
7.822596
  30
0
  11
29.63301
  21
7.831981
  31
0
  0
LINE
  5
243
  100
AcDbEntity
  8
1
  100
AcDbLine
  10
29.63301
  20
7.831981
  30
0
  11
29.53301
  21
7.840766
  31
0
  0
LINE
  5
244
  100
AcDbEntity
  8
1
  100
AcDbLine
  10
29.53301
  20
7.840766
  30
0
  11
29.43301
  21
7.84895
  31
0
  0
LINE
  5
245
  100
AcDbEntity
  8
1
  100
AcDbLine
  10
29.43301
  20
7.84895
  30
0
  11
29.33301
  21
7.856533
  31
0
  0
LINE
  5
246
  100
AcDbEntity
  8
1
  100
AcDbLine
  10
29.33301
  20
7.856533
  30
0
  11
29.23301
  21
7.863514
  31
0
  0
LINE
  5
247
  100
AcDbEntity
  8
1
  100
AcDbLine
  10
29.23301
  20
7.863514
  30
0
  11
29.13301
  21
7.869892
  31
0
  0
LINE
  5
248
  100
AcDbEntity
  8
1
  100
AcDbLine
  10
29.13301
  20
7.869892
  30
0
  11
29.03301
  21
7.875668
  31
0
  0
LINE
  5
249
  100
AcDbEntity
  8
1
  100
AcDbLine
  10
29.03301
  20
7.875668
  30
0
  11
28.93301
  21
7.88084
  31
0
  0
LINE
  5
24a
  100
AcDbEntity
  8
1
  100
AcDbLine
  10
28.93301
  20
7.88084
  30
0
  11
28.83301
  21
7.885409
  31
0
  0
LINE
  5
24b
  100
AcDbEntity
  8
1
  100
AcDbLine
  10
28.83301
  20
7.885409
  30
0
  11
28.73301
  21
7.889373
  31
0
  0
LINE
  5
24c
  100
AcDbEntity
  8
1
  100
AcDbLine
  10
28.73301
  20
7.889373
  30
0
  11
28.63301
  21
7.892734
  31
0
  0
LINE
  5
24d
  100
AcDbEntity
  8
1
  100
AcDbLine
  10
28.63301
  20
7.892734
  30
0
  11
28.53301
  21
7.895489
  31
0
  0
LINE
  5
24e
  100
AcDbEntity
  8
1
  100
AcDbLine
  10
28.53301
  20
7.895489
  30
0
  11
28.43301
  21
7.89764
  31
0
  0
LINE
  5
24f
  100
AcDbEntity
  8
1
  100
AcDbLine
  10
28.43301
  20
7.89764
  30
0
  11
28.33301
  21
7.899185
  31
0
  0
LINE
  5
250
  100
AcDbEntity
  8
1
  100
AcDbLine
  10
28.33301
  20
7.899185
  30
0
  11
28.23301
  21
7.900126
  31
0
  0
LINE
  5
251
  100
AcDbEntity
  8
1
  100
AcDbLine
  10
28.23301
  20
7.900126
  30
0
  11
28.13301
  21
7.900461
  31
0
  0
LINE
  5
252
  100
AcDbEntity
  8
1
  100
AcDbLine
  10
28.13301
  20
7.900461
  30
0
  11
28.127606
  21
8
  31
0
  0
LINE
  5
253
  100
AcDbEntity
  8
1
  100
AcDbLine
  10
30.5757
  20
8
  30
0
  11
30.63301
  21
7.999899
  31
0
  0
LINE
  5
254
  100
AcDbEntity
  8
1
  100
AcDbLine
  10
30.63301
  20
7.999899
  30
0
  11
30.73301
  21
7.999242
  31
0
  0
LINE
  5
255
  100
AcDbEntity
  8
1
  100
AcDbLine
  10
30.73301
  20
7.999242
  30
0
  11
30.83301
  21
7.997971
  31
0
  0
LINE
  5
256
  100
AcDbEntity
  8
1
  100
AcDbLine
  10
30.83301
  20
7.997971
  30
0
  11
30.93301
  21
7.996088
  31
0
  0
LINE
  5
257
  100
AcDbEntity
  8
1
  100
AcDbLine
  10
30.93301
  20
7.996088
  30
0
  11
31.03301
  21
7.993592
  31
0
  0
LINE
  5
258
  100
AcDbEntity
  8
1
  100
AcDbLine
  10
31.03301
  20
7.993592
  30
0
  11
31.13301
  21
7.990484
  31
0
  0
LINE
  5
259
  100
AcDbEntity
  8
1
  100
AcDbLine
  10
31.13301
  20
7.990484
  30
0
  11
31.23301
  21
7.986764
  31
0
  0
LINE
  5
25a
  100
AcDbEntity
  8
1
  100
AcDbLine
  10
31.23301
  20
7.986764
  30
0
  11
31.33301
  21
7.982432
  31
0
  0
LINE
  5
25b
  100
AcDbEntity
  8
1
  100
AcDbLine
  10
31.33301
  20
7.982432
  30
0
  11
31.43301
  21
7.977488
  31
0
  0
LINE
  5
25c
  100
AcDbEntity
  8
1
  100
AcDbLine
  10
31.43301
  20
7.977488
  30
0
  11
31.53301
  21
7.971934
  31
0
  0
LINE
  5
25d
  100
AcDbEntity
  8
1
  100
AcDbLine
  10
31.53301
  20
7.971934
  30
0
  11
31.63301
  21
7.965768
  31
0
  0
LINE
  5
25e
  100
AcDbEntity
  8
1
  100
AcDbLine
  10
31.63301
  20
7.965768
  30
0
  11
31.73301
  21
7.958993
  31
0
  0
LINE
  5
25f
  100
AcDbEntity
  8
1
  100
AcDbLine
  10
31.73301
  20
7.958993
  30
0
  11
31.83301
  21
7.951607
  31
0
  0
LINE
  5
260
  100
AcDbEntity
  8
1
  100
AcDbLine
  10
31.83301
  20
7.951607
  30
0
  11
31.93301
  21
7.943613
  31
0
  0
LINE
  5
261
  100
AcDbEntity
  8
1
  100
AcDbLine
  10
31.93301
  20
7.943613
  30
0
  11
32.03301
  21
7.93501
  31
0
  0
LINE
  5
262
  100
AcDbEntity
  8
1
  100
AcDbLine
  10
32.03301
  20
7.93501
  30
0
  11
32.13301
  21
7.925799
  31
0
  0
LINE
  5
263
  100
AcDbEntity
  8
1
  100
AcDbLine
  10
32.13301
  20
7.925799
  30
0
  11
32.23301
  21
7.915981
  31
0
  0
LINE
  5
264
  100
AcDbEntity
  8
1
  100
AcDbLine
  10
32.23301
  20
7.915981
  30
0
  11
32.33301
  21
7.905556
  31
0
  0
LINE
  5
265
  100
AcDbEntity
  8
1
  100
AcDbLine
  10
32.33301
  20
7.905556
  30
0
  11
32.43301
  21
7.894526
  31
0
  0
LINE
  5
266
  100
AcDbEntity
  8
1
  100
AcDbLine
  10
32.43301
  20
7.894526
  30
0
  11
32.53301
  21
7.882891
  31
0
  0
LINE
  5
267
  100
AcDbEntity
  8
1
  100
AcDbLine
  10
32.53301
  20
7.882891
  30
0
  11
32.63301
  21
7.870652
  31
0
  0
LINE
  5
268
  100
AcDbEntity
  8
1
  100
AcDbLine
  10
32.63301
  20
7.870652
  30
0
  11
32.73301
  21
7.85781
  31
0
  0
LINE
  5
269
  100
AcDbEntity
  8
1
  100
AcDbLine
  10
32.73301
  20
7.85781
  30
0
  11
32.83301
  21
7.844367
  31
0
  0
LINE
  5
26a
  100
AcDbEntity
  8
1
  100
AcDbLine
  10
32.83301
  20
7.844367
  30
0
  11
32.93301
  21
7.830322
  31
0
  0
LINE
  5
26b
  100
AcDbEntity
  8
1
  100
AcDbLine
  10
32.93301
  20
7.830322
  30
0
  11
33.03301
  21
7.815677
  31
0
  0
LINE
  5
26c
  100
AcDbEntity
  8
1
  100
AcDbLine
  10
33.03301
  20
7.815677
  30
0
  11
33.13301
  21
7.800434
  31
0
  0
LINE
  5
26d
  100
AcDbEntity
  8
1
  100
AcDbLine
  10
33.13301
  20
7.800434
  30
0
  11
33.23301
  21
7.784593
  31
0
  0
LINE
  5
26e
  100
AcDbEntity
  8
1
  100
AcDbLine
  10
33.23301
  20
7.784593
  30
0
  11
33.33301
  21
7.768156
  31
0
  0
LINE
  5
26f
  100
AcDbEntity
  8
1
  100
AcDbLine
  10
33.33301
  20
7.768156
  30
0
  11
33.43301
  21
7.751124
  31
0
  0
LINE
  5
270
  100
AcDbEntity
  8
1
  100
AcDbLine
  10
33.43301
  20
7.751124
  30
0
  11
33.53301
  21
7.733498
  31
0
  0
LINE
  5
271
  100
AcDbEntity
  8
1
  100
AcDbLine
  10
33.53301
  20
7.733498
  30
0
  11
33.63301
  21
7.715279
  31
0
  0
LINE
  5
272
  100
AcDbEntity
  8
1
  100
AcDbLine
  10
33.63301
  20
7.715279
  30
0
  11
33.73301
  21
7.696469
  31
0
  0
LINE
  5
273
  100
AcDbEntity
  8
1
  100
AcDbLine
  10
33.73301
  20
7.696469
  30
0
  11
33.83301
  21
7.67707
  31
0
  0
LINE
  5
274
  100
AcDbEntity
  8
1
  100
AcDbLine
  10
33.83301
  20
7.67707
  30
0
  11
33.93301
  21
7.657083
  31
0
  0
LINE
  5
275
  100
AcDbEntity
  8
1
  100
AcDbLine
  10
33.93301
  20
7.657083
  30
0
  11
34.03301
  21
7.636509
  31
0
  0
LINE
  5
276
  100
AcDbEntity
  8
1
  100
AcDbLine
  10
34.03301
  20
7.636509
  30
0
  11
34.13301
  21
7.61535
  31
0
  0
LINE
  5
277
  100
AcDbEntity
  8
1
  100
AcDbLine
  10
34.13301
  20
7.61535
  30
0
  11
34.23301
  21
7.593608
  31
0
  0
LINE
  5
278
  100
AcDbEntity
  8
1
  100
AcDbLine
  10
34.23301
  20
7.593608
  30
0
  11
34.33301
  21
7.571284
  31
0
  0
LINE
  5
279
  100
AcDbEntity
  8
1
  100
AcDbLine
  10
34.33301
  20
7.571284
  30
0
  11
34.43301
  21
7.54838
  31
0
  0
LINE
  5
27a
  100
AcDbEntity
  8
1
  100
AcDbLine
  10
34.43301
  20
7.54838
  30
0
  11
34.53301
  21
7.524897
  31
0
  0
LINE
  5
27b
  100
AcDbEntity
  8
1
  100
AcDbLine
  10
34.53301
  20
7.524897
  30
0
  11
34.63301
  21
7.500839
  31
0
  0
LINE
  5
27c
  100
AcDbEntity
  8
1
  100
AcDbLine
  10
34.63301
  20
7.500839
  30
0
  11
34.73301
  21
7.476205
  31
0
  0
LINE
  5
27d
  100
AcDbEntity
  8
1
  100
AcDbLine
  10
34.73301
  20
7.476205
  30
0
  11
34.83301
  21
7.450999
  31
0
  0
LINE
  5
27e
  100
AcDbEntity
  8
1
  100
AcDbLine
  10
34.83301
  20
7.450999
  30
0
  11
34.93301
  21
7.425222
  31
0
  0
LINE
  5
27f
  100
AcDbEntity
  8
1
  100
AcDbLine
  10
34.93301
  20
7.425222
  30
0
  11
35.03301
  21
7.398876
  31
0
  0
LINE
  5
280
  100
AcDbEntity
  8
1
  100
AcDbLine
  10
35.03301
  20
7.398876
  30
0
  11
35.13301
  21
7.371964
  31
0
  0
LINE
  5
281
  100
AcDbEntity
  8
1
  100
AcDbLine
  10
35.13301
  20
7.371964
  30
0
  11
35.23301
  21
7.344486
  31
0
  0
LINE
  5
282
  100
AcDbEntity
  8
1
  100
AcDbLine
  10
35.23301
  20
7.344486
  30
0
  11
35.33301
  21
7.316446
  31
0
  0
LINE
  5
283
  100
AcDbEntity
  8
1
  100
AcDbLine
  10
35.33301
  20
7.316446
  30
0
  11
35.43301
  21
7.287846
  31
0
  0
LINE
  5
284
  100
AcDbEntity
  8
1
  100
AcDbLine
  10
35.43301
  20
7.287846
  30
0
  11
35.53301
  21
7.258687
  31
0
  0
LINE
  5
285
  100
AcDbEntity
  8
1
  100
AcDbLine
  10
35.53301
  20
7.258687
  30
0
  11
35.63301
  21
7.228972
  31
0
  0
LINE
  5
286
  100
AcDbEntity
  8
1
  100
AcDbLine
  10
35.63301
  20
7.228972
  30
0
  11
35.73301
  21
7.198704
  31
0
  0
LINE
  5
287
  100
AcDbEntity
  8
1
  100
AcDbLine
  10
35.73301
  20
7.198704
  30
0
  11
35.83301
  21
7.167884
  31
0
  0
LINE
  5
288
  100
AcDbEntity
  8
1
  100
AcDbLine
  10
35.83301
  20
7.167884
  30
0
  11
35.93301
  21
7.136514
  31
0
  0
LINE
  5
289
  100
AcDbEntity
  8
1
  100
AcDbLine
  10
35.93301
  20
7.136514
  30
0
  11
36.03301
  21
7.104599
  31
0
  0
LINE
  5
28a
  100
AcDbEntity
  8
1
  100
AcDbLine
  10
36.03301
  20
7.104599
  30
0
  11
36.13301
  21
7.072138
  31
0
  0
LINE
  5
28b
  100
AcDbEntity
  8
1
  100
AcDbLine
  10
36.13301
  20
7.072138
  30
0
  11
36.23301
  21
7.039136
  31
0
  0
LINE
  5
28c
  100
AcDbEntity
  8
1
  100
AcDbLine
  10
36.23301
  20
7.039136
  30
0
  11
36.33301
  21
7.005595
  31
0
  0
LINE
  5
28d
  100
AcDbEntity
  8
1
  100
AcDbLine
  10
36.33301
  20
7.005595
  30
0
  11
36.43301
  21
6.971517
  31
0
  0
LINE
  5
28e
  100
AcDbEntity
  8
1
  100
AcDbLine
  10
36.43301
  20
6.971517
  30
0
  11
36.53301
  21
6.936905
  31
0
  0
LINE
  5
28f
  100
AcDbEntity
  8
1
  100
AcDbLine
  10
36.53301
  20
6.936905
  30
0
  11
36.63301
  21
6.901762
  31
0
  0
LINE
  5
290
  100
AcDbEntity
  8
1
  100
AcDbLine
  10
36.63301
  20
6.901762
  30
0
  11
36.73301
  21
6.86609
  31
0
  0
LINE
  5
291
  100
AcDbEntity
  8
1
  100
AcDbLine
  10
36.73301
  20
6.86609
  30
0
  11
36.83301
  21
6.829892
  31
0
  0
LINE
  5
292
  100
AcDbEntity
  8
1
  100
AcDbLine
  10
36.83301
  20
6.829892
  30
0
  11
36.93301
  21
6.79317
  31
0
  0
LINE
  5
293
  100
AcDbEntity
  8
1
  100
AcDbLine
  10
36.93301
  20
6.79317
  30
0
  11
37.03301
  21
6.755929
  31
0
  0
LINE
  5
294
  100
AcDbEntity
  8
1
  100
AcDbLine
  10
37.03301
  20
6.755929
  30
0
  11
37.13301
  21
6.718169
  31
0
  0
LINE
  5
295
  100
AcDbEntity
  8
1
  100
AcDbLine
  10
37.13301
  20
6.718169
  30
0
  11
37.23301
  21
6.679895
  31
0
  0
LINE
  5
296
  100
AcDbEntity
  8
1
  100
AcDbLine
  10
37.23301
  20
6.679895
  30
0
  11
37.33301
  21
6.64111
  31
0
  0
LINE
  5
297
  100
AcDbEntity
  8
1
  100
AcDbLine
  10
37.33301
  20
6.64111
  30
0
  11
37.43301
  21
6.601815
  31
0
  0
LINE
  5
298
  100
AcDbEntity
  8
1
  100
AcDbLine
  10
37.43301
  20
6.601815
  30
0
  11
37.53301
  21
6.562015
  31
0
  0
LINE
  5
299
  100
AcDbEntity
  8
1
  100
AcDbLine
  10
37.53301
  20
6.562015
  30
0
  11
37.63301
  21
6.521712
  31
0
  0
LINE
  5
29a
  100
AcDbEntity
  8
1
  100
AcDbLine
  10
37.63301
  20
6.521712
  30
0
  11
37.73301
  21
6.48091
  31
0
  0
LINE
  5
29b
  100
AcDbEntity
  8
1
  100
AcDbLine
  10
37.73301
  20
6.48091
  30
0
  11
37.83301
  21
6.439611
  31
0
  0
LINE
  5
29c
  100
AcDbEntity
  8
1
  100
AcDbLine
  10
37.83301
  20
6.439611
  30
0
  11
37.93301
  21
6.397818
  31
0
  0
LINE
  5
29d
  100
AcDbEntity
  8
1
  100
AcDbLine
  10
37.93301
  20
6.397818
  30
0
  11
38.03301
  21
6.355536
  31
0
  0
LINE
  5
29e
  100
AcDbEntity
  8
1
  100
AcDbLine
  10
38.03301
  20
6.355536
  30
0
  11
38.13301
  21
6.312767
  31
0
  0
LINE
  5
29f
  100
AcDbEntity
  8
1
  100
AcDbLine
  10
38.13301
  20
6.312767
  30
0
  11
38.23301
  21
6.269514
  31
0
  0
LINE
  5
2a0
  100
AcDbEntity
  8
1
  100
AcDbLine
  10
38.23301
  20
6.269514
  30
0
  11
38.33301
  21
6.225781
  31
0
  0
LINE
  5
2a1
  100
AcDbEntity
  8
1
  100
AcDbLine
  10
38.33301
  20
6.225781
  30
0
  11
38.43301
  21
6.18157
  31
0
  0
LINE
  5
2a2
  100
AcDbEntity
  8
1
  100
AcDbLine
  10
38.43301
  20
6.18157
  30
0
  11
38.53301
  21
6.136887
  31
0
  0
LINE
  5
2a3
  100
AcDbEntity
  8
1
  100
AcDbLine
  10
38.53301
  20
6.136887
  30
0
  11
38.63301
  21
6.091733
  31
0
  0
LINE
  5
2a4
  100
AcDbEntity
  8
1
  100
AcDbLine
  10
38.63301
  20
6.091733
  30
0
  11
38.73301
  21
6.046112
  31
0
  0
LINE
  5
2a5
  100
AcDbEntity
  8
1
  100
AcDbLine
  10
38.73301
  20
6.046112
  30
0
  11
38.83301
  21
6.000029
  31
0
  0
LINE
  5
2a6
  100
AcDbEntity
  8
1
  100
AcDbLine
  10
38.83301
  20
6.000029
  30
0
  11
38.93301
  21
5.953485
  31
0
  0
LINE
  5
2a7
  100
AcDbEntity
  8
1
  100
AcDbLine
  10
38.93301
  20
5.953485
  30
0
  11
39.03301
  21
5.906486
  31
0
  0
LINE
  5
2a8
  100
AcDbEntity
  8
1
  100
AcDbLine
  10
39.03301
  20
5.906486
  30
0
  11
39.13301
  21
5.859034
  31
0
  0
LINE
  5
2a9
  100
AcDbEntity
  8
1
  100
AcDbLine
  10
39.13301
  20
5.859034
  30
0
  11
39.23301
  21
5.811133
  31
0
  0
LINE
  5
2aa
  100
AcDbEntity
  8
1
  100
AcDbLine
  10
39.23301
  20
5.811133
  30
0
  11
39.33301
  21
5.762788
  31
0
  0
LINE
  5
2ab
  100
AcDbEntity
  8
1
  100
AcDbLine
  10
39.33301
  20
5.762788
  30
0
  11
39.43301
  21
5.714
  31
0
  0
LINE
  5
2ac
  100
AcDbEntity
  8
1
  100
AcDbLine
  10
39.43301
  20
5.714
  30
0
  11
39.53301
  21
5.664775
  31
0
  0
LINE
  5
2ad
  100
AcDbEntity
  8
1
  100
AcDbLine
  10
39.53301
  20
5.664775
  30
0
  11
39.63301
  21
5.615116
  31
0
  0
LINE
  5
2ae
  100
AcDbEntity
  8
1
  100
AcDbLine
  10
39.63301
  20
5.615116
  30
0
  11
39.73301
  21
5.565027
  31
0
  0
LINE
  5
2af
  100
AcDbEntity
  8
1
  100
AcDbLine
  10
39.73301
  20
5.565027
  30
0
  11
39.83301
  21
5.514511
  31
0
  0
LINE
  5
2b0
  100
AcDbEntity
  8
1
  100
AcDbLine
  10
39.83301
  20
5.514511
  30
0
  11
39.93301
  21
5.463573
  31
0
  0
LINE
  5
2b1
  100
AcDbEntity
  8
1
  100
AcDbLine
  10
39.93301
  20
5.463573
  30
0
  11
40.03301
  21
5.412217
  31
0
  0
LINE
  5
2b2
  100
AcDbEntity
  8
1
  100
AcDbLine
  10
40.03301
  20
5.412217
  30
0
  11
40.13301
  21
5.360445
  31
0
  0
LINE
  5
2b3
  100
AcDbEntity
  8
1
  100
AcDbLine
  10
40.13301
  20
5.360445
  30
0
  11
40.23301
  21
5.308264
  31
0
  0
LINE
  5
2b4
  100
AcDbEntity
  8
1
  100
AcDbLine
  10
40.23301
  20
5.308264
  30
0
  11
40.33301
  21
5.255675
  31
0
  0
LINE
  5
2b5
  100
AcDbEntity
  8
1
  100
AcDbLine
  10
40.33301
  20
5.255675
  30
0
  11
40.43301
  21
5.202684
  31
0
  0
LINE
  5
2b6
  100
AcDbEntity
  8
1
  100
AcDbLine
  10
40.43301
  20
5.202684
  30
0
  11
40.53301
  21
5.149294
  31
0
  0
LINE
  5
2b7
  100
AcDbEntity
  8
1
  100
AcDbLine
  10
40.53301
  20
5.149294
  30
0
  11
40.63301
  21
5.09551
  31
0
  0
LINE
  5
2b8
  100
AcDbEntity
  8
1
  100
AcDbLine
  10
40.63301
  20
5.09551
  30
0
  11
40.73301
  21
5.041336
  31
0
  0
LINE
  5
2b9
  100
AcDbEntity
  8
1
  100
AcDbLine
  10
40.73301
  20
5.041336
  30
0
  11
40.83301
  21
4.986775
  31
0
  0
LINE
  5
2ba
  100
AcDbEntity
  8
1
  100
AcDbLine
  10
40.83301
  20
4.986775
  30
0
  11
40.93301
  21
4.931832
  31
0
  0
LINE
  5
2bb
  100
AcDbEntity
  8
1
  100
AcDbLine
  10
40.93301
  20
4.931832
  30
0
  11
41.03301
  21
4.876512
  31
0
  0
LINE
  5
2bc
  100
AcDbEntity
  8
1
  100
AcDbLine
  10
41.03301
  20
4.876512
  30
0
  11
41.13301
  21
4.820818
  31
0
  0
LINE
  5
2bd
  100
AcDbEntity
  8
1
  100
AcDbLine
  10
41.13301
  20
4.820818
  30
0
  11
41.23301
  21
4.764754
  31
0
  0
LINE
  5
2be
  100
AcDbEntity
  8
1
  100
AcDbLine
  10
41.23301
  20
4.764754
  30
0
  11
41.33301
  21
4.708326
  31
0
  0
LINE
  5
2bf
  100
AcDbEntity
  8
1
  100
AcDbLine
  10
41.33301
  20
4.708326
  30
0
  11
41.43301
  21
4.651537
  31
0
  0
LINE
  5
2c0
  100
AcDbEntity
  8
1
  100
AcDbLine
  10
41.43301
  20
4.651537
  30
0
  11
41.53301
  21
4.594391
  31
0
  0
LINE
  5
2c1
  100
AcDbEntity
  8
1
  100
AcDbLine
  10
41.53301
  20
4.594391
  30
0
  11
41.63301
  21
4.536894
  31
0
  0
LINE
  5
2c2
  100
AcDbEntity
  8
1
  100
AcDbLine
  10
41.63301
  20
4.536894
  30
0
  11
41.73301
  21
4.479049
  31
0
  0
LINE
  5
2c3
  100
AcDbEntity
  8
1
  100
AcDbLine
  10
41.73301
  20
4.479049
  30
0
  11
41.83301
  21
4.420861
  31
0
  0
LINE
  5
2c4
  100
AcDbEntity
  8
1
  100
AcDbLine
  10
41.83301
  20
4.420861
  30
0
  11
41.93301
  21
4.362334
  31
0
  0
LINE
  5
2c5
  100
AcDbEntity
  8
1
  100
AcDbLine
  10
41.93301
  20
4.362334
  30
0
  11
42.03301
  21
4.303473
  31
0
  0
LINE
  5
2c6
  100
AcDbEntity
  8
1
  100
AcDbLine
  10
42.03301
  20
4.303473
  30
0
  11
42.13301
  21
4.244282
  31
0
  0
LINE
  5
2c7
  100
AcDbEntity
  8
1
  100
AcDbLine
  10
42.13301
  20
4.244282
  30
0
  11
42.23301
  21
4.184766
  31
0
  0
LINE
  5
2c8
  100
AcDbEntity
  8
1
  100
AcDbLine
  10
42.23301
  20
4.184766
  30
0
  11
42.33301
  21
4.12493
  31
0
  0
LINE
  5
2c9
  100
AcDbEntity
  8
1
  100
AcDbLine
  10
42.33301
  20
4.12493
  30
0
  11
42.43301
  21
4.064778
  31
0
  0
LINE
  5
2ca
  100
AcDbEntity
  8
1
  100
AcDbLine
  10
42.43301
  20
4.064778
  30
0
  11
42.53301
  21
4.004314
  31
0
  0
LINE
  5
2cb
  100
AcDbEntity
  8
1
  100
AcDbLine
  10
42.53301
  20
4.004314
  30
0
  11
42.63301
  21
3.943543
  31
0
  0
LINE
  5
2cc
  100
AcDbEntity
  8
1
  100
AcDbLine
  10
42.63301
  20
3.943543
  30
0
  11
42.73301
  21
3.882471
  31
0
  0
LINE
  5
2cd
  100
AcDbEntity
  8
1
  100
AcDbLine
  10
42.73301
  20
3.882471
  30
0
  11
42.83301
  21
3.821101
  31
0
  0
LINE
  5
2ce
  100
AcDbEntity
  8
1
  100
AcDbLine
  10
42.83301
  20
3.821101
  30
0
  11
42.93301
  21
3.759438
  31
0
  0
LINE
  5
2cf
  100
AcDbEntity
  8
1
  100
AcDbLine
  10
42.93301
  20
3.759438
  30
0
  11
43.03301
  21
3.697487
  31
0
  0
LINE
  5
2d0
  100
AcDbEntity
  8
1
  100
AcDbLine
  10
43.03301
  20
3.697487
  30
0
  11
43.13301
  21
3.635253
  31
0
  0
LINE
  5
2d1
  100
AcDbEntity
  8
1
  100
AcDbLine
  10
43.13301
  20
3.635253
  30
0
  11
43.23301
  21
3.57274
  31
0
  0
LINE
  5
2d2
  100
AcDbEntity
  8
1
  100
AcDbLine
  10
43.23301
  20
3.57274
  30
0
  11
43.33301
  21
3.509954
  31
0
  0
LINE
  5
2d3
  100
AcDbEntity
  8
1
  100
AcDbLine
  10
43.33301
  20
3.509954
  30
0
  11
43.43301
  21
3.446899
  31
0
  0
LINE
  5
2d4
  100
AcDbEntity
  8
1
  100
AcDbLine
  10
43.43301
  20
3.446899
  30
0
  11
43.53301
  21
3.38358
  31
0
  0
LINE
  5
2d5
  100
AcDbEntity
  8
1
  100
AcDbLine
  10
43.53301
  20
3.38358
  30
0
  11
43.63301
  21
3.320001
  31
0
  0
LINE
  5
2d6
  100
AcDbEntity
  8
1
  100
AcDbLine
  10
43.63301
  20
3.320001
  30
0
  11
43.73301
  21
3.256169
  31
0
  0
LINE
  5
2d7
  100
AcDbEntity
  8
1
  100
AcDbLine
  10
43.73301
  20
3.256169
  30
0
  11
43.83301
  21
3.192086
  31
0
  0
LINE
  5
2d8
  100
AcDbEntity
  8
1
  100
AcDbLine
  10
43.83301
  20
3.192086
  30
0
  11
43.93301
  21
3.12776
  31
0
  0
LINE
  5
2d9
  100
AcDbEntity
  8
1
  100
AcDbLine
  10
43.93301
  20
3.12776
  30
0
  11
44.03301
  21
3.063193
  31
0
  0
LINE
  5
2da
  100
AcDbEntity
  8
1
  100
AcDbLine
  10
44.03301
  20
3.063193
  30
0
  11
44.13301
  21
2.998392
  31
0
  0
LINE
  5
2db
  100
AcDbEntity
  8
1
  100
AcDbLine
  10
44.13301
  20
2.998392
  30
0
  11
44.23301
  21
2.933362
  31
0
  0
LINE
  5
2dc
  100
AcDbEntity
  8
1
  100
AcDbLine
  10
44.23301
  20
2.933362
  30
0
  11
44.33301
  21
2.868106
  31
0
  0
LINE
  5
2dd
  100
AcDbEntity
  8
1
  100
AcDbLine
  10
44.33301
  20
2.868106
  30
0
  11
44.43301
  21
2.802631
  31
0
  0
LINE
  5
2de
  100
AcDbEntity
  8
1
  100
AcDbLine
  10
44.43301
  20
2.802631
  30
0
  11
44.53301
  21
2.736941
  31
0
  0
LINE
  5
2df
  100
AcDbEntity
  8
1
  100
AcDbLine
  10
44.53301
  20
2.736941
  30
0
  11
44.63301
  21
2.692105
  31
0
  0
LINE
  5
2e0
  100
AcDbEntity
  8
1
  100
AcDbLine
  10
44.63301
  20
2.692105
  30
0
  11
44.73301
  21
2.649151
  31
0
  0
LINE
  5
2e1
  100
AcDbEntity
  8
1
  100
AcDbLine
  10
44.73301
  20
2.649151
  30
0
  11
44.83301
  21
2.608096
  31
0
  0
LINE
  5
2e2
  100
AcDbEntity
  8
1
  100
AcDbLine
  10
44.83301
  20
2.608096
  30
0
  11
44.93301
  21
2.568961
  31
0
  0
LINE
  5
2e3
  100
AcDbEntity
  8
1
  100
AcDbLine
  10
44.93301
  20
7.6
  30
0
  11
44.93301
  21
-7.6
  31
0
  0
LINE
  5
2e4
  100
AcDbEntity
  8
1
  100
AcDbLine
  10
44.93301
  20
-7.599792
  30
0
  11
44.83301
  21
-7.69922
  31
0
  0
LINE
  5
2e5
  100
AcDbEntity
  8
1
  100
AcDbLine
  10
44.83301
  20
-7.69922
  30
0
  11
44.73301
  21
-7.798262
  31
0
  0
LINE
  5
2e6
  100
AcDbEntity
  8
1
  100
AcDbLine
  10
44.73301
  20
-7.798262
  30
0
  11
44.63301
  21
-7.896895
  31
0
  0
LINE
  5
2e7
  100
AcDbEntity
  8
1
  100
AcDbLine
  10
44.63301
  20
-7.896895
  30
0
  11
44.53301
  21
-7.995098
  31
0
  0
LINE
  5
2e8
  100
AcDbEntity
  8
1
  100
AcDbLine
  10
44.53301
  20
-7.995098
  30
0
  11
44.43301
  21
-7.99234
  31
0
  0
LINE
  5
2e9
  100
AcDbEntity
  8
1
  100
AcDbLine
  10
44.43301
  20
-7.99234
  30
0
  11
44.33301
  21
-7.988971
  31
0
  0
LINE
  5
2ea
  100
AcDbEntity
  8
1
  100
AcDbLine
  10
44.33301
  20
-7.988971
  30
0
  11
44.23301
  21
-7.98499
  31
0
  0
LINE
  5
2eb
  100
AcDbEntity
  8
1
  100
AcDbLine
  10
44.23301
  20
-7.98499
  30
0
  11
44.13301
  21
-7.980396
  31
0
  0
LINE
  5
2ec
  100
AcDbEntity
  8
1
  100
AcDbLine
  10
44.13301
  20
-7.980396
  30
0
  11
44.03301
  21
-7.975192
  31
0
  0
LINE
  5
2ed
  100
AcDbEntity
  8
1
  100
AcDbLine
  10
44.03301
  20
-7.975192
  30
0
  11
43.93301
  21
-7.969376
  31
0
  0
LINE
  5
2ee
  100
AcDbEntity
  8
1
  100
AcDbLine
  10
43.93301
  20
-7.969376
  30
0
  11
43.83301
  21
-7.96295
  31
0
  0
LINE
  5
2ef
  100
AcDbEntity
  8
1
  100
AcDbLine
  10
43.83301
  20
-7.96295
  30
0
  11
43.73301
  21
-7.955914
  31
0
  0
LINE
  5
2f0
  100
AcDbEntity
  8
1
  100
AcDbLine
  10
43.73301
  20
-7.955914
  30
0
  11
43.63301
  21
-7.948269
  31
0
  0
LINE
  5
2f1
  100
AcDbEntity
  8
1
  100
AcDbLine
  10
43.63301
  20
-7.948269
  30
0
  11
43.53301
  21
-7.940015
  31
0
  0
LINE
  5
2f2
  100
AcDbEntity
  8
1
  100
AcDbLine
  10
43.53301
  20
-7.940015
  30
0
  11
43.43301
  21
-7.931152
  31
0
  0
LINE
  5
2f3
  100
AcDbEntity
  8
1
  100
AcDbLine
  10
43.43301
  20
-7.931152
  30
0
  11
43.33301
  21
-7.921682
  31
0
  0
LINE
  5
2f4
  100
AcDbEntity
  8
1
  100
AcDbLine
  10
43.33301
  20
-7.921682
  30
0
  11
43.23301
  21
-7.911605
  31
0
  0
LINE
  5
2f5
  100
AcDbEntity
  8
1
  100
AcDbLine
  10
43.23301
  20
-7.911605
  30
0
  11
43.13301
  21
-7.900921
  31
0
  0
LINE
  5
2f6
  100
AcDbEntity
  8
1
  100
AcDbLine
  10
43.13301
  20
-7.900921
  30
0
  11
43.03301
  21
-7.889633
  31
0
  0
LINE
  5
2f7
  100
AcDbEntity
  8
1
  100
AcDbLine
  10
43.03301
  20
-7.889633
  30
0
  11
42.93301
  21
-7.87774
  31
0
  0
LINE
  5
2f8
  100
AcDbEntity
  8
1
  100
AcDbLine
  10
42.93301
  20
-7.87774
  30
0
  11
42.83301
  21
-7.865244
  31
0
  0
LINE
  5
2f9
  100
AcDbEntity
  8
1
  100
AcDbLine
  10
42.83301
  20
-7.865244
  30
0
  11
42.73301
  21
-7.852145
  31
0
  0
LINE
  5
2fa
  100
AcDbEntity
  8
1
  100
AcDbLine
  10
42.73301
  20
-7.852145
  30
0
  11
42.63301
  21
-7.838444
  31
0
  0
LINE
  5
2fb
  100
AcDbEntity
  8
1
  100
AcDbLine
  10
42.63301
  20
-7.838444
  30
0
  11
42.53301
  21
-7.824143
  31
0
  0
LINE
  5
2fc
  100
AcDbEntity
  8
1
  100
AcDbLine
  10
42.53301
  20
-7.824143
  30
0
  11
42.43301
  21
-7.809243
  31
0
  0
LINE
  5
2fd
  100
AcDbEntity
  8
1
  100
AcDbLine
  10
42.43301
  20
-7.809243
  30
0
  11
42.33301
  21
-7.793745
  31
0
  0
LINE
  5
2fe
  100
AcDbEntity
  8
1
  100
AcDbLine
  10
42.33301
  20
-7.793745
  30
0
  11
42.23301
  21
-7.777649
  31
0
  0
LINE
  5
2ff
  100
AcDbEntity
  8
1
  100
AcDbLine
  10
42.23301
  20
-7.777649
  30
0
  11
42.13301
  21
-7.760958
  31
0
  0
LINE
  5
300
  100
AcDbEntity
  8
1
  100
AcDbLine
  10
42.13301
  20
-7.760958
  30
0
  11
42.03301
  21
-7.743672
  31
0
  0
LINE
  5
301
  100
AcDbEntity
  8
1
  100
AcDbLine
  10
42.03301
  20
-7.743672
  30
0
  11
41.93301
  21
-7.725792
  31
0
  0
LINE
  5
302
  100
AcDbEntity
  8
1
  100
AcDbLine
  10
41.93301
  20
-7.725792
  30
0
  11
41.83301
  21
-7.707321
  31
0
  0
LINE
  5
303
  100
AcDbEntity
  8
1
  100
AcDbLine
  10
41.83301
  20
-7.707321
  30
0
  11
41.73301
  21
-7.68826
  31
0
  0
LINE
  5
304
  100
AcDbEntity
  8
1
  100
AcDbLine
  10
41.73301
  20
-7.68826
  30
0
  11
41.63301
  21
-7.668609
  31
0
  0
LINE
  5
305
  100
AcDbEntity
  8
1
  100
AcDbLine
  10
41.63301
  20
-7.668609
  30
0
  11
41.53301
  21
-7.648372
  31
0
  0
LINE
  5
306
  100
AcDbEntity
  8
1
  100
AcDbLine
  10
41.53301
  20
-7.648372
  30
0
  11
41.43301
  21
-7.627548
  31
0
  0
LINE
  5
307
  100
AcDbEntity
  8
1
  100
AcDbLine
  10
41.43301
  20
-7.627548
  30
0
  11
41.33301
  21
-7.60614
  31
0
  0
LINE
  5
308
  100
AcDbEntity
  8
1
  100
AcDbLine
  10
41.33301
  20
-7.60614
  30
0
  11
41.23301
  21
-7.584149
  31
0
  0
LINE
  5
309
  100
AcDbEntity
  8
1
  100
AcDbLine
  10
41.23301
  20
-7.584149
  30
0
  11
41.13301
  21
-7.561577
  31
0
  0
LINE
  5
30a
  100
AcDbEntity
  8
1
  100
AcDbLine
  10
41.13301
  20
-7.561577
  30
0
  11
41.03301
  21
-7.538426
  31
0
  0
LINE
  5
30b
  100
AcDbEntity
  8
1
  100
AcDbLine
  10
41.03301
  20
-7.538426
  30
0
  11
40.93301
  21
-7.514697
  31
0
  0
LINE
  5
30c
  100
AcDbEntity
  8
1
  100
AcDbLine
  10
40.93301
  20
-7.514697
  30
0
  11
40.83301
  21
-7.490393
  31
0
  0
LINE
  5
30d
  100
AcDbEntity
  8
1
  100
AcDbLine
  10
40.83301
  20
-7.490393
  30
0
  11
40.73301
  21
-7.465515
  31
0
  0
LINE
  5
30e
  100
AcDbEntity
  8
1
  100
AcDbLine
  10
40.73301
  20
-7.465515
  30
0
  11
40.63301
  21
-7.440064
  31
0
  0
LINE
  5
30f
  100
AcDbEntity
  8
1
  100
AcDbLine
  10
40.63301
  20
-7.440064
  30
0
  11
40.53301
  21
-7.414044
  31
0
  0
LINE
  5
310
  100
AcDbEntity
  8
1
  100
AcDbLine
  10
40.53301
  20
-7.414044
  30
0
  11
40.43301
  21
-7.387456
  31
0
  0
LINE
  5
311
  100
AcDbEntity
  8
1
  100
AcDbLine
  10
40.43301
  20
-7.387456
  30
0
  11
40.33301
  21
-7.360303
  31
0
  0
LINE
  5
312
  100
AcDbEntity
  8
1
  100
AcDbLine
  10
40.33301
  20
-7.360303
  30
0
  11
40.23301
  21
-7.332585
  31
0
  0
LINE
  5
313
  100
AcDbEntity
  8
1
  100
AcDbLine
  10
40.23301
  20
-7.332585
  30
0
  11
40.13301
  21
-7.304305
  31
0
  0
LINE
  5
314
  100
AcDbEntity
  8
1
  100
AcDbLine
  10
40.13301
  20
-7.304305
  30
0
  11
40.03301
  21
-7.275466
  31
0
  0
LINE
  5
315
  100
AcDbEntity
  8
1
  100
AcDbLine
  10
40.03301
  20
-7.275466
  30
0
  11
39.93301
  21
-7.24607
  31
0
  0
LINE
  5
316
  100
AcDbEntity
  8
1
  100
AcDbLine
  10
39.93301
  20
-7.24607
  30
0
  11
39.83301
  21
-7.216118
  31
0
  0
LINE
  5
317
  100
AcDbEntity
  8
1
  100
AcDbLine
  10
39.83301
  20
-7.216118
  30
0
  11
39.73301
  21
-7.185614
  31
0
  0
LINE
  5
318
  100
AcDbEntity
  8
1
  100
AcDbLine
  10
39.73301
  20
-7.185614
  30
0
  11
39.63301
  21
-7.154559
  31
0
  0
LINE
  5
319
  100
AcDbEntity
  8
1
  100
AcDbLine
  10
39.63301
  20
-7.154559
  30
0
  11
39.53301
  21
-7.122956
  31
0
  0
LINE
  5
31a
  100
AcDbEntity
  8
1
  100
AcDbLine
  10
39.53301
  20
-7.122956
  30
0
  11
39.43301
  21
-7.090808
  31
0
  0
LINE
  5
31b
  100
AcDbEntity
  8
1
  100
AcDbLine
  10
39.43301
  20
-7.090808
  30
0
  11
39.33301
  21
-7.058116
  31
0
  0
LINE
  5
31c
  100
AcDbEntity
  8
1
  100
AcDbLine
  10
39.33301
  20
-7.058116
  30
0
  11
39.23301
  21
-7.024883
  31
0
  0
LINE
  5
31d
  100
AcDbEntity
  8
1
  100
AcDbLine
  10
39.23301
  20
-7.024883
  30
0
  11
39.13301
  21
-6.991113
  31
0
  0
LINE
  5
31e
  100
AcDbEntity
  8
1
  100
AcDbLine
  10
39.13301
  20
-6.991113
  30
0
  11
39.03301
  21
-6.956806
  31
0
  0
LINE
  5
31f
  100
AcDbEntity
  8
1
  100
AcDbLine
  10
39.03301
  20
-6.956806
  30
0
  11
38.93301
  21
-6.921967
  31
0
  0
LINE
  5
320
  100
AcDbEntity
  8
1
  100
AcDbLine
  10
38.93301
  20
-6.921967
  30
0
  11
38.83301
  21
-6.886598
  31
0
  0
LINE
  5
321
  100
AcDbEntity
  8
1
  100
AcDbLine
  10
38.83301
  20
-6.886598
  30
0
  11
38.73301
  21
-6.850701
  31
0
  0
LINE
  5
322
  100
AcDbEntity
  8
1
  100
AcDbLine
  10
38.73301
  20
-6.850701
  30
0
  11
38.63301
  21
-6.814279
  31
0
  0
LINE
  5
323
  100
AcDbEntity
  8
1
  100
AcDbLine
  10
38.63301
  20
-6.814279
  30
0
  11
38.53301
  21
-6.777335
  31
0
  0
LINE
  5
324
  100
AcDbEntity
  8
1
  100
AcDbLine
  10
38.53301
  20
-6.777335
  30
0
  11
38.43301
  21
-6.739872
  31
0
  0
LINE
  5
325
  100
AcDbEntity
  8
1
  100
AcDbLine
  10
38.43301
  20
-6.739872
  30
0
  11
38.33301
  21
-6.701893
  31
0
  0
LINE
  5
326
  100
AcDbEntity
  8
1
  100
AcDbLine
  10
38.33301
  20
-6.701893
  30
0
  11
38.23301
  21
-6.6634
  31
0
  0
LINE
  5
327
  100
AcDbEntity
  8
1
  100
AcDbLine
  10
38.23301
  20
-6.6634
  30
0
  11
38.13301
  21
-6.624397
  31
0
  0
LINE
  5
328
  100
AcDbEntity
  8
1
  100
AcDbLine
  10
38.13301
  20
-6.624397
  30
0
  11
38.03301
  21
-6.584886
  31
0
  0
LINE
  5
329
  100
AcDbEntity
  8
1
  100
AcDbLine
  10
38.03301
  20
-6.584886
  30
0
  11
37.93301
  21
-6.544871
  31
0
  0
LINE
  5
32a
  100
AcDbEntity
  8
1
  100
AcDbLine
  10
37.93301
  20
-6.544871
  30
0
  11
37.83301
  21
-6.504354
  31
0
  0
LINE
  5
32b
  100
AcDbEntity
  8
1
  100
AcDbLine
  10
37.83301
  20
-6.504354
  30
0
  11
37.73301
  21
-6.46334
  31
0
  0
LINE
  5
32c
  100
AcDbEntity
  8
1
  100
AcDbLine
  10
37.73301
  20
-6.46334
  30
0
  11
37.63301
  21
-6.42183
  31
0
  0
LINE
  5
32d
  100
AcDbEntity
  8
1
  100
AcDbLine
  10
37.63301
  20
-6.42183
  30
0
  11
37.53301
  21
-6.379828
  31
0
  0
LINE
  5
32e
  100
AcDbEntity
  8
1
  100
AcDbLine
  10
37.53301
  20
-6.379828
  30
0
  11
37.43301
  21
-6.337337
  31
0
  0
LINE
  5
32f
  100
AcDbEntity
  8
1
  100
AcDbLine
  10
37.43301
  20
-6.337337
  30
0
  11
37.33301
  21
-6.294361
  31
0
  0
LINE
  5
330
  100
AcDbEntity
  8
1
  100
AcDbLine
  10
37.33301
  20
-6.294361
  30
0
  11
37.23301
  21
-6.250903
  31
0
  0
LINE
  5
331
  100
AcDbEntity
  8
1
  100
AcDbLine
  10
37.23301
  20
-6.250903
  30
0
  11
37.13301
  21
-6.206965
  31
0
  0
LINE
  5
332
  100
AcDbEntity
  8
1
  100
AcDbLine
  10
37.13301
  20
-6.206965
  30
0
  11
37.03301
  21
-6.162553
  31
0
  0
LINE
  5
333
  100
AcDbEntity
  8
1
  100
AcDbLine
  10
37.03301
  20
-6.162553
  30
0
  11
36.93301
  21
-6.117668
  31
0
  0
LINE
  5
334
  100
AcDbEntity
  8
1
  100
AcDbLine
  10
36.93301
  20
-6.117668
  30
0
  11
36.83301
  21
-6.072314
  31
0
  0
LINE
  5
335
  100
AcDbEntity
  8
1
  100
AcDbLine
  10
36.83301
  20
-6.072314
  30
0
  11
36.73301
  21
-6.026496
  31
0
  0
LINE
  5
336
  100
AcDbEntity
  8
1
  100
AcDbLine
  10
36.73301
  20
-6.026496
  30
0
  11
36.63301
  21
-5.980215
  31
0
  0
LINE
  5
337
  100
AcDbEntity
  8
1
  100
AcDbLine
  10
36.63301
  20
-5.980215
  30
0
  11
36.53301
  21
-5.933477
  31
0
  0
LINE
  5
338
  100
AcDbEntity
  8
1
  100
AcDbLine
  10
36.53301
  20
-5.933477
  30
0
  11
36.43301
  21
-5.886284
  31
0
  0
LINE
  5
339
  100
AcDbEntity
  8
1
  100
AcDbLine
  10
36.43301
  20
-5.886284
  30
0
  11
36.33301
  21
-5.83864
  31
0
  0
LINE
  5
33a
  100
AcDbEntity
  8
1
  100
AcDbLine
  10
36.33301
  20
-5.83864
  30
0
  11
36.23301
  21
-5.790549
  31
0
  0
LINE
  5
33b
  100
AcDbEntity
  8
1
  100
AcDbLine
  10
36.23301
  20
-5.790549
  30
0
  11
36.13301
  21
-5.742014
  31
0
  0
LINE
  5
33c
  100
AcDbEntity
  8
1
  100
AcDbLine
  10
36.13301
  20
-5.742014
  30
0
  11
36.03301
  21
-5.693039
  31
0
  0
LINE
  5
33d
  100
AcDbEntity
  8
1
  100
AcDbLine
  10
36.03301
  20
-5.693039
  30
0
  11
35.93301
  21
-5.643628
  31
0
  0
LINE
  5
33e
  100
AcDbEntity
  8
1
  100
AcDbLine
  10
35.93301
  20
-5.643628
  30
0
  11
35.83301
  21
-5.593785
  31
0
  0
LINE
  5
33f
  100
AcDbEntity
  8
1
  100
AcDbLine
  10
35.83301
  20
-5.593785
  30
0
  11
35.73301
  21
-5.543513
  31
0
  0
LINE
  5
340
  100
AcDbEntity
  8
1
  100
AcDbLine
  10
35.73301
  20
-5.543513
  30
0
  11
35.63301
  21
-5.492817
  31
0
  0
LINE
  5
341
  100
AcDbEntity
  8
1
  100
AcDbLine
  10
35.63301
  20
-5.492817
  30
0
  11
35.53301
  21
-5.4417
  31
0
  0
LINE
  5
342
  100
AcDbEntity
  8
1
  100
AcDbLine
  10
35.53301
  20
-5.4417
  30
0
  11
35.43301
  21
-5.390166
  31
0
  0
LINE
  5
343
  100
AcDbEntity
  8
1
  100
AcDbLine
  10
35.43301
  20
-5.390166
  30
0
  11
35.33301
  21
-5.338219
  31
0
  0
LINE
  5
344
  100
AcDbEntity
  8
1
  100
AcDbLine
  10
35.33301
  20
-5.338219
  30
0
  11
35.23301
  21
-5.285863
  31
0
  0
LINE
  5
345
  100
AcDbEntity
  8
1
  100
AcDbLine
  10
35.23301
  20
-5.285863
  30
0
  11
35.13301
  21
-5.233102
  31
0
  0
LINE
  5
346
  100
AcDbEntity
  8
1
  100
AcDbLine
  10
35.13301
  20
-5.233102
  30
0
  11
35.03301
  21
-5.17994
  31
0
  0
LINE
  5
347
  100
AcDbEntity
  8
1
  100
AcDbLine
  10
35.03301
  20
-5.17994
  30
0
  11
34.93301
  21
-5.126382
  31
0
  0
LINE
  5
348
  100
AcDbEntity
  8
1
  100
AcDbLine
  10
34.93301
  20
-5.126382
  30
0
  11
34.83301
  21
-5.07243
  31
0
  0
LINE
  5
349
  100
AcDbEntity
  8
1
  100
AcDbLine
  10
34.83301
  20
-5.07243
  30
0
  11
34.73301
  21
-5.018091
  31
0
  0
LINE
  5
34a
  100
AcDbEntity
  8
1
  100
AcDbLine
  10
34.73301
  20
-5.018091
  30
0
  11
34.63301
  21
-4.963366
  31
0
  0
LINE
  5
34b
  100
AcDbEntity
  8
1
  100
AcDbLine
  10
34.63301
  20
-4.963366
  30
0
  11
34.53301
  21
-4.908262
  31
0
  0
LINE
  5
34c
  100
AcDbEntity
  8
1
  100
AcDbLine
  10
34.53301
  20
-4.908262
  30
0
  11
34.43301
  21
-4.852781
  31
0
  0
LINE
  5
34d
  100
AcDbEntity
  8
1
  100
AcDbLine
  10
34.43301
  20
-4.852781
  30
0
  11
34.33301
  21
-4.796929
  31
0
  0
LINE
  5
34e
  100
AcDbEntity
  8
1
  100
AcDbLine
  10
34.33301
  20
-4.796929
  30
0
  11
34.23301
  21
-4.740709
  31
0
  0
LINE
  5
34f
  100
AcDbEntity
  8
1
  100
AcDbLine
  10
34.23301
  20
-4.740709
  30
0
  11
34.13301
  21
-4.684126
  31
0
  0
LINE
  5
350
  100
AcDbEntity
  8
1
  100
AcDbLine
  10
34.13301
  20
-4.684126
  30
0
  11
34.03301
  21
-4.627184
  31
0
  0
LINE
  5
351
  100
AcDbEntity
  8
1
  100
AcDbLine
  10
34.03301
  20
-4.627184
  30
0
  11
33.93301
  21
-4.569888
  31
0
  0
LINE
  5
352
  100
AcDbEntity
  8
1
  100
AcDbLine
  10
33.93301
  20
-4.569888
  30
0
  11
33.83301
  21
-4.512242
  31
0
  0
LINE
  5
353
  100
AcDbEntity
  8
1
  100
AcDbLine
  10
33.83301
  20
-4.512242
  30
0
  11
33.73301
  21
-4.45425
  31
0
  0
LINE
  5
354
  100
AcDbEntity
  8
1
  100
AcDbLine
  10
33.73301
  20
-4.45425
  30
0
  11
33.63301
  21
-4.395917
  31
0
  0
LINE
  5
355
  100
AcDbEntity
  8
1
  100
AcDbLine
  10
33.63301
  20
-4.395917
  30
0
  11
33.53301
  21
-4.337246
  31
0
  0
LINE
  5
356
  100
AcDbEntity
  8
1
  100
AcDbLine
  10
33.53301
  20
-4.337246
  30
0
  11
33.43301
  21
-4.278244
  31
0
  0
LINE
  5
357
  100
AcDbEntity
  8
1
  100
AcDbLine
  10
33.43301
  20
-4.278244
  30
0
  11
33.33301
  21
-4.218914
  31
0
  0
LINE
  5
358
  100
AcDbEntity
  8
1
  100
AcDbLine
  10
33.33301
  20
-4.218914
  30
0
  11
33.23301
  21
-4.159261
  31
0
  0
LINE
  5
359
  100
AcDbEntity
  8
1
  100
AcDbLine
  10
33.23301
  20
-4.159261
  30
0
  11
33.13301
  21
-4.099289
  31
0
  0
LINE
  5
35a
  100
AcDbEntity
  8
1
  100
AcDbLine
  10
33.13301
  20
-4.099289
  30
0
  11
33.03301
  21
-4.039003
  31
0
  0
LINE
  5
35b
  100
AcDbEntity
  8
1
  100
AcDbLine
  10
33.03301
  20
-4.039003
  30
0
  11
32.93301
  21
-3.978408
  31
0
  0
LINE
  5
35c
  100
AcDbEntity
  8
1
  100
AcDbLine
  10
32.93301
  20
-3.978408
  30
0
  11
32.83301
  21
-3.917508
  31
0
  0
LINE
  5
35d
  100
AcDbEntity
  8
1
  100
AcDbLine
  10
32.83301
  20
-3.917508
  30
0
  11
32.73301
  21
-3.856308
  31
0
  0
LINE
  5
35e
  100
AcDbEntity
  8
1
  100
AcDbLine
  10
32.73301
  20
-3.856308
  30
0
  11
32.63301
  21
-3.794812
  31
0
  0
LINE
  5
35f
  100
AcDbEntity
  8
1
  100
AcDbLine
  10
32.63301
  20
-3.794812
  30
0
  11
32.53301
  21
-3.733026
  31
0
  0
LINE
  5
360
  100
AcDbEntity
  8
1
  100
AcDbLine
  10
32.53301
  20
-3.733026
  30
0
  11
32.43301
  21
-3.670953
  31
0
  0
LINE
  5
361
  100
AcDbEntity
  8
1
  100
AcDbLine
  10
32.43301
  20
-3.670953
  30
0
  11
32.33301
  21
-3.6086
  31
0
  0
LINE
  5
362
  100
AcDbEntity
  8
1
  100
AcDbLine
  10
32.33301
  20
-3.6086
  30
0
  11
32.23301
  21
-3.54597
  31
0
  0
LINE
  5
363
  100
AcDbEntity
  8
1
  100
AcDbLine
  10
32.23301
  20
-3.54597
  30
0
  11
32.13301
  21
-3.483068
  31
0
  0
LINE
  5
364
  100
AcDbEntity
  8
1
  100
AcDbLine
  10
32.13301
  20
-3.483068
  30
0
  11
32.03301
  21
-3.4199
  31
0
  0
LINE
  5
365
  100
AcDbEntity
  8
1
  100
AcDbLine
  10
32.03301
  20
-3.4199
  30
0
  11
31.93301
  21
-3.356469
  31
0
  0
LINE
  5
366
  100
AcDbEntity
  8
1
  100
AcDbLine
  10
31.93301
  20
-3.356469
  30
0
  11
31.83301
  21
-3.292782
  31
0
  0
LINE
  5
367
  100
AcDbEntity
  8
1
  100
AcDbLine
  10
31.83301
  20
-3.292782
  30
0
  11
31.73301
  21
-3.228842
  31
0
  0
LINE
  5
368
  100
AcDbEntity
  8
1
  100
AcDbLine
  10
31.73301
  20
-3.228842
  30
0
  11
31.63301
  21
-3.164655
  31
0
  0
LINE
  5
369
  100
AcDbEntity
  8
1
  100
AcDbLine
  10
31.63301
  20
-3.164655
  30
0
  11
31.53301
  21
-3.100225
  31
0
  0
LINE
  5
36a
  100
AcDbEntity
  8
1
  100
AcDbLine
  10
31.53301
  20
-3.100225
  30
0
  11
31.43301
  21
-3.035558
  31
0
  0
LINE
  5
36b
  100
AcDbEntity
  8
1
  100
AcDbLine
  10
31.43301
  20
-3.035558
  30
0
  11
31.33301
  21
-2.970658
  31
0
  0
LINE
  5
36c
  100
AcDbEntity
  8
1
  100
AcDbLine
  10
31.33301
  20
-2.970658
  30
0
  11
31.23301
  21
-2.905531
  31
0
  0
LINE
  5
36d
  100
AcDbEntity
  8
1
  100
AcDbLine
  10
31.23301
  20
-2.905531
  30
0
  11
31.13301
  21
-2.840181
  31
0
  0
LINE
  5
36e
  100
AcDbEntity
  8
1
  100
AcDbLine
  10
31.13301
  20
-2.840181
  30
0
  11
31.03301
  21
-2.774614
  31
0
  0
LINE
  5
36f
  100
AcDbEntity
  8
1
  100
AcDbLine
  10
31.03301
  20
-2.774614
  30
0
  11
30.93301
  21
-2.708834
  31
0
  0
LINE
  5
370
  100
AcDbEntity
  8
1
  100
AcDbLine
  10
30.93301
  20
-2.708834
  30
0
  11
30.83301
  21
-2.642847
  31
0
  0
LINE
  5
371
  100
AcDbEntity
  8
1
  100
AcDbLine
  10
30.83301
  20
-2.642847
  30
0
  11
30.73301
  21
-2.576657
  31
0
  0
LINE
  5
372
  100
AcDbEntity
  8
1
  100
AcDbLine
  10
30.73301
  20
-2.576657
  30
0
  11
30.63301
  21
-2.510269
  31
0
  0
LINE
  5
373
  100
AcDbEntity
  8
1
  100
AcDbLine
  10
30.63301
  20
-2.510269
  30
0
  11
30.53301
  21
-2.44369
  31
0
  0
LINE
  5
374
  100
AcDbEntity
  8
1
  100
AcDbLine
  10
30.53301
  20
-2.44369
  30
0
  11
30.43301
  21
-2.376923
  31
0
  0
LINE
  5
375
  100
AcDbEntity
  8
1
  100
AcDbLine
  10
30.43301
  20
-2.376923
  30
0
  11
30.33301
  21
-2.309974
  31
0
  0
LINE
  5
376
  100
AcDbEntity
  8
1
  100
AcDbLine
  10
30.33301
  20
-2.309974
  30
0
  11
30.23301
  21
-2.242848
  31
0
  0
LINE
  5
377
  100
AcDbEntity
  8
1
  100
AcDbLine
  10
30.23301
  20
-2.242848
  30
0
  11
30.13301
  21
-2.17555
  31
0
  0
LINE
  5
378
  100
AcDbEntity
  8
1
  100
AcDbLine
  10
30.13301
  20
-2.17555
  30
0
  11
30.03301
  21
-2.108086
  31
0
  0
LINE
  5
379
  100
AcDbEntity
  8
1
  100
AcDbLine
  10
30.03301
  20
-2.108086
  30
0
  11
29.93301
  21
-2.04046
  31
0
  0
LINE
  5
37a
  100
AcDbEntity
  8
1
  100
AcDbLine
  10
29.93301
  20
-2.04046
  30
0
  11
29.83301
  21
-1.972678
  31
0
  0
LINE
  5
37b
  100
AcDbEntity
  8
1
  100
AcDbLine
  10
29.83301
  20
-1.972678
  30
0
  11
29.73301
  21
-1.904745
  31
0
  0
LINE
  5
37c
  100
AcDbEntity
  8
1
  100
AcDbLine
  10
29.73301
  20
-1.904745
  30
0
  11
29.63301
  21
-1.836666
  31
0
  0
LINE
  5
37d
  100
AcDbEntity
  8
1
  100
AcDbLine
  10
29.63301
  20
-1.836666
  30
0
  11
29.53301
  21
-1.768446
  31
0
  0
LINE
  5
37e
  100
AcDbEntity
  8
1
  100
AcDbLine
  10
29.53301
  20
-1.768446
  30
0
  11
29.43301
  21
-1.70009
  31
0
  0
LINE
  5
37f
  100
AcDbEntity
  8
1
  100
AcDbLine
  10
29.43301
  20
-1.70009
  30
0
  11
29.33301
  21
-1.631605
  31
0
  0
LINE
  5
380
  100
AcDbEntity
  8
1
  100
AcDbLine
  10
29.33301
  20
-1.631605
  30
0
  11
29.23301
  21
-1.562994
  31
0
  0
LINE
  5
381
  100
AcDbEntity
  8
1
  100
AcDbLine
  10
29.23301
  20
-1.562994
  30
0
  11
29.13301
  21
-1.494264
  31
0
  0
LINE
  5
382
  100
AcDbEntity
  8
1
  100
AcDbLine
  10
29.13301
  20
-1.494264
  30
0
  11
29.03301
  21
-1.425419
  31
0
  0
LINE
  5
383
  100
AcDbEntity
  8
1
  100
AcDbLine
  10
29.03301
  20
-1.425419
  30
0
  11
28.93301
  21
-1.356465
  31
0
  0
LINE
  5
384
  100
AcDbEntity
  8
1
  100
AcDbLine
  10
28.93301
  20
-1.356465
  30
0
  11
28.83301
  21
-1.287407
  31
0
  0
LINE
  5
385
  100
AcDbEntity
  8
1
  100
AcDbLine
  10
28.83301
  20
-1.287407
  30
0
  11
28.73301
  21
-1.21825
  31
0
  0
LINE
  5
386
  100
AcDbEntity
  8
1
  100
AcDbLine
  10
28.73301
  20
-1.21825
  30
0
  11
28.63301
  21
-1.149
  31
0
  0
LINE
  5
387
  100
AcDbEntity
  8
1
  100
AcDbLine
  10
28.63301
  20
-1.149
  30
0
  11
28.53301
  21
-1.079662
  31
0
  0
LINE
  5
388
  100
AcDbEntity
  8
1
  100
AcDbLine
  10
28.53301
  20
-1.079662
  30
0
  11
28.43301
  21
-1.010242
  31
0
  0
LINE
  5
389
  100
AcDbEntity
  8
1
  100
AcDbLine
  10
28.43301
  20
-1.010242
  30
0
  11
28.33301
  21
-0.940744
  31
0
  0
LINE
  5
38a
  100
AcDbEntity
  8
1
  100
AcDbLine
  10
28.33301
  20
-0.940744
  30
0
  11
28.23301
  21
-0.871174
  31
0
  0
LINE
  5
38b
  100
AcDbEntity
  8
1
  100
AcDbLine
  10
28.23301
  20
-0.871174
  30
0
  11
28.13301
  21
-0.801537
  31
0
  0
LINE
  5
38c
  100
AcDbEntity
  8
1
  100
AcDbLine
  10
28.13301
  20
-0.801537
  30
0
  11
28.03301
  21
-0.731839
  31
0
  0
LINE
  5
38d
  100
AcDbEntity
  8
1
  100
AcDbLine
  10
28.03301
  20
-0.731839
  30
0
  11
27.93301
  21
-0.662084
  31
0
  0
LINE
  5
38e
  100
AcDbEntity
  8
1
  100
AcDbLine
  10
27.93301
  20
-0.662084
  30
0
  11
27.83301
  21
-0.592279
  31
0
  0
LINE
  5
38f
  100
AcDbEntity
  8
1
  100
AcDbLine
  10
27.83301
  20
-0.592279
  30
0
  11
27.73301
  21
-0.522429
  31
0
  0
LINE
  5
390
  100
AcDbEntity
  8
1
  100
AcDbLine
  10
27.73301
  20
-0.522429
  30
0
  11
27.63301
  21
-0.452539
  31
0
  0
LINE
  5
391
  100
AcDbEntity
  8
1
  100
AcDbLine
  10
27.63301
  20
-0.452539
  30
0
  11
27.53301
  21
-0.382613
  31
0
  0
LINE
  5
392
  100
AcDbEntity
  8
1
  100
AcDbLine
  10
27.53301
  20
-0.382613
  30
0
  11
27.43301
  21
-0.312659
  31
0
  0
LINE
  5
393
  100
AcDbEntity
  8
1
  100
AcDbLine
  10
27.43301
  20
-0.312659
  30
0
  11
27.33301
  21
-0.242681
  31
0
  0
LINE
  5
394
  100
AcDbEntity
  8
1
  100
AcDbLine
  10
27.33301
  20
-0.242681
  30
0
  11
27.23301
  21
-0.172684
  31
0
  0
LINE
  5
395
  100
AcDbEntity
  8
1
  100
AcDbLine
  10
27.23301
  20
-0.172684
  30
0
  11
27.13301
  21
-0.102674
  31
0
  0
LINE
  5
396
  100
AcDbEntity
  8
1
  100
AcDbLine
  10
27.13301
  20
-0.102674
  30
0
  11
27.03301
  21
-0.032656
  31
0
  0
LINE
  5
397
  100
AcDbEntity
  8
1
  100
AcDbLine
  10
27.03301
  20
-0.032656
  30
0
  11
26.93301
  21
0.037365
  31
0
  0
LINE
  5
398
  100
AcDbEntity
  8
1
  100
AcDbLine
  10
26.93301
  20
0.037365
  30
0
  11
26.83301
  21
0.107383
  31
0
  0
LINE
  5
399
  100
AcDbEntity
  8
1
  100
AcDbLine
  10
26.83301
  20
0.107383
  30
0
  11
26.73301
  21
0.177392
  31
0
  0
LINE
  5
39a
  100
AcDbEntity
  8
1
  100
AcDbLine
  10
26.73301
  20
0.177392
  30
0
  11
26.63301
  21
0.247388
  31
0
  0
LINE
  5
39b
  100
AcDbEntity
  8
1
  100
AcDbLine
  10
26.63301
  20
0.247388
  30
0
  11
26.53301
  21
0.317365
  31
0
  0
LINE
  5
39c
  100
AcDbEntity
  8
1
  100
AcDbLine
  10
26.53301
  20
0.317365
  30
0
  11
26.43301
  21
0.387317
  31
0
  0
LINE
  5
39d
  100
AcDbEntity
  8
1
  100
AcDbLine
  10
26.43301
  20
0.387317
  30
0
  11
26.33301
  21
0.45724
  31
0
  0
LINE
  5
39e
  100
AcDbEntity
  8
1
  100
AcDbLine
  10
26.33301
  20
0.45724
  30
0
  11
26.23301
  21
0.527128
  31
0
  0
LINE
  5
39f
  100
AcDbEntity
  8
1
  100
AcDbLine
  10
26.23301
  20
0.527128
  30
0
  11
26.13301
  21
0.596976
  31
0
  0
LINE
  5
3a0
  100
AcDbEntity
  8
1
  100
AcDbLine
  10
26.13301
  20
0.596976
  30
0
  11
26.03301
  21
0.666777
  31
0
  0
LINE
  5
3a1
  100
AcDbEntity
  8
1
  100
AcDbLine
  10
26.03301
  20
0.666777
  30
0
  11
25.93301
  21
0.736528
  31
0
  0
LINE
  5
3a2
  100
AcDbEntity
  8
1
  100
AcDbLine
  10
25.93301
  20
0.736528
  30
0
  11
25.83301
  21
0.806222
  31
0
  0
LINE
  5
3a3
  100
AcDbEntity
  8
1
  100
AcDbLine
  10
25.83301
  20
0.806222
  30
0
  11
25.73301
  21
0.875855
  31
0
  0
LINE
  5
3a4
  100
AcDbEntity
  8
1
  100
AcDbLine
  10
25.73301
  20
0.875855
  30
0
  11
25.63301
  21
0.94542
  31
0
  0
LINE
  5
3a5
  100
AcDbEntity
  8
1
  100
AcDbLine
  10
25.63301
  20
0.94542
  30
0
  11
25.53301
  21
1.014913
  31
0
  0
LINE
  5
3a6
  100
AcDbEntity
  8
1
  100
AcDbLine
  10
25.53301
  20
1.014913
  30
0
  11
25.43301
  21
1.084329
  31
0
  0
LINE
  5
3a7
  100
AcDbEntity
  8
1
  100
AcDbLine
  10
25.43301
  20
1.084329
  30
0
  11
25.33301
  21
1.153661
  31
0
  0
LINE
  5
3a8
  100
AcDbEntity
  8
1
  100
AcDbLine
  10
25.33301
  20
1.153661
  30
0
  11
25.23301
  21
1.222904
  31
0
  0
LINE
  5
3a9
  100
AcDbEntity
  8
1
  100
AcDbLine
  10
25.23301
  20
1.222904
  30
0
  11
25.13301
  21
1.292055
  31
0
  0
LINE
  5
3aa
  100
AcDbEntity
  8
1
  100
AcDbLine
  10
25.13301
  20
1.292055
  30
0
  11
25.03301
  21
1.361106
  31
0
  0
LINE
  5
3ab
  100
AcDbEntity
  8
1
  100
AcDbLine
  10
25.03301
  20
1.361106
  30
0
  11
24.93301
  21
1.430053
  31
0
  0
LINE
  5
3ac
  100
AcDbEntity
  8
1
  100
AcDbLine
  10
24.93301
  20
1.430053
  30
0
  11
24.83301
  21
1.49889
  31
0
  0
LINE
  5
3ad
  100
AcDbEntity
  8
1
  100
AcDbLine
  10
24.83301
  20
1.49889
  30
0
  11
24.73301
  21
1.567612
  31
0
  0
LINE
  5
3ae
  100
AcDbEntity
  8
1
  100
AcDbLine
  10
24.73301
  20
1.567612
  30
0
  11
24.63301
  21
1.636215
  31
0
  0
LINE
  5
3af
  100
AcDbEntity
  8
1
  100
AcDbLine
  10
24.63301
  20
1.636215
  30
0
  11
24.53301
  21
1.704692
  31
0
  0
LINE
  5
3b0
  100
AcDbEntity
  8
1
  100
AcDbLine
  10
24.53301
  20
1.704692
  30
0
  11
24.43301
  21
1.773038
  31
0
  0
LINE
  5
3b1
  100
AcDbEntity
  8
1
  100
AcDbLine
  10
24.43301
  20
1.773038
  30
0
  11
24.33301
  21
1.841249
  31
0
  0
LINE
  5
3b2
  100
AcDbEntity
  8
1
  100
AcDbLine
  10
24.33301
  20
1.841249
  30
0
  11
24.23301
  21
1.909318
  31
0
  0
LINE
  5
3b3
  100
AcDbEntity
  8
1
  100
AcDbLine
  10
24.23301
  20
1.909318
  30
0
  11
24.13301
  21
1.977242
  31
0
  0
LINE
  5
3b4
  100
AcDbEntity
  8
1
  100
AcDbLine
  10
24.13301
  20
1.977242
  30
0
  11
24.03301
  21
2.045013
  31
0
  0
LINE
  5
3b5
  100
AcDbEntity
  8
1
  100
AcDbLine
  10
24.03301
  20
2.045013
  30
0
  11
23.93301
  21
2.112629
  31
0
  0
LINE
  5
3b6
  100
AcDbEntity
  8
1
  100
AcDbLine
  10
23.93301
  20
2.112629
  30
0
  11
23.83301
  21
2.180082
  31
0
  0
LINE
  5
3b7
  100
AcDbEntity
  8
1
  100
AcDbLine
  10
23.83301
  20
2.180082
  30
0
  11
23.73301
  21
2.247368
  31
0
  0
LINE
  5
3b8
  100
AcDbEntity
  8
1
  100
AcDbLine
  10
23.73301
  20
2.247368
  30
0
  11
23.63301
  21
2.314482
  31
0
  0
LINE
  5
3b9
  100
AcDbEntity
  8
1
  100
AcDbLine
  10
23.63301
  20
2.314482
  30
0
  11
23.53301
  21
2.381419
  31
0
  0
LINE
  5
3ba
  100
AcDbEntity
  8
1
  100
AcDbLine
  10
23.53301
  20
2.381419
  30
0
  11
23.43301
  21
2.448174
  31
0
  0
LINE
  5
3bb
  100
AcDbEntity
  8
1
  100
AcDbLine
  10
23.43301
  20
2.448174
  30
0
  11
23.33301
  21
2.51474
  31
0
  0
LINE
  5
3bc
  100
AcDbEntity
  8
1
  100
AcDbLine
  10
23.33301
  20
2.51474
  30
0
  11
23.23301
  21
2.581115
  31
0
  0
LINE
  5
3bd
  100
AcDbEntity
  8
1
  100
AcDbLine
  10
23.23301
  20
2.581115
  30
0
  11
23.13301
  21
2.647291
  31
0
  0
LINE
  5
3be
  100
AcDbEntity
  8
1
  100
AcDbLine
  10
23.13301
  20
2.647291
  30
0
  11
23.03301
  21
2.713265
  31
0
  0
LINE
  5
3bf
  100
AcDbEntity
  8
1
  100
AcDbLine
  10
23.03301
  20
2.713265
  30
0
  11
22.93301
  21
2.779031
  31
0
  0
LINE
  5
3c0
  100
AcDbEntity
  8
1
  100
AcDbLine
  10
22.93301
  20
2.779031
  30
0
  11
22.83301
  21
2.844584
  31
0
  0
LINE
  5
3c1
  100
AcDbEntity
  8
1
  100
AcDbLine
  10
22.83301
  20
2.844584
  30
0
  11
22.73301
  21
2.909919
  31
0
  0
LINE
  5
3c2
  100
AcDbEntity
  8
1
  100
AcDbLine
  10
22.73301
  20
2.909919
  30
0
  11
22.63301
  21
2.975031
  31
0
  0
LINE
  5
3c3
  100
AcDbEntity
  8
1
  100
AcDbLine
  10
22.63301
  20
2.975031
  30
0
  11
22.53301
  21
3.039915
  31
0
  0
LINE
  5
3c4
  100
AcDbEntity
  8
1
  100
AcDbLine
  10
22.53301
  20
3.039915
  30
0
  11
22.43301
  21
3.104566
  31
0
  0
LINE
  5
3c5
  100
AcDbEntity
  8
1
  100
AcDbLine
  10
22.43301
  20
3.104566
  30
0
  11
22.33301
  21
3.16898
  31
0
  0
LINE
  5
3c6
  100
AcDbEntity
  8
1
  100
AcDbLine
  10
22.33301
  20
3.16898
  30
0
  11
22.23301
  21
3.23315
  31
0
  0
LINE
  5
3c7
  100
AcDbEntity
  8
1
  100
AcDbLine
  10
22.23301
  20
3.23315
  30
0
  11
22.13301
  21
3.297073
  31
0
  0
LINE
  5
3c8
  100
AcDbEntity
  8
1
  100
AcDbLine
  10
22.13301
  20
3.297073
  30
0
  11
22.03301
  21
3.360744
  31
0
  0
LINE
  5
3c9
  100
AcDbEntity
  8
1
  100
AcDbLine
  10
22.03301
  20
3.360744
  30
0
  11
21.93301
  21
3.424157
  31
0
  0
LINE
  5
3ca
  100
AcDbEntity
  8
1
  100
AcDbLine
  10
21.93301
  20
3.424157
  30
0
  11
21.83301
  21
3.487307
  31
0
  0
LINE
  5
3cb
  100
AcDbEntity
  8
1
  100
AcDbLine
  10
21.83301
  20
3.487307
  30
0
  11
21.73301
  21
3.550191
  31
0
  0
LINE
  5
3cc
  100
AcDbEntity
  8
1
  100
AcDbLine
  10
21.73301
  20
3.550191
  30
0
  11
21.63301
  21
3.612802
  31
0
  0
LINE
  5
3cd
  100
AcDbEntity
  8
1
  100
AcDbLine
  10
21.63301
  20
3.612802
  30
0
  11
21.53301
  21
3.675137
  31
0
  0
LINE
  5
3ce
  100
AcDbEntity
  8
1
  100
AcDbLine
  10
21.53301
  20
3.675137
  30
0
  11
21.43301
  21
3.73719
  31
0
  0
LINE
  5
3cf
  100
AcDbEntity
  8
1
  100
AcDbLine
  10
21.43301
  20
3.73719
  30
0
  11
21.33301
  21
3.798957
  31
0
  0
LINE
  5
3d0
  100
AcDbEntity
  8
1
  100
AcDbLine
  10
21.33301
  20
3.798957
  30
0
  11
21.23301
  21
3.860433
  31
0
  0
LINE
  5
3d1
  100
AcDbEntity
  8
1
  100
AcDbLine
  10
21.23301
  20
3.860433
  30
0
  11
21.13301
  21
3.921613
  31
0
  0
LINE
  5
3d2
  100
AcDbEntity
  8
1
  100
AcDbLine
  10
21.13301
  20
3.921613
  30
0
  11
21.03301
  21
3.982493
  31
0
  0
LINE
  5
3d3
  100
AcDbEntity
  8
1
  100
AcDbLine
  10
21.03301
  20
3.982493
  30
0
  11
20.93301
  21
4.043068
  31
0
  0
LINE
  5
3d4
  100
AcDbEntity
  8
1
  100
AcDbLine
  10
20.93301
  20
4.043068
  30
0
  11
20.83301
  21
4.103333
  31
0
  0
LINE
  5
3d5
  100
AcDbEntity
  8
1
  100
AcDbLine
  10
20.83301
  20
4.103333
  30
0
  11
20.73301
  21
4.163283
  31
0
  0
LINE
  5
3d6
  100
AcDbEntity
  8
1
  100
AcDbLine
  10
20.73301
  20
4.163283
  30
0
  11
20.63301
  21
4.222915
  31
0
  0
LINE
  5
3d7
  100
AcDbEntity
  8
1
  100
AcDbLine
  10
20.63301
  20
4.222915
  30
0
  11
20.53301
  21
4.282223
  31
0
  0
LINE
  5
3d8
  100
AcDbEntity
  8
1
  100
AcDbLine
  10
20.53301
  20
4.282223
  30
0
  11
20.43301
  21
4.341203
  31
0
  0
LINE
  5
3d9
  100
AcDbEntity
  8
1
  100
AcDbLine
  10
20.43301
  20
4.341203
  30
0
  11
20.33301
  21
4.39985
  31
0
  0
LINE
  5
3da
  100
AcDbEntity
  8
1
  100
AcDbLine
  10
20.33301
  20
4.39985
  30
0
  11
20.23301
  21
4.458161
  31
0
  0
LINE
  5
3db
  100
AcDbEntity
  8
1
  100
AcDbLine
  10
20.23301
  20
4.458161
  30
0
  11
20.13301
  21
4.51613
  31
0
  0
LINE
  5
3dc
  100
AcDbEntity
  8
1
  100
AcDbLine
  10
20.13301
  20
4.51613
  30
0
  11
20.03301
  21
4.573753
  31
0
  0
LINE
  5
3dd
  100
AcDbEntity
  8
1
  100
AcDbLine
  10
20.03301
  20
4.573753
  30
0
  11
19.93301
  21
4.631025
  31
0
  0
LINE
  5
3de
  100
AcDbEntity
  8
1
  100
AcDbLine
  10
19.93301
  20
4.631025
  30
0
  11
19.83301
  21
4.687943
  31
0
  0
LINE
  5
3df
  100
AcDbEntity
  8
1
  100
AcDbLine
  10
19.83301
  20
4.687943
  30
0
  11
19.73301
  21
4.744502
  31
0
  0
LINE
  5
3e0
  100
AcDbEntity
  8
1
  100
AcDbLine
  10
19.73301
  20
4.744502
  30
0
  11
19.63301
  21
4.800697
  31
0
  0
LINE
  5
3e1
  100
AcDbEntity
  8
1
  100
AcDbLine
  10
19.63301
  20
4.800697
  30
0
  11
19.53301
  21
4.856524
  31
0
  0
LINE
  5
3e2
  100
AcDbEntity
  8
1
  100
AcDbLine
  10
19.53301
  20
4.856524
  30
0
  11
19.43301
  21
4.91198
  31
0
  0
LINE
  5
3e3
  100
AcDbEntity
  8
1
  100
AcDbLine
  10
19.43301
  20
4.91198
  30
0
  11
19.33301
  21
4.967059
  31
0
  0
LINE
  5
3e4
  100
AcDbEntity
  8
1
  100
AcDbLine
  10
19.33301
  20
4.967059
  30
0
  11
19.23301
  21
5.021757
  31
0
  0
LINE
  5
3e5
  100
AcDbEntity
  8
1
  100
AcDbLine
  10
19.23301
  20
5.021757
  30
0
  11
19.13301
  21
5.076071
  31
0
  0
LINE
  5
3e6
  100
AcDbEntity
  8
1
  100
AcDbLine
  10
19.13301
  20
5.076071
  30
0
  11
19.03301
  21
5.129996
  31
0
  0
LINE
  5
3e7
  100
AcDbEntity
  8
1
  100
AcDbLine
  10
19.03301
  20
5.129996
  30
0
  11
18.93301
  21
5.183528
  31
0
  0
LINE
  5
3e8
  100
AcDbEntity
  8
1
  100
AcDbLine
  10
18.93301
  20
5.183528
  30
0
  11
18.83301
  21
5.236663
  31
0
  0
LINE
  5
3e9
  100
AcDbEntity
  8
1
  100
AcDbLine
  10
18.83301
  20
5.236663
  30
0
  11
18.73301
  21
5.289397
  31
0
  0
LINE
  5
3ea
  100
AcDbEntity
  8
1
  100
AcDbLine
  10
18.73301
  20
5.289397
  30
0
  11
18.63301
  21
5.341726
  31
0
  0
LINE
  5
3eb
  100
AcDbEntity
  8
1
  100
AcDbLine
  10
18.63301
  20
5.341726
  30
0
  11
18.53301
  21
5.393645
  31
0
  0
LINE
  5
3ec
  100
AcDbEntity
  8
1
  100
AcDbLine
  10
18.53301
  20
5.393645
  30
0
  11
18.43301
  21
5.445151
  31
0
  0
LINE
  5
3ed
  100
AcDbEntity
  8
1
  100
AcDbLine
  10
18.43301
  20
5.445151
  30
0
  11
18.33301
  21
5.49624
  31
0
  0
LINE
  5
3ee
  100
AcDbEntity
  8
1
  100
AcDbLine
  10
18.33301
  20
5.49624
  30
0
  11
18.23301
  21
5.546908
  31
0
  0
LINE
  5
3ef
  100
AcDbEntity
  8
1
  100
AcDbLine
  10
18.23301
  20
5.546908
  30
0
  11
18.13301
  21
5.597151
  31
0
  0
LINE
  5
3f0
  100
AcDbEntity
  8
1
  100
AcDbLine
  10
18.13301
  20
5.597151
  30
0
  11
18.03301
  21
5.646965
  31
0
  0
LINE
  5
3f1
  100
AcDbEntity
  8
1
  100
AcDbLine
  10
18.03301
  20
5.646965
  30
0
  11
17.93301
  21
5.696347
  31
0
  0
LINE
  5
3f2
  100
AcDbEntity
  8
1
  100
AcDbLine
  10
17.93301
  20
5.696347
  30
0
  11
17.83301
  21
5.745292
  31
0
  0
LINE
  5
3f3
  100
AcDbEntity
  8
1
  100
AcDbLine
  10
17.83301
  20
5.745292
  30
0
  11
17.73301
  21
5.793797
  31
0
  0
LINE
  5
3f4
  100
AcDbEntity
  8
1
  100
AcDbLine
  10
17.73301
  20
5.793797
  30
0
  11
17.63301
  21
5.841858
  31
0
  0
LINE
  5
3f5
  100
AcDbEntity
  8
1
  100
AcDbLine
  10
17.63301
  20
5.841858
  30
0
  11
17.53301
  21
5.889472
  31
0
  0
LINE
  5
3f6
  100
AcDbEntity
  8
1
  100
AcDbLine
  10
17.53301
  20
5.889472
  30
0
  11
17.43301
  21
5.936635
  31
0
  0
LINE
  5
3f7
  100
AcDbEntity
  8
1
  100
AcDbLine
  10
17.43301
  20
5.936635
  30
0
  11
17.33301
  21
5.983342
  31
0
  0
LINE
  5
3f8
  100
AcDbEntity
  8
1
  100
AcDbLine
  10
17.33301
  20
5.983342
  30
0
  11
17.23301
  21
6.029592
  31
0
  0
LINE
  5
3f9
  100
AcDbEntity
  8
1
  100
AcDbLine
  10
17.23301
  20
6.029592
  30
0
  11
17.13301
  21
6.075379
  31
0
  0
LINE
  5
3fa
  100
AcDbEntity
  8
1
  100
AcDbLine
  10
17.13301
  20
6.075379
  30
0
  11
17.03301
  21
6.120701
  31
0
  0
LINE
  5
3fb
  100
AcDbEntity
  8
1
  100
AcDbLine
  10
17.03301
  20
6.120701
  30
0
  11
16.93301
  21
6.165555
  31
0
  0
LINE
  5
3fc
  100
AcDbEntity
  8
1
  100
AcDbLine
  10
16.93301
  20
6.165555
  30
0
  11
16.83301
  21
6.209935
  31
0
  0
LINE
  5
3fd
  100
AcDbEntity
  8
1
  100
AcDbLine
  10
16.83301
  20
6.209935
  30
0
  11
16.73301
  21
6.25384
  31
0
  0
LINE
  5
3fe
  100
AcDbEntity
  8
1
  100
AcDbLine
  10
16.73301
  20
6.25384
  30
0
  11
16.63301
  21
6.297266
  31
0
  0
LINE
  5
3ff
  100
AcDbEntity
  8
1
  100
AcDbLine
  10
16.63301
  20
6.297266
  30
0
  11
16.53301
  21
6.34021
  31
0
  0
LINE
  5
400
  100
AcDbEntity
  8
1
  100
AcDbLine
  10
16.53301
  20
6.34021
  30
0
  11
16.43301
  21
6.382668
  31
0
  0
LINE
  5
401
  100
AcDbEntity
  8
1
  100
AcDbLine
  10
16.43301
  20
6.382668
  30
0
  11
16.33301
  21
6.424637
  31
0
  0
LINE
  5
402
  100
AcDbEntity
  8
1
  100
AcDbLine
  10
16.33301
  20
6.424637
  30
0
  11
16.23301
  21
6.466114
  31
0
  0
LINE
  5
403
  100
AcDbEntity
  8
1
  100
AcDbLine
  10
16.23301
  20
6.466114
  30
0
  11
16.13301
  21
6.507095
  31
0
  0
LINE
  5
404
  100
AcDbEntity
  8
1
  100
AcDbLine
  10
16.13301
  20
6.507095
  30
0
  11
16.03301
  21
6.547578
  31
0
  0
LINE
  5
405
  100
AcDbEntity
  8
1
  100
AcDbLine
  10
16.03301
  20
6.547578
  30
0
  11
15.93301
  21
6.587559
  31
0
  0
LINE
  5
406
  100
AcDbEntity
  8
1
  100
AcDbLine
  10
15.93301
  20
6.587559
  30
0
  11
15.83301
  21
6.627036
  31
0
  0
LINE
  5
407
  100
AcDbEntity
  8
1
  100
AcDbLine
  10
15.83301
  20
6.627036
  30
0
  11
15.73301
  21
6.666005
  31
0
  0
LINE
  5
408
  100
AcDbEntity
  8
1
  100
AcDbLine
  10
15.73301
  20
6.666005
  30
0
  11
15.63301
  21
6.704463
  31
0
  0
LINE
  5
409
  100
AcDbEntity
  8
1
  100
AcDbLine
  10
15.63301
  20
6.704463
  30
0
  11
15.53301
  21
6.742408
  31
0
  0
LINE
  5
40a
  100
AcDbEntity
  8
1
  100
AcDbLine
  10
15.53301
  20
6.742408
  30
0
  11
15.43301
  21
6.779836
  31
0
  0
LINE
  5
40b
  100
AcDbEntity
  8
1
  100
AcDbLine
  10
15.43301
  20
6.779836
  30
0
  11
15.33301
  21
6.816745
  31
0
  0
LINE
  5
40c
  100
AcDbEntity
  8
1
  100
AcDbLine
  10
15.33301
  20
6.816745
  30
0
  11
15.23301
  21
6.853132
  31
0
  0
LINE
  5
40d
  100
AcDbEntity
  8
1
  100
AcDbLine
  10
15.23301
  20
6.853132
  30
0
  11
15.13301
  21
6.888993
  31
0
  0
LINE
  5
40e
  100
AcDbEntity
  8
1
  100
AcDbLine
  10
15.13301
  20
6.888993
  30
0
  11
15.03301
  21
6.924327
  31
0
  0
LINE
  5
40f
  100
AcDbEntity
  8
1
  100
AcDbLine
  10
15.03301
  20
6.924327
  30
0
  11
14.93301
  21
6.959131
  31
0
  0
LINE
  5
410
  100
AcDbEntity
  8
1
  100
AcDbLine
  10
14.93301
  20
6.959131
  30
0
  11
14.83301
  21
6.993401
  31
0
  0
LINE
  5
411
  100
AcDbEntity
  8
1
  100
AcDbLine
  10
14.83301
  20
6.993401
  30
0
  11
14.73301
  21
7.027135
  31
0
  0
LINE
  5
412
  100
AcDbEntity
  8
1
  100
AcDbLine
  10
14.73301
  20
7.027135
  30
0
  11
14.63301
  21
7.060332
  31
0
  0
LINE
  5
413
  100
AcDbEntity
  8
1
  100
AcDbLine
  10
14.63301
  20
7.060332
  30
0
  11
14.53301
  21
7.092987
  31
0
  0
LINE
  5
414
  100
AcDbEntity
  8
1
  100
AcDbLine
  10
14.53301
  20
7.092987
  30
0
  11
14.43301
  21
7.125099
  31
0
  0
LINE
  5
415
  100
AcDbEntity
  8
1
  100
AcDbLine
  10
14.43301
  20
7.125099
  30
0
  11
14.33301
  21
7.156665
  31
0
  0
LINE
  5
416
  100
AcDbEntity
  8
1
  100
AcDbLine
  10
14.33301
  20
7.156665
  30
0
  11
14.23301
  21
7.187683
  31
0
  0
LINE
  5
417
  100
AcDbEntity
  8
1
  100
AcDbLine
  10
14.23301
  20
7.187683
  30
0
  11
14.13301
  21
7.21815
  31
0
  0
LINE
  5
418
  100
AcDbEntity
  8
1
  100
AcDbLine
  10
14.13301
  20
7.21815
  30
0
  11
14.03301
  21
7.248064
  31
0
  0
LINE
  5
419
  100
AcDbEntity
  8
1
  100
AcDbLine
  10
14.03301
  20
7.248064
  30
0
  11
13.93301
  21
7.277423
  31
0
  0
LINE
  5
41a
  100
AcDbEntity
  8
1
  100
AcDbLine
  10
13.93301
  20
7.277423
  30
0
  11
13.83301
  21
7.306225
  31
0
  0
LINE
  5
41b
  100
AcDbEntity
  8
1
  100
AcDbLine
  10
13.83301
  20
7.306225
  30
0
  11
13.73301
  21
7.334467
  31
0
  0
LINE
  5
41c
  100
AcDbEntity
  8
1
  100
AcDbLine
  10
13.73301
  20
7.334467
  30
0
  11
13.63301
  21
7.362147
  31
0
  0
LINE
  5
41d
  100
AcDbEntity
  8
1
  100
AcDbLine
  10
13.63301
  20
7.362147
  30
0
  11
13.53301
  21
7.389262
  31
0
  0
LINE
  5
41e
  100
AcDbEntity
  8
1
  100
AcDbLine
  10
13.53301
  20
7.389262
  30
0
  11
13.43301
  21
7.415812
  31
0
  0
LINE
  5
41f
  100
AcDbEntity
  8
1
  100
AcDbLine
  10
13.43301
  20
7.415812
  30
0
  11
13.33301
  21
7.441794
  31
0
  0
LINE
  5
420
  100
AcDbEntity
  8
1
  100
AcDbLine
  10
13.33301
  20
7.441794
  30
0
  11
13.23301
  21
7.467206
  31
0
  0
LINE
  5
421
  100
AcDbEntity
  8
1
  100
AcDbLine
  10
13.23301
  20
7.467206
  30
0
  11
13.13301
  21
7.492045
  31
0
  0
LINE
  5
422
  100
AcDbEntity
  8
1
  100
AcDbLine
  10
13.13301
  20
7.492045
  30
0
  11
13.03301
  21
7.516311
  31
0
  0
LINE
  5
423
  100
AcDbEntity
  8
1
  100
AcDbLine
  10
13.03301
  20
7.516311
  30
0
  11
12.93301
  21
7.540001
  31
0
  0
LINE
  5
424
  100
AcDbEntity
  8
1
  100
AcDbLine
  10
12.93301
  20
7.540001
  30
0
  11
12.93301
  21
7.316047
  31
0
  0
LINE
  5
425
  100
AcDbEntity
  8
1
  100
AcDbLine
  10
12.93301
  20
7.316047
  30
0
  11
12.83301
  21
7.338146
  31
0
  0
LINE
  5
426
  100
AcDbEntity
  8
1
  100
AcDbLine
  10
12.83301
  20
7.338146
  30
0
  11
12.73301
  21
7.359683
  31
0
  0
LINE
  5
427
  100
AcDbEntity
  8
1
  100
AcDbLine
  10
12.73301
  20
7.359683
  30
0
  11
12.63301
  21
7.380657
  31
0
  0
LINE
  5
428
  100
AcDbEntity
  8
1
  100
AcDbLine
  10
12.63301
  20
7.380657
  30
0
  11
12.53301
  21
7.401065
  31
0
  0
LINE
  5
429
  100
AcDbEntity
  8
1
  100
AcDbLine
  10
12.53301
  20
7.401065
  30
0
  11
12.43301
  21
7.420905
  31
0
  0
LINE
  5
42a
  100
AcDbEntity
  8
1
  100
AcDbLine
  10
12.43301
  20
7.420905
  30
0
  11
12.33301
  21
7.44017
  31
0
  0
LINE
  5
42b
  100
AcDbEntity
  8
1
  100
AcDbLine
  10
12.33301
  20
7.44017
  30
0
  11
12.23301
  21
7.45883
  31
0
  0
LINE
  5
42c
  100
AcDbEntity
  8
1
  100
AcDbLine
  10
12.23301
  20
7.45883
  30
0
  11
12.13301
  21
7.476768
  31
0
  0
LINE
  5
42d
  100
AcDbEntity
  8
1
  100
AcDbLine
  10
12.13301
  20
7.476768
  30
0
  11
12.03301
  21
7.493599
  31
0
  0
LINE
  5
42e
  100
AcDbEntity
  8
1
  100
AcDbLine
  10
12.03301
  20
7.493599
  30
0
  11
11.93301
  21
7.508222
  31
0
  0
LINE
  5
42f
  100
AcDbEntity
  8
1
  100
AcDbLine
  10
11.93301
  20
7.508222
  30
0
  11
11.83301
  21
7.517787
  31
0
  0
LINE
  5
430
  100
AcDbEntity
  8
1
  100
AcDbLine
  10
11.83301
  20
7.517787
  30
0
  11
11.73301
  21
7.515319
  31
0
  0
LINE
  5
431
  100
AcDbEntity
  8
1
  100
AcDbLine
  10
11.73301
  20
7.515319
  30
0
  11
11.63301
  21
7.483493
  31
0
  0
LINE
  5
432
  100
AcDbEntity
  8
1
  100
AcDbLine
  10
11.63301
  20
7.483493
  30
0
  11
11.53301
  21
7.374882
  31
0
  0
LINE
  5
433
  100
AcDbEntity
  8
1
  100
AcDbLine
  10
11.53301
  20
7.374882
  30
0
  11
11.43301
  21
7.04175
  31
0
  0
LINE
  5
434
  100
AcDbEntity
  8
1
  100
AcDbLine
  10
11.43301
  20
7.04175
  30
0
  11
11.33301
  21
5.995494
  31
0
  0
LINE
  5
435
  100
AcDbEntity
  8
1
  100
AcDbLine
  10
11.33301
  20
5.995494
  30
0
  11
11.33301
  21
5.941379
  31
0
  0
LINE
  5
436
  100
AcDbEntity
  8
1
  100
AcDbLine
  10
11.33301
  20
5.941379
  30
0
  11
11.43301
  21
4.545681
  31
0
  0
LINE
  5
437
  100
AcDbEntity
  8
1
  100
AcDbLine
  10
11.43301
  20
4.545681
  30
0
  11
11.53301
  21
3.352816
  31
0
  0
LINE
  5
438
  100
AcDbEntity
  8
1
  100
AcDbLine
  10
11.53301
  20
3.352816
  30
0
  11
11.63301
  21
2.432058
  31
0
  0
LINE
  5
439
  100
AcDbEntity
  8
1
  100
AcDbLine
  10
11.63301
  20
2.432058
  30
0
  11
11.73301
  21
1.760073
  31
0
  0
LINE
  5
43a
  100
AcDbEntity
  8
1
  100
AcDbLine
  10
11.73301
  20
1.760073
  30
0
  11
11.83301
  21
1.285836
  31
0
  0
LINE
  5
43b
  100
AcDbEntity
  8
1
  100
AcDbLine
  10
11.83301
  20
1.285836
  30
0
  11
11.93301
  21
0.957276
  31
0
  0
LINE
  5
43c
  100
AcDbEntity
  8
1
  100
AcDbLine
  10
11.93301
  20
0.957276
  30
0
  11
12.03301
  21
0.730334
  31
0
  0
LINE
  5
43d
  100
AcDbEntity
  8
1
  100
AcDbLine
  10
12.03301
  20
0.730334
  30
0
  11
12.13301
  21
0.570839
  31
0
  0
LINE
  5
43e
  100
AcDbEntity
  8
1
  100
AcDbLine
  10
12.13301
  20
0.570839
  30
0
  11
12.23301
  21
0.453776
  31
0
  0
LINE
  5
43f
  100
AcDbEntity
  8
1
  100
AcDbLine
  10
12.23301
  20
0.453776
  30
0
  11
12.33301
  21
0.361758
  31
0
  0
LINE
  5
440
  100
AcDbEntity
  8
1
  100
AcDbLine
  10
12.33301
  20
0.361758
  30
0
  11
12.43301
  21
0.283366
  31
0
  0
LINE
  5
441
  100
AcDbEntity
  8
1
  100
AcDbLine
  10
12.43301
  20
0.283366
  30
0
  11
12.53301
  21
0.211621
  31
0
  0
LINE
  5
442
  100
AcDbEntity
  8
1
  100
AcDbLine
  10
12.53301
  20
0.211621
  30
0
  11
12.63301
  21
0.142654
  31
0
  0
LINE
  5
443
  100
AcDbEntity
  8
1
  100
AcDbLine
  10
12.63301
  20
0.142654
  30
0
  11
12.73301
  21
0.0746
  31
0
  0
LINE
  5
444
  100
AcDbEntity
  8
1
  100
AcDbLine
  10
12.73301
  20
0.0746
  30
0
  11
12.83301
  21
0.006747
  31
0
  0
LINE
  5
445
  100
AcDbEntity
  8
1
  100
AcDbLine
  10
12.83301
  20
0.006747
  30
0
  11
12.93301
  21
-0.061085
  31
0
  0
LINE
  5
446
  100
AcDbEntity
  8
1
  100
AcDbLine
  10
12.93301
  20
-0.061085
  30
0
  11
12.93301
  21
-0.212801
  31
0
  0
LINE
  5
447
  100
AcDbEntity
  8
1
  100
AcDbLine
  10
12.93301
  20
-0.212801
  30
0
  11
13.03301
  21
-0.282788
  31
0
  0
LINE
  5
448
  100
AcDbEntity
  8
1
  100
AcDbLine
  10
13.03301
  20
-0.282788
  30
0
  11
13.13301
  21
-0.352753
  31
0
  0
LINE
  5
449
  100
AcDbEntity
  8
1
  100
AcDbLine
  10
13.13301
  20
-0.352753
  30
0
  11
13.23301
  21
-0.422691
  31
0
  0
LINE
  5
44a
  100
AcDbEntity
  8
1
  100
AcDbLine
  10
13.23301
  20
-0.422691
  30
0
  11
13.33301
  21
-0.492597
  31
0
  0
LINE
  5
44b
  100
AcDbEntity
  8
1
  100
AcDbLine
  10
13.33301
  20
-0.492597
  30
0
  11
13.43301
  21
-0.562465
  31
0
  0
LINE
  5
44c
  100
AcDbEntity
  8
1
  100
AcDbLine
  10
13.43301
  20
-0.562465
  30
0
  11
13.53301
  21
-0.63229
  31
0
  0
LINE
  5
44d
  100
AcDbEntity
  8
1
  100
AcDbLine
  10
13.53301
  20
-0.63229
  30
0
  11
13.63301
  21
-0.702067
  31
0
  0
LINE
  5
44e
  100
AcDbEntity
  8
1
  100
AcDbLine
  10
13.63301
  20
-0.702067
  30
0
  11
13.73301
  21
-0.77179
  31
0
  0
LINE
  5
44f
  100
AcDbEntity
  8
1
  100
AcDbLine
  10
13.73301
  20
-0.77179
  30
0
  11
13.83301
  21
-0.841453
  31
0
  0
LINE
  5
450
  100
AcDbEntity
  8
1
  100
AcDbLine
  10
13.83301
  20
-0.841453
  30
0
  11
13.93301
  21
-0.911053
  31
0
  0
LINE
  5
451
  100
AcDbEntity
  8
1
  100
AcDbLine
  10
13.93301
  20
-0.911053
  30
0
  11
14.03301
  21
-0.980582
  31
0
  0
LINE
  5
452
  100
AcDbEntity
  8
1
  100
AcDbLine
  10
14.03301
  20
-0.980582
  30
0
  11
14.13301
  21
-1.050036
  31
0
  0
LINE
  5
453
  100
AcDbEntity
  8
1
  100
AcDbLine
  10
14.13301
  20
-1.050036
  30
0
  11
14.23301
  21
-1.11941
  31
0
  0
LINE
  5
454
  100
AcDbEntity
  8
1
  100
AcDbLine
  10
14.23301
  20
-1.11941
  30
0
  11
14.33301
  21
-1.188698
  31
0
  0
LINE
  5
455
  100
AcDbEntity
  8
1
  100
AcDbLine
  10
14.33301
  20
-1.188698
  30
0
  11
14.43301
  21
-1.257895
  31
0
  0
LINE
  5
456
  100
AcDbEntity
  8
1
  100
AcDbLine
  10
14.43301
  20
-1.257895
  30
0
  11
14.53301
  21
-1.326996
  31
0
  0
LINE
  5
457
  100
AcDbEntity
  8
1
  100
AcDbLine
  10
14.53301
  20
-1.326996
  30
0
  11
14.63301
  21
-1.395995
  31
0
  0
LINE
  5
458
  100
AcDbEntity
  8
1
  100
AcDbLine
  10
14.63301
  20
-1.395995
  30
0
  11
14.73301
  21
-1.464887
  31
0
  0
LINE
  5
459
  100
AcDbEntity
  8
1
  100
AcDbLine
  10
14.73301
  20
-1.464887
  30
0
  11
14.83301
  21
-1.533667
  31
0
  0
LINE
  5
45a
  100
AcDbEntity
  8
1
  100
AcDbLine
  10
14.83301
  20
-1.533667
  30
0
  11
14.93301
  21
-1.602329
  31
0
  0
LINE
  5
45b
  100
AcDbEntity
  8
1
  100
AcDbLine
  10
14.93301
  20
-1.602329
  30
0
  11
15.03301
  21
-1.670869
  31
0
  0
LINE
  5
45c
  100
AcDbEntity
  8
1
  100
AcDbLine
  10
15.03301
  20
-1.670869
  30
0
  11
15.13301
  21
-1.739281
  31
0
  0
LINE
  5
45d
  100
AcDbEntity
  8
1
  100
AcDbLine
  10
15.13301
  20
-1.739281
  30
0
  11
15.23301
  21
-1.807559
  31
0
  0
LINE
  5
45e
  100
AcDbEntity
  8
1
  100
AcDbLine
  10
15.23301
  20
-1.807559
  30
0
  11
15.33301
  21
-1.875699
  31
0
  0
LINE
  5
45f
  100
AcDbEntity
  8
1
  100
AcDbLine
  10
15.33301
  20
-1.875699
  30
0
  11
15.43301
  21
-1.943695
  31
0
  0
LINE
  5
460
  100
AcDbEntity
  8
1
  100
AcDbLine
  10
15.43301
  20
-1.943695
  30
0
  11
15.53301
  21
-2.011543
  31
0
  0
LINE
  5
461
  100
AcDbEntity
  8
1
  100
AcDbLine
  10
15.53301
  20
-2.011543
  30
0
  11
15.63301
  21
-2.079236
  31
0
  0
LINE
  5
462
  100
AcDbEntity
  8
1
  100
AcDbLine
  10
15.63301
  20
-2.079236
  30
0
  11
15.73301
  21
-2.14677
  31
0
  0
LINE
  5
463
  100
AcDbEntity
  8
1
  100
AcDbLine
  10
15.73301
  20
-2.14677
  30
0
  11
15.83301
  21
-2.214139
  31
0
  0
LINE
  5
464
  100
AcDbEntity
  8
1
  100
AcDbLine
  10
15.83301
  20
-2.214139
  30
0
  11
15.93301
  21
-2.281339
  31
0
  0
LINE
  5
465
  100
AcDbEntity
  8
1
  100
AcDbLine
  10
15.93301
  20
-2.281339
  30
0
  11
16.03301
  21
-2.348364
  31
0
  0
LINE
  5
466
  100
AcDbEntity
  8
1
  100
AcDbLine
  10
16.03301
  20
-2.348364
  30
0
  11
16.13301
  21
-2.415209
  31
0
  0
LINE
  5
467
  100
AcDbEntity
  8
1
  100
AcDbLine
  10
16.13301
  20
-2.415209
  30
0
  11
16.23301
  21
-2.48187
  31
0
  0
LINE
  5
468
  100
AcDbEntity
  8
1
  100
AcDbLine
  10
16.23301
  20
-2.48187
  30
0
  11
16.33301
  21
-2.54834
  31
0
  0
LINE
  5
469
  100
AcDbEntity
  8
1
  100
AcDbLine
  10
16.33301
  20
-2.54834
  30
0
  11
16.43301
  21
-2.614614
  31
0
  0
LINE
  5
46a
  100
AcDbEntity
  8
1
  100
AcDbLine
  10
16.43301
  20
-2.614614
  30
0
  11
16.53301
  21
-2.680689
  31
0
  0
LINE
  5
46b
  100
AcDbEntity
  8
1
  100
AcDbLine
  10
16.53301
  20
-2.680689
  30
0
  11
16.63301
  21
-2.746558
  31
0
  0
LINE
  5
46c
  100
AcDbEntity
  8
1
  100
AcDbLine
  10
16.63301
  20
-2.746558
  30
0
  11
16.73301
  21
-2.812217
  31
0
  0
LINE
  5
46d
  100
AcDbEntity
  8
1
  100
AcDbLine
  10
16.73301
  20
-2.812217
  30
0
  11
16.83301
  21
-2.87766
  31
0
  0
LINE
  5
46e
  100
AcDbEntity
  8
1
  100
AcDbLine
  10
16.83301
  20
-2.87766
  30
0
  11
16.93301
  21
-2.942883
  31
0
  0
LINE
  5
46f
  100
AcDbEntity
  8
1
  100
AcDbLine
  10
16.93301
  20
-2.942883
  30
0
  11
17.03301
  21
-3.00788
  31
0
  0
LINE
  5
470
  100
AcDbEntity
  8
1
  100
AcDbLine
  10
17.03301
  20
-3.00788
  30
0
  11
17.13301
  21
-3.072647
  31
0
  0
LINE
  5
471
  100
AcDbEntity
  8
1
  100
AcDbLine
  10
17.13301
  20
-3.072647
  30
0
  11
17.23301
  21
-3.137179
  31
0
  0
LINE
  5
472
  100
AcDbEntity
  8
1
  100
AcDbLine
  10
17.23301
  20
-3.137179
  30
0
  11
17.33301
  21
-3.20147
  31
0
  0
LINE
  5
473
  100
AcDbEntity
  8
1
  100
AcDbLine
  10
17.33301
  20
-3.20147
  30
0
  11
17.43301
  21
-3.265516
  31
0
  0
LINE
  5
474
  100
AcDbEntity
  8
1
  100
AcDbLine
  10
17.43301
  20
-3.265516
  30
0
  11
17.53301
  21
-3.329312
  31
0
  0
LINE
  5
475
  100
AcDbEntity
  8
1
  100
AcDbLine
  10
17.53301
  20
-3.329312
  30
0
  11
17.63301
  21
-3.392853
  31
0
  0
LINE
  5
476
  100
AcDbEntity
  8
1
  100
AcDbLine
  10
17.63301
  20
-3.392853
  30
0
  11
17.73301
  21
-3.456134
  31
0
  0
LINE
  5
477
  100
AcDbEntity
  8
1
  100
AcDbLine
  10
17.73301
  20
-3.456134
  30
0
  11
17.83301
  21
-3.51915
  31
0
  0
LINE
  5
478
  100
AcDbEntity
  8
1
  100
AcDbLine
  10
17.83301
  20
-3.51915
  30
0
  11
17.93301
  21
-3.581896
  31
0
  0
LINE
  5
479
  100
AcDbEntity
  8
1
  100
AcDbLine
  10
17.93301
  20
-3.581896
  30
0
  11
18.03301
  21
-3.644369
  31
0
  0
LINE
  5
47a
  100
AcDbEntity
  8
1
  100
AcDbLine
  10
18.03301
  20
-3.644369
  30
0
  11
18.13301
  21
-3.706562
  31
0
  0
LINE
  5
47b
  100
AcDbEntity
  8
1
  100
AcDbLine
  10
18.13301
  20
-3.706562
  30
0
  11
18.23301
  21
-3.768471
  31
0
  0
LINE
  5
47c
  100
AcDbEntity
  8
1
  100
AcDbLine
  10
18.23301
  20
-3.768471
  30
0
  11
18.33301
  21
-3.830091
  31
0
  0
LINE
  5
47d
  100
AcDbEntity
  8
1
  100
AcDbLine
  10
18.33301
  20
-3.830091
  30
0
  11
18.43301
  21
-3.891418
  31
0
  0
LINE
  5
47e
  100
AcDbEntity
  8
1
  100
AcDbLine
  10
18.43301
  20
-3.891418
  30
0
  11
18.53301
  21
-3.952447
  31
0
  0
LINE
  5
47f
  100
AcDbEntity
  8
1
  100
AcDbLine
  10
18.53301
  20
-3.952447
  30
0
  11
18.63301
  21
-4.013172
  31
0
  0
LINE
  5
480
  100
AcDbEntity
  8
1
  100
AcDbLine
  10
18.63301
  20
-4.013172
  30
0
  11
18.73301
  21
-4.073591
  31
0
  0
LINE
  5
481
  100
AcDbEntity
  8
1
  100
AcDbLine
  10
18.73301
  20
-4.073591
  30
0
  11
18.83301
  21
-4.133698
  31
0
  0
LINE
  5
482
  100
AcDbEntity
  8
1
  100
AcDbLine
  10
18.83301
  20
-4.133698
  30
0
  11
18.93301
  21
-4.193487
  31
0
  0
LINE
  5
483
  100
AcDbEntity
  8
1
  100
AcDbLine
  10
18.93301
  20
-4.193487
  30
0
  11
19.03301
  21
-4.252956
  31
0
  0
LINE
  5
484
  100
AcDbEntity
  8
1
  100
AcDbLine
  10
19.03301
  20
-4.252956
  30
0
  11
19.13301
  21
-4.312099
  31
0
  0
LINE
  5
485
  100
AcDbEntity
  8
1
  100
AcDbLine
  10
19.13301
  20
-4.312099
  30
0
  11
19.23301
  21
-4.370911
  31
0
  0
LINE
  5
486
  100
AcDbEntity
  8
1
  100
AcDbLine
  10
19.23301
  20
-4.370911
  30
0
  11
19.33301
  21
-4.429389
  31
0
  0
LINE
  5
487
  100
AcDbEntity
  8
1
  100
AcDbLine
  10
19.33301
  20
-4.429389
  30
0
  11
19.43301
  21
-4.487527
  31
0
  0
LINE
  5
488
  100
AcDbEntity
  8
1
  100
AcDbLine
  10
19.43301
  20
-4.487527
  30
0
  11
19.53301
  21
-4.545321
  31
0
  0
LINE
  5
489
  100
AcDbEntity
  8
1
  100
AcDbLine
  10
19.53301
  20
-4.545321
  30
0
  11
19.63301
  21
-4.602768
  31
0
  0
LINE
  5
48a
  100
AcDbEntity
  8
1
  100
AcDbLine
  10
19.63301
  20
-4.602768
  30
0
  11
19.73301
  21
-4.659861
  31
0
  0
LINE
  5
48b
  100
AcDbEntity
  8
1
  100
AcDbLine
  10
19.73301
  20
-4.659861
  30
0
  11
19.83301
  21
-4.716598
  31
0
  0
LINE
  5
48c
  100
AcDbEntity
  8
1
  100
AcDbLine
  10
19.83301
  20
-4.716598
  30
0
  11
19.93301
  21
-4.772973
  31
0
  0
LINE
  5
48d
  100
AcDbEntity
  8
1
  100
AcDbLine
  10
19.93301
  20
-4.772973
  30
0
  11
20.03301
  21
-4.828983
  31
0
  0
LINE
  5
48e
  100
AcDbEntity
  8
1
  100
AcDbLine
  10
20.03301
  20
-4.828983
  30
0
  11
20.13301
  21
-4.884623
  31
0
  0
LINE
  5
48f
  100
AcDbEntity
  8
1
  100
AcDbLine
  10
20.13301
  20
-4.884623
  30
0
  11
20.23301
  21
-4.939888
  31
0
  0
LINE
  5
490
  100
AcDbEntity
  8
1
  100
AcDbLine
  10
20.23301
  20
-4.939888
  30
0
  11
20.33301
  21
-4.994775
  31
0
  0
LINE
  5
491
  100
AcDbEntity
  8
1
  100
AcDbLine
  10
20.33301
  20
-4.994775
  30
0
  11
20.43301
  21
-5.04928
  31
0
  0
LINE
  5
492
  100
AcDbEntity
  8
1
  100
AcDbLine
  10
20.43301
  20
-5.04928
  30
0
  11
20.53301
  21
-5.103398
  31
0
  0
LINE
  5
493
  100
AcDbEntity
  8
1
  100
AcDbLine
  10
20.53301
  20
-5.103398
  30
0
  11
20.63301
  21
-5.157124
  31
0
  0
LINE
  5
494
  100
AcDbEntity
  8
1
  100
AcDbLine
  10
20.63301
  20
-5.157124
  30
0
  11
20.73301
  21
-5.210456
  31
0
  0
LINE
  5
495
  100
AcDbEntity
  8
1
  100
AcDbLine
  10
20.73301
  20
-5.210456
  30
0
  11
20.83301
  21
-5.263388
  31
0
  0
LINE
  5
496
  100
AcDbEntity
  8
1
  100
AcDbLine
  10
20.83301
  20
-5.263388
  30
0
  11
20.93301
  21
-5.315918
  31
0
  0
LINE
  5
497
  100
AcDbEntity
  8
1
  100
AcDbLine
  10
20.93301
  20
-5.315918
  30
0
  11
21.03301
  21
-5.36804
  31
0
  0
LINE
  5
498
  100
AcDbEntity
  8
1
  100
AcDbLine
  10
21.03301
  20
-5.36804
  30
0
  11
21.13301
  21
-5.419751
  31
0
  0
LINE
  5
499
  100
AcDbEntity
  8
1
  100
AcDbLine
  10
21.13301
  20
-5.419751
  30
0
  11
21.23301
  21
-5.471046
  31
0
  0
LINE
  5
49a
  100
AcDbEntity
  8
1
  100
AcDbLine
  10
21.23301
  20
-5.471046
  30
0
  11
21.33301
  21
-5.521923
  31
0
  0
LINE
  5
49b
  100
AcDbEntity
  8
1
  100
AcDbLine
  10
21.33301
  20
-5.521923
  30
0
  11
21.43301
  21
-5.572376
  31
0
  0
LINE
  5
49c
  100
AcDbEntity
  8
1
  100
AcDbLine
  10
21.43301
  20
-5.572376
  30
0
  11
21.53301
  21
-5.622403
  31
0
  0
LINE
  5
49d
  100
AcDbEntity
  8
1
  100
AcDbLine
  10
21.53301
  20
-5.622403
  30
0
  11
21.63301
  21
-5.671999
  31
0
  0
LINE
  5
49e
  100
AcDbEntity
  8
1
  100
AcDbLine
  10
21.63301
  20
-5.671999
  30
0
  11
21.73301
  21
-5.72116
  31
0
  0
LINE
  5
49f
  100
AcDbEntity
  8
1
  100
AcDbLine
  10
21.73301
  20
-5.72116
  30
0
  11
21.83301
  21
-5.769883
  31
0
  0
LINE
  5
4a0
  100
AcDbEntity
  8
1
  100
AcDbLine
  10
21.83301
  20
-5.769883
  30
0
  11
21.93301
  21
-5.818164
  31
0
  0
LINE
  5
4a1
  100
AcDbEntity
  8
1
  100
AcDbLine
  10
21.93301
  20
-5.818164
  30
0
  11
22.03301
  21
-5.865999
  31
0
  0
LINE
  5
4a2
  100
AcDbEntity
  8
1
  100
AcDbLine
  10
22.03301
  20
-5.865999
  30
0
  11
22.13301
  21
-5.913385
  31
0
  0
LINE
  5
4a3
  100
AcDbEntity
  8
1
  100
AcDbLine
  10
22.13301
  20
-5.913385
  30
0
  11
22.23301
  21
-5.960318
  31
0
  0
LINE
  5
4a4
  100
AcDbEntity
  8
1
  100
AcDbLine
  10
22.23301
  20
-5.960318
  30
0
  11
22.33301
  21
-6.006795
  31
0
  0
LINE
  5
4a5
  100
AcDbEntity
  8
1
  100
AcDbLine
  10
22.33301
  20
-6.006795
  30
0
  11
22.43301
  21
-6.052811
  31
0
  0
LINE
  5
4a6
  100
AcDbEntity
  8
1
  100
AcDbLine
  10
22.43301
  20
-6.052811
  30
0
  11
22.53301
  21
-6.098363
  31
0
  0
LINE
  5
4a7
  100
AcDbEntity
  8
1
  100
AcDbLine
  10
22.53301
  20
-6.098363
  30
0
  11
22.63301
  21
-6.143449
  31
0
  0
LINE
  5
4a8
  100
AcDbEntity
  8
1
  100
AcDbLine
  10
22.63301
  20
-6.143449
  30
0
  11
22.73301
  21
-6.188063
  31
0
  0
LINE
  5
4a9
  100
AcDbEntity
  8
1
  100
AcDbLine
  10
22.73301
  20
-6.188063
  30
0
  11
22.83301
  21
-6.232204
  31
0
  0
LINE
  5
4aa
  100
AcDbEntity
  8
1
  100
AcDbLine
  10
22.83301
  20
-6.232204
  30
0
  11
22.93301
  21
-6.275867
  31
0
  0
LINE
  5
4ab
  100
AcDbEntity
  8
1
  100
AcDbLine
  10
22.93301
  20
-6.275867
  30
0
  11
23.03301
  21
-6.31905
  31
0
  0
LINE
  5
4ac
  100
AcDbEntity
  8
1
  100
AcDbLine
  10
23.03301
  20
-6.31905
  30
0
  11
23.13301
  21
-6.361748
  31
0
  0
LINE
  5
4ad
  100
AcDbEntity
  8
1
  100
AcDbLine
  10
23.13301
  20
-6.361748
  30
0
  11
23.23301
  21
-6.403959
  31
0
  0
LINE
  5
4ae
  100
AcDbEntity
  8
1
  100
AcDbLine
  10
23.23301
  20
-6.403959
  30
0
  11
23.33301
  21
-6.445679
  31
0
  0
LINE
  5
4af
  100
AcDbEntity
  8
1
  100
AcDbLine
  10
23.33301
  20
-6.445679
  30
0
  11
23.43301
  21
-6.486906
  31
0
  0
LINE
  5
4b0
  100
AcDbEntity
  8
1
  100
AcDbLine
  10
23.43301
  20
-6.486906
  30
0
  11
23.53301
  21
-6.527636
  31
0
  0
LINE
  5
4b1
  100
AcDbEntity
  8
1
  100
AcDbLine
  10
23.53301
  20
-6.527636
  30
0
  11
23.63301
  21
-6.567865
  31
0
  0
LINE
  5
4b2
  100
AcDbEntity
  8
1
  100
AcDbLine
  10
23.63301
  20
-6.567865
  30
0
  11
23.73301
  21
-6.607592
  31
0
  0
LINE
  5
4b3
  100
AcDbEntity
  8
1
  100
AcDbLine
  10
23.73301
  20
-6.607592
  30
0
  11
23.83301
  21
-6.646812
  31
0
  0
LINE
  5
4b4
  100
AcDbEntity
  8
1
  100
AcDbLine
  10
23.83301
  20
-6.646812
  30
0
  11
23.93301
  21
-6.685523
  31
0
  0
LINE
  5
4b5
  100
AcDbEntity
  8
1
  100
AcDbLine
  10
23.93301
  20
-6.685523
  30
0
  11
24.03301
  21
-6.723722
  31
0
  0
LINE
  5
4b6
  100
AcDbEntity
  8
1
  100
AcDbLine
  10
24.03301
  20
-6.723722
  30
0
  11
24.13301
  21
-6.761406
  31
0
  0
LINE
  5
4b7
  100
AcDbEntity
  8
1
  100
AcDbLine
  10
24.13301
  20
-6.761406
  30
0
  11
24.23301
  21
-6.798571
  31
0
  0
LINE
  5
4b8
  100
AcDbEntity
  8
1
  100
AcDbLine
  10
24.23301
  20
-6.798571
  30
0
  11
24.33301
  21
-6.835216
  31
0
  0
LINE
  5
4b9
  100
AcDbEntity
  8
1
  100
AcDbLine
  10
24.33301
  20
-6.835216
  30
0
  11
24.43301
  21
-6.871338
  31
0
  0
LINE
  5
4ba
  100
AcDbEntity
  8
1
  100
AcDbLine
  10
24.43301
  20
-6.871338
  30
0
  11
24.53301
  21
-6.906933
  31
0
  0
LINE
  5
4bb
  100
AcDbEntity
  8
1
  100
AcDbLine
  10
24.53301
  20
-6.906933
  30
0
  11
24.63301
  21
-6.941999
  31
0
  0
LINE
  5
4bc
  100
AcDbEntity
  8
1
  100
AcDbLine
  10
24.63301
  20
-6.941999
  30
0
  11
24.73301
  21
-6.976533
  31
0
  0
LINE
  5
4bd
  100
AcDbEntity
  8
1
  100
AcDbLine
  10
24.73301
  20
-6.976533
  30
0
  11
24.83301
  21
-7.010532
  31
0
  0
LINE
  5
4be
  100
AcDbEntity
  8
1
  100
AcDbLine
  10
24.83301
  20
-7.010532
  30
0
  11
24.93301
  21
-7.043995
  31
0
  0
LINE
  5
4bf
  100
AcDbEntity
  8
1
  100
AcDbLine
  10
24.93301
  20
-7.043995
  30
0
  11
25.03301
  21
-7.076918
  31
0
  0
LINE
  5
4c0
  100
AcDbEntity
  8
1
  100
AcDbLine
  10
25.03301
  20
-7.076918
  30
0
  11
25.13301
  21
-7.109298
  31
0
  0
LINE
  5
4c1
  100
AcDbEntity
  8
1
  100
AcDbLine
  10
25.13301
  20
-7.109298
  30
0
  11
25.23301
  21
-7.141135
  31
0
  0
LINE
  5
4c2
  100
AcDbEntity
  8
1
  100
AcDbLine
  10
25.23301
  20
-7.141135
  30
0
  11
25.33301
  21
-7.172424
  31
0
  0
LINE
  5
4c3
  100
AcDbEntity
  8
1
  100
AcDbLine
  10
25.33301
  20
-7.172424
  30
0
  11
25.43301
  21
-7.203163
  31
0
  0
LINE
  5
4c4
  100
AcDbEntity
  8
1
  100
AcDbLine
  10
25.43301
  20
-7.203163
  30
0
  11
25.53301
  21
-7.233351
  31
0
  0
LINE
  5
4c5
  100
AcDbEntity
  8
1
  100
AcDbLine
  10
25.53301
  20
-7.233351
  30
0
  11
25.63301
  21
-7.262985
  31
0
  0
LINE
  5
4c6
  100
AcDbEntity
  8
1
  100
AcDbLine
  10
25.63301
  20
-7.262985
  30
0
  11
25.73301
  21
-7.292062
  31
0
  0
LINE
  5
4c7
  100
AcDbEntity
  8
1
  100
AcDbLine
  10
25.73301
  20
-7.292062
  30
0
  11
25.83301
  21
-7.320581
  31
0
  0
LINE
  5
4c8
  100
AcDbEntity
  8
1
  100
AcDbLine
  10
25.83301
  20
-7.320581
  30
0
  11
25.93301
  21
-7.348539
  31
0
  0
LINE
  5
4c9
  100
AcDbEntity
  8
1
  100
AcDbLine
  10
25.93301
  20
-7.348539
  30
0
  11
26.03301
  21
-7.375933
  31
0
  0
LINE
  5
4ca
  100
AcDbEntity
  8
1
  100
AcDbLine
  10
26.03301
  20
-7.375933
  30
0
  11
26.13301
  21
-7.402763
  31
0
  0
LINE
  5
4cb
  100
AcDbEntity
  8
1
  100
AcDbLine
  10
26.13301
  20
-7.402763
  30
0
  11
26.23301
  21
-7.429026
  31
0
  0
LINE
  5
4cc
  100
AcDbEntity
  8
1
  100
AcDbLine
  10
26.23301
  20
-7.429026
  30
0
  11
26.33301
  21
-7.45472
  31
0
  0
LINE
  5
4cd
  100
AcDbEntity
  8
1
  100
AcDbLine
  10
26.33301
  20
-7.45472
  30
0
  11
26.43301
  21
-7.479842
  31
0
  0
LINE
  5
4ce
  100
AcDbEntity
  8
1
  100
AcDbLine
  10
26.43301
  20
-7.479842
  30
0
  11
26.53301
  21
-7.504392
  31
0
  0
LINE
  5
4cf
  100
AcDbEntity
  8
1
  100
AcDbLine
  10
26.53301
  20
-7.504392
  30
0
  11
26.63301
  21
-7.528366
  31
0
  0
LINE
  5
4d0
  100
AcDbEntity
  8
1
  100
AcDbLine
  10
26.63301
  20
-7.528366
  30
0
  11
26.73301
  21
-7.551764
  31
0
  0
LINE
  5
4d1
  100
AcDbEntity
  8
1
  100
AcDbLine
  10
26.73301
  20
-7.551764
  30
0
  11
26.83301
  21
-7.574584
  31
0
  0
LINE
  5
4d2
  100
AcDbEntity
  8
1
  100
AcDbLine
  10
26.83301
  20
-7.574584
  30
0
  11
26.93301
  21
-7.596823
  31
0
  0
LINE
  5
4d3
  100
AcDbEntity
  8
1
  100
AcDbLine
  10
26.93301
  20
-7.596823
  30
0
  11
27.03301
  21
-7.61848
  31
0
  0
LINE
  5
4d4
  100
AcDbEntity
  8
1
  100
AcDbLine
  10
27.03301
  20
-7.61848
  30
0
  11
27.13301
  21
-7.639553
  31
0
  0
LINE
  5
4d5
  100
AcDbEntity
  8
1
  100
AcDbLine
  10
27.13301
  20
-7.639553
  30
0
  11
27.23301
  21
-7.660042
  31
0
  0
LINE
  5
4d6
  100
AcDbEntity
  8
1
  100
AcDbLine
  10
27.23301
  20
-7.660042
  30
0
  11
27.33301
  21
-7.679943
  31
0
  0
LINE
  5
4d7
  100
AcDbEntity
  8
1
  100
AcDbLine
  10
27.33301
  20
-7.679943
  30
0
  11
27.43301
  21
-7.699256
  31
0
  0
LINE
  5
4d8
  100
AcDbEntity
  8
1
  100
AcDbLine
  10
27.43301
  20
-7.699256
  30
0
  11
27.53301
  21
-7.717979
  31
0
  0
LINE
  5
4d9
  100
AcDbEntity
  8
1
  100
AcDbLine
  10
27.53301
  20
-7.717979
  30
0
  11
27.63301
  21
-7.736111
  31
0
  0
LINE
  5
4da
  100
AcDbEntity
  8
1
  100
AcDbLine
  10
27.63301
  20
-7.736111
  30
0
  11
27.73301
  21
-7.753651
  31
0
  0
LINE
  5
4db
  100
AcDbEntity
  8
1
  100
AcDbLine
  10
27.73301
  20
-7.753651
  30
0
  11
27.83301
  21
-7.770596
  31
0
  0
LINE
  5
4dc
  100
AcDbEntity
  8
1
  100
AcDbLine
  10
27.83301
  20
-7.770596
  30
0
  11
27.93301
  21
-7.786946
  31
0
  0
LINE
  5
4dd
  100
AcDbEntity
  8
1
  100
AcDbLine
  10
27.93301
  20
-7.786946
  30
0
  11
28.03301
  21
-7.8027
  31
0
  0
LINE
  5
4de
  100
AcDbEntity
  8
1
  100
AcDbLine
  10
28.03301
  20
-7.8027
  30
0
  11
28.13301
  21
-7.817856
  31
0
  0
LINE
  5
4df
  100
AcDbEntity
  8
1
  100
AcDbLine
  10
28.13301
  20
-7.817856
  30
0
  11
28.23301
  21
-7.832413
  31
0
  0
LINE
  5
4e0
  100
AcDbEntity
  8
1
  100
AcDbLine
  10
28.23301
  20
-7.832413
  30
0
  11
28.33301
  21
-7.84637
  31
0
  0
LINE
  5
4e1
  100
AcDbEntity
  8
1
  100
AcDbLine
  10
28.33301
  20
-7.84637
  30
0
  11
28.43301
  21
-7.859725
  31
0
  0
LINE
  5
4e2
  100
AcDbEntity
  8
1
  100
AcDbLine
  10
28.43301
  20
-7.859725
  30
0
  11
28.53301
  21
-7.872479
  31
0
  0
LINE
  5
4e3
  100
AcDbEntity
  8
1
  100
AcDbLine
  10
28.53301
  20
-7.872479
  30
0
  11
28.63301
  21
-7.88463
  31
0
  0
LINE
  5
4e4
  100
AcDbEntity
  8
1
  100
AcDbLine
  10
28.63301
  20
-7.88463
  30
0
  11
28.73301
  21
-7.896176
  31
0
  0
LINE
  5
4e5
  100
AcDbEntity
  8
1
  100
AcDbLine
  10
28.73301
  20
-7.896176
  30
0
  11
28.83301
  21
-7.907118
  31
0
  0
LINE
  5
4e6
  100
AcDbEntity
  8
1
  100
AcDbLine
  10
28.83301
  20
-7.907118
  30
0
  11
28.93301
  21
-7.917454
  31
0
  0
LINE
  5
4e7
  100
AcDbEntity
  8
1
  100
AcDbLine
  10
28.93301
  20
-7.917454
  30
0
  11
29.03301
  21
-7.927183
  31
0
  0
LINE
  5
4e8
  100
AcDbEntity
  8
1
  100
AcDbLine
  10
29.03301
  20
-7.927183
  30
0
  11
29.13301
  21
-7.936305
  31
0
  0
LINE
  5
4e9
  100
AcDbEntity
  8
1
  100
AcDbLine
  10
29.13301
  20
-7.936305
  30
0
  11
29.23301
  21
-7.94482
  31
0
  0
LINE
  5
4ea
  100
AcDbEntity
  8
1
  100
AcDbLine
  10
29.23301
  20
-7.94482
  30
0
  11
29.33301
  21
-7.952725
  31
0
  0
LINE
  5
4eb
  100
AcDbEntity
  8
1
  100
AcDbLine
  10
29.33301
  20
-7.952725
  30
0
  11
29.43301
  21
-7.960021
  31
0
  0
LINE
  5
4ec
  100
AcDbEntity
  8
1
  100
AcDbLine
  10
29.43301
  20
-7.960021
  30
0
  11
29.53301
  21
-7.966708
  31
0
  0
LINE
  5
4ed
  100
AcDbEntity
  8
1
  100
AcDbLine
  10
29.53301
  20
-7.966708
  30
0
  11
29.63301
  21
-7.972784
  31
0
  0
LINE
  5
4ee
  100
AcDbEntity
  8
1
  100
AcDbLine
  10
29.63301
  20
-7.972784
  30
0
  11
29.73301
  21
-7.978249
  31
0
  0
LINE
  5
4ef
  100
AcDbEntity
  8
1
  100
AcDbLine
  10
29.73301
  20
-7.978249
  30
0
  11
29.83301
  21
-7.983104
  31
0
  0
LINE
  5
4f0
  100
AcDbEntity
  8
1
  100
AcDbLine
  10
29.83301
  20
-7.983104
  30
0
  11
29.93301
  21
-7.987346
  31
0
  0
LINE
  5
4f1
  100
AcDbEntity
  8
1
  100
AcDbLine
  10
29.93301
  20
-7.987346
  30
0
  11
30.03301
  21
-7.990977
  31
0
  0
LINE
  5
4f2
  100
AcDbEntity
  8
1
  100
AcDbLine
  10
30.03301
  20
-7.990977
  30
0
  11
30.13301
  21
-7.993995
  31
0
  0
LINE
  5
4f3
  100
AcDbEntity
  8
1
  100
AcDbLine
  10
30.13301
  20
-7.993995
  30
0
  11
30.23301
  21
-7.996402
  31
0
  0
LINE
  5
4f4
  100
AcDbEntity
  8
1
  100
AcDbLine
  10
30.23301
  20
-7.996402
  30
0
  11
30.33301
  21
-7.998195
  31
0
  0
LINE
  5
4f5
  100
AcDbEntity
  8
1
  100
AcDbLine
  10
30.33301
  20
-7.998195
  30
0
  11
30.43301
  21
-7.999376
  31
0
  0
LINE
  5
4f6
  100
AcDbEntity
  8
1
  100
AcDbLine
  10
30.43301
  20
-7.999376
  30
0
  11
30.53301
  21
-7.999944
  31
0
  0
LINE
  5
4f7
  100
AcDbEntity
  8
1
  100
AcDbLine
  10
30.53301
  20
-7.999944
  30
0
  11
30.5757
  21
-8
  31
0
  0
LINE
  5
4f8
  100
AcDbEntity
  8
1
  100
AcDbLine
  10
28.127606
  20
-8
  30
0
  11
28.03301
  21
-7.900191
  31
0
  0
LINE
  5
4f9
  100
AcDbEntity
  8
1
  100
AcDbLine
  10
28.03301
  20
-7.900191
  30
0
  11
27.93301
  21
-7.899316
  31
0
  0
LINE
  5
4fa
  100
AcDbEntity
  8
1
  100
AcDbLine
  10
27.93301
  20
-7.899316
  30
0
  11
27.83301
  21
-7.897836
  31
0
  0
LINE
  5
4fb
  100
AcDbEntity
  8
1
  100
AcDbLine
  10
27.83301
  20
-7.897836
  30
0
  11
27.73301
  21
-7.895751
  31
0
  0
LINE
  5
4fc
  100
AcDbEntity
  8
1
  100
AcDbLine
  10
27.73301
  20
-7.895751
  30
0
  11
27.63301
  21
-7.893061
  31
0
  0
LINE
  5
4fd
  100
AcDbEntity
  8
1
  100
AcDbLine
  10
27.63301
  20
-7.893061
  30
0
  11
27.53301
  21
-7.889766
  31
0
  0
LINE
  5
4fe
  100
AcDbEntity
  8
1
  100
AcDbLine
  10
27.53301
  20
-7.889766
  30
0
  11
27.43301
  21
-7.885866
  31
0
  0
LINE
  5
4ff
  100
AcDbEntity
  8
1
  100
AcDbLine
  10
27.43301
  20
-7.885866
  30
0
  11
27.33301
  21
-7.881363
  31
0
  0
LINE
  5
500
  100
AcDbEntity
  8
1
  100
AcDbLine
  10
27.33301
  20
-7.881363
  30
0
  11
27.23301
  21
-7.876256
  31
0
  0
LINE
  5
501
  100
AcDbEntity
  8
1
  100
AcDbLine
  10
27.23301
  20
-7.876256
  30
0
  11
27.13301
  21
-7.870545
  31
0
  0
LINE
  5
502
  100
AcDbEntity
  8
1
  100
AcDbLine
  10
27.13301
  20
-7.870545
  30
0
  11
27.03301
  21
-7.864232
  31
0
  0
LINE
  5
503
  100
AcDbEntity
  8
1
  100
AcDbLine
  10
27.03301
  20
-7.864232
  30
0
  11
26.93301
  21
-7.857316
  31
0
  0
LINE
  5
504
  100
AcDbEntity
  8
1
  100
AcDbLine
  10
26.93301
  20
-7.857316
  30
0
  11
26.83301
  21
-7.849798
  31
0
  0
LINE
  5
505
  100
AcDbEntity
  8
1
  100
AcDbLine
  10
26.83301
  20
-7.849798
  30
0
  11
26.73301
  21
-7.841679
  31
0
  0
LINE
  5
506
  100
AcDbEntity
  8
1
  100
AcDbLine
  10
26.73301
  20
-7.841679
  30
0
  11
26.63301
  21
-7.832959
  31
0
  0
LINE
  5
507
  100
AcDbEntity
  8
1
  100
AcDbLine
  10
26.63301
  20
-7.832959
  30
0
  11
26.53301
  21
-7.823639
  31
0
  0
LINE
  5
508
  100
AcDbEntity
  8
1
  100
AcDbLine
  10
26.53301
  20
-7.823639
  30
0
  11
26.43301
  21
-7.81372
  31
0
  0
LINE
  5
509
  100
AcDbEntity
  8
1
  100
AcDbLine
  10
26.43301
  20
-7.81372
  30
0
  11
26.33301
  21
-7.803202
  31
0
  0
LINE
  5
50a
  100
AcDbEntity
  8
1
  100
AcDbLine
  10
26.33301
  20
-7.803202
  30
0
  11
26.23301
  21
-7.792086
  31
0
  0
LINE
  5
50b
  100
AcDbEntity
  8
1
  100
AcDbLine
  10
26.23301
  20
-7.792086
  30
0
  11
26.13301
  21
-7.780373
  31
0
  0
LINE
  5
50c
  100
AcDbEntity
  8
1
  100
AcDbLine
  10
26.13301
  20
-7.780373
  30
0
  11
26.03301
  21
-7.768065
  31
0
  0
LINE
  5
50d
  100
AcDbEntity
  8
1
  100
AcDbLine
  10
26.03301
  20
-7.768065
  30
0
  11
25.93301
  21
-7.755161
  31
0
  0
LINE
  5
50e
  100
AcDbEntity
  8
1
  100
AcDbLine
  10
25.93301
  20
-7.755161
  30
0
  11
25.83301
  21
-7.741663
  31
0
  0
LINE
  5
50f
  100
AcDbEntity
  8
1
  100
AcDbLine
  10
25.83301
  20
-7.741663
  30
0
  11
25.73301
  21
-7.727572
  31
0
  0
LINE
  5
510
  100
AcDbEntity
  8
1
  100
AcDbLine
  10
25.73301
  20
-7.727572
  30
0
  11
25.63301
  21
-7.712889
  31
0
  0
LINE
  5
511
  100
AcDbEntity
  8
1
  100
AcDbLine
  10
25.63301
  20
-7.712889
  30
0
  11
25.53301
  21
-7.697615
  31
0
  0
LINE
  5
512
  100
AcDbEntity
  8
1
  100
AcDbLine
  10
25.53301
  20
-7.697615
  30
0
  11
25.43301
  21
-7.681752
  31
0
  0
LINE
  5
513
  100
AcDbEntity
  8
1
  100
AcDbLine
  10
25.43301
  20
-7.681752
  30
0
  11
25.33301
  21
-7.6653
  31
0
  0
LINE
  5
514
  100
AcDbEntity
  8
1
  100
AcDbLine
  10
25.33301
  20
-7.6653
  30
0
  11
25.23301
  21
-7.648261
  31
0
  0
LINE
  5
515
  100
AcDbEntity
  8
1
  100
AcDbLine
  10
25.23301
  20
-7.648261
  30
0
  11
25.13301
  21
-7.630635
  31
0
  0
LINE
  5
516
  100
AcDbEntity
  8
1
  100
AcDbLine
  10
25.13301
  20
-7.630635
  30
0
  11
25.03301
  21
-7.612426
  31
0
  0
LINE
  5
517
  100
AcDbEntity
  8
1
  100
AcDbLine
  10
25.03301
  20
-7.612426
  30
0
  11
24.93301
  21
-7.593633
  31
0
  0
LINE
  5
518
  100
AcDbEntity
  8
1
  100
AcDbLine
  10
24.93301
  20
-7.593633
  30
0
  11
24.83301
  21
-7.574258
  31
0
  0
LINE
  5
519
  100
AcDbEntity
  8
1
  100
AcDbLine
  10
24.83301
  20
-7.574258
  30
0
  11
24.73301
  21
-7.554304
  31
0
  0
LINE
  5
51a
  100
AcDbEntity
  8
1
  100
AcDbLine
  10
24.73301
  20
-7.554304
  30
0
  11
24.63301
  21
-7.53377
  31
0
  0
LINE
  5
51b
  100
AcDbEntity
  8
1
  100
AcDbLine
  10
24.63301
  20
-7.53377
  30
0
  11
24.53301
  21
-7.512659
  31
0
  0
LINE
  5
51c
  100
AcDbEntity
  8
1
  100
AcDbLine
  10
24.53301
  20
-7.512659
  30
0
  11
24.43301
  21
-7.490973
  31
0
  0
LINE
  5
51d
  100
AcDbEntity
  8
1
  100
AcDbLine
  10
24.43301
  20
-7.490973
  30
0
  11
24.33301
  21
-7.468713
  31
0
  0
LINE
  5
51e
  100
AcDbEntity
  8
1
  100
AcDbLine
  10
24.33301
  20
-7.468713
  30
0
  11
24.23301
  21
-7.445881
  31
0
  0
LINE
  5
51f
  100
AcDbEntity
  8
1
  100
AcDbLine
  10
24.23301
  20
-7.445881
  30
0
  11
24.13301
  21
-7.422478
  31
0
  0
LINE
  5
520
  100
AcDbEntity
  8
1
  100
AcDbLine
  10
24.13301
  20
-7.422478
  30
0
  11
24.03301
  21
-7.398507
  31
0
  0
LINE
  5
521
  100
AcDbEntity
  8
1
  100
AcDbLine
  10
24.03301
  20
-7.398507
  30
0
  11
23.93301
  21
-7.373969
  31
0
  0
LINE
  5
522
  100
AcDbEntity
  8
1
  100
AcDbLine
  10
23.93301
  20
-7.373969
  30
0
  11
23.83301
  21
-7.348866
  31
0
  0
LINE
  5
523
  100
AcDbEntity
  8
1
  100
AcDbLine
  10
23.83301
  20
-7.348866
  30
0
  11
23.73301
  21
-7.3232
  31
0
  0
LINE
  5
524
  100
AcDbEntity
  8
1
  100
AcDbLine
  10
23.73301
  20
-7.3232
  30
0
  11
23.63301
  21
-7.296973
  31
0
  0
LINE
  5
525
  100
AcDbEntity
  8
1
  100
AcDbLine
  10
23.63301
  20
-7.296973
  30
0
  11
23.53301
  21
-7.270187
  31
0
  0
LINE
  5
526
  100
AcDbEntity
  8
1
  100
AcDbLine
  10
23.53301
  20
-7.270187
  30
0
  11
23.43301
  21
-7.242844
  31
0
  0
LINE
  5
527
  100
AcDbEntity
  8
1
  100
AcDbLine
  10
23.43301
  20
-7.242844
  30
0
  11
23.33301
  21
-7.214947
  31
0
  0
LINE
  5
528
  100
AcDbEntity
  8
1
  100
AcDbLine
  10
23.33301
  20
-7.214947
  30
0
  11
23.23301
  21
-7.186496
  31
0
  0
LINE
  5
529
  100
AcDbEntity
  8
1
  100
AcDbLine
  10
23.23301
  20
-7.186496
  30
0
  11
23.13301
  21
-7.157495
  31
0
  0
LINE
  5
52a
  100
AcDbEntity
  8
1
  100
AcDbLine
  10
23.13301
  20
-7.157495
  30
0
  11
23.03301
  21
-7.127946
  31
0
  0
LINE
  5
52b
  100
AcDbEntity
  8
1
  100
AcDbLine
  10
23.03301
  20
-7.127946
  30
0
  11
22.93301
  21
-7.097851
  31
0
  0
LINE
  5
52c
  100
AcDbEntity
  8
1
  100
AcDbLine
  10
22.93301
  20
-7.097851
  30
0
  11
22.83301
  21
-7.067211
  31
0
  0
LINE
  5
52d
  100
AcDbEntity
  8
1
  100
AcDbLine
  10
22.83301
  20
-7.067211
  30
0
  11
22.73301
  21
-7.036031
  31
0
  0
LINE
  5
52e
  100
AcDbEntity
  8
1
  100
AcDbLine
  10
22.73301
  20
-7.036031
  30
0
  11
22.63301
  21
-7.004311
  31
0
  0
LINE
  5
52f
  100
AcDbEntity
  8
1
  100
AcDbLine
  10
22.63301
  20
-7.004311
  30
0
  11
22.53301
  21
-6.972055
  31
0
  0
LINE
  5
530
  100
AcDbEntity
  8
1
  100
AcDbLine
  10
22.53301
  20
-6.972055
  30
0
  11
22.43301
  21
-6.939265
  31
0
  0
LINE
  5
531
  100
AcDbEntity
  8
1
  100
AcDbLine
  10
22.43301
  20
-6.939265
  30
0
  11
22.33301
  21
-6.905943
  31
0
  0
LINE
  5
532
  100
AcDbEntity
  8
1
  100
AcDbLine
  10
22.33301
  20
-6.905943
  30
0
  11
22.23301
  21
-6.872092
  31
0
  0
LINE
  5
533
  100
AcDbEntity
  8
1
  100
AcDbLine
  10
22.23301
  20
-6.872092
  30
0
  11
22.13301
  21
-6.837715
  31
0
  0
LINE
  5
534
  100
AcDbEntity
  8
1
  100
AcDbLine
  10
22.13301
  20
-6.837715
  30
0
  11
22.03301
  21
-6.802814
  31
0
  0
LINE
  5
535
  100
AcDbEntity
  8
1
  100
AcDbLine
  10
22.03301
  20
-6.802814
  30
0
  11
21.93301
  21
-6.767392
  31
0
  0
LINE
  5
536
  100
AcDbEntity
  8
1
  100
AcDbLine
  10
21.93301
  20
-6.767392
  30
0
  11
21.83301
  21
-6.731451
  31
0
  0
LINE
  5
537
  100
AcDbEntity
  8
1
  100
AcDbLine
  10
21.83301
  20
-6.731451
  30
0
  11
21.73301
  21
-6.694995
  31
0
  0
LINE
  5
538
  100
AcDbEntity
  8
1
  100
AcDbLine
  10
21.73301
  20
-6.694995
  30
0
  11
21.63301
  21
-6.658025
  31
0
  0
LINE
  5
539
  100
AcDbEntity
  8
1
  100
AcDbLine
  10
21.63301
  20
-6.658025
  30
0
  11
21.53301
  21
-6.620546
  31
0
  0
LINE
  5
53a
  100
AcDbEntity
  8
1
  100
AcDbLine
  10
21.53301
  20
-6.620546
  30
0
  11
21.43301
  21
-6.58256
  31
0
  0
LINE
  5
53b
  100
AcDbEntity
  8
1
  100
AcDbLine
  10
21.43301
  20
-6.58256
  30
0
  11
21.33301
  21
-6.544069
  31
0
  0
LINE
  5
53c
  100
AcDbEntity
  8
1
  100
AcDbLine
  10
21.33301
  20
-6.544069
  30
0
  11
21.23301
  21
-6.505077
  31
0
  0
LINE
  5
53d
  100
AcDbEntity
  8
1
  100
AcDbLine
  10
21.23301
  20
-6.505077
  30
0
  11
21.13301
  21
-6.465586
  31
0
  0
LINE
  5
53e
  100
AcDbEntity
  8
1
  100
AcDbLine
  10
21.13301
  20
-6.465586
  30
0
  11
21.03301
  21
-6.4256
  31
0
  0
LINE
  5
53f
  100
AcDbEntity
  8
1
  100
AcDbLine
  10
21.03301
  20
-6.4256
  30
0
  11
20.93301
  21
-6.385122
  31
0
  0
LINE
  5
540
  100
AcDbEntity
  8
1
  100
AcDbLine
  10
20.93301
  20
-6.385122
  30
0
  11
20.83301
  21
-6.344155
  31
0
  0
LINE
  5
541
  100
AcDbEntity
  8
1
  100
AcDbLine
  10
20.83301
  20
-6.344155
  30
0
  11
20.73301
  21
-6.302702
  31
0
  0
LINE
  5
542
  100
AcDbEntity
  8
1
  100
AcDbLine
  10
20.73301
  20
-6.302702
  30
0
  11
20.63301
  21
-6.260766
  31
0
  0
LINE
  5
543
  100
AcDbEntity
  8
1
  100
AcDbLine
  10
20.63301
  20
-6.260766
  30
0
  11
20.53301
  21
-6.218351
  31
0
  0
LINE
  5
544
  100
AcDbEntity
  8
1
  100
AcDbLine
  10
20.53301
  20
-6.218351
  30
0
  11
20.43301
  21
-6.175459
  31
0
  0
LINE
  5
545
  100
AcDbEntity
  8
1
  100
AcDbLine
  10
20.43301
  20
-6.175459
  30
0
  11
20.33301
  21
-6.132093
  31
0
  0
LINE
  5
546
  100
AcDbEntity
  8
1
  100
AcDbLine
  10
20.33301
  20
-6.132093
  30
0
  11
20.23301
  21
-6.088259
  31
0
  0
LINE
  5
547
  100
AcDbEntity
  8
1
  100
AcDbLine
  10
20.23301
  20
-6.088259
  30
0
  11
20.13301
  21
-6.043957
  31
0
  0
LINE
  5
548
  100
AcDbEntity
  8
1
  100
AcDbLine
  10
20.13301
  20
-6.043957
  30
0
  11
20.03301
  21
-5.999193
  31
0
  0
LINE
  5
549
  100
AcDbEntity
  8
1
  100
AcDbLine
  10
20.03301
  20
-5.999193
  30
0
  11
19.93301
  21
-5.953969
  31
0
  0
LINE
  5
54a
  100
AcDbEntity
  8
1
  100
AcDbLine
  10
19.93301
  20
-5.953969
  30
0
  11
19.83301
  21
-5.908289
  31
0
  0
LINE
  5
54b
  100
AcDbEntity
  8
1
  100
AcDbLine
  10
19.83301
  20
-5.908289
  30
0
  11
19.73301
  21
-5.862157
  31
0
  0
LINE
  5
54c
  100
AcDbEntity
  8
1
  100
AcDbLine
  10
19.73301
  20
-5.862157
  30
0
  11
19.63301
  21
-5.815575
  31
0
  0
LINE
  5
54d
  100
AcDbEntity
  8
1
  100
AcDbLine
  10
19.63301
  20
-5.815575
  30
0
  11
19.53301
  21
-5.768548
  31
0
  0
LINE
  5
54e
  100
AcDbEntity
  8
1
  100
AcDbLine
  10
19.53301
  20
-5.768548
  30
0
  11
19.43301
  21
-5.721079
  31
0
  0
LINE
  5
54f
  100
AcDbEntity
  8
1
  100
AcDbLine
  10
19.43301
  20
-5.721079
  30
0
  11
19.33301
  21
-5.673171
  31
0
  0
LINE
  5
550
  100
AcDbEntity
  8
1
  100
AcDbLine
  10
19.33301
  20
-5.673171
  30
0
  11
19.23301
  21
-5.62483
  31
0
  0
LINE
  5
551
  100
AcDbEntity
  8
1
  100
AcDbLine
  10
19.23301
  20
-5.62483
  30
0
  11
19.13301
  21
-5.576057
  31
0
  0
LINE
  5
552
  100
AcDbEntity
  8
1
  100
AcDbLine
  10
19.13301
  20
-5.576057
  30
0
  11
19.03301
  21
-5.526857
  31
0
  0
LINE
  5
553
  100
AcDbEntity
  8
1
  100
AcDbLine
  10
19.03301
  20
-5.526857
  30
0
  11
18.93301
  21
-5.477233
  31
0
  0
LINE
  5
554
  100
AcDbEntity
  8
1
  100
AcDbLine
  10
18.93301
  20
-5.477233
  30
0
  11
18.83301
  21
-5.42719
  31
0
  0
LINE
  5
555
  100
AcDbEntity
  8
1
  100
AcDbLine
  10
18.83301
  20
-5.42719
  30
0
  11
18.73301
  21
-5.376731
  31
0
  0
LINE
  5
556
  100
AcDbEntity
  8
1
  100
AcDbLine
  10
18.73301
  20
-5.376731
  30
0
  11
18.63301
  21
-5.325861
  31
0
  0
LINE
  5
557
  100
AcDbEntity
  8
1
  100
AcDbLine
  10
18.63301
  20
-5.325861
  30
0
  11
18.53301
  21
-5.274582
  31
0
  0
LINE
  5
558
  100
AcDbEntity
  8
1
  100
AcDbLine
  10
18.53301
  20
-5.274582
  30
0
  11
18.43301
  21
-5.222899
  31
0
  0
LINE
  5
559
  100
AcDbEntity
  8
1
  100
AcDbLine
  10
18.43301
  20
-5.222899
  30
0
  11
18.33301
  21
-5.170816
  31
0
  0
LINE
  5
55a
  100
AcDbEntity
  8
1
  100
AcDbLine
  10
18.33301
  20
-5.170816
  30
0
  11
18.23301
  21
-5.118337
  31
0
  0
LINE
  5
55b
  100
AcDbEntity
  8
1
  100
AcDbLine
  10
18.23301
  20
-5.118337
  30
0
  11
18.13301
  21
-5.065466
  31
0
  0
LINE
  5
55c
  100
AcDbEntity
  8
1
  100
AcDbLine
  10
18.13301
  20
-5.065466
  30
0
  11
18.03301
  21
-5.012207
  31
0
  0
LINE
  5
55d
  100
AcDbEntity
  8
1
  100
AcDbLine
  10
18.03301
  20
-5.012207
  30
0
  11
17.93301
  21
-4.958564
  31
0
  0
LINE
  5
55e
  100
AcDbEntity
  8
1
  100
AcDbLine
  10
17.93301
  20
-4.958564
  30
0
  11
17.83301
  21
-4.904541
  31
0
  0
LINE
  5
55f
  100
AcDbEntity
  8
1
  100
AcDbLine
  10
17.83301
  20
-4.904541
  30
0
  11
17.73301
  21
-4.850142
  31
0
  0
LINE
  5
560
  100
AcDbEntity
  8
1
  100
AcDbLine
  10
17.73301
  20
-4.850142
  30
0
  11
17.63301
  21
-4.795372
  31
0
  0
LINE
  5
561
  100
AcDbEntity
  8
1
  100
AcDbLine
  10
17.63301
  20
-4.795372
  30
0
  11
17.53301
  21
-4.740234
  31
0
  0
LINE
  5
562
  100
AcDbEntity
  8
1
  100
AcDbLine
  10
17.53301
  20
-4.740234
  30
0
  11
17.43301
  21
-4.684733
  31
0
  0
LINE
  5
563
  100
AcDbEntity
  8
1
  100
AcDbLine
  10
17.43301
  20
-4.684733
  30
0
  11
17.33301
  21
-4.628874
  31
0
  0
LINE
  5
564
  100
AcDbEntity
  8
1
  100
AcDbLine
  10
17.33301
  20
-4.628874
  30
0
  11
17.23301
  21
-4.572659
  31
0
  0
LINE
  5
565
  100
AcDbEntity
  8
1
  100
AcDbLine
  10
17.23301
  20
-4.572659
  30
0
  11
17.13301
  21
-4.516095
  31
0
  0
LINE
  5
566
  100
AcDbEntity
  8
1
  100
AcDbLine
  10
17.13301
  20
-4.516095
  30
0
  11
17.03301
  21
-4.459184
  31
0
  0
LINE
  5
567
  100
AcDbEntity
  8
1
  100
AcDbLine
  10
17.03301
  20
-4.459184
  30
0
  11
16.93301
  21
-4.401932
  31
0
  0
LINE
  5
568
  100
AcDbEntity
  8
1
  100
AcDbLine
  10
16.93301
  20
-4.401932
  30
0
  11
16.83301
  21
-4.344343
  31
0
  0
LINE
  5
569
  100
AcDbEntity
  8
1
  100
AcDbLine
  10
16.83301
  20
-4.344343
  30
0
  11
16.73301
  21
-4.286421
  31
0
  0
LINE
  5
56a
  100
AcDbEntity
  8
1
  100
AcDbLine
  10
16.73301
  20
-4.286421
  30
0
  11
16.63301
  21
-4.22817
  31
0
  0
LINE
  5
56b
  100
AcDbEntity
  8
1
  100
AcDbLine
  10
16.63301
  20
-4.22817
  30
0
  11
16.53301
  21
-4.169596
  31
0
  0
LINE
  5
56c
  100
AcDbEntity
  8
1
  100
AcDbLine
  10
16.53301
  20
-4.169596
  30
0
  11
16.43301
  21
-4.110702
  31
0
  0
LINE
  5
56d
  100
AcDbEntity
  8
1
  100
AcDbLine
  10
16.43301
  20
-4.110702
  30
0
  11
16.33301
  21
-4.051493
  31
0
  0
LINE
  5
56e
  100
AcDbEntity
  8
1
  100
AcDbLine
  10
16.33301
  20
-4.051493
  30
0
  11
16.23301
  21
-3.991974
  31
0
  0
LINE
  5
56f
  100
AcDbEntity
  8
1
  100
AcDbLine
  10
16.23301
  20
-3.991974
  30
0
  11
16.13301
  21
-3.932149
  31
0
  0
LINE
  5
570
  100
AcDbEntity
  8
1
  100
AcDbLine
  10
16.13301
  20
-3.932149
  30
0
  11
16.03301
  21
-3.872023
  31
0
  0
LINE
  5
571
  100
AcDbEntity
  8
1
  100
AcDbLine
  10
16.03301
  20
-3.872023
  30
0
  11
15.93301
  21
-3.8116
  31
0
  0
LINE
  5
572
  100
AcDbEntity
  8
1
  100
AcDbLine
  10
15.93301
  20
-3.8116
  30
0
  11
15.83301
  21
-3.750885
  31
0
  0
LINE
  5
573
  100
AcDbEntity
  8
1
  100
AcDbLine
  10
15.83301
  20
-3.750885
  30
0
  11
15.73301
  21
-3.689883
  31
0
  0
LINE
  5
574
  100
AcDbEntity
  8
1
  100
AcDbLine
  10
15.73301
  20
-3.689883
  30
0
  11
15.63301
  21
-3.628598
  31
0
  0
LINE
  5
575
  100
AcDbEntity
  8
1
  100
AcDbLine
  10
15.63301
  20
-3.628598
  30
0
  11
15.53301
  21
-3.567035
  31
0
  0
LINE
  5
576
  100
AcDbEntity
  8
1
  100
AcDbLine
  10
15.53301
  20
-3.567035
  30
0
  11
15.43301
  21
-3.505199
  31
0
  0
LINE
  5
577
  100
AcDbEntity
  8
1
  100
AcDbLine
  10
15.43301
  20
-3.505199
  30
0
  11
15.33301
  21
-3.443095
  31
0
  0
LINE
  5
578
  100
AcDbEntity
  8
1
  100
AcDbLine
  10
15.33301
  20
-3.443095
  30
0
  11
15.23301
  21
-3.380726
  31
0
  0
LINE
  5
579
  100
AcDbEntity
  8
1
  100
AcDbLine
  10
15.23301
  20
-3.380726
  30
0
  11
15.13301
  21
-3.318099
  31
0
  0
LINE
  5
57a
  100
AcDbEntity
  8
1
  100
AcDbLine
  10
15.13301
  20
-3.318099
  30
0
  11
15.03301
  21
-3.255217
  31
0
  0
LINE
  5
57b
  100
AcDbEntity
  8
1
  100
AcDbLine
  10
15.03301
  20
-3.255217
  30
0
  11
14.93301
  21
-3.192086
  31
0
  0
LINE
  5
57c
  100
AcDbEntity
  8
1
  100
AcDbLine
  10
14.93301
  20
-3.192086
  30
0
  11
14.83301
  21
-3.128711
  31
0
  0
LINE
  5
57d
  100
AcDbEntity
  8
1
  100
AcDbLine
  10
14.83301
  20
-3.128711
  30
0
  11
14.73301
  21
-3.065096
  31
0
  0
LINE
  5
57e
  100
AcDbEntity
  8
1
  100
AcDbLine
  10
14.73301
  20
-3.065096
  30
0
  11
14.63301
  21
-3.001246
  31
0
  0
LINE
  5
57f
  100
AcDbEntity
  8
1
  100
AcDbLine
  10
14.63301
  20
-3.001246
  30
0
  11
14.53301
  21
-2.937166
  31
0
  0
LINE
  5
580
  100
AcDbEntity
  8
1
  100
AcDbLine
  10
14.53301
  20
-2.937166
  30
0
  11
14.43301
  21
-2.872861
  31
0
  0
LINE
  5
581
  100
AcDbEntity
  8
1
  100
AcDbLine
  10
14.43301
  20
-2.872861
  30
0
  11
14.33301
  21
-2.808336
  31
0
  0
LINE
  5
582
  100
AcDbEntity
  8
1
  100
AcDbLine
  10
14.33301
  20
-2.808336
  30
0
  11
14.23301
  21
-2.743596
  31
0
  0
LINE
  5
583
  100
AcDbEntity
  8
1
  100
AcDbLine
  10
14.23301
  20
-2.743596
  30
0
  11
14.13301
  21
-2.678646
  31
0
  0
LINE
  5
584
  100
AcDbEntity
  8
1
  100
AcDbLine
  10
14.13301
  20
-2.678646
  30
0
  11
14.03301
  21
-2.61349
  31
0
  0
LINE
  5
585
  100
AcDbEntity
  8
1
  100
AcDbLine
  10
14.03301
  20
-2.61349
  30
0
  11
13.93301
  21
-2.548134
  31
0
  0
LINE
  5
586
  100
AcDbEntity
  8
1
  100
AcDbLine
  10
13.93301
  20
-2.548134
  30
0
  11
13.83301
  21
-2.482583
  31
0
  0
LINE
  5
587
  100
AcDbEntity
  8
1
  100
AcDbLine
  10
13.83301
  20
-2.482583
  30
0
  11
13.73301
  21
-2.416842
  31
0
  0
LINE
  5
588
  100
AcDbEntity
  8
1
  100
AcDbLine
  10
13.73301
  20
-2.416842
  30
0
  11
13.63301
  21
-2.350916
  31
0
  0
LINE
  5
589
  100
AcDbEntity
  8
1
  100
AcDbLine
  10
13.63301
  20
-2.350916
  30
0
  11
13.53301
  21
-2.28481
  31
0
  0
LINE
  5
58a
  100
AcDbEntity
  8
1
  100
AcDbLine
  10
13.53301
  20
-2.28481
  30
0
  11
13.43301
  21
-2.218528
  31
0
  0
LINE
  5
58b
  100
AcDbEntity
  8
1
  100
AcDbLine
  10
13.43301
  20
-2.218528
  30
0
  11
13.33301
  21
-2.152077
  31
0
  0
LINE
  5
58c
  100
AcDbEntity
  8
1
  100
AcDbLine
  10
13.33301
  20
-2.152077
  30
0
  11
13.23301
  21
-2.085461
  31
0
  0
LINE
  5
58d
  100
AcDbEntity
  8
1
  100
AcDbLine
  10
13.23301
  20
-2.085461
  30
0
  11
13.13301
  21
-2.018685
  31
0
  0
LINE
  5
58e
  100
AcDbEntity
  8
1
  100
AcDbLine
  10
13.13301
  20
-2.018685
  30
0
  11
13.03301
  21
-1.951754
  31
0
  0
LINE
  5
58f
  100
AcDbEntity
  8
1
  100
AcDbLine
  10
12.93301
  20
-7.75
  30
0
  11
12.93301
  21
7.75
  31
0
  0
LINE
  5
590
  100
AcDbEntity
  8
1
  100
AcDbLine
  10
12.842957
  20
7.75
  30
0
  11
12.93301
  21
7.749759
  31
0
  0
LINE
  5
591
  100
AcDbEntity
  8
1
  100
AcDbLine
  10
12.93301
  20
7.749759
  30
0
  11
12.93301
  21
7.997169
  31
0
  0
LINE
  5
592
  100
AcDbEntity
  8
1
  100
AcDbLine
  10
12.93301
  20
7.997169
  30
0
  11
13.03301
  21
7.995
  31
0
  0
LINE
  5
593
  100
AcDbEntity
  8
1
  100
AcDbLine
  10
13.03301
  20
7.995
  30
0
  11
13.13301
  21
7.992219
  31
0
  0
LINE
  5
594
  100
AcDbEntity
  8
1
  100
AcDbLine
  10
13.13301
  20
7.992219
  30
0
  11
13.23301
  21
7.988825
  31
0
  0
LINE
  5
595
  100
AcDbEntity
  8
1
  100
AcDbLine
  10
13.23301
  20
7.988825
  30
0
  11
13.33301
  21
7.98482
  31
0
  0
LINE
  5
596
  100
AcDbEntity
  8
1
  100
AcDbLine
  10
13.33301
  20
7.98482
  30
0
  11
13.43301
  21
7.980203
  31
0
  0
LINE
  5
597
  100
AcDbEntity
  8
1
  100
AcDbLine
  10
13.43301
  20
7.980203
  30
0
  11
13.53301
  21
7.974974
  31
0
  0
LINE
  5
598
  100
AcDbEntity
  8
1
  100
AcDbLine
  10
13.53301
  20
7.974974
  30
0
  11
13.63301
  21
7.969134
  31
0
  0
LINE
  5
599
  100
AcDbEntity
  8
1
  100
AcDbLine
  10
13.63301
  20
7.969134
  30
0
  11
13.73301
  21
7.962684
  31
0
  0
LINE
  5
59a
  100
AcDbEntity
  8
1
  100
AcDbLine
  10
13.73301
  20
7.962684
  30
0
  11
13.83301
  21
7.955624
  31
0
  0
LINE
  5
59b
  100
AcDbEntity
  8
1
  100
AcDbLine
  10
13.83301
  20
7.955624
  30
0
  11
13.93301
  21
7.947955
  31
0
  0
LINE
  5
59c
  100
AcDbEntity
  8
1
  100
AcDbLine
  10
13.93301
  20
7.947955
  30
0
  11
14.03301
  21
7.939676
  31
0
  0
LINE
  5
59d
  100
AcDbEntity
  8
1
  100
AcDbLine
  10
14.03301
  20
7.939676
  30
0
  11
14.13301
  21
7.93079
  31
0
  0
LINE
  5
59e
  100
AcDbEntity
  8
1
  100
AcDbLine
  10
14.13301
  20
7.93079
  30
0
  11
14.23301
  21
7.921295
  31
0
  0
LINE
  5
59f
  100
AcDbEntity
  8
1
  100
AcDbLine
  10
14.23301
  20
7.921295
  30
0
  11
14.33301
  21
7.911194
  31
0
  0
LINE
  5
5a0
  100
AcDbEntity
  8
1
  100
AcDbLine
  10
14.33301
  20
7.911194
  30
0
  11
14.43301
  21
7.900487
  31
0
  0
LINE
  5
5a1
  100
AcDbEntity
  8
1
  100
AcDbLine
  10
14.43301
  20
7.900487
  30
0
  11
14.53301
  21
7.889175
  31
0
  0
LINE
  5
5a2
  100
AcDbEntity
  8
1
  100
AcDbLine
  10
14.53301
  20
7.889175
  30
0
  11
14.63301
  21
7.877258
  31
0
  0
LINE
  5
5a3
  100
AcDbEntity
  8
1
  100
AcDbLine
  10
14.63301
  20
7.877258
  30
0
  11
14.73301
  21
7.864738
  31
0
  0
LINE
  5
5a4
  100
AcDbEntity
  8
1
  100
AcDbLine
  10
14.73301
  20
7.864738
  30
0
  11
14.83301
  21
7.851615
  31
0
  0
LINE
  5
5a5
  100
AcDbEntity
  8
1
  100
AcDbLine
  10
14.83301
  20
7.851615
  30
0
  11
14.93301
  21
7.837891
  31
0
  0
LINE
  5
5a6
  100
AcDbEntity
  8
1
  100
AcDbLine
  10
14.93301
  20
7.837891
  30
0
  11
15.03301
  21
7.823567
  31
0
  0
LINE
  5
5a7
  100
AcDbEntity
  8
1
  100
AcDbLine
  10
15.03301
  20
7.823567
  30
0
  11
15.13301
  21
7.808643
  31
0
  0
LINE
  5
5a8
  100
AcDbEntity
  8
1
  100
AcDbLine
  10
15.13301
  20
7.808643
  30
0
  11
15.23301
  21
7.793121
  31
0
  0
LINE
  5
5a9
  100
AcDbEntity
  8
1
  100
AcDbLine
  10
15.23301
  20
7.793121
  30
0
  11
15.33301
  21
7.777002
  31
0
  0
LINE
  5
5aa
  100
AcDbEntity
  8
1
  100
AcDbLine
  10
15.33301
  20
7.777002
  30
0
  11
15.43301
  21
7.760287
  31
0
  0
LINE
  5
5ab
  100
AcDbEntity
  8
1
  100
AcDbLine
  10
15.43301
  20
7.760287
  30
0
  11
15.53301
  21
7.742977
  31
0
  0
LINE
  5
5ac
  100
AcDbEntity
  8
1
  100
AcDbLine
  10
15.53301
  20
7.742977
  30
0
  11
15.63301
  21
7.725075
  31
0
  0
LINE
  5
5ad
  100
AcDbEntity
  8
1
  100
AcDbLine
  10
15.63301
  20
7.725075
  30
0
  11
15.73301
  21
7.70658
  31
0
  0
LINE
  5
5ae
  100
AcDbEntity
  8
1
  100
AcDbLine
  10
15.73301
  20
7.70658
  30
0
  11
15.83301
  21
7.687496
  31
0
  0
LINE
  5
5af
  100
AcDbEntity
  8
1
  100
AcDbLine
  10
15.83301
  20
7.687496
  30
0
  11
15.93301
  21
7.667822
  31
0
  0
LINE
  5
5b0
  100
AcDbEntity
  8
1
  100
AcDbLine
  10
15.93301
  20
7.667822
  30
0
  11
16.03301
  21
7.647561
  31
0
  0
LINE
  5
5b1
  100
AcDbEntity
  8
1
  100
AcDbLine
  10
16.03301
  20
7.647561
  30
0
  11
16.13301
  21
7.626714
  31
0
  0
LINE
  5
5b2
  100
AcDbEntity
  8
1
  100
AcDbLine
  10
16.13301
  20
7.626714
  30
0
  11
16.23301
  21
7.605283
  31
0
  0
LINE
  5
5b3
  100
AcDbEntity
  8
1
  100
AcDbLine
  10
16.23301
  20
7.605283
  30
0
  11
16.33301
  21
7.583269
  31
0
  0
LINE
  5
5b4
  100
AcDbEntity
  8
1
  100
AcDbLine
  10
16.33301
  20
7.583269
  30
0
  11
16.43301
  21
7.560674
  31
0
  0
LINE
  5
5b5
  100
AcDbEntity
  8
1
  100
AcDbLine
  10
16.43301
  20
7.560674
  30
0
  11
16.53301
  21
7.5375
  31
0
  0
LINE
  5
5b6
  100
AcDbEntity
  8
1
  100
AcDbLine
  10
16.53301
  20
7.5375
  30
0
  11
16.63301
  21
7.513749
  31
0
  0
LINE
  5
5b7
  100
AcDbEntity
  8
1
  100
AcDbLine
  10
16.63301
  20
7.513749
  30
0
  11
16.73301
  21
7.489422
  31
0
  0
LINE
  5
5b8
  100
AcDbEntity
  8
1
  100
AcDbLine
  10
16.73301
  20
7.489422
  30
0
  11
16.83301
  21
7.464521
  31
0
  0
LINE
  5
5b9
  100
AcDbEntity
  8
1
  100
AcDbLine
  10
16.83301
  20
7.464521
  30
0
  11
16.93301
  21
7.439048
  31
0
  0
LINE
  5
5ba
  100
AcDbEntity
  8
1
  100
AcDbLine
  10
16.93301
  20
7.439048
  30
0
  11
17.03301
  21
7.413006
  31
0
  0
LINE
  5
5bb
  100
AcDbEntity
  8
1
  100
AcDbLine
  10
17.03301
  20
7.413006
  30
0
  11
17.13301
  21
7.386395
  31
0
  0
LINE
  5
5bc
  100
AcDbEntity
  8
1
  100
AcDbLine
  10
17.13301
  20
7.386395
  30
0
  11
17.23301
  21
7.359219
  31
0
  0
LINE
  5
5bd
  100
AcDbEntity
  8
1
  100
AcDbLine
  10
17.23301
  20
7.359219
  30
0
  11
17.33301
  21
7.331479
  31
0
  0
LINE
  5
5be
  100
AcDbEntity
  8
1
  100
AcDbLine
  10
17.33301
  20
7.331479
  30
0
  11
17.43301
  21
7.303178
  31
0
  0
LINE
  5
5bf
  100
AcDbEntity
  8
1
  100
AcDbLine
  10
17.43301
  20
7.303178
  30
0
  11
17.53301
  21
7.274317
  31
0
  0
LINE
  5
5c0
  100
AcDbEntity
  8
1
  100
AcDbLine
  10
17.53301
  20
7.274317
  30
0
  11
17.63301
  21
7.244898
  31
0
  0
LINE
  5
5c1
  100
AcDbEntity
  8
1
  100
AcDbLine
  10
17.63301
  20
7.244898
  30
0
  11
17.73301
  21
7.214925
  31
0
  0
LINE
  5
5c2
  100
AcDbEntity
  8
1
  100
AcDbLine
  10
17.73301
  20
7.214925
  30
0
  11
17.83301
  21
7.184399
  31
0
  0
LINE
  5
5c3
  100
AcDbEntity
  8
1
  100
AcDbLine
  10
17.83301
  20
7.184399
  30
0
  11
17.93301
  21
7.153322
  31
0
  0
LINE
  5
5c4
  100
AcDbEntity
  8
1
  100
AcDbLine
  10
17.93301
  20
7.153322
  30
0
  11
18.03301
  21
7.121698
  31
0
  0
LINE
  5
5c5
  100
AcDbEntity
  8
1
  100
AcDbLine
  10
18.03301
  20
7.121698
  30
0
  11
18.13301
  21
7.089528
  31
0
  0
LINE
  5
5c6
  100
AcDbEntity
  8
1
  100
AcDbLine
  10
18.13301
  20
7.089528
  30
0
  11
18.23301
  21
7.056814
  31
0
  0
LINE
  5
5c7
  100
AcDbEntity
  8
1
  100
AcDbLine
  10
18.23301
  20
7.056814
  30
0
  11
18.33301
  21
7.023561
  31
0
  0
LINE
  5
5c8
  100
AcDbEntity
  8
1
  100
AcDbLine
  10
18.33301
  20
7.023561
  30
0
  11
18.43301
  21
6.989769
  31
0
  0
LINE
  5
5c9
  100
AcDbEntity
  8
1
  100
AcDbLine
  10
18.43301
  20
6.989769
  30
0
  11
18.53301
  21
6.955442
  31
0
  0
LINE
  5
5ca
  100
AcDbEntity
  8
1
  100
AcDbLine
  10
18.53301
  20
6.955442
  30
0
  11
18.63301
  21
6.920581
  31
0
  0
LINE
  5
5cb
  100
AcDbEntity
  8
1
  100
AcDbLine
  10
18.63301
  20
6.920581
  30
0
  11
18.73301
  21
6.885191
  31
0
  0
LINE
  5
5cc
  100
AcDbEntity
  8
1
  100
AcDbLine
  10
18.73301
  20
6.885191
  30
0
  11
18.83301
  21
6.849273
  31
0
  0
LINE
  5
5cd
  100
AcDbEntity
  8
1
  100
AcDbLine
  10
18.83301
  20
6.849273
  30
0
  11
18.93301
  21
6.812831
  31
0
  0
LINE
  5
5ce
  100
AcDbEntity
  8
1
  100
AcDbLine
  10
18.93301
  20
6.812831
  30
0
  11
19.03301
  21
6.775866
  31
0
  0
LINE
  5
5cf
  100
AcDbEntity
  8
1
  100
AcDbLine
  10
19.03301
  20
6.775866
  30
0
  11
19.13301
  21
6.738383
  31
0
  0
LINE
  5
5d0
  100
AcDbEntity
  8
1
  100
AcDbLine
  10
19.13301
  20
6.738383
  30
0
  11
19.23301
  21
6.700383
  31
0
  0
LINE
  5
5d1
  100
AcDbEntity
  8
1
  100
AcDbLine
  10
19.23301
  20
6.700383
  30
0
  11
19.33301
  21
6.66187
  31
0
  0
LINE
  5
5d2
  100
AcDbEntity
  8
1
  100
AcDbLine
  10
19.33301
  20
6.66187
  30
0
  11
19.43301
  21
6.622847
  31
0
  0
LINE
  5
5d3
  100
AcDbEntity
  8
1
  100
AcDbLine
  10
19.43301
  20
6.622847
  30
0
  11
19.53301
  21
6.583316
  31
0
  0
LINE
  5
5d4
  100
AcDbEntity
  8
1
  100
AcDbLine
  10
19.53301
  20
6.583316
  30
0
  11
19.63301
  21
6.543281
  31
0
  0
LINE
  5
5d5
  100
AcDbEntity
  8
1
  100
AcDbLine
  10
19.63301
  20
6.543281
  30
0
  11
19.73301
  21
6.502745
  31
0
  0
LINE
  5
5d6
  100
AcDbEntity
  8
1
  100
AcDbLine
  10
19.73301
  20
6.502745
  30
0
  11
19.83301
  21
6.461711
  31
0
  0
LINE
  5
5d7
  100
AcDbEntity
  8
1
  100
AcDbLine
  10
19.83301
  20
6.461711
  30
0
  11
19.93301
  21
6.420181
  31
0
  0
LINE
  5
5d8
  100
AcDbEntity
  8
1
  100
AcDbLine
  10
19.93301
  20
6.420181
  30
0
  11
20.03301
  21
6.37816
  31
0
  0
LINE
  5
5d9
  100
AcDbEntity
  8
1
  100
AcDbLine
  10
20.03301
  20
6.37816
  30
0
  11
20.13301
  21
6.33565
  31
0
  0
LINE
  5
5da
  100
AcDbEntity
  8
1
  100
AcDbLine
  10
20.13301
  20
6.33565
  30
0
  11
20.23301
  21
6.292655
  31
0
  0
LINE
  5
5db
  100
AcDbEntity
  8
1
  100
AcDbLine
  10
20.23301
  20
6.292655
  30
0
  11
20.33301
  21
6.249177
  31
0
  0
LINE
  5
5dc
  100
AcDbEntity
  8
1
  100
AcDbLine
  10
20.33301
  20
6.249177
  30
0
  11
20.43301
  21
6.205221
  31
0
  0
LINE
  5
5dd
  100
AcDbEntity
  8
1
  100
AcDbLine
  10
20.43301
  20
6.205221
  30
0
  11
20.53301
  21
6.16079
  31
0
  0
LINE
  5
5de
  100
AcDbEntity
  8
1
  100
AcDbLine
  10
20.53301
  20
6.16079
  30
0
  11
20.63301
  21
6.115887
  31
0
  0
LINE
  5
5df
  100
AcDbEntity
  8
1
  100
AcDbLine
  10
20.63301
  20
6.115887
  30
0
  11
20.73301
  21
6.070515
  31
0
  0
LINE
  5
5e0
  100
AcDbEntity
  8
1
  100
AcDbLine
  10
20.73301
  20
6.070515
  30
0
  11
20.83301
  21
6.024678
  31
0
  0
LINE
  5
5e1
  100
AcDbEntity
  8
1
  100
AcDbLine
  10
20.83301
  20
6.024678
  30
0
  11
20.93301
  21
5.978379
  31
0
  0
LINE
  5
5e2
  100
AcDbEntity
  8
1
  100
AcDbLine
  10
20.93301
  20
5.978379
  30
0
  11
21.03301
  21
5.931623
  31
0
  0
LINE
  5
5e3
  100
AcDbEntity
  8
1
  100
AcDbLine
  10
21.03301
  20
5.931623
  30
0
  11
21.13301
  21
5.884412
  31
0
  0
LINE
  5
5e4
  100
AcDbEntity
  8
1
  100
AcDbLine
  10
21.13301
  20
5.884412
  30
0
  11
21.23301
  21
5.83675
  31
0
  0
LINE
  5
5e5
  100
AcDbEntity
  8
1
  100
AcDbLine
  10
21.23301
  20
5.83675
  30
0
  11
21.33301
  21
5.788641
  31
0
  0
LINE
  5
5e6
  100
AcDbEntity
  8
1
  100
AcDbLine
  10
21.33301
  20
5.788641
  30
0
  11
21.43301
  21
5.740089
  31
0
  0
LINE
  5
5e7
  100
AcDbEntity
  8
1
  100
AcDbLine
  10
21.43301
  20
5.740089
  30
0
  11
21.53301
  21
5.691097
  31
0
  0
LINE
  5
5e8
  100
AcDbEntity
  8
1
  100
AcDbLine
  10
21.53301
  20
5.691097
  30
0
  11
21.63301
  21
5.641669
  31
0
  0
LINE
  5
5e9
  100
AcDbEntity
  8
1
  100
AcDbLine
  10
21.63301
  20
5.641669
  30
0
  11
21.73301
  21
5.591809
  31
0
  0
LINE
  5
5ea
  100
AcDbEntity
  8
1
  100
AcDbLine
  10
21.73301
  20
5.591809
  30
0
  11
21.83301
  21
5.541521
  31
0
  0
LINE
  5
5eb
  100
AcDbEntity
  8
1
  100
AcDbLine
  10
21.83301
  20
5.541521
  30
0
  11
21.93301
  21
5.490807
  31
0
  0
LINE
  5
5ec
  100
AcDbEntity
  8
1
  100
AcDbLine
  10
21.93301
  20
5.490807
  30
0
  11
22.03301
  21
5.439674
  31
0
  0
LINE
  5
5ed
  100
AcDbEntity
  8
1
  100
AcDbLine
  10
22.03301
  20
5.439674
  30
0
  11
22.13301
  21
5.388123
  31
0
  0
LINE
  5
5ee
  100
AcDbEntity
  8
1
  100
AcDbLine
  10
22.13301
  20
5.388123
  30
0
  11
22.23301
  21
5.33616
  31
0
  0
LINE
  5
5ef
  100
AcDbEntity
  8
1
  100
AcDbLine
  10
22.23301
  20
5.33616
  30
0
  11
22.33301
  21
5.283788
  31
0
  0
LINE
  5
5f0
  100
AcDbEntity
  8
1
  100
AcDbLine
  10
22.33301
  20
5.283788
  30
0
  11
22.43301
  21
5.231011
  31
0
  0
LINE
  5
5f1
  100
AcDbEntity
  8
1
  100
AcDbLine
  10
22.43301
  20
5.231011
  30
0
  11
22.53301
  21
5.177834
  31
0
  0
LINE
  5
5f2
  100
AcDbEntity
  8
1
  100
AcDbLine
  10
22.53301
  20
5.177834
  30
0
  11
22.63301
  21
5.12426
  31
0
  0
LINE
  5
5f3
  100
AcDbEntity
  8
1
  100
AcDbLine
  10
22.63301
  20
5.12426
  30
0
  11
22.73301
  21
5.070293
  31
0
  0
LINE
  5
5f4
  100
AcDbEntity
  8
1
  100
AcDbLine
  10
22.73301
  20
5.070293
  30
0
  11
22.83301
  21
5.015938
  31
0
  0
LINE
  5
5f5
  100
AcDbEntity
  8
1
  100
AcDbLine
  10
22.83301
  20
5.015938
  30
0
  11
22.93301
  21
4.961199
  31
0
  0
LINE
  5
5f6
  100
AcDbEntity
  8
1
  100
AcDbLine
  10
22.93301
  20
4.961199
  30
0
  11
23.03301
  21
4.906079
  31
0
  0
LINE
  5
5f7
  100
AcDbEntity
  8
1
  100
AcDbLine
  10
23.03301
  20
4.906079
  30
0
  11
23.13301
  21
4.850584
  31
0
  0
LINE
  5
5f8
  100
AcDbEntity
  8
1
  100
AcDbLine
  10
23.13301
  20
4.850584
  30
0
  11
23.23301
  21
4.794717
  31
0
  0
LINE
  5
5f9
  100
AcDbEntity
  8
1
  100
AcDbLine
  10
23.23301
  20
4.794717
  30
0
  11
23.33301
  21
4.738483
  31
0
  0
LINE
  5
5fa
  100
AcDbEntity
  8
1
  100
AcDbLine
  10
23.33301
  20
4.738483
  30
0
  11
23.43301
  21
4.681886
  31
0
  0
LINE
  5
5fb
  100
AcDbEntity
  8
1
  100
AcDbLine
  10
23.43301
  20
4.681886
  30
0
  11
23.53301
  21
4.62493
  31
0
  0
LINE
  5
5fc
  100
AcDbEntity
  8
1
  100
AcDbLine
  10
23.53301
  20
4.62493
  30
0
  11
23.63301
  21
4.56762
  31
0
  0
LINE
  5
5fd
  100
AcDbEntity
  8
1
  100
AcDbLine
  10
23.63301
  20
4.56762
  30
0
  11
23.73301
  21
4.509959
  31
0
  0
LINE
  5
5fe
  100
AcDbEntity
  8
1
  100
AcDbLine
  10
23.73301
  20
4.509959
  30
0
  11
23.83301
  21
4.451954
  31
0
  0
LINE
  5
5ff
  100
AcDbEntity
  8
1
  100
AcDbLine
  10
23.83301
  20
4.451954
  30
0
  11
23.93301
  21
4.393607
  31
0
  0
LINE
  5
600
  100
AcDbEntity
  8
1
  100
AcDbLine
  10
23.93301
  20
4.393607
  30
0
  11
24.03301
  21
4.334924
  31
0
  0
LINE
  5
601
  100
AcDbEntity
  8
1
  100
AcDbLine
  10
24.03301
  20
4.334924
  30
0
  11
24.13301
  21
4.275909
  31
0
  0
LINE
  5
602
  100
AcDbEntity
  8
1
  100
AcDbLine
  10
24.13301
  20
4.275909
  30
0
  11
24.23301
  21
4.216566
  31
0
  0
LINE
  5
603
  100
AcDbEntity
  8
1
  100
AcDbLine
  10
24.23301
  20
4.216566
  30
0
  11
24.33301
  21
4.1569
  31
0
  0
LINE
  5
604
  100
AcDbEntity
  8
1
  100
AcDbLine
  10
24.33301
  20
4.1569
  30
0
  11
24.43301
  21
4.096916
  31
0
  0
LINE
  5
605
  100
AcDbEntity
  8
1
  100
AcDbLine
  10
24.43301
  20
4.096916
  30
0
  11
24.53301
  21
4.036617
  31
0
  0
LINE
  5
606
  100
AcDbEntity
  8
1
  100
AcDbLine
  10
24.53301
  20
4.036617
  30
0
  11
24.63301
  21
3.97601
  31
0
  0
LINE
  5
607
  100
AcDbEntity
  8
1
  100
AcDbLine
  10
24.63301
  20
3.97601
  30
0
  11
24.73301
  21
3.915098
  31
0
  0
LINE
  5
608
  100
AcDbEntity
  8
1
  100
AcDbLine
  10
24.73301
  20
3.915098
  30
0
  11
24.83301
  21
3.853886
  31
0
  0
LINE
  5
609
  100
AcDbEntity
  8
1
  100
AcDbLine
  10
24.83301
  20
3.853886
  30
0
  11
24.93301
  21
3.792379
  31
0
  0
LINE
  5
60a
  100
AcDbEntity
  8
1
  100
AcDbLine
  10
24.93301
  20
3.792379
  30
0
  11
25.03301
  21
3.730581
  31
0
  0
LINE
  5
60b
  100
AcDbEntity
  8
1
  100
AcDbLine
  10
25.03301
  20
3.730581
  30
0
  11
25.13301
  21
3.668498
  31
0
  0
LINE
  5
60c
  100
AcDbEntity
  8
1
  100
AcDbLine
  10
25.13301
  20
3.668498
  30
0
  11
25.23301
  21
3.606133
  31
0
  0
LINE
  5
60d
  100
AcDbEntity
  8
1
  100
AcDbLine
  10
25.23301
  20
3.606133
  30
0
  11
25.33301
  21
3.543492
  31
0
  0
LINE
  5
60e
  100
AcDbEntity
  8
1
  100
AcDbLine
  10
25.33301
  20
3.543492
  30
0
  11
25.43301
  21
3.48058
  31
0
  0
LINE
  5
60f
  100
AcDbEntity
  8
1
  100
AcDbLine
  10
25.43301
  20
3.48058
  30
0
  11
25.53301
  21
3.417401
  31
0
  0
LINE
  5
610
  100
AcDbEntity
  8
1
  100
AcDbLine
  10
25.53301
  20
3.417401
  30
0
  11
25.63301
  21
3.353961
  31
0
  0
LINE
  5
611
  100
AcDbEntity
  8
1
  100
AcDbLine
  10
25.63301
  20
3.353961
  30
0
  11
25.73301
  21
3.290263
  31
0
  0
LINE
  5
612
  100
AcDbEntity
  8
1
  100
AcDbLine
  10
25.73301
  20
3.290263
  30
0
  11
25.83301
  21
3.226313
  31
0
  0
LINE
  5
613
  100
AcDbEntity
  8
1
  100
AcDbLine
  10
25.83301
  20
3.226313
  30
0
  11
25.93301
  21
3.162116
  31
0
  0
LINE
  5
614
  100
AcDbEntity
  8
1
  100
AcDbLine
  10
25.93301
  20
3.162116
  30
0
  11
26.03301
  21
3.097677
  31
0
  0
LINE
  5
615
  100
AcDbEntity
  8
1
  100
AcDbLine
  10
26.03301
  20
3.097677
  30
0
  11
26.13301
  21
3.033001
  31
0
  0
LINE
  5
616
  100
AcDbEntity
  8
1
  100
AcDbLine
  10
26.13301
  20
3.033001
  30
0
  11
26.23301
  21
2.968092
  31
0
  0
LINE
  5
617
  100
AcDbEntity
  8
1
  100
AcDbLine
  10
26.23301
  20
2.968092
  30
0
  11
26.33301
  21
2.902956
  31
0
  0
LINE
  5
618
  100
AcDbEntity
  8
1
  100
AcDbLine
  10
26.33301
  20
2.902956
  30
0
  11
26.43301
  21
2.837598
  31
0
  0
LINE
  5
619
  100
AcDbEntity
  8
1
  100
AcDbLine
  10
26.43301
  20
2.837598
  30
0
  11
26.53301
  21
2.772022
  31
0
  0
LINE
  5
61a
  100
AcDbEntity
  8
1
  100
AcDbLine
  10
26.53301
  20
2.772022
  30
0
  11
26.63301
  21
2.706234
  31
0
  0
LINE
  5
61b
  100
AcDbEntity
  8
1
  100
AcDbLine
  10
26.63301
  20
2.706234
  30
0
  11
26.73301
  21
2.640238
  31
0
  0
LINE
  5
61c
  100
AcDbEntity
  8
1
  100
AcDbLine
  10
26.73301
  20
2.640238
  30
0
  11
26.83301
  21
2.57404
  31
0
  0
LINE
  5
61d
  100
AcDbEntity
  8
1
  100
AcDbLine
  10
26.83301
  20
2.57404
  30
0
  11
26.93301
  21
2.507645
  31
0
  0
LINE
  5
61e
  100
AcDbEntity
  8
1
  100
AcDbLine
  10
26.93301
  20
2.507645
  30
0
  11
27.03301
  21
2.441058
  31
0
  0
LINE
  5
61f
  100
AcDbEntity
  8
1
  100
AcDbLine
  10
27.03301
  20
2.441058
  30
0
  11
27.13301
  21
2.374284
  31
0
  0
LINE
  5
620
  100
AcDbEntity
  8
1
  100
AcDbLine
  10
27.13301
  20
2.374284
  30
0
  11
27.23301
  21
2.307328
  31
0
  0
LINE
  5
621
  100
AcDbEntity
  8
1
  100
AcDbLine
  10
27.23301
  20
2.307328
  30
0
  11
27.33301
  21
2.240195
  31
0
  0
LINE
  5
622
  100
AcDbEntity
  8
1
  100
AcDbLine
  10
27.33301
  20
2.240195
  30
0
  11
27.43301
  21
2.172891
  31
0
  0
LINE
  5
623
  100
AcDbEntity
  8
1
  100
AcDbLine
  10
27.43301
  20
2.172891
  30
0
  11
27.53301
  21
2.10542
  31
0
  0
LINE
  5
624
  100
AcDbEntity
  8
1
  100
AcDbLine
  10
27.53301
  20
2.10542
  30
0
  11
27.63301
  21
2.037788
  31
0
  0
LINE
  5
625
  100
AcDbEntity
  8
1
  100
AcDbLine
  10
27.63301
  20
2.037788
  30
0
  11
27.73301
  21
1.97
  31
0
  0
LINE
  5
626
  100
AcDbEntity
  8
1
  100
AcDbLine
  10
27.73301
  20
1.97
  30
0
  11
27.83301
  21
1.90206
  31
0
  0
LINE
  5
627
  100
AcDbEntity
  8
1
  100
AcDbLine
  10
27.83301
  20
1.90206
  30
0
  11
27.93301
  21
1.833976
  31
0
  0
LINE
  5
628
  100
AcDbEntity
  8
1
  100
AcDbLine
  10
27.93301
  20
1.833976
  30
0
  11
28.03301
  21
1.76575
  31
0
  0
LINE
  5
629
  100
AcDbEntity
  8
1
  100
AcDbLine
  10
28.03301
  20
1.76575
  30
0
  11
28.13301
  21
1.69739
  31
0
  0
LINE
  5
62a
  100
AcDbEntity
  8
1
  100
AcDbLine
  10
28.13301
  20
1.69739
  30
0
  11
28.23301
  21
1.628899
  31
0
  0
LINE
  5
62b
  100
AcDbEntity
  8
1
  100
AcDbLine
  10
28.23301
  20
1.628899
  30
0
  11
28.33301
  21
1.560283
  31
0
  0
LINE
  5
62c
  100
AcDbEntity
  8
1
  100
AcDbLine
  10
28.33301
  20
1.560283
  30
0
  11
28.43301
  21
1.491549
  31
0
  0
LINE
  5
62d
  100
AcDbEntity
  8
1
  100
AcDbLine
  10
28.43301
  20
1.491549
  30
0
  11
28.53301
  21
1.422699
  31
0
  0
LINE
  5
62e
  100
AcDbEntity
  8
1
  100
AcDbLine
  10
28.53301
  20
1.422699
  30
0
  11
28.63301
  21
1.353741
  31
0
  0
LINE
  5
62f
  100
AcDbEntity
  8
1
  100
AcDbLine
  10
28.63301
  20
1.353741
  30
0
  11
28.73301
  21
1.284679
  31
0
  0
LINE
  5
630
  100
AcDbEntity
  8
1
  100
AcDbLine
  10
28.73301
  20
1.284679
  30
0
  11
28.83301
  21
1.215519
  31
0
  0
LINE
  5
631
  100
AcDbEntity
  8
1
  100
AcDbLine
  10
28.83301
  20
1.215519
  30
0
  11
28.93301
  21
1.146265
  31
0
  0
LINE
  5
632
  100
AcDbEntity
  8
1
  100
AcDbLine
  10
28.93301
  20
1.146265
  30
0
  11
29.03301
  21
1.076924
  31
0
  0
LINE
  5
633
  100
AcDbEntity
  8
1
  100
AcDbLine
  10
29.03301
  20
1.076924
  30
0
  11
29.13301
  21
1.0075
  31
0
  0
LINE
  5
634
  100
AcDbEntity
  8
1
  100
AcDbLine
  10
29.13301
  20
1.0075
  30
0
  11
29.23301
  21
0.937999
  31
0
  0
LINE
  5
635
  100
AcDbEntity
  8
1
  100
AcDbLine
  10
29.23301
  20
0.937999
  30
0
  11
29.33301
  21
0.868426
  31
0
  0
LINE
  5
636
  100
AcDbEntity
  8
1
  100
AcDbLine
  10
29.33301
  20
0.868426
  30
0
  11
29.43301
  21
0.798787
  31
0
  0
LINE
  5
637
  100
AcDbEntity
  8
1
  100
AcDbLine
  10
29.43301
  20
0.798787
  30
0
  11
29.53301
  21
0.729087
  31
0
  0
LINE
  5
638
  100
AcDbEntity
  8
1
  100
AcDbLine
  10
29.53301
  20
0.729087
  30
0
  11
29.63301
  21
0.65933
  31
0
  0
LINE
  5
639
  100
AcDbEntity
  8
1
  100
AcDbLine
  10
29.63301
  20
0.65933
  30
0
  11
29.73301
  21
0.589523
  31
0
  0
LINE
  5
63a
  100
AcDbEntity
  8
1
  100
AcDbLine
  10
29.73301
  20
0.589523
  30
0
  11
29.83301
  21
0.519671
  31
0
  0
LINE
  5
63b
  100
AcDbEntity
  8
1
  100
AcDbLine
  10
29.83301
  20
0.519671
  30
0
  11
29.93301
  21
0.449779
  31
0
  0
LINE
  5
63c
  100
AcDbEntity
  8
1
  100
AcDbLine
  10
29.93301
  20
0.449779
  30
0
  11
30.03301
  21
0.379853
  31
0
  0
LINE
  5
63d
  100
AcDbEntity
  8
1
  100
AcDbLine
  10
30.03301
  20
0.379853
  30
0
  11
30.13301
  21
0.309898
  31
0
  0
LINE
  5
63e
  100
AcDbEntity
  8
1
  100
AcDbLine
  10
30.13301
  20
0.309898
  30
0
  11
30.23301
  21
0.239918
  31
0
  0
LINE
  5
63f
  100
AcDbEntity
  8
1
  100
AcDbLine
  10
30.23301
  20
0.239918
  30
0
  11
30.33301
  21
0.169921
  31
0
  0
LINE
  5
640
  100
AcDbEntity
  8
1
  100
AcDbLine
  10
30.33301
  20
0.169921
  30
0
  11
30.43301
  21
0.09991
  31
0
  0
LINE
  5
641
  100
AcDbEntity
  8
1
  100
AcDbLine
  10
30.43301
  20
0.09991
  30
0
  11
30.53301
  21
0.029892
  31
0
  0
LINE
  5
642
  100
AcDbEntity
  8
1
  100
AcDbLine
  10
30.53301
  20
0.029892
  30
0
  11
30.63301
  21
-0.040129
  31
0
  0
LINE
  5
643
  100
AcDbEntity
  8
1
  100
AcDbLine
  10
30.63301
  20
-0.040129
  30
0
  11
30.73301
  21
-0.110146
  31
0
  0
LINE
  5
644
  100
AcDbEntity
  8
1
  100
AcDbLine
  10
30.73301
  20
-0.110146
  30
0
  11
30.83301
  21
-0.180155
  31
0
  0
LINE
  5
645
  100
AcDbEntity
  8
1
  100
AcDbLine
  10
30.83301
  20
-0.180155
  30
0
  11
30.93301
  21
-0.25015
  31
0
  0
LINE
  5
646
  100
AcDbEntity
  8
1
  100
AcDbLine
  10
30.93301
  20
-0.25015
  30
0
  11
31.03301
  21
-0.320126
  31
0
  0
LINE
  5
647
  100
AcDbEntity
  8
1
  100
AcDbLine
  10
31.03301
  20
-0.320126
  30
0
  11
31.13301
  21
-0.390078
  31
0
  0
LINE
  5
648
  100
AcDbEntity
  8
1
  100
AcDbLine
  10
31.13301
  20
-0.390078
  30
0
  11
31.23301
  21
-0.459999
  31
0
  0
LINE
  5
649
  100
AcDbEntity
  8
1
  100
AcDbLine
  10
31.23301
  20
-0.459999
  30
0
  11
31.33301
  21
-0.529886
  31
0
  0
LINE
  5
64a
  100
AcDbEntity
  8
1
  100
AcDbLine
  10
31.33301
  20
-0.529886
  30
0
  11
31.43301
  21
-0.599732
  31
0
  0
LINE
  5
64b
  100
AcDbEntity
  8
1
  100
AcDbLine
  10
31.43301
  20
-0.599732
  30
0
  11
31.53301
  21
-0.669531
  31
0
  0
LINE
  5
64c
  100
AcDbEntity
  8
1
  100
AcDbLine
  10
31.53301
  20
-0.669531
  30
0
  11
31.63301
  21
-0.73928
  31
0
  0
LINE
  5
64d
  100
AcDbEntity
  8
1
  100
AcDbLine
  10
31.63301
  20
-0.73928
  30
0
  11
31.73301
  21
-0.808972
  31
0
  0
LINE
  5
64e
  100
AcDbEntity
  8
1
  100
AcDbLine
  10
31.73301
  20
-0.808972
  30
0
  11
31.83301
  21
-0.878602
  31
0
  0
LINE
  5
64f
  100
AcDbEntity
  8
1
  100
AcDbLine
  10
31.83301
  20
-0.878602
  30
0
  11
31.93301
  21
-0.948165
  31
0
  0
LINE
  5
650
  100
AcDbEntity
  8
1
  100
AcDbLine
  10
31.93301
  20
-0.948165
  30
0
  11
32.03301
  21
-1.017655
  31
0
  0
LINE
  5
651
  100
AcDbEntity
  8
1
  100
AcDbLine
  10
32.03301
  20
-1.017655
  30
0
  11
32.13301
  21
-1.087067
  31
0
  0
LINE
  5
652
  100
AcDbEntity
  8
1
  100
AcDbLine
  10
32.13301
  20
-1.087067
  30
0
  11
32.23301
  21
-1.156395
  31
0
  0
LINE
  5
653
  100
AcDbEntity
  8
1
  100
AcDbLine
  10
32.23301
  20
-1.156395
  30
0
  11
32.33301
  21
-1.225636
  31
0
  0
LINE
  5
654
  100
AcDbEntity
  8
1
  100
AcDbLine
  10
32.33301
  20
-1.225636
  30
0
  11
32.43301
  21
-1.294782
  31
0
  0
LINE
  5
655
  100
AcDbEntity
  8
1
  100
AcDbLine
  10
32.43301
  20
-1.294782
  30
0
  11
32.53301
  21
-1.363829
  31
0
  0
LINE
  5
656
  100
AcDbEntity
  8
1
  100
AcDbLine
  10
32.53301
  20
-1.363829
  30
0
  11
32.63301
  21
-1.432772
  31
0
  0
LINE
  5
657
  100
AcDbEntity
  8
1
  100
AcDbLine
  10
32.63301
  20
-1.432772
  30
0
  11
32.73301
  21
-1.501604
  31
0
  0
LINE
  5
658
  100
AcDbEntity
  8
1
  100
AcDbLine
  10
32.73301
  20
-1.501604
  30
0
  11
32.83301
  21
-1.570322
  31
0
  0
LINE
  5
659
  100
AcDbEntity
  8
1
  100
AcDbLine
  10
32.83301
  20
-1.570322
  30
0
  11
32.93301
  21
-1.63892
  31
0
  0
LINE
  5
65a
  100
AcDbEntity
  8
1
  100
AcDbLine
  10
32.93301
  20
-1.63892
  30
0
  11
33.03301
  21
-1.707392
  31
0
  0
LINE
  5
65b
  100
AcDbEntity
  8
1
  100
AcDbLine
  10
33.03301
  20
-1.707392
  30
0
  11
33.13301
  21
-1.775733
  31
0
  0
LINE
  5
65c
  100
AcDbEntity
  8
1
  100
AcDbLine
  10
33.13301
  20
-1.775733
  30
0
  11
33.23301
  21
-1.843938
  31
0
  0
LINE
  5
65d
  100
AcDbEntity
  8
1
  100
AcDbLine
  10
33.23301
  20
-1.843938
  30
0
  11
33.33301
  21
-1.912002
  31
0
  0
LINE
  5
65e
  100
AcDbEntity
  8
1
  100
AcDbLine
  10
33.33301
  20
-1.912002
  30
0
  11
33.43301
  21
-1.979919
  31
0
  0
LINE
  5
65f
  100
AcDbEntity
  8
1
  100
AcDbLine
  10
33.43301
  20
-1.979919
  30
0
  11
33.53301
  21
-2.047685
  31
0
  0
LINE
  5
660
  100
AcDbEntity
  8
1
  100
AcDbLine
  10
33.53301
  20
-2.047685
  30
0
  11
33.63301
  21
-2.115294
  31
0
  0
LINE
  5
661
  100
AcDbEntity
  8
1
  100
AcDbLine
  10
33.63301
  20
-2.115294
  30
0
  11
33.73301
  21
-2.182741
  31
0
  0
LINE
  5
662
  100
AcDbEntity
  8
1
  100
AcDbLine
  10
33.73301
  20
-2.182741
  30
0
  11
33.83301
  21
-2.25002
  31
0
  0
LINE
  5
663
  100
AcDbEntity
  8
1
  100
AcDbLine
  10
33.83301
  20
-2.25002
  30
0
  11
33.93301
  21
-2.317128
  31
0
  0
LINE
  5
664
  100
AcDbEntity
  8
1
  100
AcDbLine
  10
33.93301
  20
-2.317128
  30
0
  11
34.03301
  21
-2.384057
  31
0
  0
LINE
  5
665
  100
AcDbEntity
  8
1
  100
AcDbLine
  10
34.03301
  20
-2.384057
  30
0
  11
34.13301
  21
-2.450804
  31
0
  0
LINE
  5
666
  100
AcDbEntity
  8
1
  100
AcDbLine
  10
34.13301
  20
-2.450804
  30
0
  11
34.23301
  21
-2.517364
  31
0
  0
LINE
  5
667
  100
AcDbEntity
  8
1
  100
AcDbLine
  10
34.23301
  20
-2.517364
  30
0
  11
34.33301
  21
-2.58373
  31
0
  0
LINE
  5
668
  100
AcDbEntity
  8
1
  100
AcDbLine
  10
34.33301
  20
-2.58373
  30
0
  11
34.43301
  21
-2.649899
  31
0
  0
LINE
  5
669
  100
AcDbEntity
  8
1
  100
AcDbLine
  10
34.43301
  20
-2.649899
  30
0
  11
34.53301
  21
-2.715864
  31
0
  0
LINE
  5
66a
  100
AcDbEntity
  8
1
  100
AcDbLine
  10
34.53301
  20
-2.715864
  30
0
  11
34.63301
  21
-2.781622
  31
0
  0
LINE
  5
66b
  100
AcDbEntity
  8
1
  100
AcDbLine
  10
34.63301
  20
-2.781622
  30
0
  11
34.73301
  21
-2.847166
  31
0
  0
LINE
  5
66c
  100
AcDbEntity
  8
1
  100
AcDbLine
  10
34.73301
  20
-2.847166
  30
0
  11
34.83301
  21
-2.912493
  31
0
  0
LINE
  5
66d
  100
AcDbEntity
  8
1
  100
AcDbLine
  10
34.83301
  20
-2.912493
  30
0
  11
34.93301
  21
-2.977596
  31
0
  0
LINE
  5
66e
  100
AcDbEntity
  8
1
  100
AcDbLine
  10
34.93301
  20
-2.977596
  30
0
  11
35.03301
  21
-3.042471
  31
0
  0
LINE
  5
66f
  100
AcDbEntity
  8
1
  100
AcDbLine
  10
35.03301
  20
-3.042471
  30
0
  11
35.13301
  21
-3.107113
  31
0
  0
LINE
  5
670
  100
AcDbEntity
  8
1
  100
AcDbLine
  10
35.13301
  20
-3.107113
  30
0
  11
35.23301
  21
-3.171517
  31
0
  0
LINE
  5
671
  100
AcDbEntity
  8
1
  100
AcDbLine
  10
35.23301
  20
-3.171517
  30
0
  11
35.33301
  21
-3.235678
  31
0
  0
LINE
  5
672
  100
AcDbEntity
  8
1
  100
AcDbLine
  10
35.33301
  20
-3.235678
  30
0
  11
35.43301
  21
-3.299591
  31
0
  0
LINE
  5
673
  100
AcDbEntity
  8
1
  100
AcDbLine
  10
35.43301
  20
-3.299591
  30
0
  11
35.53301
  21
-3.363251
  31
0
  0
LINE
  5
674
  100
AcDbEntity
  8
1
  100
AcDbLine
  10
35.53301
  20
-3.363251
  30
0
  11
35.63301
  21
-3.426654
  31
0
  0
LINE
  5
675
  100
AcDbEntity
  8
1
  100
AcDbLine
  10
35.63301
  20
-3.426654
  30
0
  11
35.73301
  21
-3.489794
  31
0
  0
LINE
  5
676
  100
AcDbEntity
  8
1
  100
AcDbLine
  10
35.73301
  20
-3.489794
  30
0
  11
35.83301
  21
-3.552667
  31
0
  0
LINE
  5
677
  100
AcDbEntity
  8
1
  100
AcDbLine
  10
35.83301
  20
-3.552667
  30
0
  11
35.93301
  21
-3.615268
  31
0
  0
LINE
  5
678
  100
AcDbEntity
  8
1
  100
AcDbLine
  10
35.93301
  20
-3.615268
  30
0
  11
36.03301
  21
-3.677592
  31
0
  0
LINE
  5
679
  100
AcDbEntity
  8
1
  100
AcDbLine
  10
36.03301
  20
-3.677592
  30
0
  11
36.13301
  21
-3.739634
  31
0
  0
LINE
  5
67a
  100
AcDbEntity
  8
1
  100
AcDbLine
  10
36.13301
  20
-3.739634
  30
0
  11
36.23301
  21
-3.801389
  31
0
  0
LINE
  5
67b
  100
AcDbEntity
  8
1
  100
AcDbLine
  10
36.23301
  20
-3.801389
  30
0
  11
36.33301
  21
-3.862853
  31
0
  0
LINE
  5
67c
  100
AcDbEntity
  8
1
  100
AcDbLine
  10
36.33301
  20
-3.862853
  30
0
  11
36.43301
  21
-3.924022
  31
0
  0
LINE
  5
67d
  100
AcDbEntity
  8
1
  100
AcDbLine
  10
36.43301
  20
-3.924022
  30
0
  11
36.53301
  21
-3.98489
  31
0
  0
LINE
  5
67e
  100
AcDbEntity
  8
1
  100
AcDbLine
  10
36.53301
  20
-3.98489
  30
0
  11
36.63301
  21
-4.045452
  31
0
  0
LINE
  5
67f
  100
AcDbEntity
  8
1
  100
AcDbLine
  10
36.63301
  20
-4.045452
  30
0
  11
36.73301
  21
-4.105705
  31
0
  0
LINE
  5
680
  100
AcDbEntity
  8
1
  100
AcDbLine
  10
36.73301
  20
-4.105705
  30
0
  11
36.83301
  21
-4.165643
  31
0
  0
LINE
  5
681
  100
AcDbEntity
  8
1
  100
AcDbLine
  10
36.83301
  20
-4.165643
  30
0
  11
36.93301
  21
-4.225262
  31
0
  0
LINE
  5
682
  100
AcDbEntity
  8
1
  100
AcDbLine
  10
36.93301
  20
-4.225262
  30
0
  11
37.03301
  21
-4.284557
  31
0
  0
LINE
  5
683
  100
AcDbEntity
  8
1
  100
AcDbLine
  10
37.03301
  20
-4.284557
  30
0
  11
37.13301
  21
-4.343524
  31
0
  0
LINE
  5
684
  100
AcDbEntity
  8
1
  100
AcDbLine
  10
37.13301
  20
-4.343524
  30
0
  11
37.23301
  21
-4.402158
  31
0
  0
LINE
  5
685
  100
AcDbEntity
  8
1
  100
AcDbLine
  10
37.23301
  20
-4.402158
  30
0
  11
37.33301
  21
-4.460455
  31
0
  0
LINE
  5
686
  100
AcDbEntity
  8
1
  100
AcDbLine
  10
37.33301
  20
-4.460455
  30
0
  11
37.43301
  21
-4.518411
  31
0
  0
LINE
  5
687
  100
AcDbEntity
  8
1
  100
AcDbLine
  10
37.43301
  20
-4.518411
  30
0
  11
37.53301
  21
-4.57602
  31
0
  0
LINE
  5
688
  100
AcDbEntity
  8
1
  100
AcDbLine
  10
37.53301
  20
-4.57602
  30
0
  11
37.63301
  21
-4.633279
  31
0
  0
LINE
  5
689
  100
AcDbEntity
  8
1
  100
AcDbLine
  10
37.63301
  20
-4.633279
  30
0
  11
37.73301
  21
-4.690182
  31
0
  0
LINE
  5
68a
  100
AcDbEntity
  8
1
  100
AcDbLine
  10
37.73301
  20
-4.690182
  30
0
  11
37.83301
  21
-4.746727
  31
0
  0
LINE
  5
68b
  100
AcDbEntity
  8
1
  100
AcDbLine
  10
37.83301
  20
-4.746727
  30
0
  11
37.93301
  21
-4.802907
  31
0
  0
LINE
  5
68c
  100
AcDbEntity
  8
1
  100
AcDbLine
  10
37.93301
  20
-4.802907
  30
0
  11
38.03301
  21
-4.85872
  31
0
  0
LINE
  5
68d
  100
AcDbEntity
  8
1
  100
AcDbLine
  10
38.03301
  20
-4.85872
  30
0
  11
38.13301
  21
-4.914161
  31
0
  0
LINE
  5
68e
  100
AcDbEntity
  8
1
  100
AcDbLine
  10
38.13301
  20
-4.914161
  30
0
  11
38.23301
  21
-4.969225
  31
0
  0
LINE
  5
68f
  100
AcDbEntity
  8
1
  100
AcDbLine
  10
38.23301
  20
-4.969225
  30
0
  11
38.33301
  21
-5.023908
  31
0
  0
LINE
  5
690
  100
AcDbEntity
  8
1
  100
AcDbLine
  10
38.33301
  20
-5.023908
  30
0
  11
38.43301
  21
-5.078207
  31
0
  0
LINE
  5
691
  100
AcDbEntity
  8
1
  100
AcDbLine
  10
38.43301
  20
-5.078207
  30
0
  11
38.53301
  21
-5.132117
  31
0
  0
LINE
  5
692
  100
AcDbEntity
  8
1
  100
AcDbLine
  10
38.53301
  20
-5.132117
  30
0
  11
38.63301
  21
-5.185633
  31
0
  0
LINE
  5
693
  100
AcDbEntity
  8
1
  100
AcDbLine
  10
38.63301
  20
-5.185633
  30
0
  11
38.73301
  21
-5.238752
  31
0
  0
LINE
  5
694
  100
AcDbEntity
  8
1
  100
AcDbLine
  10
38.73301
  20
-5.238752
  30
0
  11
38.83301
  21
-5.29147
  31
0
  0
LINE
  5
695
  100
AcDbEntity
  8
1
  100
AcDbLine
  10
38.83301
  20
-5.29147
  30
0
  11
38.93301
  21
-5.343782
  31
0
  0
LINE
  5
696
  100
AcDbEntity
  8
1
  100
AcDbLine
  10
38.93301
  20
-5.343782
  30
0
  11
39.03301
  21
-5.395686
  31
0
  0
LINE
  5
697
  100
AcDbEntity
  8
1
  100
AcDbLine
  10
39.03301
  20
-5.395686
  30
0
  11
39.13301
  21
-5.447175
  31
0
  0
LINE
  5
698
  100
AcDbEntity
  8
1
  100
AcDbLine
  10
39.13301
  20
-5.447175
  30
0
  11
39.23301
  21
-5.498248
  31
0
  0
LINE
  5
699
  100
AcDbEntity
  8
1
  100
AcDbLine
  10
39.23301
  20
-5.498248
  30
0
  11
39.33301
  21
-5.548899
  31
0
  0
LINE
  5
69a
  100
AcDbEntity
  8
1
  100
AcDbLine
  10
39.33301
  20
-5.548899
  30
0
  11
39.43301
  21
-5.599125
  31
0
  0
LINE
  5
69b
  100
AcDbEntity
  8
1
  100
AcDbLine
  10
39.43301
  20
-5.599125
  30
0
  11
39.53301
  21
-5.648922
  31
0
  0
LINE
  5
69c
  100
AcDbEntity
  8
1
  100
AcDbLine
  10
39.53301
  20
-5.648922
  30
0
  11
39.63301
  21
-5.698287
  31
0
  0
LINE
  5
69d
  100
AcDbEntity
  8
1
  100
AcDbLine
  10
39.63301
  20
-5.698287
  30
0
  11
39.73301
  21
-5.747215
  31
0
  0
LINE
  5
69e
  100
AcDbEntity
  8
1
  100
AcDbLine
  10
39.73301
  20
-5.747215
  30
0
  11
39.83301
  21
-5.795702
  31
0
  0
LINE
  5
69f
  100
AcDbEntity
  8
1
  100
AcDbLine
  10
39.83301
  20
-5.795702
  30
0
  11
39.93301
  21
-5.843746
  31
0
  0
LINE
  5
6a0
  100
AcDbEntity
  8
1
  100
AcDbLine
  10
39.93301
  20
-5.843746
  30
0
  11
40.03301
  21
-5.891342
  31
0
  0
LINE
  5
6a1
  100
AcDbEntity
  8
1
  100
AcDbLine
  10
40.03301
  20
-5.891342
  30
0
  11
40.13301
  21
-5.938487
  31
0
  0
LINE
  5
6a2
  100
AcDbEntity
  8
1
  100
AcDbLine
  10
40.13301
  20
-5.938487
  30
0
  11
40.23301
  21
-5.985177
  31
0
  0
LINE
  5
6a3
  100
AcDbEntity
  8
1
  100
AcDbLine
  10
40.23301
  20
-5.985177
  30
0
  11
40.33301
  21
-6.031408
  31
0
  0
LINE
  5
6a4
  100
AcDbEntity
  8
1
  100
AcDbLine
  10
40.33301
  20
-6.031408
  30
0
  11
40.43301
  21
-6.077177
  31
0
  0
LINE
  5
6a5
  100
AcDbEntity
  8
1
  100
AcDbLine
  10
40.43301
  20
-6.077177
  30
0
  11
40.53301
  21
-6.122481
  31
0
  0
LINE
  5
6a6
  100
AcDbEntity
  8
1
  100
AcDbLine
  10
40.53301
  20
-6.122481
  30
0
  11
40.63301
  21
-6.167315
  31
0
  0
LINE
  5
6a7
  100
AcDbEntity
  8
1
  100
AcDbLine
  10
40.63301
  20
-6.167315
  30
0
  11
40.73301
  21
-6.211677
  31
0
  0
LINE
  5
6a8
  100
AcDbEntity
  8
1
  100
AcDbLine
  10
40.73301
  20
-6.211677
  30
0
  11
40.83301
  21
-6.255564
  31
0
  0
LINE
  5
6a9
  100
AcDbEntity
  8
1
  100
AcDbLine
  10
40.83301
  20
-6.255564
  30
0
  11
40.93301
  21
-6.298971
  31
0
  0
LINE
  5
6aa
  100
AcDbEntity
  8
1
  100
AcDbLine
  10
40.93301
  20
-6.298971
  30
0
  11
41.03301
  21
-6.341895
  31
0
  0
LINE
  5
6ab
  100
AcDbEntity
  8
1
  100
AcDbLine
  10
41.03301
  20
-6.341895
  30
0
  11
41.13301
  21
-6.384334
  31
0
  0
LINE
  5
6ac
  100
AcDbEntity
  8
1
  100
AcDbLine
  10
41.13301
  20
-6.384334
  30
0
  11
41.23301
  21
-6.426283
  31
0
  0
LINE
  5
6ad
  100
AcDbEntity
  8
1
  100
AcDbLine
  10
41.23301
  20
-6.426283
  30
0
  11
41.33301
  21
-6.467741
  31
0
  0
LINE
  5
6ae
  100
AcDbEntity
  8
1
  100
AcDbLine
  10
41.33301
  20
-6.467741
  30
0
  11
41.43301
  21
-6.508702
  31
0
  0
LINE
  5
6af
  100
AcDbEntity
  8
1
  100
AcDbLine
  10
41.43301
  20
-6.508702
  30
0
  11
41.53301
  21
-6.549166
  31
0
  0
LINE
  5
6b0
  100
AcDbEntity
  8
1
  100
AcDbLine
  10
41.53301
  20
-6.549166
  30
0
  11
41.63301
  21
-6.589127
  31
0
  0
LINE
  5
6b1
  100
AcDbEntity
  8
1
  100
AcDbLine
  10
41.63301
  20
-6.589127
  30
0
  11
41.73301
  21
-6.628584
  31
0
  0
LINE
  5
6b2
  100
AcDbEntity
  8
1
  100
AcDbLine
  10
41.73301
  20
-6.628584
  30
0
  11
41.83301
  21
-6.667533
  31
0
  0
LINE
  5
6b3
  100
AcDbEntity
  8
1
  100
AcDbLine
  10
41.83301
  20
-6.667533
  30
0
  11
41.93301
  21
-6.705971
  31
0
  0
LINE
  5
6b4
  100
AcDbEntity
  8
1
  100
AcDbLine
  10
41.93301
  20
-6.705971
  30
0
  11
42.03301
  21
-6.743895
  31
0
  0
LINE
  5
6b5
  100
AcDbEntity
  8
1
  100
AcDbLine
  10
42.03301
  20
-6.743895
  30
0
  11
42.13301
  21
-6.781303
  31
0
  0
LINE
  5
6b6
  100
AcDbEntity
  8
1
  100
AcDbLine
  10
42.13301
  20
-6.781303
  30
0
  11
42.23301
  21
-6.818191
  31
0
  0
LINE
  5
6b7
  100
AcDbEntity
  8
1
  100
AcDbLine
  10
42.23301
  20
-6.818191
  30
0
  11
42.33301
  21
-6.854557
  31
0
  0
LINE
  5
6b8
  100
AcDbEntity
  8
1
  100
AcDbLine
  10
42.33301
  20
-6.854557
  30
0
  11
42.43301
  21
-6.890398
  31
0
  0
LINE
  5
6b9
  100
AcDbEntity
  8
1
  100
AcDbLine
  10
42.43301
  20
-6.890398
  30
0
  11
42.53301
  21
-6.925711
  31
0
  0
LINE
  5
6ba
  100
AcDbEntity
  8
1
  100
AcDbLine
  10
42.53301
  20
-6.925711
  30
0
  11
42.63301
  21
-6.960493
  31
0
  0
LINE
  5
6bb
  100
AcDbEntity
  8
1
  100
AcDbLine
  10
42.63301
  20
-6.960493
  30
0
  11
42.73301
  21
-6.994742
  31
0
  0
LINE
  5
6bc
  100
AcDbEntity
  8
1
  100
AcDbLine
  10
42.73301
  20
-6.994742
  30
0
  11
42.83301
  21
-7.028456
  31
0
  0
LINE
  5
6bd
  100
AcDbEntity
  8
1
  100
AcDbLine
  10
42.83301
  20
-7.028456
  30
0
  11
42.93301
  21
-7.061631
  31
0
  0
LINE
  5
6be
  100
AcDbEntity
  8
1
  100
AcDbLine
  10
42.93301
  20
-7.061631
  30
0
  11
43.03301
  21
-7.094265
  31
0
  0
LINE
  5
6bf
  100
AcDbEntity
  8
1
  100
AcDbLine
  10
43.03301
  20
-7.094265
  30
0
  11
43.13301
  21
-7.126355
  31
0
  0
LINE
  5
6c0
  100
AcDbEntity
  8
1
  100
AcDbLine
  10
43.13301
  20
-7.126355
  30
0
  11
43.23301
  21
-7.1579
  31
0
  0
LINE
  5
6c1
  100
AcDbEntity
  8
1
  100
AcDbLine
  10
43.23301
  20
-7.1579
  30
0
  11
43.33301
  21
-7.188896
  31
0
  0
LINE
  5
6c2
  100
AcDbEntity
  8
1
  100
AcDbLine
  10
43.33301
  20
-7.188896
  30
0
  11
43.43301
  21
-7.219341
  31
0
  0
LINE
  5
6c3
  100
AcDbEntity
  8
1
  100
AcDbLine
  10
43.43301
  20
-7.219341
  30
0
  11
43.53301
  21
-7.249234
  31
0
  0
LINE
  5
6c4
  100
AcDbEntity
  8
1
  100
AcDbLine
  10
43.53301
  20
-7.249234
  30
0
  11
43.63301
  21
-7.278571
  31
0
  0
LINE
  5
6c5
  100
AcDbEntity
  8
1
  100
AcDbLine
  10
43.63301
  20
-7.278571
  30
0
  11
43.73301
  21
-7.30735
  31
0
  0
LINE
  5
6c6
  100
AcDbEntity
  8
1
  100
AcDbLine
  10
43.73301
  20
-7.30735
  30
0
  11
43.83301
  21
-7.33557
  31
0
  0
LINE
  5
6c7
  100
AcDbEntity
  8
1
  100
AcDbLine
  10
43.83301
  20
-7.33557
  30
0
  11
43.93301
  21
-7.363227
  31
0
  0
LINE
  5
6c8
  100
AcDbEntity
  8
1
  100
AcDbLine
  10
43.93301
  20
-7.363227
  30
0
  11
44.03301
  21
-7.390321
  31
0
  0
LINE
  5
6c9
  100
AcDbEntity
  8
1
  100
AcDbLine
  10
44.03301
  20
-7.390321
  30
0
  11
44.13301
  21
-7.416849
  31
0
  0
LINE
  5
6ca
  100
AcDbEntity
  8
1
  100
AcDbLine
  10
44.13301
  20
-7.416849
  30
0
  11
44.23301
  21
-7.442808
  31
0
  0
LINE
  5
6cb
  100
AcDbEntity
  8
1
  100
AcDbLine
  10
44.23301
  20
-7.442808
  30
0
  11
44.33301
  21
-7.468197
  31
0
  0
LINE
  5
6cc
  100
AcDbEntity
  8
1
  100
AcDbLine
  10
44.33301
  20
-7.468197
  30
0
  11
44.43301
  21
-7.493014
  31
0
  0
LINE
  5
6cd
  100
AcDbEntity
  8
1
  100
AcDbLine
  10
44.43301
  20
-7.493014
  30
0
  11
44.53301
  21
-7.517257
  31
0
  0
LINE
  5
6ce
  100
AcDbEntity
  8
1
  100
AcDbLine
  10
44.53301
  20
-7.517257
  30
0
  11
44.63301
  21
-7.427151
  31
0
  0
LINE
  5
6cf
  100
AcDbEntity
  8
1
  100
AcDbLine
  10
44.63301
  20
-7.427151
  30
0
  11
44.73301
  21
-7.336348
  31
0
  0
LINE
  5
6d0
  100
AcDbEntity
  8
1
  100
AcDbLine
  10
44.73301
  20
-7.336348
  30
0
  11
44.83301
  21
-7.244849
  31
0
  0
LINE
  5
6d1
  100
AcDbEntity
  8
1
  100
AcDbLine
  10
44.83301
  20
-7.244849
  30
0
  11
44.93301
  21
-7.152652
  31
0
  0
LINE
  5
6d2
  100
AcDbEntity
  8
1
  100
AcDbLine
  10
44.93301
  20
-7.455046
  30
0
  11
44.83301
  21
-7.549105
  31
0
  0
LINE
  5
6d3
  100
AcDbEntity
  8
1
  100
AcDbLine
  10
44.83301
  20
-7.549105
  30
0
  11
44.73301
  21
-7.642745
  31
0
  0
LINE
  5
6d4
  100
AcDbEntity
  8
1
  100
AcDbLine
  10
44.73301
  20
-7.642745
  30
0
  11
44.63301
  21
-7.735945
  31
0
  0
LINE
  5
6d5
  100
AcDbEntity
  8
1
  100
AcDbLine
  10
44.63301
  20
-7.735945
  30
0
  11
44.53301
  21
-7.828687
  31
0
  0
LINE
  5
6d6
  100
AcDbEntity
  8
1
  100
AcDbLine
  10
44.53301
  20
-7.828687
  30
0
  11
44.43301
  21
-7.819087
  31
0
  0
LINE
  5
6d7
  100
AcDbEntity
  8
1
  100
AcDbLine
  10
44.43301
  20
-7.819087
  30
0
  11
44.33301
  21
-7.808889
  31
0
  0
LINE
  5
6d8
  100
AcDbEntity
  8
1
  100
AcDbLine
  10
44.33301
  20
-7.808889
  30
0
  11
44.23301
  21
-7.798092
  31
0
  0
LINE
  5
6d9
  100
AcDbEntity
  8
1
  100
AcDbLine
  10
44.23301
  20
-7.798092
  30
0
  11
44.13301
  21
-7.786698
  31
0
  0
LINE
  5
6da
  100
AcDbEntity
  8
1
  100
AcDbLine
  10
44.13301
  20
-7.786698
  30
0
  11
44.03301
  21
-7.774707
  31
0
  0
LINE
  5
6db
  100
AcDbEntity
  8
1
  100
AcDbLine
  10
44.03301
  20
-7.774707
  30
0
  11
43.93301
  21
-7.762121
  31
0
  0
LINE
  5
6dc
  100
AcDbEntity
  8
1
  100
AcDbLine
  10
43.93301
  20
-7.762121
  30
0
  11
43.83301
  21
-7.74894
  31
0
  0
LINE
  5
6dd
  100
AcDbEntity
  8
1
  100
AcDbLine
  10
43.83301
  20
-7.74894
  30
0
  11
43.73301
  21
-7.735165
  31
0
  0
LINE
  5
6de
  100
AcDbEntity
  8
1
  100
AcDbLine
  10
43.73301
  20
-7.735165
  30
0
  11
43.63301
  21
-7.720798
  31
0
  0
LINE
  5
6df
  100
AcDbEntity
  8
1
  100
AcDbLine
  10
43.63301
  20
-7.720798
  30
0
  11
43.53301
  21
-7.705839
  31
0
  0
LINE
  5
6e0
  100
AcDbEntity
  8
1
  100
AcDbLine
  10
43.53301
  20
-7.705839
  30
0
  11
43.43301
  21
-7.69029
  31
0
  0
LINE
  5
6e1
  100
AcDbEntity
  8
1
  100
AcDbLine
  10
43.43301
  20
-7.69029
  30
0
  11
43.33301
  21
-7.674152
  31
0
  0
LINE
  5
6e2
  100
AcDbEntity
  8
1
  100
AcDbLine
  10
43.33301
  20
-7.674152
  30
0
  11
43.23301
  21
-7.657426
  31
0
  0
LINE
  5
6e3
  100
AcDbEntity
  8
1
  100
AcDbLine
  10
43.23301
  20
-7.657426
  30
0
  11
43.13301
  21
-7.640114
  31
0
  0
LINE
  5
6e4
  100
AcDbEntity
  8
1
  100
AcDbLine
  10
43.13301
  20
-7.640114
  30
0
  11
43.03301
  21
-7.622216
  31
0
  0
LINE
  5
6e5
  100
AcDbEntity
  8
1
  100
AcDbLine
  10
43.03301
  20
-7.622216
  30
0
  11
42.93301
  21
-7.603734
  31
0
  0
LINE
  5
6e6
  100
AcDbEntity
  8
1
  100
AcDbLine
  10
42.93301
  20
-7.603734
  30
0
  11
42.83301
  21
-7.584669
  31
0
  0
LINE
  5
6e7
  100
AcDbEntity
  8
1
  100
AcDbLine
  10
42.83301
  20
-7.584669
  30
0
  11
42.73301
  21
-7.565024
  31
0
  0
LINE
  5
6e8
  100
AcDbEntity
  8
1
  100
AcDbLine
  10
42.73301
  20
-7.565024
  30
0
  11
42.63301
  21
-7.544799
  31
0
  0
LINE
  5
6e9
  100
AcDbEntity
  8
1
  100
AcDbLine
  10
42.63301
  20
-7.544799
  30
0
  11
42.53301
  21
-7.523996
  31
0
  0
LINE
  5
6ea
  100
AcDbEntity
  8
1
  100
AcDbLine
  10
42.53301
  20
-7.523996
  30
0
  11
42.43301
  21
-7.502617
  31
0
  0
LINE
  5
6eb
  100
AcDbEntity
  8
1
  100
AcDbLine
  10
42.43301
  20
-7.502617
  30
0
  11
42.33301
  21
-7.480663
  31
0
  0
LINE
  5
6ec
  100
AcDbEntity
  8
1
  100
AcDbLine
  10
42.33301
  20
-7.480663
  30
0
  11
42.23301
  21
-7.458136
  31
0
  0
LINE
  5
6ed
  100
AcDbEntity
  8
1
  100
AcDbLine
  10
42.23301
  20
-7.458136
  30
0
  11
42.13301
  21
-7.435037
  31
0
  0
LINE
  5
6ee
  100
AcDbEntity
  8
1
  100
AcDbLine
  10
42.13301
  20
-7.435037
  30
0
  11
42.03301
  21
-7.411369
  31
0
  0
LINE
  5
6ef
  100
AcDbEntity
  8
1
  100
AcDbLine
  10
42.03301
  20
-7.411369
  30
0
  11
41.93301
  21
-7.387134
  31
0
  0
LINE
  5
6f0
  100
AcDbEntity
  8
1
  100
AcDbLine
  10
41.93301
  20
-7.387134
  30
0
  11
41.83301
  21
-7.362332
  31
0
  0
LINE
  5
6f1
  100
AcDbEntity
  8
1
  100
AcDbLine
  10
41.83301
  20
-7.362332
  30
0
  11
41.73301
  21
-7.336966
  31
0
  0
LINE
  5
6f2
  100
AcDbEntity
  8
1
  100
AcDbLine
  10
41.73301
  20
-7.336966
  30
0
  11
41.63301
  21
-7.311038
  31
0
  0
LINE
  5
6f3
  100
AcDbEntity
  8
1
  100
AcDbLine
  10
41.63301
  20
-7.311038
  30
0
  11
41.53301
  21
-7.28455
  31
0
  0
LINE
  5
6f4
  100
AcDbEntity
  8
1
  100
AcDbLine
  10
41.53301
  20
-7.28455
  30
0
  11
41.43301
  21
-7.257505
  31
0
  0
LINE
  5
6f5
  100
AcDbEntity
  8
1
  100
AcDbLine
  10
41.43301
  20
-7.257505
  30
0
  11
41.33301
  21
-7.229903
  31
0
  0
LINE
  5
6f6
  100
AcDbEntity
  8
1
  100
AcDbLine
  10
41.33301
  20
-7.229903
  30
0
  11
41.23301
  21
-7.201747
  31
0
  0
LINE
  5
6f7
  100
AcDbEntity
  8
1
  100
AcDbLine
  10
41.23301
  20
-7.201747
  30
0
  11
41.13301
  21
-7.173039
  31
0
  0
LINE
  5
6f8
  100
AcDbEntity
  8
1
  100
AcDbLine
  10
41.13301
  20
-7.173039
  30
0
  11
41.03301
  21
-7.143782
  31
0
  0
LINE
  5
6f9
  100
AcDbEntity
  8
1
  100
AcDbLine
  10
41.03301
  20
-7.143782
  30
0
  11
40.93301
  21
-7.113978
  31
0
  0
LINE
  5
6fa
  100
AcDbEntity
  8
1
  100
AcDbLine
  10
40.93301
  20
-7.113978
  30
0
  11
40.83301
  21
-7.083629
  31
0
  0
LINE
  5
6fb
  100
AcDbEntity
  8
1
  100
AcDbLine
  10
40.83301
  20
-7.083629
  30
0
  11
40.73301
  21
-7.052737
  31
0
  0
LINE
  5
6fc
  100
AcDbEntity
  8
1
  100
AcDbLine
  10
40.73301
  20
-7.052737
  30
0
  11
40.63301
  21
-7.021305
  31
0
  0
LINE
  5
6fd
  100
AcDbEntity
  8
1
  100
AcDbLine
  10
40.63301
  20
-7.021305
  30
0
  11
40.53301
  21
-6.989335
  31
0
  0
LINE
  5
6fe
  100
AcDbEntity
  8
1
  100
AcDbLine
  10
40.53301
  20
-6.989335
  30
0
  11
40.43301
  21
-6.956829
  31
0
  0
LINE
  5
6ff
  100
AcDbEntity
  8
1
  100
AcDbLine
  10
40.43301
  20
-6.956829
  30
0
  11
40.33301
  21
-6.923791
  31
0
  0
LINE
  5
700
  100
AcDbEntity
  8
1
  100
AcDbLine
  10
40.33301
  20
-6.923791
  30
0
  11
40.23301
  21
-6.890222
  31
0
  0
LINE
  5
701
  100
AcDbEntity
  8
1
  100
AcDbLine
  10
40.23301
  20
-6.890222
  30
0
  11
40.13301
  21
-6.856125
  31
0
  0
LINE
  5
702
  100
AcDbEntity
  8
1
  100
AcDbLine
  10
40.13301
  20
-6.856125
  30
0
  11
40.03301
  21
-6.821503
  31
0
  0
LINE
  5
703
  100
AcDbEntity
  8
1
  100
AcDbLine
  10
40.03301
  20
-6.821503
  30
0
  11
39.93301
  21
-6.786359
  31
0
  0
LINE
  5
704
  100
AcDbEntity
  8
1
  100
AcDbLine
  10
39.93301
  20
-6.786359
  30
0
  11
39.83301
  21
-6.750694
  31
0
  0
LINE
  5
705
  100
AcDbEntity
  8
1
  100
AcDbLine
  10
39.83301
  20
-6.750694
  30
0
  11
39.73301
  21
-6.714513
  31
0
  0
LINE
  5
706
  100
AcDbEntity
  8
1
  100
AcDbLine
  10
39.73301
  20
-6.714513
  30
0
  11
39.63301
  21
-6.677817
  31
0
  0
LINE
  5
707
  100
AcDbEntity
  8
1
  100
AcDbLine
  10
39.63301
  20
-6.677817
  30
0
  11
39.53301
  21
-6.640609
  31
0
  0
LINE
  5
708
  100
AcDbEntity
  8
1
  100
AcDbLine
  10
39.53301
  20
-6.640609
  30
0
  11
39.43301
  21
-6.602893
  31
0
  0
LINE
  5
709
  100
AcDbEntity
  8
1
  100
AcDbLine
  10
39.43301
  20
-6.602893
  30
0
  11
39.33301
  21
-6.564671
  31
0
  0
LINE
  5
70a
  100
AcDbEntity
  8
1
  100
AcDbLine
  10
39.33301
  20
-6.564671
  30
0
  11
39.23301
  21
-6.525946
  31
0
  0
LINE
  5
70b
  100
AcDbEntity
  8
1
  100
AcDbLine
  10
39.23301
  20
-6.525946
  30
0
  11
39.13301
  21
-6.486721
  31
0
  0
LINE
  5
70c
  100
AcDbEntity
  8
1
  100
AcDbLine
  10
39.13301
  20
-6.486721
  30
0
  11
39.03301
  21
-6.446999
  31
0
  0
LINE
  5
70d
  100
AcDbEntity
  8
1
  100
AcDbLine
  10
39.03301
  20
-6.446999
  30
0
  11
38.93301
  21
-6.406784
  31
0
  0
LINE
  5
70e
  100
AcDbEntity
  8
1
  100
AcDbLine
  10
38.93301
  20
-6.406784
  30
0
  11
38.83301
  21
-6.366077
  31
0
  0
LINE
  5
70f
  100
AcDbEntity
  8
1
  100
AcDbLine
  10
38.83301
  20
-6.366077
  30
0
  11
38.73301
  21
-6.324883
  31
0
  0
LINE
  5
710
  100
AcDbEntity
  8
1
  100
AcDbLine
  10
38.73301
  20
-6.324883
  30
0
  11
38.63301
  21
-6.283204
  31
0
  0
LINE
  5
711
  100
AcDbEntity
  8
1
  100
AcDbLine
  10
38.63301
  20
-6.283204
  30
0
  11
38.53301
  21
-6.241044
  31
0
  0
LINE
  5
712
  100
AcDbEntity
  8
1
  100
AcDbLine
  10
38.53301
  20
-6.241044
  30
0
  11
38.43301
  21
-6.198406
  31
0
  0
LINE
  5
713
  100
AcDbEntity
  8
1
  100
AcDbLine
  10
38.43301
  20
-6.198406
  30
0
  11
38.33301
  21
-6.155293
  31
0
  0
LINE
  5
714
  100
AcDbEntity
  8
1
  100
AcDbLine
  10
38.33301
  20
-6.155293
  30
0
  11
38.23301
  21
-6.111708
  31
0
  0
LINE
  5
715
  100
AcDbEntity
  8
1
  100
AcDbLine
  10
38.23301
  20
-6.111708
  30
0
  11
38.13301
  21
-6.067656
  31
0
  0
LINE
  5
716
  100
AcDbEntity
  8
1
  100
AcDbLine
  10
38.13301
  20
-6.067656
  30
0
  11
38.03301
  21
-6.023138
  31
0
  0
LINE
  5
717
  100
AcDbEntity
  8
1
  100
AcDbLine
  10
38.03301
  20
-6.023138
  30
0
  11
37.93301
  21
-5.978159
  31
0
  0
LINE
  5
718
  100
AcDbEntity
  8
1
  100
AcDbLine
  10
37.93301
  20
-5.978159
  30
0
  11
37.83301
  21
-5.932722
  31
0
  0
LINE
  5
719
  100
AcDbEntity
  8
1
  100
AcDbLine
  10
37.83301
  20
-5.932722
  30
0
  11
37.73301
  21
-5.886831
  31
0
  0
LINE
  5
71a
  100
AcDbEntity
  8
1
  100
AcDbLine
  10
37.73301
  20
-5.886831
  30
0
  11
37.63301
  21
-5.840488
  31
0
  0
LINE
  5
71b
  100
AcDbEntity
  8
1
  100
AcDbLine
  10
37.63301
  20
-5.840488
  30
0
  11
37.53301
  21
-5.793698
  31
0
  0
LINE
  5
71c
  100
AcDbEntity
  8
1
  100
AcDbLine
  10
37.53301
  20
-5.793698
  30
0
  11
37.43301
  21
-5.746464
  31
0
  0
LINE
  5
71d
  100
AcDbEntity
  8
1
  100
AcDbLine
  10
37.43301
  20
-5.746464
  30
0
  11
37.33301
  21
-5.698791
  31
0
  0
LINE
  5
71e
  100
AcDbEntity
  8
1
  100
AcDbLine
  10
37.33301
  20
-5.698791
  30
0
  11
37.23301
  21
-5.65068
  31
0
  0
LINE
  5
71f
  100
AcDbEntity
  8
1
  100
AcDbLine
  10
37.23301
  20
-5.65068
  30
0
  11
37.13301
  21
-5.602137
  31
0
  0
LINE
  5
720
  100
AcDbEntity
  8
1
  100
AcDbLine
  10
37.13301
  20
-5.602137
  30
0
  11
37.03301
  21
-5.553164
  31
0
  0
LINE
  5
721
  100
AcDbEntity
  8
1
  100
AcDbLine
  10
37.03301
  20
-5.553164
  30
0
  11
36.93301
  21
-5.503766
  31
0
  0
LINE
  5
722
  100
AcDbEntity
  8
1
  100
AcDbLine
  10
36.93301
  20
-5.503766
  30
0
  11
36.83301
  21
-5.453946
  31
0
  0
LINE
  5
723
  100
AcDbEntity
  8
1
  100
AcDbLine
  10
36.83301
  20
-5.453946
  30
0
  11
36.73301
  21
-5.403709
  31
0
  0
LINE
  5
724
  100
AcDbEntity
  8
1
  100
AcDbLine
  10
36.73301
  20
-5.403709
  30
0
  11
36.63301
  21
-5.353058
  31
0
  0
LINE
  5
725
  100
AcDbEntity
  8
1
  100
AcDbLine
  10
36.63301
  20
-5.353058
  30
0
  11
36.53301
  21
-5.301996
  31
0
  0
LINE
  5
726
  100
AcDbEntity
  8
1
  100
AcDbLine
  10
36.53301
  20
-5.301996
  30
0
  11
36.43301
  21
-5.250529
  31
0
  0
LINE
  5
727
  100
AcDbEntity
  8
1
  100
AcDbLine
  10
36.43301
  20
-5.250529
  30
0
  11
36.33301
  21
-5.198659
  31
0
  0
LINE
  5
728
  100
AcDbEntity
  8
1
  100
AcDbLine
  10
36.33301
  20
-5.198659
  30
0
  11
36.23301
  21
-5.146391
  31
0
  0
LINE
  5
729
  100
AcDbEntity
  8
1
  100
AcDbLine
  10
36.23301
  20
-5.146391
  30
0
  11
36.13301
  21
-5.093728
  31
0
  0
LINE
  5
72a
  100
AcDbEntity
  8
1
  100
AcDbLine
  10
36.13301
  20
-5.093728
  30
0
  11
36.03301
  21
-5.040676
  31
0
  0
LINE
  5
72b
  100
AcDbEntity
  8
1
  100
AcDbLine
  10
36.03301
  20
-5.040676
  30
0
  11
35.93301
  21
-4.987237
  31
0
  0
LINE
  5
72c
  100
AcDbEntity
  8
1
  100
AcDbLine
  10
35.93301
  20
-4.987237
  30
0
  11
35.83301
  21
-4.933416
  31
0
  0
LINE
  5
72d
  100
AcDbEntity
  8
1
  100
AcDbLine
  10
35.83301
  20
-4.933416
  30
0
  11
35.73301
  21
-4.879217
  31
0
  0
LINE
  5
72e
  100
AcDbEntity
  8
1
  100
AcDbLine
  10
35.73301
  20
-4.879217
  30
0
  11
35.63301
  21
-4.824645
  31
0
  0
LINE
  5
72f
  100
AcDbEntity
  8
1
  100
AcDbLine
  10
35.63301
  20
-4.824645
  30
0
  11
35.53301
  21
-4.769703
  31
0
  0
LINE
  5
730
  100
AcDbEntity
  8
1
  100
AcDbLine
  10
35.53301
  20
-4.769703
  30
0
  11
35.43301
  21
-4.714395
  31
0
  0
LINE
  5
731
  100
AcDbEntity
  8
1
  100
AcDbLine
  10
35.43301
  20
-4.714395
  30
0
  11
35.33301
  21
-4.658726
  31
0
  0
LINE
  5
732
  100
AcDbEntity
  8
1
  100
AcDbLine
  10
35.33301
  20
-4.658726
  30
0
  11
35.23301
  21
-4.602701
  31
0
  0
LINE
  5
733
  100
AcDbEntity
  8
1
  100
AcDbLine
  10
35.23301
  20
-4.602701
  30
0
  11
35.13301
  21
-4.546323
  31
0
  0
LINE
  5
734
  100
AcDbEntity
  8
1
  100
AcDbLine
  10
35.13301
  20
-4.546323
  30
0
  11
35.03301
  21
-4.489596
  31
0
  0
LINE
  5
735
  100
AcDbEntity
  8
1
  100
AcDbLine
  10
35.03301
  20
-4.489596
  30
0
  11
34.93301
  21
-4.432526
  31
0
  0
LINE
  5
736
  100
AcDbEntity
  8
1
  100
AcDbLine
  10
34.93301
  20
-4.432526
  30
0
  11
34.83301
  21
-4.375116
  31
0
  0
LINE
  5
737
  100
AcDbEntity
  8
1
  100
AcDbLine
  10
34.83301
  20
-4.375116
  30
0
  11
34.73301
  21
-4.317371
  31
0
  0
LINE
  5
738
  100
AcDbEntity
  8
1
  100
AcDbLine
  10
34.73301
  20
-4.317371
  30
0
  11
34.63301
  21
-4.259295
  31
0
  0
LINE
  5
739
  100
AcDbEntity
  8
1
  100
AcDbLine
  10
34.63301
  20
-4.259295
  30
0
  11
34.53301
  21
-4.200893
  31
0
  0
LINE
  5
73a
  100
AcDbEntity
  8
1
  100
AcDbLine
  10
34.53301
  20
-4.200893
  30
0
  11
34.43301
  21
-4.142169
  31
0
  0
LINE
  5
73b
  100
AcDbEntity
  8
1
  100
AcDbLine
  10
34.43301
  20
-4.142169
  30
0
  11
34.33301
  21
-4.083127
  31
0
  0
LINE
  5
73c
  100
AcDbEntity
  8
1
  100
AcDbLine
  10
34.33301
  20
-4.083127
  30
0
  11
34.23301
  21
-4.023773
  31
0
  0
LINE
  5
73d
  100
AcDbEntity
  8
1
  100
AcDbLine
  10
34.23301
  20
-4.023773
  30
0
  11
34.13301
  21
-3.964111
  31
0
  0
LINE
  5
73e
  100
AcDbEntity
  8
1
  100
AcDbLine
  10
34.13301
  20
-3.964111
  30
0
  11
34.03301
  21
-3.904145
  31
0
  0
LINE
  5
73f
  100
AcDbEntity
  8
1
  100
AcDbLine
  10
34.03301
  20
-3.904145
  30
0
  11
33.93301
  21
-3.84388
  31
0
  0
LINE
  5
740
  100
AcDbEntity
  8
1
  100
AcDbLine
  10
33.93301
  20
-3.84388
  30
0
  11
33.83301
  21
-3.78332
  31
0
  0
LINE
  5
741
  100
AcDbEntity
  8
1
  100
AcDbLine
  10
33.83301
  20
-3.78332
  30
0
  11
33.73301
  21
-3.722471
  31
0
  0
LINE
  5
742
  100
AcDbEntity
  8
1
  100
AcDbLine
  10
33.73301
  20
-3.722471
  30
0
  11
33.63301
  21
-3.661336
  31
0
  0
LINE
  5
743
  100
AcDbEntity
  8
1
  100
AcDbLine
  10
33.63301
  20
-3.661336
  30
0
  11
33.53301
  21
-3.599921
  31
0
  0
LINE
  5
744
  100
AcDbEntity
  8
1
  100
AcDbLine
  10
33.53301
  20
-3.599921
  30
0
  11
33.43301
  21
-3.53823
  31
0
  0
LINE
  5
745
  100
AcDbEntity
  8
1
  100
AcDbLine
  10
33.43301
  20
-3.53823
  30
0
  11
33.33301
  21
-3.476268
  31
0
  0
LINE
  5
746
  100
AcDbEntity
  8
1
  100
AcDbLine
  10
33.33301
  20
-3.476268
  30
0
  11
33.23301
  21
-3.41404
  31
0
  0
LINE
  5
747
  100
AcDbEntity
  8
1
  100
AcDbLine
  10
33.23301
  20
-3.41404
  30
0
  11
33.13301
  21
-3.35155
  31
0
  0
LINE
  5
748
  100
AcDbEntity
  8
1
  100
AcDbLine
  10
33.13301
  20
-3.35155
  30
0
  11
33.03301
  21
-3.288804
  31
0
  0
LINE
  5
749
  100
AcDbEntity
  8
1
  100
AcDbLine
  10
33.03301
  20
-3.288804
  30
0
  11
32.93301
  21
-3.225805
  31
0
  0
LINE
  5
74a
  100
AcDbEntity
  8
1
  100
AcDbLine
  10
32.93301
  20
-3.225805
  30
0
  11
32.83301
  21
-3.16256
  31
0
  0
LINE
  5
74b
  100
AcDbEntity
  8
1
  100
AcDbLine
  10
32.83301
  20
-3.16256
  30
0
  11
32.73301
  21
-3.099072
  31
0
  0
LINE
  5
74c
  100
AcDbEntity
  8
1
  100
AcDbLine
  10
32.73301
  20
-3.099072
  30
0
  11
32.63301
  21
-3.035347
  31
0
  0
LINE
  5
74d
  100
AcDbEntity
  8
1
  100
AcDbLine
  10
32.63301
  20
-3.035347
  30
0
  11
32.53301
  21
-2.971389
  31
0
  0
LINE
  5
74e
  100
AcDbEntity
  8
1
  100
AcDbLine
  10
32.53301
  20
-2.971389
  30
0
  11
32.43301
  21
-2.907204
  31
0
  0
LINE
  5
74f
  100
AcDbEntity
  8
1
  100
AcDbLine
  10
32.43301
  20
-2.907204
  30
0
  11
32.33301
  21
-2.842795
  31
0
  0
LINE
  5
750
  100
AcDbEntity
  8
1
  100
AcDbLine
  10
32.33301
  20
-2.842795
  30
0
  11
32.23301
  21
-2.77817
  31
0
  0
LINE
  5
751
  100
AcDbEntity
  8
1
  100
AcDbLine
  10
32.23301
  20
-2.77817
  30
0
  11
32.13301
  21
-2.713331
  31
0
  0
LINE
  5
752
  100
AcDbEntity
  8
1
  100
AcDbLine
  10
32.13301
  20
-2.713331
  30
0
  11
32.03301
  21
-2.648284
  31
0
  0
LINE
  5
753
  100
AcDbEntity
  8
1
  100
AcDbLine
  10
32.03301
  20
-2.648284
  30
0
  11
31.93301
  21
-2.583035
  31
0
  0
LINE
  5
754
  100
AcDbEntity
  8
1
  100
AcDbLine
  10
31.93301
  20
-2.583035
  30
0
  11
31.83301
  21
-2.517587
  31
0
  0
LINE
  5
755
  100
AcDbEntity
  8
1
  100
AcDbLine
  10
31.83301
  20
-2.517587
  30
0
  11
31.73301
  21
-2.451947
  31
0
  0
LINE
  5
756
  100
AcDbEntity
  8
1
  100
AcDbLine
  10
31.73301
  20
-2.451947
  30
0
  11
31.63301
  21
-2.386119
  31
0
  0
LINE
  5
757
  100
AcDbEntity
  8
1
  100
AcDbLine
  10
31.63301
  20
-2.386119
  30
0
  11
31.53301
  21
-2.320108
  31
0
  0
LINE
  5
758
  100
AcDbEntity
  8
1
  100
AcDbLine
  10
31.53301
  20
-2.320108
  30
0
  11
31.43301
  21
-2.25392
  31
0
  0
LINE
  5
759
  100
AcDbEntity
  8
1
  100
AcDbLine
  10
31.43301
  20
-2.25392
  30
0
  11
31.33301
  21
-2.187558
  31
0
  0
LINE
  5
75a
  100
AcDbEntity
  8
1
  100
AcDbLine
  10
31.33301
  20
-2.187558
  30
0
  11
31.23301
  21
-2.121029
  31
0
  0
LINE
  5
75b
  100
AcDbEntity
  8
1
  100
AcDbLine
  10
31.23301
  20
-2.121029
  30
0
  11
31.13301
  21
-2.054338
  31
0
  0
LINE
  5
75c
  100
AcDbEntity
  8
1
  100
AcDbLine
  10
31.13301
  20
-2.054338
  30
0
  11
31.03301
  21
-1.987489
  31
0
  0
LINE
  5
75d
  100
AcDbEntity
  8
1
  100
AcDbLine
  10
31.03301
  20
-1.987489
  30
0
  11
30.93301
  21
-1.920488
  31
0
  0
LINE
  5
75e
  100
AcDbEntity
  8
1
  100
AcDbLine
  10
30.93301
  20
-1.920488
  30
0
  11
30.83301
  21
-1.85334
  31
0
  0
LINE
  5
75f
  100
AcDbEntity
  8
1
  100
AcDbLine
  10
30.83301
  20
-1.85334
  30
0
  11
30.73301
  21
-1.78605
  31
0
  0
LINE
  5
760
  100
AcDbEntity
  8
1
  100
AcDbLine
  10
30.73301
  20
-1.78605
  30
0
  11
30.63301
  21
-1.718623
  31
0
  0
LINE
  5
761
  100
AcDbEntity
  8
1
  100
AcDbLine
  10
30.63301
  20
-1.718623
  30
0
  11
30.53301
  21
-1.651065
  31
0
  0
LINE
  5
762
  100
AcDbEntity
  8
1
  100
AcDbLine
  10
30.53301
  20
-1.651065
  30
0
  11
30.43301
  21
-1.58338
  31
0
  0
LINE
  5
763
  100
AcDbEntity
  8
1
  100
AcDbLine
  10
30.43301
  20
-1.58338
  30
0
  11
30.33301
  21
-1.515573
  31
0
  0
LINE
  5
764
  100
AcDbEntity
  8
1
  100
AcDbLine
  10
30.33301
  20
-1.515573
  30
0
  11
30.23301
  21
-1.447651
  31
0
  0
LINE
  5
765
  100
AcDbEntity
  8
1
  100
AcDbLine
  10
30.23301
  20
-1.447651
  30
0
  11
30.13301
  21
-1.379618
  31
0
  0
LINE
  5
766
  100
AcDbEntity
  8
1
  100
AcDbLine
  10
30.13301
  20
-1.379618
  30
0
  11
30.03301
  21
-1.311479
  31
0
  0
LINE
  5
767
  100
AcDbEntity
  8
1
  100
AcDbLine
  10
30.03301
  20
-1.311479
  30
0
  11
29.93301
  21
-1.243239
  31
0
  0
LINE
  5
768
  100
AcDbEntity
  8
1
  100
AcDbLine
  10
29.93301
  20
-1.243239
  30
0
  11
29.83301
  21
-1.174904
  31
0
  0
LINE
  5
769
  100
AcDbEntity
  8
1
  100
AcDbLine
  10
29.83301
  20
-1.174904
  30
0
  11
29.73301
  21
-1.10648
  31
0
  0
LINE
  5
76a
  100
AcDbEntity
  8
1
  100
AcDbLine
  10
29.73301
  20
-1.10648
  30
0
  11
29.63301
  21
-1.03797
  31
0
  0
LINE
  5
76b
  100
AcDbEntity
  8
1
  100
AcDbLine
  10
29.63301
  20
-1.03797
  30
0
  11
29.53301
  21
-0.969381
  31
0
  0
LINE
  5
76c
  100
AcDbEntity
  8
1
  100
AcDbLine
  10
29.53301
  20
-0.969381
  30
0
  11
29.43301
  21
-0.900718
  31
0
  0
LINE
  5
76d
  100
AcDbEntity
  8
1
  100
AcDbLine
  10
29.43301
  20
-0.900718
  30
0
  11
29.33301
  21
-0.831985
  31
0
  0
LINE
  5
76e
  100
AcDbEntity
  8
1
  100
AcDbLine
  10
29.33301
  20
-0.831985
  30
0
  11
29.23301
  21
-0.763189
  31
0
  0
LINE
  5
76f
  100
AcDbEntity
  8
1
  100
AcDbLine
  10
29.23301
  20
-0.763189
  30
0
  11
29.13301
  21
-0.694335
  31
0
  0
LINE
  5
770
  100
AcDbEntity
  8
1
  100
AcDbLine
  10
29.13301
  20
-0.694335
  30
0
  11
29.03301
  21
-0.625427
  31
0
  0
LINE
  5
771
  100
AcDbEntity
  8
1
  100
AcDbLine
  10
29.03301
  20
-0.625427
  30
0
  11
28.93301
  21
-0.556472
  31
0
  0
LINE
  5
772
  100
AcDbEntity
  8
1
  100
AcDbLine
  10
28.93301
  20
-0.556472
  30
0
  11
28.83301
  21
-0.487473
  31
0
  0
LINE
  5
773
  100
AcDbEntity
  8
1
  100
AcDbLine
  10
28.83301
  20
-0.487473
  30
0
  11
28.73301
  21
-0.418438
  31
0
  0
LINE
  5
774
  100
AcDbEntity
  8
1
  100
AcDbLine
  10
28.73301
  20
-0.418438
  30
0
  11
28.63301
  21
-0.34937
  31
0
  0
LINE
  5
775
  100
AcDbEntity
  8
1
  100
AcDbLine
  10
28.63301
  20
-0.34937
  30
0
  11
28.53301
  21
-0.280276
  31
0
  0
LINE
  5
776
  100
AcDbEntity
  8
1
  100
AcDbLine
  10
28.53301
  20
-0.280276
  30
0
  11
28.43301
  21
-0.21116
  31
0
  0
LINE
  5
777
  100
AcDbEntity
  8
1
  100
AcDbLine
  10
28.43301
  20
-0.21116
  30
0
  11
28.33301
  21
-0.142028
  31
0
  0
LINE
  5
778
  100
AcDbEntity
  8
1
  100
AcDbLine
  10
28.33301
  20
-0.142028
  30
0
  11
28.23301
  21
-0.072885
  31
0
  0
LINE
  5
779
  100
AcDbEntity
  8
1
  100
AcDbLine
  10
28.23301
  20
-0.072885
  30
0
  11
28.13301
  21
-0.003736
  31
0
  0
LINE
  5
77a
  100
AcDbEntity
  8
1
  100
AcDbLine
  10
28.13301
  20
-0.003736
  30
0
  11
28.03301
  21
0.065412
  31
0
  0
LINE
  5
77b
  100
AcDbEntity
  8
1
  100
AcDbLine
  10
28.03301
  20
0.065412
  30
0
  11
27.93301
  21
0.134556
  31
0
  0
LINE
  5
77c
  100
AcDbEntity
  8
1
  100
AcDbLine
  10
27.93301
  20
0.134556
  30
0
  11
27.83301
  21
0.20369
  31
0
  0
LINE
  5
77d
  100
AcDbEntity
  8
1
  100
AcDbLine
  10
27.83301
  20
0.20369
  30
0
  11
27.73301
  21
0.272807
  31
0
  0
LINE
  5
77e
  100
AcDbEntity
  8
1
  100
AcDbLine
  10
27.73301
  20
0.272807
  30
0
  11
27.63301
  21
0.341904
  31
0
  0
LINE
  5
77f
  100
AcDbEntity
  8
1
  100
AcDbLine
  10
27.63301
  20
0.341904
  30
0
  11
27.53301
  21
0.410975
  31
0
  0
LINE
  5
780
  100
AcDbEntity
  8
1
  100
AcDbLine
  10
27.53301
  20
0.410975
  30
0
  11
27.43301
  21
0.480015
  31
0
  0
LINE
  5
781
  100
AcDbEntity
  8
1
  100
AcDbLine
  10
27.43301
  20
0.480015
  30
0
  11
27.33301
  21
0.549017
  31
0
  0
LINE
  5
782
  100
AcDbEntity
  8
1
  100
AcDbLine
  10
27.33301
  20
0.549017
  30
0
  11
27.23301
  21
0.617977
  31
0
  0
LINE
  5
783
  100
AcDbEntity
  8
1
  100
AcDbLine
  10
27.23301
  20
0.617977
  30
0
  11
27.13301
  21
0.686891
  31
0
  0
LINE
  5
784
  100
AcDbEntity
  8
1
  100
AcDbLine
  10
27.13301
  20
0.686891
  30
0
  11
27.03301
  21
0.755751
  31
0
  0
LINE
  5
785
  100
AcDbEntity
  8
1
  100
AcDbLine
  10
27.03301
  20
0.755751
  30
0
  11
26.93301
  21
0.824554
  31
0
  0
LINE
  5
786
  100
AcDbEntity
  8
1
  100
AcDbLine
  10
26.93301
  20
0.824554
  30
0
  11
26.83301
  21
0.893293
  31
0
  0
LINE
  5
787
  100
AcDbEntity
  8
1
  100
AcDbLine
  10
26.83301
  20
0.893293
  30
0
  11
26.73301
  21
0.961964
  31
0
  0
LINE
  5
788
  100
AcDbEntity
  8
1
  100
AcDbLine
  10
26.73301
  20
0.961964
  30
0
  11
26.63301
  21
1.030561
  31
0
  0
LINE
  5
789
  100
AcDbEntity
  8
1
  100
AcDbLine
  10
26.63301
  20
1.030561
  30
0
  11
26.53301
  21
1.09908
  31
0
  0
LINE
  5
78a
  100
AcDbEntity
  8
1
  100
AcDbLine
  10
26.53301
  20
1.09908
  30
0
  11
26.43301
  21
1.167514
  31
0
  0
LINE
  5
78b
  100
AcDbEntity
  8
1
  100
AcDbLine
  10
26.43301
  20
1.167514
  30
0
  11
26.33301
  21
1.235859
  31
0
  0
LINE
  5
78c
  100
AcDbEntity
  8
1
  100
AcDbLine
  10
26.33301
  20
1.235859
  30
0
  11
26.23301
  21
1.304109
  31
0
  0
LINE
  5
78d
  100
AcDbEntity
  8
1
  100
AcDbLine
  10
26.23301
  20
1.304109
  30
0
  11
26.13301
  21
1.372259
  31
0
  0
LINE
  5
78e
  100
AcDbEntity
  8
1
  100
AcDbLine
  10
26.13301
  20
1.372259
  30
0
  11
26.03301
  21
1.440304
  31
0
  0
LINE
  5
78f
  100
AcDbEntity
  8
1
  100
AcDbLine
  10
26.03301
  20
1.440304
  30
0
  11
25.93301
  21
1.508239
  31
0
  0
LINE
  5
790
  100
AcDbEntity
  8
1
  100
AcDbLine
  10
25.93301
  20
1.508239
  30
0
  11
25.83301
  21
1.576058
  31
0
  0
LINE
  5
791
  100
AcDbEntity
  8
1
  100
AcDbLine
  10
25.83301
  20
1.576058
  30
0
  11
25.73301
  21
1.643756
  31
0
  0
LINE
  5
792
  100
AcDbEntity
  8
1
  100
AcDbLine
  10
25.73301
  20
1.643756
  30
0
  11
25.63301
  21
1.711329
  31
0
  0
LINE
  5
793
  100
AcDbEntity
  8
1
  100
AcDbLine
  10
25.63301
  20
1.711329
  30
0
  11
25.53301
  21
1.77877
  31
0
  0
LINE
  5
794
  100
AcDbEntity
  8
1
  100
AcDbLine
  10
25.53301
  20
1.77877
  30
0
  11
25.43301
  21
1.846075
  31
0
  0
LINE
  5
795
  100
AcDbEntity
  8
1
  100
AcDbLine
  10
25.43301
  20
1.846075
  30
0
  11
25.33301
  21
1.913239
  31
0
  0
LINE
  5
796
  100
AcDbEntity
  8
1
  100
AcDbLine
  10
25.33301
  20
1.913239
  30
0
  11
25.23301
  21
1.980256
  31
0
  0
LINE
  5
797
  100
AcDbEntity
  8
1
  100
AcDbLine
  10
25.23301
  20
1.980256
  30
0
  11
25.13301
  21
2.047121
  31
0
  0
LINE
  5
798
  100
AcDbEntity
  8
1
  100
AcDbLine
  10
25.13301
  20
2.047121
  30
0
  11
25.03301
  21
2.11383
  31
0
  0
LINE
  5
799
  100
AcDbEntity
  8
1
  100
AcDbLine
  10
25.03301
  20
2.11383
  30
0
  11
24.93301
  21
2.180377
  31
0
  0
LINE
  5
79a
  100
AcDbEntity
  8
1
  100
AcDbLine
  10
24.93301
  20
2.180377
  30
0
  11
24.83301
  21
2.246756
  31
0
  0
LINE
  5
79b
  100
AcDbEntity
  8
1
  100
AcDbLine
  10
24.83301
  20
2.246756
  30
0
  11
24.73301
  21
2.312964
  31
0
  0
LINE
  5
79c
  100
AcDbEntity
  8
1
  100
AcDbLine
  10
24.73301
  20
2.312964
  30
0
  11
24.63301
  21
2.378994
  31
0
  0
LINE
  5
79d
  100
AcDbEntity
  8
1
  100
AcDbLine
  10
24.63301
  20
2.378994
  30
0
  11
24.53301
  21
2.444842
  31
0
  0
LINE
  5
79e
  100
AcDbEntity
  8
1
  100
AcDbLine
  10
24.53301
  20
2.444842
  30
0
  11
24.43301
  21
2.510503
  31
0
  0
LINE
  5
79f
  100
AcDbEntity
  8
1
  100
AcDbLine
  10
24.43301
  20
2.510503
  30
0
  11
24.33301
  21
2.575971
  31
0
  0
LINE
  5
7a0
  100
AcDbEntity
  8
1
  100
AcDbLine
  10
24.33301
  20
2.575971
  30
0
  11
24.23301
  21
2.641242
  31
0
  0
LINE
  5
7a1
  100
AcDbEntity
  8
1
  100
AcDbLine
  10
24.23301
  20
2.641242
  30
0
  11
24.13301
  21
2.706311
  31
0
  0
LINE
  5
7a2
  100
AcDbEntity
  8
1
  100
AcDbLine
  10
24.13301
  20
2.706311
  30
0
  11
24.03301
  21
2.771173
  31
0
  0
LINE
  5
7a3
  100
AcDbEntity
  8
1
  100
AcDbLine
  10
24.03301
  20
2.771173
  30
0
  11
23.93301
  21
2.835822
  31
0
  0
LINE
  5
7a4
  100
AcDbEntity
  8
1
  100
AcDbLine
  10
23.93301
  20
2.835822
  30
0
  11
23.83301
  21
2.900254
  31
0
  0
LINE
  5
7a5
  100
AcDbEntity
  8
1
  100
AcDbLine
  10
23.83301
  20
2.900254
  30
0
  11
23.73301
  21
2.964463
  31
0
  0
LINE
  5
7a6
  100
AcDbEntity
  8
1
  100
AcDbLine
  10
23.73301
  20
2.964463
  30
0
  11
23.63301
  21
3.028446
  31
0
  0
LINE
  5
7a7
  100
AcDbEntity
  8
1
  100
AcDbLine
  10
23.63301
  20
3.028446
  30
0
  11
23.53301
  21
3.092197
  31
0
  0
LINE
  5
7a8
  100
AcDbEntity
  8
1
  100
AcDbLine
  10
23.53301
  20
3.092197
  30
0
  11
23.43301
  21
3.15571
  31
0
  0
LINE
  5
7a9
  100
AcDbEntity
  8
1
  100
AcDbLine
  10
23.43301
  20
3.15571
  30
0
  11
23.33301
  21
3.218982
  31
0
  0
LINE
  5
7aa
  100
AcDbEntity
  8
1
  100
AcDbLine
  10
23.33301
  20
3.218982
  30
0
  11
23.23301
  21
3.282008
  31
0
  0
LINE
  5
7ab
  100
AcDbEntity
  8
1
  100
AcDbLine
  10
23.23301
  20
3.282008
  30
0
  11
23.13301
  21
3.344782
  31
0
  0
LINE
  5
7ac
  100
AcDbEntity
  8
1
  100
AcDbLine
  10
23.13301
  20
3.344782
  30
0
  11
23.03301
  21
3.4073
  31
0
  0
LINE
  5
7ad
  100
AcDbEntity
  8
1
  100
AcDbLine
  10
23.03301
  20
3.4073
  30
0
  11
22.93301
  21
3.469556
  31
0
  0
LINE
  5
7ae
  100
AcDbEntity
  8
1
  100
AcDbLine
  10
22.93301
  20
3.469556
  30
0
  11
22.83301
  21
3.531547
  31
0
  0
LINE
  5
7af
  100
AcDbEntity
  8
1
  100
AcDbLine
  10
22.83301
  20
3.531547
  30
0
  11
22.73301
  21
3.593268
  31
0
  0
LINE
  5
7b0
  100
AcDbEntity
  8
1
  100
AcDbLine
  10
22.73301
  20
3.593268
  30
0
  11
22.63301
  21
3.654713
  31
0
  0
LINE
  5
7b1
  100
AcDbEntity
  8
1
  100
AcDbLine
  10
22.63301
  20
3.654713
  30
0
  11
22.53301
  21
3.715878
  31
0
  0
LINE
  5
7b2
  100
AcDbEntity
  8
1
  100
AcDbLine
  10
22.53301
  20
3.715878
  30
0
  11
22.43301
  21
3.776758
  31
0
  0
LINE
  5
7b3
  100
AcDbEntity
  8
1
  100
AcDbLine
  10
22.43301
  20
3.776758
  30
0
  11
22.33301
  21
3.837349
  31
0
  0
LINE
  5
7b4
  100
AcDbEntity
  8
1
  100
AcDbLine
  10
22.33301
  20
3.837349
  30
0
  11
22.23301
  21
3.897647
  31
0
  0
LINE
  5
7b5
  100
AcDbEntity
  8
1
  100
AcDbLine
  10
22.23301
  20
3.897647
  30
0
  11
22.13301
  21
3.957645
  31
0
  0
LINE
  5
7b6
  100
AcDbEntity
  8
1
  100
AcDbLine
  10
22.13301
  20
3.957645
  30
0
  11
22.03301
  21
4.01734
  31
0
  0
LINE
  5
7b7
  100
AcDbEntity
  8
1
  100
AcDbLine
  10
22.03301
  20
4.01734
  30
0
  11
21.93301
  21
4.076728
  31
0
  0
LINE
  5
7b8
  100
AcDbEntity
  8
1
  100
AcDbLine
  10
21.93301
  20
4.076728
  30
0
  11
21.83301
  21
4.135803
  31
0
  0
LINE
  5
7b9
  100
AcDbEntity
  8
1
  100
AcDbLine
  10
21.83301
  20
4.135803
  30
0
  11
21.73301
  21
4.194562
  31
0
  0
LINE
  5
7ba
  100
AcDbEntity
  8
1
  100
AcDbLine
  10
21.73301
  20
4.194562
  30
0
  11
21.63301
  21
4.252999
  31
0
  0
LINE
  5
7bb
  100
AcDbEntity
  8
1
  100
AcDbLine
  10
21.63301
  20
4.252999
  30
0
  11
21.53301
  21
4.31111
  31
0
  0
LINE
  5
7bc
  100
AcDbEntity
  8
1
  100
AcDbLine
  10
21.53301
  20
4.31111
  30
0
  11
21.43301
  21
4.368892
  31
0
  0
LINE
  5
7bd
  100
AcDbEntity
  8
1
  100
AcDbLine
  10
21.43301
  20
4.368892
  30
0
  11
21.33301
  21
4.426338
  31
0
  0
LINE
  5
7be
  100
AcDbEntity
  8
1
  100
AcDbLine
  10
21.33301
  20
4.426338
  30
0
  11
21.23301
  21
4.483445
  31
0
  0
LINE
  5
7bf
  100
AcDbEntity
  8
1
  100
AcDbLine
  10
21.23301
  20
4.483445
  30
0
  11
21.13301
  21
4.540209
  31
0
  0
LINE
  5
7c0
  100
AcDbEntity
  8
1
  100
AcDbLine
  10
21.13301
  20
4.540209
  30
0
  11
21.03301
  21
4.596625
  31
0
  0
LINE
  5
7c1
  100
AcDbEntity
  8
1
  100
AcDbLine
  10
21.03301
  20
4.596625
  30
0
  11
20.93301
  21
4.652689
  31
0
  0
LINE
  5
7c2
  100
AcDbEntity
  8
1
  100
AcDbLine
  10
20.93301
  20
4.652689
  30
0
  11
20.83301
  21
4.708396
  31
0
  0
LINE
  5
7c3
  100
AcDbEntity
  8
1
  100
AcDbLine
  10
20.83301
  20
4.708396
  30
0
  11
20.73301
  21
4.763743
  31
0
  0
LINE
  5
7c4
  100
AcDbEntity
  8
1
  100
AcDbLine
  10
20.73301
  20
4.763743
  30
0
  11
20.63301
  21
4.818725
  31
0
  0
LINE
  5
7c5
  100
AcDbEntity
  8
1
  100
AcDbLine
  10
20.63301
  20
4.818725
  30
0
  11
20.53301
  21
4.873338
  31
0
  0
LINE
  5
7c6
  100
AcDbEntity
  8
1
  100
AcDbLine
  10
20.53301
  20
4.873338
  30
0
  11
20.43301
  21
4.927577
  31
0
  0
LINE
  5
7c7
  100
AcDbEntity
  8
1
  100
AcDbLine
  10
20.43301
  20
4.927577
  30
0
  11
20.33301
  21
4.981439
  31
0
  0
LINE
  5
7c8
  100
AcDbEntity
  8
1
  100
AcDbLine
  10
20.33301
  20
4.981439
  30
0
  11
20.23301
  21
5.034919
  31
0
  0
LINE
  5
7c9
  100
AcDbEntity
  8
1
  100
AcDbLine
  10
20.23301
  20
5.034919
  30
0
  11
20.13301
  21
5.088014
  31
0
  0
LINE
  5
7ca
  100
AcDbEntity
  8
1
  100
AcDbLine
  10
20.13301
  20
5.088014
  30
0
  11
20.03301
  21
5.140718
  31
0
  0
LINE
  5
7cb
  100
AcDbEntity
  8
1
  100
AcDbLine
  10
20.03301
  20
5.140718
  30
0
  11
19.93301
  21
5.193029
  31
0
  0
LINE
  5
7cc
  100
AcDbEntity
  8
1
  100
AcDbLine
  10
19.93301
  20
5.193029
  30
0
  11
19.83301
  21
5.244942
  31
0
  0
LINE
  5
7cd
  100
AcDbEntity
  8
1
  100
AcDbLine
  10
19.83301
  20
5.244942
  30
0
  11
19.73301
  21
5.296454
  31
0
  0
LINE
  5
7ce
  100
AcDbEntity
  8
1
  100
AcDbLine
  10
19.73301
  20
5.296454
  30
0
  11
19.63301
  21
5.347559
  31
0
  0
LINE
  5
7cf
  100
AcDbEntity
  8
1
  100
AcDbLine
  10
19.63301
  20
5.347559
  30
0
  11
19.53301
  21
5.398255
  31
0
  0
LINE
  5
7d0
  100
AcDbEntity
  8
1
  100
AcDbLine
  10
19.53301
  20
5.398255
  30
0
  11
19.43301
  21
5.448537
  31
0
  0
LINE
  5
7d1
  100
AcDbEntity
  8
1
  100
AcDbLine
  10
19.43301
  20
5.448537
  30
0
  11
19.33301
  21
5.498402
  31
0
  0
LINE
  5
7d2
  100
AcDbEntity
  8
1
  100
AcDbLine
  10
19.33301
  20
5.498402
  30
0
  11
19.23301
  21
5.547846
  31
0
  0
LINE
  5
7d3
  100
AcDbEntity
  8
1
  100
AcDbLine
  10
19.23301
  20
5.547846
  30
0
  11
19.13301
  21
5.596865
  31
0
  0
LINE
  5
7d4
  100
AcDbEntity
  8
1
  100
AcDbLine
  10
19.13301
  20
5.596865
  30
0
  11
19.03301
  21
5.645455
  31
0
  0
LINE
  5
7d5
  100
AcDbEntity
  8
1
  100
AcDbLine
  10
19.03301
  20
5.645455
  30
0
  11
18.93301
  21
5.693612
  31
0
  0
LINE
  5
7d6
  100
AcDbEntity
  8
1
  100
AcDbLine
  10
18.93301
  20
5.693612
  30
0
  11
18.83301
  21
5.741334
  31
0
  0
LINE
  5
7d7
  100
AcDbEntity
  8
1
  100
AcDbLine
  10
18.83301
  20
5.741334
  30
0
  11
18.73301
  21
5.788615
  31
0
  0
LINE
  5
7d8
  100
AcDbEntity
  8
1
  100
AcDbLine
  10
18.73301
  20
5.788615
  30
0
  11
18.63301
  21
5.835453
  31
0
  0
LINE
  5
7d9
  100
AcDbEntity
  8
1
  100
AcDbLine
  10
18.63301
  20
5.835453
  30
0
  11
18.53301
  21
5.881844
  31
0
  0
LINE
  5
7da
  100
AcDbEntity
  8
1
  100
AcDbLine
  10
18.53301
  20
5.881844
  30
0
  11
18.43301
  21
5.927784
  31
0
  0
LINE
  5
7db
  100
AcDbEntity
  8
1
  100
AcDbLine
  10
18.43301
  20
5.927784
  30
0
  11
18.33301
  21
5.973271
  31
0
  0
LINE
  5
7dc
  100
AcDbEntity
  8
1
  100
AcDbLine
  10
18.33301
  20
5.973271
  30
0
  11
18.23301
  21
6.018299
  31
0
  0
LINE
  5
7dd
  100
AcDbEntity
  8
1
  100
AcDbLine
  10
18.23301
  20
6.018299
  30
0
  11
18.13301
  21
6.062867
  31
0
  0
LINE
  5
7de
  100
AcDbEntity
  8
1
  100
AcDbLine
  10
18.13301
  20
6.062867
  30
0
  11
18.03301
  21
6.10697
  31
0
  0
LINE
  5
7df
  100
AcDbEntity
  8
1
  100
AcDbLine
  10
18.03301
  20
6.10697
  30
0
  11
17.93301
  21
6.150606
  31
0
  0
LINE
  5
7e0
  100
AcDbEntity
  8
1
  100
AcDbLine
  10
17.93301
  20
6.150606
  30
0
  11
17.83301
  21
6.19377
  31
0
  0
LINE
  5
7e1
  100
AcDbEntity
  8
1
  100
AcDbLine
  10
17.83301
  20
6.19377
  30
0
  11
17.73301
  21
6.236459
  31
0
  0
LINE
  5
7e2
  100
AcDbEntity
  8
1
  100
AcDbLine
  10
17.73301
  20
6.236459
  30
0
  11
17.63301
  21
6.278671
  31
0
  0
LINE
  5
7e3
  100
AcDbEntity
  8
1
  100
AcDbLine
  10
17.63301
  20
6.278671
  30
0
  11
17.53301
  21
6.320402
  31
0
  0
LINE
  5
7e4
  100
AcDbEntity
  8
1
  100
AcDbLine
  10
17.53301
  20
6.320402
  30
0
  11
17.43301
  21
6.361649
  31
0
  0
LINE
  5
7e5
  100
AcDbEntity
  8
1
  100
AcDbLine
  10
17.43301
  20
6.361649
  30
0
  11
17.33301
  21
6.402408
  31
0
  0
LINE
  5
7e6
  100
AcDbEntity
  8
1
  100
AcDbLine
  10
17.33301
  20
6.402408
  30
0
  11
17.23301
  21
6.442677
  31
0
  0
LINE
  5
7e7
  100
AcDbEntity
  8
1
  100
AcDbLine
  10
17.23301
  20
6.442677
  30
0
  11
17.13301
  21
6.482452
  31
0
  0
LINE
  5
7e8
  100
AcDbEntity
  8
1
  100
AcDbLine
  10
17.13301
  20
6.482452
  30
0
  11
17.03301
  21
6.521731
  31
0
  0
LINE
  5
7e9
  100
AcDbEntity
  8
1
  100
AcDbLine
  10
17.03301
  20
6.521731
  30
0
  11
16.93301
  21
6.56051
  31
0
  0
LINE
  5
7ea
  100
AcDbEntity
  8
1
  100
AcDbLine
  10
16.93301
  20
6.56051
  30
0
  11
16.83301
  21
6.598787
  31
0
  0
LINE
  5
7eb
  100
AcDbEntity
  8
1
  100
AcDbLine
  10
16.83301
  20
6.598787
  30
0
  11
16.73301
  21
6.636558
  31
0
  0
LINE
  5
7ec
  100
AcDbEntity
  8
1
  100
AcDbLine
  10
16.73301
  20
6.636558
  30
0
  11
16.63301
  21
6.673821
  31
0
  0
LINE
  5
7ed
  100
AcDbEntity
  8
1
  100
AcDbLine
  10
16.63301
  20
6.673821
  30
0
  11
16.53301
  21
6.710572
  31
0
  0
LINE
  5
7ee
  100
AcDbEntity
  8
1
  100
AcDbLine
  10
16.53301
  20
6.710572
  30
0
  11
16.43301
  21
6.746809
  31
0
  0
LINE
  5
7ef
  100
AcDbEntity
  8
1
  100
AcDbLine
  10
16.43301
  20
6.746809
  30
0
  11
16.33301
  21
6.78253
  31
0
  0
LINE
  5
7f0
  100
AcDbEntity
  8
1
  100
AcDbLine
  10
16.33301
  20
6.78253
  30
0
  11
16.23301
  21
6.81773
  31
0
  0
LINE
  5
7f1
  100
AcDbEntity
  8
1
  100
AcDbLine
  10
16.23301
  20
6.81773
  30
0
  11
16.13301
  21
6.852409
  31
0
  0
LINE
  5
7f2
  100
AcDbEntity
  8
1
  100
AcDbLine
  10
16.13301
  20
6.852409
  30
0
  11
16.03301
  21
6.886563
  31
0
  0
LINE
  5
7f3
  100
AcDbEntity
  8
1
  100
AcDbLine
  10
16.03301
  20
6.886563
  30
0
  11
15.93301
  21
6.920189
  31
0
  0
LINE
  5
7f4
  100
AcDbEntity
  8
1
  100
AcDbLine
  10
15.93301
  20
6.920189
  30
0
  11
15.83301
  21
6.953284
  31
0
  0
LINE
  5
7f5
  100
AcDbEntity
  8
1
  100
AcDbLine
  10
15.83301
  20
6.953284
  30
0
  11
15.73301
  21
6.985848
  31
0
  0
LINE
  5
7f6
  100
AcDbEntity
  8
1
  100
AcDbLine
  10
15.73301
  20
6.985848
  30
0
  11
15.63301
  21
7.017876
  31
0
  0
LINE
  5
7f7
  100
AcDbEntity
  8
1
  100
AcDbLine
  10
15.63301
  20
7.017876
  30
0
  11
15.53301
  21
7.049366
  31
0
  0
LINE
  5
7f8
  100
AcDbEntity
  8
1
  100
AcDbLine
  10
15.53301
  20
7.049366
  30
0
  11
15.43301
  21
7.080317
  31
0
  0
LINE
  5
7f9
  100
AcDbEntity
  8
1
  100
AcDbLine
  10
15.43301
  20
7.080317
  30
0
  11
15.33301
  21
7.110725
  31
0
  0
LINE
  5
7fa
  100
AcDbEntity
  8
1
  100
AcDbLine
  10
15.33301
  20
7.110725
  30
0
  11
15.23301
  21
7.140588
  31
0
  0
LINE
  5
7fb
  100
AcDbEntity
  8
1
  100
AcDbLine
  10
15.23301
  20
7.140588
  30
0
  11
15.13301
  21
7.169904
  31
0
  0
LINE
  5
7fc
  100
AcDbEntity
  8
1
  100
AcDbLine
  10
15.13301
  20
7.169904
  30
0
  11
15.03301
  21
7.198671
  31
0
  0
LINE
  5
7fd
  100
AcDbEntity
  8
1
  100
AcDbLine
  10
15.03301
  20
7.198671
  30
0
  11
14.93301
  21
7.226887
  31
0
  0
LINE
  5
7fe
  100
AcDbEntity
  8
1
  100
AcDbLine
  10
14.93301
  20
7.226887
  30
0
  11
14.83301
  21
7.254548
  31
0
  0
LINE
  5
7ff
  100
AcDbEntity
  8
1
  100
AcDbLine
  10
14.83301
  20
7.254548
  30
0
  11
14.73301
  21
7.281654
  31
0
  0
LINE
  5
800
  100
AcDbEntity
  8
1
  100
AcDbLine
  10
14.73301
  20
7.281654
  30
0
  11
14.63301
  21
7.308203
  31
0
  0
LINE
  5
801
  100
AcDbEntity
  8
1
  100
AcDbLine
  10
14.63301
  20
7.308203
  30
0
  11
14.53301
  21
7.334191
  31
0
  0
LINE
  5
802
  100
AcDbEntity
  8
1
  100
AcDbLine
  10
14.53301
  20
7.334191
  30
0
  11
14.43301
  21
7.359618
  31
0
  0
LINE
  5
803
  100
AcDbEntity
  8
1
  100
AcDbLine
  10
14.43301
  20
7.359618
  30
0
  11
14.33301
  21
7.384481
  31
0
  0
LINE
  5
804
  100
AcDbEntity
  8
1
  100
AcDbLine
  10
14.33301
  20
7.384481
  30
0
  11
14.23301
  21
7.408778
  31
0
  0
LINE
  5
805
  100
AcDbEntity
  8
1
  100
AcDbLine
  10
14.23301
  20
7.408778
  30
0
  11
14.13301
  21
7.432507
  31
0
  0
LINE
  5
806
  100
AcDbEntity
  8
1
  100
AcDbLine
  10
14.13301
  20
7.432507
  30
0
  11
14.03301
  21
7.455667
  31
0
  0
LINE
  5
807
  100
AcDbEntity
  8
1
  100
AcDbLine
  10
14.03301
  20
7.455667
  30
0
  11
13.93301
  21
7.478256
  31
0
  0
LINE
  5
808
  100
AcDbEntity
  8
1
  100
AcDbLine
  10
13.93301
  20
7.478256
  30
0
  11
13.83301
  21
7.500272
  31
0
  0
LINE
  5
809
  100
AcDbEntity
  8
1
  100
AcDbLine
  10
13.83301
  20
7.500272
  30
0
  11
13.73301
  21
7.521714
  31
0
  0
LINE
  5
80a
  100
AcDbEntity
  8
1
  100
AcDbLine
  10
13.73301
  20
7.521714
  30
0
  11
13.63301
  21
7.542579
  31
0
  0
LINE
  5
80b
  100
AcDbEntity
  8
1
  100
AcDbLine
  10
13.63301
  20
7.542579
  30
0
  11
13.53301
  21
7.562866
  31
0
  0
LINE
  5
80c
  100
AcDbEntity
  8
1
  100
AcDbLine
  10
13.53301
  20
7.562866
  30
0
  11
13.43301
  21
7.582574
  31
0
  0
LINE
  5
80d
  100
AcDbEntity
  8
1
  100
AcDbLine
  10
13.43301
  20
7.582574
  30
0
  11
13.33301
  21
7.601702
  31
0
  0
LINE
  5
80e
  100
AcDbEntity
  8
1
  100
AcDbLine
  10
13.33301
  20
7.601702
  30
0
  11
13.23301
  21
7.620246
  31
0
  0
LINE
  5
80f
  100
AcDbEntity
  8
1
  100
AcDbLine
  10
13.23301
  20
7.620246
  30
0
  11
13.13301
  21
7.638208
  31
0
  0
LINE
  5
810
  100
AcDbEntity
  8
1
  100
AcDbLine
  10
13.13301
  20
7.638208
  30
0
  11
13.03301
  21
7.655583
  31
0
  0
LINE
  5
811
  100
AcDbEntity
  8
1
  100
AcDbLine
  10
44.53301
  20
-8
  30
0
  11
44.53301
  21
8
  31
0
  0
LINE
  5
812
  100
AcDbEntity
  8
1
  100
AcDbLine
  10
44.53301
  20
8
  30
0
  11
44.53301
  21
-8
  31
0
  0
LINE
  5
813
  100
AcDbEntity
  8
SK1
  100
AcDbLine
  10
-0
  20
8
  30
0
  11
-21.76699
  21
8
  31
0
  0
LINE
  5
814
  100
AcDbEntity
  8
SK1
  100
AcDbLine
  10
-21.76699
  20
8
  30
0
  11
-23.56699
  21
6.2
  31
0
  0
LINE
  5
815
  100
AcDbEntity
  8
SK1
  100
AcDbLine
  10
-23.56699
  20
6.2
  30
0
  11
-30.56699
  21
6.2
  31
0
  0
LINE
  5
816
  100
AcDbEntity
  8
SK1
  100
AcDbLine
  10
-30.56699
  20
6.2
  30
0
  11
-32.36699
  21
8
  31
0
  0
LINE
  5
817
  100
AcDbEntity
  8
SK1
  100
AcDbLine
  10
-32.36699
  20
8
  30
0
  11
-46.56699
  21
8
  31
0
  0
LINE
  5
818
  100
AcDbEntity
  8
SK1
  100
AcDbLine
  10
-46.56699
  20
8
  30
0
  11
-47.06699
  21
7.5
  31
0
  0
LINE
  5
819
  100
AcDbEntity
  8
SK1
  100
AcDbLine
  10
-0
  20
-8
  30
0
  11
-46.56699
  21
-8
  31
0
  0
LINE
  5
81a
  100
AcDbEntity
  8
SK1
  100
AcDbLine
  10
-46.56699
  20
-8
  30
0
  11
-47.06699
  21
-7.5
  31
0
  0
LINE
  5
81b
  100
AcDbEntity
  8
SK1
  100
AcDbLine
  10
-0
  20
8
  30
0
  11
-0
  21
-8
  31
0
  0
LINE
  5
81c
  100
AcDbEntity
  8
SK1
  100
AcDbLine
  10
-0
  20
8
  30
0
  11
-0
  21
-8
  31
0
  0
LINE
  5
81d
  100
AcDbEntity
  8
SK1
  100
AcDbLine
  10
-46.56699
  20
8
  30
0
  11
-46.56699
  21
-8
  31
0
  0
LINE
  5
81e
  100
AcDbEntity
  8
SK1
  100
AcDbLine
  10
-47.06699
  20
7.5
  30
0
  11
-47.06699
  21
-7.5
  31
0
  0
LINE
  5
881
  100
AcDbEntity
  8
NOCUT
  100
AcDbLine
  10
12.93301
  20
0
  30
0
  11
12.93301
  21
7.75
  31
0
  0
LINE
  5
882
  100
AcDbEntity
  8
NOCUT
  100
AcDbLine
  10
12.93301
  20
7.75
  30
0
  11
0.93301
  21
7.75
  31
0
  0
LINE
  5
883
  100
AcDbEntity
  8
NOCUT
  100
AcDbLine
  10
0.93301
  20
7.75
  30
0
  11
-0
  21
8
  31
0
  0
LINE
  5
884
  100
AcDbEntity
  8
NOCUT
  100
AcDbLine
  10
-0
  20
8
  30
0
  11
-21.76699
  21
8
  31
0
  0
LINE
  5
885
  100
AcDbEntity
  8
NOCUT
  100
AcDbLine
  10
-21.76699
  20
8
  30
0
  11
-23.56699
  21
6.2
  31
0
  0
LINE
  5
886
  100
AcDbEntity
  8
NOCUT
  100
AcDbLine
  10
-23.56699
  20
6.2
  30
0
  11
-30.56699
  21
6.2
  31
0
  0
LINE
  5
887
  100
AcDbEntity
  8
NOCUT
  100
AcDbLine
  10
-30.56699
  20
6.2
  30
0
  11
-32.36699
  21
8
  31
0
  0
LINE
  5
888
  100
AcDbEntity
  8
NOCUT
  100
AcDbLine
  10
-32.36699
  20
8
  30
0
  11
-46.56699
  21
8
  31
0
  0
LINE
  5
889
  100
AcDbEntity
  8
NOCUT
  100
AcDbLine
  10
-46.56699
  20
8
  30
0
  11
-47.06699
  21
7.5
  31
0
  0
LINE
  5
88a
  100
AcDbEntity
  8
NOCUT
  100
AcDbLine
  10
-47.06699
  20
7.5
  30
0
  11
-47.06699
  21
0
  31
0
  0
LINE
  5
88b
  100
AcDbEntity
  8
NOCUT
  100
AcDbLine
  10
-47.06699
  20
0
  30
0
  11
12.93301
  21
0
  31
0
  0
LINE
  5
88c
  100
AcDbEntity
  8
CUT
  100
AcDbLine
  10
44.93301
  20
0
  30
0
  11
44.93301
  21
7.6
  31
0
  0
LINE
  5
88d
  100
AcDbEntity
  8
CUT
  100
AcDbLine
  10
44.93301
  20
7.6
  30
0
  11
44.53301
  21
8
  31
0
  0
LINE
  5
88e
  100
AcDbEntity
  8
CUT
  100
AcDbLine
  10
44.53301
  20
8
  30
0
  11
12.93301
  21
8
  31
0
  0
LINE
  5
88f
  100
AcDbEntity
  8
CUT
  100
AcDbLine
  10
12.93301
  20
8
  30
0
  11
12.93301
  21
0
  31
0
  0
LINE
  5
890
  100
AcDbEntity
  8
CUT
  100
AcDbLine
  10
12.93301
  20
0
  30
0
  11
44.93301
  21
0
  31
0
  0
LINE
  5
891
  100
AcDbEntity
  8
4
  100
AcDbLine
  10
-47.06699
  20
0
  30
0
  11
44.93301
  21
0
  31
0
  0
LINE
  5
892
  100
AcDbEntity
  8
INFTOTAL
  100
AcDbLine
  10
-65.274142
  20
50.691762
  30
0
  11
71.283197
  21
50.691762
  31
0
  0
LINE
  5
893
  100
AcDbEntity
  8
INFTOTAL
  100
AcDbLine
  10
71.283197
  20
50.691762
  30
0
  11
71.283197
  21
-26.568369
  31
0
  0
LINE
  5
894
  100
AcDbEntity
  8
INFTOTAL
  100
AcDbLine
  10
71.283197
  20
-26.568369
  30
0
  11
-65.274142
  21
-26.568369
  31
0
  0
LINE
  5
895
  100
AcDbEntity
  8
INFTOTAL
  100
AcDbLine
  10
-65.274142
  20
-26.568369
  30
0
  11
-65.274142
  21
50.691762
  31
0
  0
ENDSEC
  0
SECTION
  2
OBJECTS
  0
DICTIONARY
  5
896
  330
0
100
AcDbDictionary
281
    1
  3
ACAD_GROUP
  350
897
  0
DICTIONARY
  5
897
102
{ACAD_REACTORS
  330
896
102
}
  330
896
100
AcDbDictionary
281
    1
  0
ENDSEC
  0
EOF
