  0
SECTION
  2
HEADER
  9
$ACADVER
  1
AC1015
  9
$DWGCODEPAGE
  3
ansi_1252
  9
$HANDSEED
  5
106AB90
  9
$INSUNITS
  70
4
  0
ENDSEC
  0
SECTION
  2
TABLES
  0
TABLE
  2
VPORT
  5
2
  330
0
  100
AcDbSymbolTable
  70
    0
  0
ENDTAB
  0
TABLE
  2
LTYPE
  5
3
  330
0
  100
AcDbSymbolTable
  70
    4
  0
LTYPE
  5
4
  330
3
  100
AcDbSymbolTableRecord
  100
AcDbLinetypeTableRecord
  2
ByBlock
  70
    0
  3

  72
65
  73
    0
  40
0
  0
LTYPE
  5
5
  330
3
  100
AcDbSymbolTableRecord
  100
AcDbLinetypeTableRecord
  2
ByLayer
  70
    0
  3

  72
65
  73
    0
  40
0
  0
LTYPE
  5
6
  330
3
  100
AcDbSymbolTableRecord
  100
AcDbLinetypeTableRecord
  2
CONTINUOUS
  70
    0
  3
Solid Line
  72
65
  73
    0
  40
0
  0
LTYPE
  5
7
  330
3
  100
AcDbSymbolTableRecord
  100
AcDbLinetypeTableRecord
  2
DASH
  70
    0
  3
Hidden
  72
65
  73
2
  40
2.5
  49
1.5
  74
0
  49
-1
  74
0
  0
LTYPE
  5
8
  330
3
  100
AcDbSymbolTableRecord
  100
AcDbLinetypeTableRecord
  2
LONGDASHDASH
  70
    0
  3
__ . __
  72
65
  73
    4
  40
7
  49
4
  74
    0
  49
-1
  74
    0
  49
1
  74
    0
  49
-1
  74
    0
  0
ENDTAB
  0
TABLE
  2
LAYER
  5
9
  330
0
  100
AcDbSymbolTable
  70
    40
  0
LAYER
  5
a
  330
9
  100
AcDbSymbolTableRecord
  100
AcDbLayerTableRecord
  2
0
  70
    0
  62
    0
  6
CONTINUOUS
  390
0
  0
LAYER
  5
b
  330
9
  100
AcDbSymbolTableRecord
  100
AcDbLayerTableRecord
  2
DEFPOINT
  70
    0
  62
    0
  6
CONTINUOUS
  390
0
  0
LAYER
  5
c
  330
9
  100
AcDbSymbolTableRecord
  100
AcDbLayerTableRecord
  2
1
  70
    0
  62
    4
  6
CONTINUOUS
  370
50
  390
0
  0
LAYER
  5
d
  330
9
  100
AcDbSymbolTableRecord
  100
AcDbLayerTableRecord
  2
2
  70
    0
  62
    7
  6
CONTINUOUS
  370
25
  390
0
  0
LAYER
  5
e
  330
9
  100
AcDbSymbolTableRecord
  100
AcDbLayerTableRecord
  2
3
  70
    0
  62
    1
  6
DASH
  370
35
  390
0
  0
LAYER
  5
f
  330
9
  100
AcDbSymbolTableRecord
  100
AcDbLayerTableRecord
  2
4
  70
    0
  62
    2
  6
LONGDASHDASH
  370
25
  390
0
  0
LAYER
  5
10
  330
9
  100
AcDbSymbolTableRecord
  100
AcDbLayerTableRecord
  2
6
  70
    0
  62
    5
  6
CONTINUOUS
  390
0
  0
LAYER
  5
11
  330
9
  100
AcDbSymbolTableRecord
  100
AcDbLayerTableRecord
  2
7
  70
    0
  62
    5
  6
CONTINUOUS
  370
25
  390
0
  0
LAYER
  5
12
  330
9
  100
AcDbSymbolTableRecord
  100
AcDbLayerTableRecord
  2
11
  70
    0
  62
    4
  6
CONTINUOUS
  370
25
  390
0
  0
LAYER
  5
13
  330
9
  100
AcDbSymbolTableRecord
  100
AcDbLayerTableRecord
  2
SK1
  70
    0
  62
    4
  6
CONTINUOUS
  370
50
  390
0
  0
LAYER
  5
14
  330
9
  100
AcDbSymbolTableRecord
  100
AcDbLayerTableRecord
  2
SK2
  70
    0
  62
    7
  6
CONTINUOUS
  370
25
  390
0
  0
LAYER
  5
15
  330
9
  100
AcDbSymbolTableRecord
  100
AcDbLayerTableRecord
  2
SK3
  70
    0
  62
    1
  6
DASH
  370
35
  390
0
  0
LAYER
  5
16
  330
9
  100
AcDbSymbolTableRecord
  100
AcDbLayerTableRecord
  2
SK4
  70
    0
  62
    2
  6
LONGDASHDASH
  370
25
  390
0
  0
LAYER
  5
17
  330
9
  100
AcDbSymbolTableRecord
  100
AcDbLayerTableRecord
  2
SK6
  70
    0
  62
    5
  6
CONTINUOUS
  390
0
  0
LAYER
  5
18
  330
9
  100
AcDbSymbolTableRecord
  100
AcDbLayerTableRecord
  2
SK7
  70
    0
  62
    5
  6
CONTINUOUS
  370
25
  390
0
  0
LAYER
  5
19
  330
9
  100
AcDbSymbolTableRecord
  100
AcDbLayerTableRecord
  2
SK11
  70
    0
  62
    4
  6
CONTINUOUS
  370
25
  390
0
  0
LAYER
  5
1a
  330
9
  100
AcDbSymbolTableRecord
  100
AcDbLayerTableRecord
  2
SKVIEW1
  70
    0
  62
    4
  6
CONTINUOUS
  370
50
  390
0
  0
LAYER
  5
1b
  330
9
  100
AcDbSymbolTableRecord
  100
AcDbLayerTableRecord
  2
SKVIEW2
  70
    0
  62
    7
  6
CONTINUOUS
  370
25
  390
0
  0
LAYER
  5
1c
  330
9
  100
AcDbSymbolTableRecord
  100
AcDbLayerTableRecord
  2
SKVIEW3
  70
    0
  62
    1
  6
DASH
  370
35
  390
0
  0
LAYER
  5
1d
  330
9
  100
AcDbSymbolTableRecord
  100
AcDbLayerTableRecord
  2
SKVIEW4
  70
    0
  62
    2
  6
LONGDASHDASH
  370
25
  390
0
  0
LAYER
  5
1e
  330
9
  100
AcDbSymbolTableRecord
  100
AcDbLayerTableRecord
  2
SKVIEW6
  70
    0
  62
    5
  6
CONTINUOUS
  390
0
  0
LAYER
  5
1f
  330
9
  100
AcDbSymbolTableRecord
  100
AcDbLayerTableRecord
  2
SKVIEW7
  70
    0
  62
    5
  6
CONTINUOUS
  370
25
  390
0
  0
LAYER
  5
20
  330
9
  100
AcDbSymbolTableRecord
  100
AcDbLayerTableRecord
  2
SKVIEW11
  70
    0
  62
    4
  6
CONTINUOUS
  370
25
  390
0
  0
LAYER
  5
21
  330
9
  100
AcDbSymbolTableRecord
  100
AcDbLayerTableRecord
  2
NOCUT
  70
    0
  62
    7
  6
CONTINUOUS
  370
25
  390
0
  0
LAYER
  5
22
  330
9
  100
AcDbSymbolTableRecord
  100
AcDbLayerTableRecord
  2
CUT
  70
    0
  62
    1
  6
CONTINUOUS
  370
25
  390
0
  0
LAYER
  5
23
  330
9
  100
AcDbSymbolTableRecord
  100
AcDbLayerTableRecord
  2
FRAME50
  70
    0
  62
    7
  6
CONTINUOUS
  390
0
  0
LAYER
  5
24
  330
9
  100
AcDbSymbolTableRecord
  100
AcDbLayerTableRecord
  2
53
  70
    0
  62
    5
  6
CONTINUOUS
  390
0
  0
LAYER
  5
25
  330
9
  100
AcDbSymbolTableRecord
  100
AcDbLayerTableRecord
  2
INFTEXT
  70
    0
  62
    5
  6
CONTINUOUS
  390
0
  0
LAYER
  5
26
  330
9
  100
AcDbSymbolTableRecord
  100
AcDbLayerTableRecord
  2
INFTOTAL
  70
    0
  62
    9
  6
CONTINUOUS
  370
18
  390
0
  0
ENDTAB
  0
TABLE
  2
STYLE
  5
27
  330
0
  100
AcDbSymbolTable
  70
    1
  0
STYLE
  5
28
  330
27
  100
AcDbSymbolTableRecord
  100
AcDbTextStyleTableRecord
  2
Monospac821 BT
  70
    0
  40
    3.5
  41
1
  50
0
  71
0
  42
3
  3

  4

  1001
ACAD
  1000
Monospac821 BT
  1071
256
  0
ENDTAB
  0
TABLE
  2
VIEW
  5
29
  330
0
  100
AcDbSymbolTable
  70
    0
  0
ENDTAB
  0
TABLE
  2
UCS
  5
2a
  330
0
  100
AcDbSymbolTable
  70
    0
  0
ENDTAB
  0
TABLE
  2
APPID
  5
2b
  330
0
  100
AcDbSymbolTable
  70
    1
  0
APPID
  5
2c
  330
2b
  100
AcDbSymbolTableRecord
  100
AcDbRegAppTableRecord
  2
ACAD
  70
    0
  0
ENDTAB
  0
TABLE
  2
DIMSTYLE
  5
2d
  330
0
  100
AcDbSymbolTable
  70
    1
  100
AcDbDimStyleTable
  0
DIMSTYLE
  105
2e
  330
2d
  100
AcDbSymbolTableRecord
  100
AcDbDimStyleTableRecord
  2
STANDARD
  70
    0
  41
    3
  42
0.5
  44
1
  73
0
  77
1
  78
1
  140
3.5
  141
2.5
  143
0.03937
  147
0.8
  172
1
  174
1
  178
0
  179
1
  271
2
  279
1
  284
1
  340
28
  0
ENDTAB
  0
TABLE
  2
BLOCK_RECORD
  5
2f
  330
0
  100
AcDbSymbolTable
  70
    2
  0
BLOCK_RECORD
  5
30
  330
2f
  100
AcDbSymbolTableRecord
  100
AcDbBlockTableRecord
  2
*Model_Space
  0
BLOCK_RECORD
  5
31
  330
2f
  100
AcDbSymbolTableRecord
  100
AcDbBlockTableRecord
  2
*Paper_Space
  0
BLOCK_RECORD
  5
584
  330
2f
  100
AcDbSymbolTableRecord
  100
AcDbBlockTableRecord
  2
*D583
  340
0
  0
BLOCK_RECORD
  5
592
  330
2f
  100
AcDbSymbolTableRecord
  100
AcDbBlockTableRecord
  2
*D591
  340
0
  0
BLOCK_RECORD
  5
5a0
  330
2f
  100
AcDbSymbolTableRecord
  100
AcDbBlockTableRecord
  2
*D59f
  340
0
  0
BLOCK_RECORD
  5
5ae
  330
2f
  100
AcDbSymbolTableRecord
  100
AcDbBlockTableRecord
  2
*D5ad
  340
0
  0
BLOCK_RECORD
  5
5bc
  330
2f
  100
AcDbSymbolTableRecord
  100
AcDbBlockTableRecord
  2
*D5bb
  340
0
  0
ENDTAB
  0
ENDSEC
  0
SECTION
  2
BLOCKS
  0
BLOCK
  5
32
  330
30
  100
AcDbEntity
  8
0
  100
AcDbBlockBegin
  2
*Model_Space
  70
    0
  10
0
  20
0
  30
0
  3
*Model_Space
  1

  0
ENDBLK
  5
33
  330
30
  100
AcDbEntity
  8
0
  100
AcDbBlockEnd
  0
BLOCK
  5
34
  330
31
  100
AcDbEntity
  8
0
  100
AcDbBlockBegin
  2
*Paper_Space
  70
    0
  10
0
  20
0
  30
0
  3
*Paper_Space
  1

  0
ENDBLK
  5
35
  330
31
  100
AcDbEntity
  8
0
  100
AcDbBlockEnd
  0
BLOCK
  5
582
  330
584
  100
AcDbEntity
  8
SK2
  100
AcDbBlockBegin
  2
*D583
  70
1
  10
0
  20
0
  30
0
  3
*D583
  1

  0
LINE
  5
585
  330
584
  100
AcDbEntity
  8
SK2
  100
AcDbLine
  10
14.001
  20
4.9
  30
0
  11
14.001
  21
36.533672
  31
0
  0
LINE
  5
586
  330
584
  100
AcDbEntity
  8
SK2
  100
AcDbLine
  10
-51.999
  20
4.3
  30
0
  11
-51.999
  21
36.533672
  31
0
  0
LINE
  5
587
  330
584
  100
AcDbEntity
  8
SK2
  100
AcDbLine
  10
14.001
  20
34.533672
  30
0
  11
-51.999
  21
34.533672
  31
0
  0
SOLID
  5
588
  330
584
  100
AcDbEntity
  8
SK2
  100
AcDbTrace
  10
14.001
  20
34.533672
  30
0
  11
11.522388
  21
34.207356
  31
0
  12
11.522388
  22
34.859987
  32
0
  13
11.522388
  23
34.859987
  33
0
  0
SOLID
  5
589
  330
584
  100
AcDbEntity
  8
SK2
  100
AcDbTrace
  10
-51.999
  20
34.533672
  30
0
  11
-49.520388
  21
34.859987
  31
0
  12
-49.520388
  22
34.207356
  32
0
  13
-49.520388
  23
34.207356
  33
0
  0
MTEXT
  5
58a
  330
584
  100
AcDbEntity
  8
SK2
  100
AcDbMText
  10
-18.999
  20
34.533672
  30
0
  11
1
  21
-0
  31
0
  40
2
  41
0
  71
8
  72
1
  1
66+2
  0
POINT
  5
58b
  330
584
  100
AcDbEntity
  8
SK2
  62
0
  100
AcDbPoint
  10
14.001
  20
4.9
  30
0
  0
POINT
  5
58c
  330
584
  100
AcDbEntity
  8
SK2
  62
0
  100
AcDbPoint
  10
-51.999
  20
4.3
  30
0
  0
POINT
  5
58d
  330
584
  100
AcDbEntity
  8
SK2
  62
0
  100
AcDbPoint
  10
-51.999
  20
34.533672
  30
0
  0
ENDBLK
  5
58e
  330
584
  100
AcDbEntity
  8
SK2
  100
AcDbBlockEnd
  0
BLOCK
  5
590
  330
592
  100
AcDbEntity
  8
SK2
  100
AcDbBlockBegin
  2
*D591
  70
1
  10
0
  20
0
  30
0
  3
*D591
  1

  0
LINE
  5
593
  330
592
  100
AcDbEntity
  8
SK2
  100
AcDbLine
  10
-51.299
  20
-5
  30
0
  11
-63.999
  21
-5
  31
0
  0
LINE
  5
594
  330
592
  100
AcDbEntity
  8
SK2
  100
AcDbLine
  10
-51.299
  20
5
  30
0
  11
-63.999
  21
5
  31
0
  0
LINE
  5
595
  330
592
  100
AcDbEntity
  8
SK2
  100
AcDbLine
  10
-61.999
  20
-5
  30
0
  11
-61.999
  21
5
  31
0
  0
SOLID
  5
596
  330
592
  100
AcDbEntity
  8
SK2
  100
AcDbTrace
  10
-61.999
  20
-5
  30
0
  11
-62.325315
  21
-2.521388
  31
0
  12
-61.672685
  22
-2.521388
  32
0
  13
-61.672685
  23
-2.521388
  33
0
  0
SOLID
  5
597
  330
592
  100
AcDbEntity
  8
SK2
  100
AcDbTrace
  10
-61.999
  20
5
  30
0
  11
-61.672685
  21
2.521388
  31
0
  12
-62.325315
  22
2.521388
  32
0
  13
-62.325315
  23
2.521388
  33
0
  0
MTEXT
  5
598
  330
592
  100
AcDbEntity
  8
SK2
  100
AcDbMText
  10
-61.999
  20
0
  30
0
  11
0
  21
1
  31
0
  40
2
  41
0
  71
8
  72
1
  1
Ø10h6
  0
POINT
  5
599
  330
592
  100
AcDbEntity
  8
SK2
  62
0
  100
AcDbPoint
  10
-51.299
  20
-5
  30
0
  0
POINT
  5
59a
  330
592
  100
AcDbEntity
  8
SK2
  62
0
  100
AcDbPoint
  10
-51.299
  20
5
  30
0
  0
POINT
  5
59b
  330
592
  100
AcDbEntity
  8
SK2
  62
0
  100
AcDbPoint
  10
-61.999
  20
5
  30
0
  0
ENDBLK
  5
59c
  330
592
  100
AcDbEntity
  8
SK2
  100
AcDbBlockEnd
  0
BLOCK
  5
59e
  330
5a0
  100
AcDbEntity
  8
2
  100
AcDbBlockBegin
  2
*D59f
  70
1
  10
0
  20
0
  30
0
  3
*D59f
  1

  0
LINE
  5
5a1
  330
5a0
  100
AcDbEntity
  8
2
  100
AcDbLine
  10
14.001
  20
4.9
  30
0
  11
14.001
  21
13
  31
0
  0
LINE
  5
5a2
  330
5a0
  100
AcDbEntity
  8
2
  100
AcDbLine
  10
13.901
  20
5
  30
0
  11
13.901
  21
13
  31
0
  0
LINE
  5
5a3
  330
5a0
  100
AcDbEntity
  8
2
  100
AcDbLine
  10
30.992844
  20
11
  30
0
  11
13.901
  21
11
  31
0
  0
SOLID
  5
5a4
  330
5a0
  100
AcDbEntity
  8
2
  100
AcDbTrace
  10
14.001
  20
11
  30
0
  11
16.479612
  21
11.326315
  31
0
  12
16.479612
  22
10.673685
  32
0
  13
16.479612
  23
10.673685
  33
0
  0
SOLID
  5
5a5
  330
5a0
  100
AcDbEntity
  8
2
  100
AcDbTrace
  10
13.901
  20
11
  30
0
  11
11.422388
  21
10.673685
  31
0
  12
11.422388
  22
11.326315
  32
0
  13
11.422388
  23
11.326315
  33
0
  0
MTEXT
  5
5a6
  330
5a0
  100
AcDbEntity
  8
2
  100
AcDbMText
  10
17.866771
  20
11
  30
0
  11
1
  21
-0
  31
0
  40
2
  41
0
  71
7
  72
1
  1
0.1 x 45°
  0
POINT
  5
5a7
  330
5a0
  100
AcDbEntity
  8
2
  62
0
  100
AcDbPoint
  10
14.001
  20
4.9
  30
0
  0
POINT
  5
5a8
  330
5a0
  100
AcDbEntity
  8
2
  62
0
  100
AcDbPoint
  10
13.901
  20
5
  30
0
  0
POINT
  5
5a9
  330
5a0
  100
AcDbEntity
  8
2
  62
0
  100
AcDbPoint
  10
13.901
  20
11
  30
0
  0
ENDBLK
  5
5aa
  330
5a0
  100
AcDbEntity
  8
2
  100
AcDbBlockEnd
  0
BLOCK
  5
5ac
  330
5ae
  100
AcDbEntity
  8
2
  100
AcDbBlockBegin
  2
*D5ad
  70
1
  10
0
  20
0
  30
0
  3
*D5ad
  1

  0
LINE
  5
5af
  330
5ae
  100
AcDbEntity
  8
2
  100
AcDbLine
  10
13.901
  20
-5
  30
0
  11
26.001
  21
-5
  31
0
  0
LINE
  5
5b0
  330
5ae
  100
AcDbEntity
  8
2
  100
AcDbLine
  10
13.901
  20
5
  30
0
  11
26.001
  21
5
  31
0
  0
LINE
  5
5b1
  330
5ae
  100
AcDbEntity
  8
2
  100
AcDbLine
  10
24.001
  20
-17.468694
  30
0
  11
24.001
  21
5
  31
0
  0
SOLID
  5
5b2
  330
5ae
  100
AcDbEntity
  8
2
  100
AcDbTrace
  10
24.001
  20
-5
  30
0
  11
23.674685
  21
-2.521388
  31
0
  12
24.327315
  22
-2.521388
  32
0
  13
24.327315
  23
-2.521388
  33
0
  0
SOLID
  5
5b3
  330
5ae
  100
AcDbEntity
  8
2
  100
AcDbTrace
  10
24.001
  20
5
  30
0
  11
24.327315
  21
2.521388
  31
0
  12
23.674685
  22
2.521388
  32
0
  13
23.674685
  23
2.521388
  33
0
  0
MTEXT
  5
5b4
  330
5ae
  100
AcDbEntity
  8
2
  100
AcDbMText
  10
24.001
  20
-13.400291
  30
0
  11
0
  21
1
  31
0
  40
2
  41
0
  71
8
  72
1
  1
Ø10e8
  0
POINT
  5
5b5
  330
5ae
  100
AcDbEntity
  8
2
  62
0
  100
AcDbPoint
  10
13.901
  20
-5
  30
0
  0
POINT
  5
5b6
  330
5ae
  100
AcDbEntity
  8
2
  62
0
  100
AcDbPoint
  10
13.901
  20
5
  30
0
  0
POINT
  5
5b7
  330
5ae
  100
AcDbEntity
  8
2
  62
0
  100
AcDbPoint
  10
24.001
  20
5
  30
0
  0
ENDBLK
  5
5b8
  330
5ae
  100
AcDbEntity
  8
2
  100
AcDbBlockEnd
  0
BLOCK
  5
5ba
  330
5bc
  100
AcDbEntity
  8
2
  100
AcDbBlockBegin
  2
*D5bb
  70
1
  10
0
  20
0
  30
0
  3
*D5bb
  1

  0
LINE
  5
5bd
  330
5bc
  100
AcDbEntity
  8
2
  100
AcDbLine
  10
14.001
  20
0
  30
0
  11
14.001
  21
22.550831
  31
0
  0
LINE
  5
5be
  330
5bc
  100
AcDbEntity
  8
2
  100
AcDbLine
  10
0.001
  20
5
  30
0
  11
0.001
  21
22.550831
  31
0
  0
LINE
  5
5bf
  330
5bc
  100
AcDbEntity
  8
2
  100
AcDbLine
  10
14.001
  20
20.550831
  30
0
  11
0.001
  21
20.550831
  31
0
  0
SOLID
  5
5c0
  330
5bc
  100
AcDbEntity
  8
2
  100
AcDbTrace
  10
14.001
  20
20.550831
  30
0
  11
11.522388
  21
20.224515
  31
0
  12
11.522388
  22
20.877146
  32
0
  13
11.522388
  23
20.877146
  33
0
  0
SOLID
  5
5c1
  330
5bc
  100
AcDbEntity
  8
2
  100
AcDbTrace
  10
0.001
  20
20.550831
  30
0
  11
2.479612
  21
20.877146
  31
0
  12
2.479612
  22
20.224515
  32
0
  13
2.479612
  23
20.224515
  33
0
  0
MTEXT
  5
5c2
  330
5bc
  100
AcDbEntity
  8
2
  100
AcDbMText
  10
7.001
  20
20.550831
  30
0
  11
1
  21
-0
  31
0
  40
2
  41
0
  71
8
  72
1
  1
14
  0
POINT
  5
5c3
  330
5bc
  100
AcDbEntity
  8
2
  62
0
  100
AcDbPoint
  10
14.001
  20
0
  30
0
  0
POINT
  5
5c4
  330
5bc
  100
AcDbEntity
  8
2
  62
0
  100
AcDbPoint
  10
0.001
  20
5
  30
0
  0
POINT
  5
5c5
  330
5bc
  100
AcDbEntity
  8
2
  62
0
  100
AcDbPoint
  10
0.001
  20
20.550831
  30
0
  0
ENDBLK
  5
5c6
  330
5bc
  100
AcDbEntity
  8
2
  100
AcDbBlockEnd
  0
ENDSEC
  0
SECTION
  2
ENTITIES
  0
DIMENSION
  5
58f
  100
AcDbEntity
  8
SK2
  100
AcDbDimension
  2
*D583
  10
-51.999
  20
34.533672
  30
0
  11
-18.999
  21
34.533672
  31
0
  70
160
  1
<>+2
  71
5
  3
STANDARD
  42
66
  100
AcDbAlignedDimension
  13
14.001
  23
4.9
  33
0
  14
-51.999
  24
4.3
  34
0
  50
0
  100
AcDbRotatedDimension
  0
DIMENSION
  5
59d
  100
AcDbEntity
  8
SK2
  100
AcDbDimension
  2
*D591
  10
-61.999
  20
5
  30
0
  11
-61.999
  21
0
  31
0
  70
160
  1
%%c<>h6
  71
5
  3
STANDARD
  42
10
  100
AcDbAlignedDimension
  13
-51.299
  23
-5
  33
0
  14
-51.299
  24
5
  34
0
  50
-90
  100
AcDbRotatedDimension
  0
DIMENSION
  5
5ab
  100
AcDbEntity
  8
2
  100
AcDbDimension
  2
*D59f
  10
13.901
  20
11
  30
0
  11
17.866771
  21
11
  31
0
  70
160
  1
<>
  71
5
  3
STANDARD
  42
0.1
  100
AcDbAlignedDimension
  13
14.001
  23
4.9
  33
0
  14
13.901
  24
5
  34
0
  50
0
  100
AcDbRotatedDimension
  0
DIMENSION
  5
5b9
  100
AcDbEntity
  8
2
  100
AcDbDimension
  2
*D5ad
  10
24.001
  20
5
  30
0
  11
24.001
  21
-13.400291
  31
0
  70
160
  1
%%c<>e8
  71
5
  3
STANDARD
  42
10
  100
AcDbAlignedDimension
  13
13.901
  23
-5
  33
0
  14
13.901
  24
5
  34
0
  50
-90
  100
AcDbRotatedDimension
  0
DIMENSION
  5
5c7
  100
AcDbEntity
  8
2
  100
AcDbDimension
  2
*D5bb
  10
0.001
  20
20.550831
  30
0
  11
7.001
  21
20.550831
  31
0
  70
160
  1
<>
  71
5
  3
STANDARD
  42
14
  100
AcDbAlignedDimension
  13
14.001
  23
0
  33
0
  14
0.001
  24
5
  34
0
  50
0
  100
AcDbRotatedDimension
  0
LINE
  5
36
  100
AcDbEntity
  8
1
  100
AcDbLine
  10
14.001
  20
0
  30
0
  11
14.001
  21
4.9
  31
0
  0
LINE
  5
37
  100
AcDbEntity
  8
1
  100
AcDbLine
  10
14.001
  20
4.9
  30
0
  11
13.901
  21
5
  31
0
  0
LINE
  5
38
  100
AcDbEntity
  8
1
  100
AcDbLine
  10
13.901
  20
5
  30
0
  11
0.001
  21
5
  31
0
  0
LINE
  5
39
  100
AcDbEntity
  8
1
  100
AcDbLine
  10
0.001
  20
5
  30
0
  11
0
  21
5
  31
0
  0
LINE
  5
3a
  100
AcDbEntity
  8
1
  100
AcDbLine
  10
14.001
  20
-4.89998
  30
0
  11
13.952
  21
-4.948829
  31
0
  0
LINE
  5
3b
  100
AcDbEntity
  8
1
  100
AcDbLine
  10
13.952
  20
-4.948829
  30
0
  11
13.903
  21
-4.997525
  31
0
  0
LINE
  5
3c
  100
AcDbEntity
  8
1
  100
AcDbLine
  10
13.903
  20
-4.997525
  30
0
  11
13.854
  21
-4.998941
  31
0
  0
LINE
  5
3d
  100
AcDbEntity
  8
1
  100
AcDbLine
  10
13.854
  20
-4.998941
  30
0
  11
13.805
  21
-4.998117
  31
0
  0
LINE
  5
3e
  100
AcDbEntity
  8
1
  100
AcDbLine
  10
13.805
  20
-4.998117
  30
0
  11
13.756
  21
-4.997057
  31
0
  0
LINE
  5
3f
  100
AcDbEntity
  8
1
  100
AcDbLine
  10
13.756
  20
-4.997057
  30
0
  11
13.707
  21
-4.995763
  31
0
  0
LINE
  5
40
  100
AcDbEntity
  8
1
  100
AcDbLine
  10
13.707
  20
-4.995763
  30
0
  11
13.658
  21
-4.994233
  31
0
  0
LINE
  5
41
  100
AcDbEntity
  8
1
  100
AcDbLine
  10
13.658
  20
-4.994233
  30
0
  11
13.609
  21
-4.992468
  31
0
  0
LINE
  5
42
  100
AcDbEntity
  8
1
  100
AcDbLine
  10
13.609
  20
-4.992468
  30
0
  11
13.56
  21
-4.990468
  31
0
  0
LINE
  5
43
  100
AcDbEntity
  8
1
  100
AcDbLine
  10
13.56
  20
-4.990468
  30
0
  11
13.511
  21
-4.988233
  31
0
  0
LINE
  5
44
  100
AcDbEntity
  8
1
  100
AcDbLine
  10
13.511
  20
-4.988233
  30
0
  11
13.462
  21
-4.985763
  31
0
  0
LINE
  5
45
  100
AcDbEntity
  8
1
  100
AcDbLine
  10
13.462
  20
-4.985763
  30
0
  11
13.413
  21
-4.983058
  31
0
  0
LINE
  5
46
  100
AcDbEntity
  8
1
  100
AcDbLine
  10
13.413
  20
-4.983058
  30
0
  11
13.364
  21
-4.980119
  31
0
  0
LINE
  5
47
  100
AcDbEntity
  8
1
  100
AcDbLine
  10
13.364
  20
-4.980119
  30
0
  11
13.315
  21
-4.976945
  31
0
  0
LINE
  5
48
  100
AcDbEntity
  8
1
  100
AcDbLine
  10
13.315
  20
-4.976945
  30
0
  11
13.266
  21
-4.973537
  31
0
  0
LINE
  5
49
  100
AcDbEntity
  8
1
  100
AcDbLine
  10
13.266
  20
-4.973537
  30
0
  11
13.217
  21
-4.969894
  31
0
  0
LINE
  5
4a
  100
AcDbEntity
  8
1
  100
AcDbLine
  10
13.217
  20
-4.969894
  30
0
  11
13.168
  21
-4.966018
  31
0
  0
LINE
  5
4b
  100
AcDbEntity
  8
1
  100
AcDbLine
  10
13.168
  20
-4.966018
  30
0
  11
13.119
  21
-4.961908
  31
0
  0
LINE
  5
4c
  100
AcDbEntity
  8
1
  100
AcDbLine
  10
13.119
  20
-4.961908
  30
0
  11
13.07
  21
-4.957564
  31
0
  0
LINE
  5
4d
  100
AcDbEntity
  8
1
  100
AcDbLine
  10
13.07
  20
-4.957564
  30
0
  11
13.021
  21
-4.952986
  31
0
  0
LINE
  5
4e
  100
AcDbEntity
  8
1
  100
AcDbLine
  10
13.021
  20
-4.952986
  30
0
  11
12.972
  21
-4.948176
  31
0
  0
LINE
  5
4f
  100
AcDbEntity
  8
1
  100
AcDbLine
  10
12.972
  20
-4.948176
  30
0
  11
12.923
  21
-4.943132
  31
0
  0
LINE
  5
50
  100
AcDbEntity
  8
1
  100
AcDbLine
  10
12.923
  20
-4.943132
  30
0
  11
12.874
  21
-4.937856
  31
0
  0
LINE
  5
51
  100
AcDbEntity
  8
1
  100
AcDbLine
  10
12.874
  20
-4.937856
  30
0
  11
12.825
  21
-4.932347
  31
0
  0
LINE
  5
52
  100
AcDbEntity
  8
1
  100
AcDbLine
  10
12.825
  20
-4.932347
  30
0
  11
12.776
  21
-4.926606
  31
0
  0
LINE
  5
53
  100
AcDbEntity
  8
1
  100
AcDbLine
  10
12.776
  20
-4.926606
  30
0
  11
12.727
  21
-4.920633
  31
0
  0
LINE
  5
54
  100
AcDbEntity
  8
1
  100
AcDbLine
  10
12.727
  20
-4.920633
  30
0
  11
12.678
  21
-4.914428
  31
0
  0
LINE
  5
55
  100
AcDbEntity
  8
1
  100
AcDbLine
  10
12.678
  20
-4.914428
  30
0
  11
12.629
  21
-4.907992
  31
0
  0
LINE
  5
56
  100
AcDbEntity
  8
1
  100
AcDbLine
  10
12.629
  20
-4.907992
  30
0
  11
12.58
  21
-4.901325
  31
0
  0
LINE
  5
57
  100
AcDbEntity
  8
1
  100
AcDbLine
  10
12.58
  20
-4.901325
  30
0
  11
12.531
  21
-4.894427
  31
0
  0
LINE
  5
58
  100
AcDbEntity
  8
1
  100
AcDbLine
  10
12.531
  20
-4.894427
  30
0
  11
12.482
  21
-4.887298
  31
0
  0
LINE
  5
59
  100
AcDbEntity
  8
1
  100
AcDbLine
  10
12.482
  20
-4.887298
  30
0
  11
12.433
  21
-4.87994
  31
0
  0
LINE
  5
5a
  100
AcDbEntity
  8
1
  100
AcDbLine
  10
12.433
  20
-4.87994
  30
0
  11
12.384
  21
-4.872351
  31
0
  0
LINE
  5
5b
  100
AcDbEntity
  8
1
  100
AcDbLine
  10
12.384
  20
-4.872351
  30
0
  11
12.335
  21
-4.864533
  31
0
  0
LINE
  5
5c
  100
AcDbEntity
  8
1
  100
AcDbLine
  10
12.335
  20
-4.864533
  30
0
  11
12.286
  21
-4.856486
  31
0
  0
LINE
  5
5d
  100
AcDbEntity
  8
1
  100
AcDbLine
  10
12.286
  20
-4.856486
  30
0
  11
12.237
  21
-4.848211
  31
0
  0
LINE
  5
5e
  100
AcDbEntity
  8
1
  100
AcDbLine
  10
12.237
  20
-4.848211
  30
0
  11
12.188
  21
-4.839707
  31
0
  0
LINE
  5
5f
  100
AcDbEntity
  8
1
  100
AcDbLine
  10
12.188
  20
-4.839707
  30
0
  11
12.139
  21
-4.830975
  31
0
  0
LINE
  5
60
  100
AcDbEntity
  8
1
  100
AcDbLine
  10
12.139
  20
-4.830975
  30
0
  11
12.09
  21
-4.822016
  31
0
  0
LINE
  5
61
  100
AcDbEntity
  8
1
  100
AcDbLine
  10
12.09
  20
-4.822016
  30
0
  11
12.041
  21
-4.81283
  31
0
  0
LINE
  5
62
  100
AcDbEntity
  8
1
  100
AcDbLine
  10
12.041
  20
-4.81283
  30
0
  11
11.992
  21
-4.803417
  31
0
  0
LINE
  5
63
  100
AcDbEntity
  8
1
  100
AcDbLine
  10
11.992
  20
-4.803417
  30
0
  11
11.943
  21
-4.793777
  31
0
  0
LINE
  5
64
  100
AcDbEntity
  8
1
  100
AcDbLine
  10
11.943
  20
-4.793777
  30
0
  11
11.894
  21
-4.783913
  31
0
  0
LINE
  5
65
  100
AcDbEntity
  8
1
  100
AcDbLine
  10
11.894
  20
-4.783913
  30
0
  11
11.845
  21
-4.773823
  31
0
  0
LINE
  5
66
  100
AcDbEntity
  8
1
  100
AcDbLine
  10
11.845
  20
-4.773823
  30
0
  11
11.796
  21
-4.763508
  31
0
  0
LINE
  5
67
  100
AcDbEntity
  8
1
  100
AcDbLine
  10
11.796
  20
-4.763508
  30
0
  11
11.747
  21
-4.752968
  31
0
  0
LINE
  5
68
  100
AcDbEntity
  8
1
  100
AcDbLine
  10
11.747
  20
-4.752968
  30
0
  11
11.698
  21
-4.742205
  31
0
  0
LINE
  5
69
  100
AcDbEntity
  8
1
  100
AcDbLine
  10
11.698
  20
-4.742205
  30
0
  11
11.649
  21
-4.731219
  31
0
  0
LINE
  5
6a
  100
AcDbEntity
  8
1
  100
AcDbLine
  10
11.649
  20
-4.731219
  30
0
  11
11.6
  21
-4.72001
  31
0
  0
LINE
  5
6b
  100
AcDbEntity
  8
1
  100
AcDbLine
  10
11.6
  20
-4.72001
  30
0
  11
11.551
  21
-4.708579
  31
0
  0
LINE
  5
6c
  100
AcDbEntity
  8
1
  100
AcDbLine
  10
11.551
  20
-4.708579
  30
0
  11
11.502
  21
-4.696926
  31
0
  0
LINE
  5
6d
  100
AcDbEntity
  8
1
  100
AcDbLine
  10
11.502
  20
-4.696926
  30
0
  11
11.453
  21
-4.685052
  31
0
  0
LINE
  5
6e
  100
AcDbEntity
  8
1
  100
AcDbLine
  10
11.453
  20
-4.685052
  30
0
  11
11.404
  21
-4.672957
  31
0
  0
LINE
  5
6f
  100
AcDbEntity
  8
1
  100
AcDbLine
  10
11.404
  20
-4.672957
  30
0
  11
11.355
  21
-4.660642
  31
0
  0
LINE
  5
70
  100
AcDbEntity
  8
1
  100
AcDbLine
  10
11.355
  20
-4.660642
  30
0
  11
11.306
  21
-4.648108
  31
0
  0
LINE
  5
71
  100
AcDbEntity
  8
1
  100
AcDbLine
  10
11.306
  20
-4.648108
  30
0
  11
11.257
  21
-4.635354
  31
0
  0
LINE
  5
72
  100
AcDbEntity
  8
1
  100
AcDbLine
  10
11.257
  20
-4.635354
  30
0
  11
11.208
  21
-4.622383
  31
0
  0
LINE
  5
73
  100
AcDbEntity
  8
1
  100
AcDbLine
  10
11.208
  20
-4.622383
  30
0
  11
11.159
  21
-4.609194
  31
0
  0
LINE
  5
74
  100
AcDbEntity
  8
1
  100
AcDbLine
  10
11.159
  20
-4.609194
  30
0
  11
11.11
  21
-4.595788
  31
0
  0
LINE
  5
75
  100
AcDbEntity
  8
1
  100
AcDbLine
  10
11.11
  20
-4.595788
  30
0
  11
11.061
  21
-4.582165
  31
0
  0
LINE
  5
76
  100
AcDbEntity
  8
1
  100
AcDbLine
  10
11.061
  20
-4.582165
  30
0
  11
11.012
  21
-4.568327
  31
0
  0
LINE
  5
77
  100
AcDbEntity
  8
1
  100
AcDbLine
  10
11.012
  20
-4.568327
  30
0
  11
10.963
  21
-4.554274
  31
0
  0
LINE
  5
78
  100
AcDbEntity
  8
1
  100
AcDbLine
  10
10.963
  20
-4.554274
  30
0
  11
10.914
  21
-4.540006
  31
0
  0
LINE
  5
79
  100
AcDbEntity
  8
1
  100
AcDbLine
  10
10.914
  20
-4.540006
  30
0
  11
10.865
  21
-4.525524
  31
0
  0
LINE
  5
7a
  100
AcDbEntity
  8
1
  100
AcDbLine
  10
10.865
  20
-4.525524
  30
0
  11
10.816
  21
-4.510829
  31
0
  0
LINE
  5
7b
  100
AcDbEntity
  8
1
  100
AcDbLine
  10
10.816
  20
-4.510829
  30
0
  11
10.767
  21
-4.495922
  31
0
  0
LINE
  5
7c
  100
AcDbEntity
  8
1
  100
AcDbLine
  10
10.767
  20
-4.495922
  30
0
  11
10.718
  21
-4.480803
  31
0
  0
LINE
  5
7d
  100
AcDbEntity
  8
1
  100
AcDbLine
  10
10.718
  20
-4.480803
  30
0
  11
10.669
  21
-4.465474
  31
0
  0
LINE
  5
7e
  100
AcDbEntity
  8
1
  100
AcDbLine
  10
10.669
  20
-4.465474
  30
0
  11
10.62
  21
-4.449933
  31
0
  0
LINE
  5
7f
  100
AcDbEntity
  8
1
  100
AcDbLine
  10
10.62
  20
-4.449933
  30
0
  11
10.571
  21
-4.434184
  31
0
  0
LINE
  5
80
  100
AcDbEntity
  8
1
  100
AcDbLine
  10
10.571
  20
-4.434184
  30
0
  11
10.522
  21
-4.418225
  31
0
  0
LINE
  5
81
  100
AcDbEntity
  8
1
  100
AcDbLine
  10
10.522
  20
-4.418225
  30
0
  11
10.473
  21
-4.402059
  31
0
  0
LINE
  5
82
  100
AcDbEntity
  8
1
  100
AcDbLine
  10
10.473
  20
-4.402059
  30
0
  11
10.424
  21
-4.385685
  31
0
  0
LINE
  5
83
  100
AcDbEntity
  8
1
  100
AcDbLine
  10
10.424
  20
-4.385685
  30
0
  11
10.375
  21
-4.369105
  31
0
  0
LINE
  5
84
  100
AcDbEntity
  8
1
  100
AcDbLine
  10
10.375
  20
-4.369105
  30
0
  11
10.326
  21
-4.352319
  31
0
  0
LINE
  5
85
  100
AcDbEntity
  8
1
  100
AcDbLine
  10
10.326
  20
-4.352319
  30
0
  11
10.277
  21
-4.335328
  31
0
  0
LINE
  5
86
  100
AcDbEntity
  8
1
  100
AcDbLine
  10
10.277
  20
-4.335328
  30
0
  11
10.228
  21
-4.318133
  31
0
  0
LINE
  5
87
  100
AcDbEntity
  8
1
  100
AcDbLine
  10
10.228
  20
-4.318133
  30
0
  11
10.179
  21
-4.300735
  31
0
  0
LINE
  5
88
  100
AcDbEntity
  8
1
  100
AcDbLine
  10
10.179
  20
-4.300735
  30
0
  11
10.13
  21
-4.283134
  31
0
  0
LINE
  5
89
  100
AcDbEntity
  8
1
  100
AcDbLine
  10
10.13
  20
-4.283134
  30
0
  11
10.081
  21
-4.265331
  31
0
  0
LINE
  5
8a
  100
AcDbEntity
  8
1
  100
AcDbLine
  10
10.081
  20
-4.265331
  30
0
  11
10.032
  21
-4.247328
  31
0
  0
LINE
  5
8b
  100
AcDbEntity
  8
1
  100
AcDbLine
  10
10.032
  20
-4.247328
  30
0
  11
9.983
  21
-4.229124
  31
0
  0
LINE
  5
8c
  100
AcDbEntity
  8
1
  100
AcDbLine
  10
9.983
  20
-4.229124
  30
0
  11
9.934
  21
-4.210722
  31
0
  0
LINE
  5
8d
  100
AcDbEntity
  8
1
  100
AcDbLine
  10
9.934
  20
-4.210722
  30
0
  11
9.885
  21
-4.192121
  31
0
  0
LINE
  5
8e
  100
AcDbEntity
  8
1
  100
AcDbLine
  10
9.885
  20
-4.192121
  30
0
  11
9.836
  21
-4.173323
  31
0
  0
LINE
  5
8f
  100
AcDbEntity
  8
1
  100
AcDbLine
  10
9.836
  20
-4.173323
  30
0
  11
9.787
  21
-4.154328
  31
0
  0
LINE
  5
90
  100
AcDbEntity
  8
1
  100
AcDbLine
  10
9.787
  20
-4.154328
  30
0
  11
9.738
  21
-4.135138
  31
0
  0
LINE
  5
91
  100
AcDbEntity
  8
1
  100
AcDbLine
  10
9.738
  20
-4.135138
  30
0
  11
9.689
  21
-4.115753
  31
0
  0
LINE
  5
92
  100
AcDbEntity
  8
1
  100
AcDbLine
  10
9.689
  20
-4.115753
  30
0
  11
9.64
  21
-4.096174
  31
0
  0
LINE
  5
93
  100
AcDbEntity
  8
1
  100
AcDbLine
  10
9.64
  20
-4.096174
  30
0
  11
9.591
  21
-4.076402
  31
0
  0
LINE
  5
94
  100
AcDbEntity
  8
1
  100
AcDbLine
  10
9.591
  20
-4.076402
  30
0
  11
9.542
  21
-4.056438
  31
0
  0
LINE
  5
95
  100
AcDbEntity
  8
1
  100
AcDbLine
  10
9.542
  20
-4.056438
  30
0
  11
9.493
  21
-4.036284
  31
0
  0
LINE
  5
96
  100
AcDbEntity
  8
1
  100
AcDbLine
  10
9.493
  20
-4.036284
  30
0
  11
9.444
  21
-4.015939
  31
0
  0
LINE
  5
97
  100
AcDbEntity
  8
1
  100
AcDbLine
  10
9.444
  20
-4.015939
  30
0
  11
9.395
  21
-3.995405
  31
0
  0
LINE
  5
98
  100
AcDbEntity
  8
1
  100
AcDbLine
  10
9.395
  20
-3.995405
  30
0
  11
9.346
  21
-3.974683
  31
0
  0
LINE
  5
99
  100
AcDbEntity
  8
1
  100
AcDbLine
  10
9.346
  20
-3.974683
  30
0
  11
9.297
  21
-3.953774
  31
0
  0
LINE
  5
9a
  100
AcDbEntity
  8
1
  100
AcDbLine
  10
9.297
  20
-3.953774
  30
0
  11
9.248
  21
-3.932679
  31
0
  0
LINE
  5
9b
  100
AcDbEntity
  8
1
  100
AcDbLine
  10
9.248
  20
-3.932679
  30
0
  11
9.199
  21
-3.911398
  31
0
  0
LINE
  5
9c
  100
AcDbEntity
  8
1
  100
AcDbLine
  10
9.199
  20
-3.911398
  30
0
  11
9.15
  21
-3.889934
  31
0
  0
LINE
  5
9d
  100
AcDbEntity
  8
1
  100
AcDbLine
  10
9.15
  20
-3.889934
  30
0
  11
9.101
  21
-3.868286
  31
0
  0
LINE
  5
9e
  100
AcDbEntity
  8
1
  100
AcDbLine
  10
9.101
  20
-3.868286
  30
0
  11
9.052
  21
-3.846456
  31
0
  0
LINE
  5
9f
  100
AcDbEntity
  8
1
  100
AcDbLine
  10
9.052
  20
-3.846456
  30
0
  11
9.003
  21
-3.824445
  31
0
  0
LINE
  5
a0
  100
AcDbEntity
  8
1
  100
AcDbLine
  10
9.003
  20
-3.824445
  30
0
  11
8.954
  21
-3.802253
  31
0
  0
LINE
  5
a1
  100
AcDbEntity
  8
1
  100
AcDbLine
  10
8.954
  20
-3.802253
  30
0
  11
8.905
  21
-3.779883
  31
0
  0
LINE
  5
a2
  100
AcDbEntity
  8
1
  100
AcDbLine
  10
8.905
  20
-3.779883
  30
0
  11
8.856
  21
-3.757335
  31
0
  0
LINE
  5
a3
  100
AcDbEntity
  8
1
  100
AcDbLine
  10
8.856
  20
-3.757335
  30
0
  11
8.807
  21
-3.73461
  31
0
  0
LINE
  5
a4
  100
AcDbEntity
  8
1
  100
AcDbLine
  10
8.807
  20
-3.73461
  30
0
  11
8.758
  21
-3.711709
  31
0
  0
LINE
  5
a5
  100
AcDbEntity
  8
1
  100
AcDbLine
  10
8.758
  20
-3.711709
  30
0
  11
8.709
  21
-3.688633
  31
0
  0
LINE
  5
a6
  100
AcDbEntity
  8
1
  100
AcDbLine
  10
8.709
  20
-3.688633
  30
0
  11
8.66
  21
-3.665384
  31
0
  0
LINE
  5
a7
  100
AcDbEntity
  8
1
  100
AcDbLine
  10
8.66
  20
-3.665384
  30
0
  11
8.611
  21
-3.641962
  31
0
  0
LINE
  5
a8
  100
AcDbEntity
  8
1
  100
AcDbLine
  10
8.611
  20
-3.641962
  30
0
  11
8.562
  21
-3.618368
  31
0
  0
LINE
  5
a9
  100
AcDbEntity
  8
1
  100
AcDbLine
  10
8.562
  20
-3.618368
  30
0
  11
8.513
  21
-3.594604
  31
0
  0
LINE
  5
aa
  100
AcDbEntity
  8
1
  100
AcDbLine
  10
8.513
  20
-3.594604
  30
0
  11
8.464
  21
-3.570671
  31
0
  0
LINE
  5
ab
  100
AcDbEntity
  8
1
  100
AcDbLine
  10
8.464
  20
-3.570671
  30
0
  11
8.415
  21
-3.54657
  31
0
  0
LINE
  5
ac
  100
AcDbEntity
  8
1
  100
AcDbLine
  10
8.415
  20
-3.54657
  30
0
  11
8.366
  21
-3.522301
  31
0
  0
LINE
  5
ad
  100
AcDbEntity
  8
1
  100
AcDbLine
  10
8.366
  20
-3.522301
  30
0
  11
8.317
  21
-3.497867
  31
0
  0
LINE
  5
ae
  100
AcDbEntity
  8
1
  100
AcDbLine
  10
8.317
  20
-3.497867
  30
0
  11
8.268
  21
-3.473268
  31
0
  0
LINE
  5
af
  100
AcDbEntity
  8
1
  100
AcDbLine
  10
8.268
  20
-3.473268
  30
0
  11
8.219
  21
-3.448506
  31
0
  0
LINE
  5
b0
  100
AcDbEntity
  8
1
  100
AcDbLine
  10
8.219
  20
-3.448506
  30
0
  11
8.17
  21
-3.423581
  31
0
  0
LINE
  5
b1
  100
AcDbEntity
  8
1
  100
AcDbLine
  10
8.17
  20
-3.423581
  30
0
  11
8.121
  21
-3.398495
  31
0
  0
LINE
  5
b2
  100
AcDbEntity
  8
1
  100
AcDbLine
  10
8.121
  20
-3.398495
  30
0
  11
8.072
  21
-3.373249
  31
0
  0
LINE
  5
b3
  100
AcDbEntity
  8
1
  100
AcDbLine
  10
8.072
  20
-3.373249
  30
0
  11
8.023
  21
-3.347844
  31
0
  0
LINE
  5
b4
  100
AcDbEntity
  8
1
  100
AcDbLine
  10
8.023
  20
-3.347844
  30
0
  11
7.974
  21
-3.322282
  31
0
  0
LINE
  5
b5
  100
AcDbEntity
  8
1
  100
AcDbLine
  10
7.974
  20
-3.322282
  30
0
  11
7.925
  21
-3.296563
  31
0
  0
LINE
  5
b6
  100
AcDbEntity
  8
1
  100
AcDbLine
  10
7.925
  20
-3.296563
  30
0
  11
7.876
  21
-3.270689
  31
0
  0
LINE
  5
b7
  100
AcDbEntity
  8
1
  100
AcDbLine
  10
7.876
  20
-3.270689
  30
0
  11
7.827
  21
-3.244661
  31
0
  0
LINE
  5
b8
  100
AcDbEntity
  8
1
  100
AcDbLine
  10
7.827
  20
-3.244661
  30
0
  11
7.778
  21
-3.21848
  31
0
  0
LINE
  5
b9
  100
AcDbEntity
  8
1
  100
AcDbLine
  10
7.778
  20
-3.21848
  30
0
  11
7.729
  21
-3.192147
  31
0
  0
LINE
  5
ba
  100
AcDbEntity
  8
1
  100
AcDbLine
  10
7.729
  20
-3.192147
  30
0
  11
7.68
  21
-3.165664
  31
0
  0
LINE
  5
bb
  100
AcDbEntity
  8
1
  100
AcDbLine
  10
7.68
  20
-3.165664
  30
0
  11
7.631
  21
-3.139032
  31
0
  0
LINE
  5
bc
  100
AcDbEntity
  8
1
  100
AcDbLine
  10
7.631
  20
-3.139032
  30
0
  11
7.582
  21
-3.112253
  31
0
  0
LINE
  5
bd
  100
AcDbEntity
  8
1
  100
AcDbLine
  10
7.582
  20
-3.112253
  30
0
  11
7.533
  21
-3.085327
  31
0
  0
LINE
  5
be
  100
AcDbEntity
  8
1
  100
AcDbLine
  10
7.533
  20
-3.085327
  30
0
  11
7.484
  21
-3.058255
  31
0
  0
LINE
  5
bf
  100
AcDbEntity
  8
1
  100
AcDbLine
  10
7.484
  20
-3.058255
  30
0
  11
7.435
  21
-3.03104
  31
0
  0
LINE
  5
c0
  100
AcDbEntity
  8
1
  100
AcDbLine
  10
7.435
  20
-3.03104
  30
0
  11
7.386
  21
-3.003681
  31
0
  0
LINE
  5
c1
  100
AcDbEntity
  8
1
  100
AcDbLine
  10
7.386
  20
-3.003681
  30
0
  11
7.337
  21
-2.976182
  31
0
  0
LINE
  5
c2
  100
AcDbEntity
  8
1
  100
AcDbLine
  10
7.337
  20
-2.976182
  30
0
  11
7.288
  21
-2.948542
  31
0
  0
LINE
  5
c3
  100
AcDbEntity
  8
1
  100
AcDbLine
  10
7.288
  20
-2.948542
  30
0
  11
7.239
  21
-2.920763
  31
0
  0
LINE
  5
c4
  100
AcDbEntity
  8
1
  100
AcDbLine
  10
7.239
  20
-2.920763
  30
0
  11
7.19
  21
-2.892847
  31
0
  0
LINE
  5
c5
  100
AcDbEntity
  8
1
  100
AcDbLine
  10
7.19
  20
-2.892847
  30
0
  11
7.141
  21
-2.864795
  31
0
  0
LINE
  5
c6
  100
AcDbEntity
  8
1
  100
AcDbLine
  10
7.141
  20
-2.864795
  30
0
  11
7.092
  21
-2.836607
  31
0
  0
LINE
  5
c7
  100
AcDbEntity
  8
1
  100
AcDbLine
  10
7.092
  20
-2.836607
  30
0
  11
7.043
  21
-2.808286
  31
0
  0
LINE
  5
c8
  100
AcDbEntity
  8
1
  100
AcDbLine
  10
7.043
  20
-2.808286
  30
0
  11
6.994
  21
-2.779833
  31
0
  0
LINE
  5
c9
  100
AcDbEntity
  8
1
  100
AcDbLine
  10
6.994
  20
-2.779833
  30
0
  11
6.945
  21
-2.751249
  31
0
  0
LINE
  5
ca
  100
AcDbEntity
  8
1
  100
AcDbLine
  10
6.945
  20
-2.751249
  30
0
  11
6.896
  21
-2.722536
  31
0
  0
LINE
  5
cb
  100
AcDbEntity
  8
1
  100
AcDbLine
  10
6.896
  20
-2.722536
  30
0
  11
6.847
  21
-2.693694
  31
0
  0
LINE
  5
cc
  100
AcDbEntity
  8
1
  100
AcDbLine
  10
6.847
  20
-2.693694
  30
0
  11
6.798
  21
-2.664725
  31
0
  0
LINE
  5
cd
  100
AcDbEntity
  8
1
  100
AcDbLine
  10
6.798
  20
-2.664725
  30
0
  11
6.749
  21
-2.635631
  31
0
  0
LINE
  5
ce
  100
AcDbEntity
  8
1
  100
AcDbLine
  10
6.749
  20
-2.635631
  30
0
  11
6.7
  21
-2.606413
  31
0
  0
LINE
  5
cf
  100
AcDbEntity
  8
1
  100
AcDbLine
  10
6.7
  20
-2.606413
  30
0
  11
6.651
  21
-2.577072
  31
0
  0
LINE
  5
d0
  100
AcDbEntity
  8
1
  100
AcDbLine
  10
6.651
  20
-2.577072
  30
0
  11
6.602
  21
-2.54761
  31
0
  0
LINE
  5
d1
  100
AcDbEntity
  8
1
  100
AcDbLine
  10
6.602
  20
-2.54761
  30
0
  11
6.553
  21
-2.518028
  31
0
  0
LINE
  5
d2
  100
AcDbEntity
  8
1
  100
AcDbLine
  10
6.553
  20
-2.518028
  30
0
  11
6.504
  21
-2.488327
  31
0
  0
LINE
  5
d3
  100
AcDbEntity
  8
1
  100
AcDbLine
  10
6.504
  20
-2.488327
  30
0
  11
6.455
  21
-2.458509
  31
0
  0
LINE
  5
d4
  100
AcDbEntity
  8
1
  100
AcDbLine
  10
6.455
  20
-2.458509
  30
0
  11
6.406
  21
-2.428576
  31
0
  0
LINE
  5
d5
  100
AcDbEntity
  8
1
  100
AcDbLine
  10
6.406
  20
-2.428576
  30
0
  11
6.357
  21
-2.398528
  31
0
  0
LINE
  5
d6
  100
AcDbEntity
  8
1
  100
AcDbLine
  10
6.357
  20
-2.398528
  30
0
  11
6.308
  21
-2.368367
  31
0
  0
LINE
  5
d7
  100
AcDbEntity
  8
1
  100
AcDbLine
  10
6.308
  20
-2.368367
  30
0
  11
6.259
  21
-2.338094
  31
0
  0
LINE
  5
d8
  100
AcDbEntity
  8
1
  100
AcDbLine
  10
6.259
  20
-2.338094
  30
0
  11
6.21
  21
-2.307711
  31
0
  0
LINE
  5
d9
  100
AcDbEntity
  8
1
  100
AcDbLine
  10
6.21
  20
-2.307711
  30
0
  11
6.161
  21
-2.27722
  31
0
  0
LINE
  5
da
  100
AcDbEntity
  8
1
  100
AcDbLine
  10
6.161
  20
-2.27722
  30
0
  11
6.112
  21
-2.246622
  31
0
  0
LINE
  5
db
  100
AcDbEntity
  8
1
  100
AcDbLine
  10
6.112
  20
-2.246622
  30
0
  11
6.063
  21
-2.215917
  31
0
  0
LINE
  5
dc
  100
AcDbEntity
  8
1
  100
AcDbLine
  10
6.063
  20
-2.215917
  30
0
  11
6.014
  21
-2.185109
  31
0
  0
LINE
  5
dd
  100
AcDbEntity
  8
1
  100
AcDbLine
  10
6.014
  20
-2.185109
  30
0
  11
5.965
  21
-2.154197
  31
0
  0
LINE
  5
de
  100
AcDbEntity
  8
1
  100
AcDbLine
  10
5.965
  20
-2.154197
  30
0
  11
5.916
  21
-2.123184
  31
0
  0
LINE
  5
df
  100
AcDbEntity
  8
1
  100
AcDbLine
  10
5.916
  20
-2.123184
  30
0
  11
5.867
  21
-2.092071
  31
0
  0
LINE
  5
e0
  100
AcDbEntity
  8
1
  100
AcDbLine
  10
5.867
  20
-2.092071
  30
0
  11
5.818
  21
-2.06086
  31
0
  0
LINE
  5
e1
  100
AcDbEntity
  8
1
  100
AcDbLine
  10
5.818
  20
-2.06086
  30
0
  11
5.769
  21
-2.029551
  31
0
  0
LINE
  5
e2
  100
AcDbEntity
  8
1
  100
AcDbLine
  10
5.769
  20
-2.029551
  30
0
  11
5.72
  21
-1.998147
  31
0
  0
LINE
  5
e3
  100
AcDbEntity
  8
1
  100
AcDbLine
  10
5.72
  20
-1.998147
  30
0
  11
5.671
  21
-1.966649
  31
0
  0
LINE
  5
e4
  100
AcDbEntity
  8
1
  100
AcDbLine
  10
5.671
  20
-1.966649
  30
0
  11
5.622
  21
-1.935058
  31
0
  0
LINE
  5
e5
  100
AcDbEntity
  8
1
  100
AcDbLine
  10
5.622
  20
-1.935058
  30
0
  11
5.573
  21
-1.903377
  31
0
  0
LINE
  5
e6
  100
AcDbEntity
  8
1
  100
AcDbLine
  10
5.573
  20
-1.903377
  30
0
  11
5.524
  21
-1.871605
  31
0
  0
LINE
  5
e7
  100
AcDbEntity
  8
1
  100
AcDbLine
  10
5.524
  20
-1.871605
  30
0
  11
5.475
  21
-1.839746
  31
0
  0
LINE
  5
e8
  100
AcDbEntity
  8
1
  100
AcDbLine
  10
5.475
  20
-1.839746
  30
0
  11
5.426
  21
-1.807799
  31
0
  0
LINE
  5
e9
  100
AcDbEntity
  8
1
  100
AcDbLine
  10
5.426
  20
-1.807799
  30
0
  11
5.377
  21
-1.775768
  31
0
  0
LINE
  5
ea
  100
AcDbEntity
  8
1
  100
AcDbLine
  10
5.377
  20
-1.775768
  30
0
  11
5.328
  21
-1.743653
  31
0
  0
LINE
  5
eb
  100
AcDbEntity
  8
1
  100
AcDbLine
  10
5.328
  20
-1.743653
  30
0
  11
5.279
  21
-1.711456
  31
0
  0
LINE
  5
ec
  100
AcDbEntity
  8
1
  100
AcDbLine
  10
5.279
  20
-1.711456
  30
0
  11
5.23
  21
-1.679178
  31
0
  0
LINE
  5
ed
  100
AcDbEntity
  8
1
  100
AcDbLine
  10
5.23
  20
-1.679178
  30
0
  11
5.181
  21
-1.646821
  31
0
  0
LINE
  5
ee
  100
AcDbEntity
  8
1
  100
AcDbLine
  10
5.181
  20
-1.646821
  30
0
  11
5.132
  21
-1.614387
  31
0
  0
LINE
  5
ef
  100
AcDbEntity
  8
1
  100
AcDbLine
  10
5.132
  20
-1.614387
  30
0
  11
5.083
  21
-1.581877
  31
0
  0
LINE
  5
f0
  100
AcDbEntity
  8
1
  100
AcDbLine
  10
5.083
  20
-1.581877
  30
0
  11
5.034
  21
-1.549292
  31
0
  0
LINE
  5
f1
  100
AcDbEntity
  8
1
  100
AcDbLine
  10
5.034
  20
-1.549292
  30
0
  11
4.985
  21
-1.516634
  31
0
  0
LINE
  5
f2
  100
AcDbEntity
  8
1
  100
AcDbLine
  10
4.985
  20
-1.516634
  30
0
  11
4.936
  21
-1.483905
  31
0
  0
LINE
  5
f3
  100
AcDbEntity
  8
1
  100
AcDbLine
  10
4.936
  20
-1.483905
  30
0
  11
4.887
  21
-1.451106
  31
0
  0
LINE
  5
f4
  100
AcDbEntity
  8
1
  100
AcDbLine
  10
4.887
  20
-1.451106
  30
0
  11
4.838
  21
-1.418239
  31
0
  0
LINE
  5
f5
  100
AcDbEntity
  8
1
  100
AcDbLine
  10
4.838
  20
-1.418239
  30
0
  11
4.789
  21
-1.385305
  31
0
  0
LINE
  5
f6
  100
AcDbEntity
  8
1
  100
AcDbLine
  10
4.789
  20
-1.385305
  30
0
  11
4.74
  21
-1.352305
  31
0
  0
LINE
  5
f7
  100
AcDbEntity
  8
1
  100
AcDbLine
  10
4.74
  20
-1.352305
  30
0
  11
4.691
  21
-1.319242
  31
0
  0
LINE
  5
f8
  100
AcDbEntity
  8
1
  100
AcDbLine
  10
4.691
  20
-1.319242
  30
0
  11
4.642
  21
-1.286117
  31
0
  0
LINE
  5
f9
  100
AcDbEntity
  8
1
  100
AcDbLine
  10
4.642
  20
-1.286117
  30
0
  11
4.593
  21
-1.252931
  31
0
  0
LINE
  5
fa
  100
AcDbEntity
  8
1
  100
AcDbLine
  10
4.593
  20
-1.252931
  30
0
  11
4.544
  21
-1.219687
  31
0
  0
LINE
  5
fb
  100
AcDbEntity
  8
1
  100
AcDbLine
  10
4.544
  20
-1.219687
  30
0
  11
4.495
  21
-1.186385
  31
0
  0
LINE
  5
fc
  100
AcDbEntity
  8
1
  100
AcDbLine
  10
4.495
  20
-1.186385
  30
0
  11
4.446
  21
-1.153027
  31
0
  0
LINE
  5
fd
  100
AcDbEntity
  8
1
  100
AcDbLine
  10
4.446
  20
-1.153027
  30
0
  11
4.397
  21
-1.119614
  31
0
  0
LINE
  5
fe
  100
AcDbEntity
  8
1
  100
AcDbLine
  10
4.397
  20
-1.119614
  30
0
  11
4.348
  21
-1.086149
  31
0
  0
LINE
  5
ff
  100
AcDbEntity
  8
1
  100
AcDbLine
  10
4.348
  20
-1.086149
  30
0
  11
4.299
  21
-1.052633
  31
0
  0
LINE
  5
100
  100
AcDbEntity
  8
1
  100
AcDbLine
  10
4.299
  20
-1.052633
  30
0
  11
4.25
  21
-1.019067
  31
0
  0
LINE
  5
101
  100
AcDbEntity
  8
1
  100
AcDbLine
  10
4.25
  20
-1.019067
  30
0
  11
4.201
  21
-0.985454
  31
0
  0
LINE
  5
102
  100
AcDbEntity
  8
1
  100
AcDbLine
  10
4.201
  20
-0.985454
  30
0
  11
4.152
  21
-0.951794
  31
0
  0
LINE
  5
103
  100
AcDbEntity
  8
1
  100
AcDbLine
  10
4.152
  20
-0.951794
  30
0
  11
4.103
  21
-0.918089
  31
0
  0
LINE
  5
104
  100
AcDbEntity
  8
1
  100
AcDbLine
  10
4.103
  20
-0.918089
  30
0
  11
4.054
  21
-0.88434
  31
0
  0
LINE
  5
105
  100
AcDbEntity
  8
1
  100
AcDbLine
  10
4.054
  20
-0.88434
  30
0
  11
4.005
  21
-0.850551
  31
0
  0
LINE
  5
106
  100
AcDbEntity
  8
1
  100
AcDbLine
  10
4.005
  20
-0.850551
  30
0
  11
3.956
  21
-0.816721
  31
0
  0
LINE
  5
107
  100
AcDbEntity
  8
1
  100
AcDbLine
  10
3.956
  20
-0.816721
  30
0
  11
3.907
  21
-0.782852
  31
0
  0
LINE
  5
108
  100
AcDbEntity
  8
1
  100
AcDbLine
  10
3.907
  20
-0.782852
  30
0
  11
3.858
  21
-0.748947
  31
0
  0
LINE
  5
109
  100
AcDbEntity
  8
1
  100
AcDbLine
  10
3.858
  20
-0.748947
  30
0
  11
3.809
  21
-0.715007
  31
0
  0
LINE
  5
10a
  100
AcDbEntity
  8
1
  100
AcDbLine
  10
3.809
  20
-0.715007
  30
0
  11
3.76
  21
-0.681033
  31
0
  0
LINE
  5
10b
  100
AcDbEntity
  8
1
  100
AcDbLine
  10
3.76
  20
-0.681033
  30
0
  11
3.711
  21
-0.647026
  31
0
  0
LINE
  5
10c
  100
AcDbEntity
  8
1
  100
AcDbLine
  10
3.711
  20
-0.647026
  30
0
  11
3.662
  21
-0.61299
  31
0
  0
LINE
  5
10d
  100
AcDbEntity
  8
1
  100
AcDbLine
  10
3.662
  20
-0.61299
  30
0
  11
3.613
  21
-0.578924
  31
0
  0
LINE
  5
10e
  100
AcDbEntity
  8
1
  100
AcDbLine
  10
3.613
  20
-0.578924
  30
0
  11
3.564
  21
-0.544832
  31
0
  0
LINE
  5
10f
  100
AcDbEntity
  8
1
  100
AcDbLine
  10
3.564
  20
-0.544832
  30
0
  11
3.515
  21
-0.510713
  31
0
  0
LINE
  5
110
  100
AcDbEntity
  8
1
  100
AcDbLine
  10
3.515
  20
-0.510713
  30
0
  11
3.466
  21
-0.476571
  31
0
  0
LINE
  5
111
  100
AcDbEntity
  8
1
  100
AcDbLine
  10
3.466
  20
-0.476571
  30
0
  11
3.417
  21
-0.442406
  31
0
  0
LINE
  5
112
  100
AcDbEntity
  8
1
  100
AcDbLine
  10
3.417
  20
-0.442406
  30
0
  11
3.368
  21
-0.40822
  31
0
  0
LINE
  5
113
  100
AcDbEntity
  8
1
  100
AcDbLine
  10
3.368
  20
-0.40822
  30
0
  11
3.319
  21
-0.374015
  31
0
  0
LINE
  5
114
  100
AcDbEntity
  8
1
  100
AcDbLine
  10
3.319
  20
-0.374015
  30
0
  11
3.27
  21
-0.339792
  31
0
  0
LINE
  5
115
  100
AcDbEntity
  8
1
  100
AcDbLine
  10
3.27
  20
-0.339792
  30
0
  11
3.221
  21
-0.305554
  31
0
  0
LINE
  5
116
  100
AcDbEntity
  8
1
  100
AcDbLine
  10
3.221
  20
-0.305554
  30
0
  11
3.172
  21
-0.271301
  31
0
  0
LINE
  5
117
  100
AcDbEntity
  8
1
  100
AcDbLine
  10
3.172
  20
-0.271301
  30
0
  11
3.123
  21
-0.237035
  31
0
  0
LINE
  5
118
  100
AcDbEntity
  8
1
  100
AcDbLine
  10
3.123
  20
-0.237035
  30
0
  11
3.074
  21
-0.202758
  31
0
  0
LINE
  5
119
  100
AcDbEntity
  8
1
  100
AcDbLine
  10
3.074
  20
-0.202758
  30
0
  11
3.025
  21
-0.168472
  31
0
  0
LINE
  5
11a
  100
AcDbEntity
  8
1
  100
AcDbLine
  10
3.025
  20
-0.168472
  30
0
  11
2.976
  21
-0.134177
  31
0
  0
LINE
  5
11b
  100
AcDbEntity
  8
1
  100
AcDbLine
  10
2.976
  20
-0.134177
  30
0
  11
2.927
  21
-0.099877
  31
0
  0
LINE
  5
11c
  100
AcDbEntity
  8
1
  100
AcDbLine
  10
2.927
  20
-0.099877
  30
0
  11
2.878
  21
-0.065571
  31
0
  0
LINE
  5
11d
  100
AcDbEntity
  8
1
  100
AcDbLine
  10
2.878
  20
-0.065571
  30
0
  11
2.829
  21
-0.031263
  31
0
  0
LINE
  5
11e
  100
AcDbEntity
  8
1
  100
AcDbLine
  10
2.829
  20
-0.031263
  30
0
  11
2.78
  21
0.003047
  31
0
  0
LINE
  5
11f
  100
AcDbEntity
  8
1
  100
AcDbLine
  10
2.78
  20
0.003047
  30
0
  11
2.731
  21
0.037357
  31
0
  0
LINE
  5
120
  100
AcDbEntity
  8
1
  100
AcDbLine
  10
2.731
  20
0.037357
  30
0
  11
2.682
  21
0.071665
  31
0
  0
LINE
  5
121
  100
AcDbEntity
  8
1
  100
AcDbLine
  10
2.682
  20
0.071665
  30
0
  11
2.633
  21
0.10597
  31
0
  0
LINE
  5
122
  100
AcDbEntity
  8
1
  100
AcDbLine
  10
2.633
  20
0.10597
  30
0
  11
2.584
  21
0.140269
  31
0
  0
LINE
  5
123
  100
AcDbEntity
  8
1
  100
AcDbLine
  10
2.584
  20
0.140269
  30
0
  11
2.535
  21
0.174563
  31
0
  0
LINE
  5
124
  100
AcDbEntity
  8
1
  100
AcDbLine
  10
2.535
  20
0.174563
  30
0
  11
2.486
  21
0.208847
  31
0
  0
LINE
  5
125
  100
AcDbEntity
  8
1
  100
AcDbLine
  10
2.486
  20
0.208847
  30
0
  11
2.437
  21
0.243122
  31
0
  0
LINE
  5
126
  100
AcDbEntity
  8
1
  100
AcDbLine
  10
2.437
  20
0.243122
  30
0
  11
2.388
  21
0.277386
  31
0
  0
LINE
  5
127
  100
AcDbEntity
  8
1
  100
AcDbLine
  10
2.388
  20
0.277386
  30
0
  11
2.339
  21
0.311637
  31
0
  0
LINE
  5
128
  100
AcDbEntity
  8
1
  100
AcDbLine
  10
2.339
  20
0.311637
  30
0
  11
2.29
  21
0.345872
  31
0
  0
LINE
  5
129
  100
AcDbEntity
  8
1
  100
AcDbLine
  10
2.29
  20
0.345872
  30
0
  11
2.241
  21
0.380092
  31
0
  0
LINE
  5
12a
  100
AcDbEntity
  8
1
  100
AcDbLine
  10
2.241
  20
0.380092
  30
0
  11
2.192
  21
0.414294
  31
0
  0
LINE
  5
12b
  100
AcDbEntity
  8
1
  100
AcDbLine
  10
2.192
  20
0.414294
  30
0
  11
2.143
  21
0.448476
  31
0
  0
LINE
  5
12c
  100
AcDbEntity
  8
1
  100
AcDbLine
  10
2.143
  20
0.448476
  30
0
  11
2.094
  21
0.482637
  31
0
  0
LINE
  5
12d
  100
AcDbEntity
  8
1
  100
AcDbLine
  10
2.094
  20
0.482637
  30
0
  11
2.045
  21
0.516775
  31
0
  0
LINE
  5
12e
  100
AcDbEntity
  8
1
  100
AcDbLine
  10
2.045
  20
0.516775
  30
0
  11
1.996
  21
0.550889
  31
0
  0
LINE
  5
12f
  100
AcDbEntity
  8
1
  100
AcDbLine
  10
1.996
  20
0.550889
  30
0
  11
1.947
  21
0.584977
  31
0
  0
LINE
  5
130
  100
AcDbEntity
  8
1
  100
AcDbLine
  10
1.947
  20
0.584977
  30
0
  11
1.898
  21
0.619038
  31
0
  0
LINE
  5
131
  100
AcDbEntity
  8
1
  100
AcDbLine
  10
1.898
  20
0.619038
  30
0
  11
1.849
  21
0.653069
  31
0
  0
LINE
  5
132
  100
AcDbEntity
  8
1
  100
AcDbLine
  10
1.849
  20
0.653069
  30
0
  11
1.8
  21
0.68707
  31
0
  0
LINE
  5
133
  100
AcDbEntity
  8
1
  100
AcDbLine
  10
1.8
  20
0.68707
  30
0
  11
1.751
  21
0.721038
  31
0
  0
LINE
  5
134
  100
AcDbEntity
  8
1
  100
AcDbLine
  10
1.751
  20
0.721038
  30
0
  11
1.702
  21
0.754972
  31
0
  0
LINE
  5
135
  100
AcDbEntity
  8
1
  100
AcDbLine
  10
1.702
  20
0.754972
  30
0
  11
1.653
  21
0.788871
  31
0
  0
LINE
  5
136
  100
AcDbEntity
  8
1
  100
AcDbLine
  10
1.653
  20
0.788871
  30
0
  11
1.604
  21
0.822733
  31
0
  0
LINE
  5
137
  100
AcDbEntity
  8
1
  100
AcDbLine
  10
1.604
  20
0.822733
  30
0
  11
1.555
  21
0.856555
  31
0
  0
LINE
  5
138
  100
AcDbEntity
  8
1
  100
AcDbLine
  10
1.555
  20
0.856555
  30
0
  11
1.506
  21
0.890338
  31
0
  0
LINE
  5
139
  100
AcDbEntity
  8
1
  100
AcDbLine
  10
1.506
  20
0.890338
  30
0
  11
1.457
  21
0.924079
  31
0
  0
LINE
  5
13a
  100
AcDbEntity
  8
1
  100
AcDbLine
  10
1.457
  20
0.924079
  30
0
  11
1.408
  21
0.957776
  31
0
  0
LINE
  5
13b
  100
AcDbEntity
  8
1
  100
AcDbLine
  10
1.408
  20
0.957776
  30
0
  11
1.359
  21
0.991428
  31
0
  0
LINE
  5
13c
  100
AcDbEntity
  8
1
  100
AcDbLine
  10
1.359
  20
0.991428
  30
0
  11
1.31
  21
1.025033
  31
0
  0
LINE
  5
13d
  100
AcDbEntity
  8
1
  100
AcDbLine
  10
1.31
  20
1.025033
  30
0
  11
1.261
  21
1.05859
  31
0
  0
LINE
  5
13e
  100
AcDbEntity
  8
1
  100
AcDbLine
  10
1.261
  20
1.05859
  30
0
  11
1.212
  21
1.092097
  31
0
  0
LINE
  5
13f
  100
AcDbEntity
  8
1
  100
AcDbLine
  10
1.212
  20
1.092097
  30
0
  11
1.163
  21
1.125553
  31
0
  0
LINE
  5
140
  100
AcDbEntity
  8
1
  100
AcDbLine
  10
1.163
  20
1.125553
  30
0
  11
1.114
  21
1.158956
  31
0
  0
LINE
  5
141
  100
AcDbEntity
  8
1
  100
AcDbLine
  10
1.114
  20
1.158956
  30
0
  11
1.065
  21
1.192304
  31
0
  0
LINE
  5
142
  100
AcDbEntity
  8
1
  100
AcDbLine
  10
1.065
  20
1.192304
  30
0
  11
1.016
  21
1.225596
  31
0
  0
LINE
  5
143
  100
AcDbEntity
  8
1
  100
AcDbLine
  10
1.016
  20
1.225596
  30
0
  11
0.967
  21
1.25883
  31
0
  0
LINE
  5
144
  100
AcDbEntity
  8
1
  100
AcDbLine
  10
0.967
  20
1.25883
  30
0
  11
0.918
  21
1.292005
  31
0
  0
LINE
  5
145
  100
AcDbEntity
  8
1
  100
AcDbLine
  10
0.918
  20
1.292005
  30
0
  11
0.869
  21
1.32512
  31
0
  0
LINE
  5
146
  100
AcDbEntity
  8
1
  100
AcDbLine
  10
0.869
  20
1.32512
  30
0
  11
0.82
  21
1.358172
  31
0
  0
LINE
  5
147
  100
AcDbEntity
  8
1
  100
AcDbLine
  10
0.82
  20
1.358172
  30
0
  11
0.771
  21
1.391159
  31
0
  0
LINE
  5
148
  100
AcDbEntity
  8
1
  100
AcDbLine
  10
0.771
  20
1.391159
  30
0
  11
0.722
  21
1.424082
  31
0
  0
LINE
  5
149
  100
AcDbEntity
  8
1
  100
AcDbLine
  10
0.722
  20
1.424082
  30
0
  11
0.673
  21
1.456937
  31
0
  0
LINE
  5
14a
  100
AcDbEntity
  8
1
  100
AcDbLine
  10
0.673
  20
1.456937
  30
0
  11
0.624
  21
1.489724
  31
0
  0
LINE
  5
14b
  100
AcDbEntity
  8
1
  100
AcDbLine
  10
0.624
  20
1.489724
  30
0
  11
0.575
  21
1.52244
  31
0
  0
LINE
  5
14c
  100
AcDbEntity
  8
1
  100
AcDbLine
  10
0.575
  20
1.52244
  30
0
  11
0.526
  21
1.555085
  31
0
  0
LINE
  5
14d
  100
AcDbEntity
  8
1
  100
AcDbLine
  10
0.526
  20
1.555085
  30
0
  11
0.477
  21
1.587657
  31
0
  0
LINE
  5
14e
  100
AcDbEntity
  8
1
  100
AcDbLine
  10
0.477
  20
1.587657
  30
0
  11
0.428
  21
1.620154
  31
0
  0
LINE
  5
14f
  100
AcDbEntity
  8
1
  100
AcDbLine
  10
0.428
  20
1.620154
  30
0
  11
0.379
  21
1.652575
  31
0
  0
LINE
  5
150
  100
AcDbEntity
  8
1
  100
AcDbLine
  10
0.379
  20
1.652575
  30
0
  11
0.33
  21
1.684917
  31
0
  0
LINE
  5
151
  100
AcDbEntity
  8
1
  100
AcDbLine
  10
0.33
  20
1.684917
  30
0
  11
0.281
  21
1.717181
  31
0
  0
LINE
  5
152
  100
AcDbEntity
  8
1
  100
AcDbLine
  10
0.281
  20
1.717181
  30
0
  11
0.232
  21
1.749363
  31
0
  0
LINE
  5
153
  100
AcDbEntity
  8
1
  100
AcDbLine
  10
0.232
  20
1.749363
  30
0
  11
0.183
  21
1.781464
  31
0
  0
LINE
  5
154
  100
AcDbEntity
  8
1
  100
AcDbLine
  10
0.183
  20
1.781464
  30
0
  11
0.134
  21
1.81348
  31
0
  0
LINE
  5
155
  100
AcDbEntity
  8
1
  100
AcDbLine
  10
0.134
  20
1.81348
  30
0
  11
0.085
  21
1.845411
  31
0
  0
LINE
  5
156
  100
AcDbEntity
  8
1
  100
AcDbLine
  10
0.085
  20
1.845411
  30
0
  11
0.036
  21
1.877255
  31
0
  0
LINE
  5
157
  100
AcDbEntity
  8
1
  100
AcDbLine
  10
14.001
  20
2.462164
  30
0
  11
13.952
  21
2.510032
  31
0
  0
LINE
  5
158
  100
AcDbEntity
  8
1
  100
AcDbLine
  10
13.952
  20
2.510032
  30
0
  11
13.903
  21
2.558407
  31
0
  0
LINE
  5
159
  100
AcDbEntity
  8
1
  100
AcDbLine
  10
13.903
  20
2.558407
  30
0
  11
13.854
  21
2.588604
  31
0
  0
LINE
  5
15a
  100
AcDbEntity
  8
1
  100
AcDbLine
  10
13.854
  20
2.588604
  30
0
  11
13.805
  21
2.617897
  31
0
  0
LINE
  5
15b
  100
AcDbEntity
  8
1
  100
AcDbLine
  10
13.805
  20
2.617897
  30
0
  11
13.756
  21
2.647067
  31
0
  0
LINE
  5
15c
  100
AcDbEntity
  8
1
  100
AcDbLine
  10
13.756
  20
2.647067
  30
0
  11
13.707
  21
2.676112
  31
0
  0
LINE
  5
15d
  100
AcDbEntity
  8
1
  100
AcDbLine
  10
13.707
  20
2.676112
  30
0
  11
13.658
  21
2.705031
  31
0
  0
LINE
  5
15e
  100
AcDbEntity
  8
1
  100
AcDbLine
  10
13.658
  20
2.705031
  30
0
  11
13.609
  21
2.733822
  31
0
  0
LINE
  5
15f
  100
AcDbEntity
  8
1
  100
AcDbLine
  10
13.609
  20
2.733822
  30
0
  11
13.56
  21
2.762485
  31
0
  0
LINE
  5
160
  100
AcDbEntity
  8
1
  100
AcDbLine
  10
13.56
  20
2.762485
  30
0
  11
13.511
  21
2.791018
  31
0
  0
LINE
  5
161
  100
AcDbEntity
  8
1
  100
AcDbLine
  10
13.511
  20
2.791018
  30
0
  11
13.462
  21
2.819419
  31
0
  0
LINE
  5
162
  100
AcDbEntity
  8
1
  100
AcDbLine
  10
13.462
  20
2.819419
  30
0
  11
13.413
  21
2.847688
  31
0
  0
LINE
  5
163
  100
AcDbEntity
  8
1
  100
AcDbLine
  10
13.413
  20
2.847688
  30
0
  11
13.364
  21
2.875822
  31
0
  0
LINE
  5
164
  100
AcDbEntity
  8
1
  100
AcDbLine
  10
13.364
  20
2.875822
  30
0
  11
13.315
  21
2.903822
  31
0
  0
LINE
  5
165
  100
AcDbEntity
  8
1
  100
AcDbLine
  10
13.315
  20
2.903822
  30
0
  11
13.266
  21
2.931684
  31
0
  0
LINE
  5
166
  100
AcDbEntity
  8
1
  100
AcDbLine
  10
13.266
  20
2.931684
  30
0
  11
13.217
  21
2.959408
  31
0
  0
LINE
  5
167
  100
AcDbEntity
  8
1
  100
AcDbLine
  10
13.217
  20
2.959408
  30
0
  11
13.168
  21
2.986993
  31
0
  0
LINE
  5
168
  100
AcDbEntity
  8
1
  100
AcDbLine
  10
13.168
  20
2.986993
  30
0
  11
13.119
  21
3.014437
  31
0
  0
LINE
  5
169
  100
AcDbEntity
  8
1
  100
AcDbLine
  10
13.119
  20
3.014437
  30
0
  11
13.07
  21
3.04174
  31
0
  0
LINE
  5
16a
  100
AcDbEntity
  8
1
  100
AcDbLine
  10
13.07
  20
3.04174
  30
0
  11
13.021
  21
3.068899
  31
0
  0
LINE
  5
16b
  100
AcDbEntity
  8
1
  100
AcDbLine
  10
13.021
  20
3.068899
  30
0
  11
12.972
  21
3.095914
  31
0
  0
LINE
  5
16c
  100
AcDbEntity
  8
1
  100
AcDbLine
  10
12.972
  20
3.095914
  30
0
  11
12.923
  21
3.122782
  31
0
  0
LINE
  5
16d
  100
AcDbEntity
  8
1
  100
AcDbLine
  10
12.923
  20
3.122782
  30
0
  11
12.874
  21
3.149504
  31
0
  0
LINE
  5
16e
  100
AcDbEntity
  8
1
  100
AcDbLine
  10
12.874
  20
3.149504
  30
0
  11
12.825
  21
3.176078
  31
0
  0
LINE
  5
16f
  100
AcDbEntity
  8
1
  100
AcDbLine
  10
12.825
  20
3.176078
  30
0
  11
12.776
  21
3.202502
  31
0
  0
LINE
  5
170
  100
AcDbEntity
  8
1
  100
AcDbLine
  10
12.776
  20
3.202502
  30
0
  11
12.727
  21
3.228775
  31
0
  0
LINE
  5
171
  100
AcDbEntity
  8
1
  100
AcDbLine
  10
12.727
  20
3.228775
  30
0
  11
12.678
  21
3.254896
  31
0
  0
LINE
  5
172
  100
AcDbEntity
  8
1
  100
AcDbLine
  10
12.678
  20
3.254896
  30
0
  11
12.629
  21
3.280864
  31
0
  0
LINE
  5
173
  100
AcDbEntity
  8
1
  100
AcDbLine
  10
12.629
  20
3.280864
  30
0
  11
12.58
  21
3.306677
  31
0
  0
LINE
  5
174
  100
AcDbEntity
  8
1
  100
AcDbLine
  10
12.58
  20
3.306677
  30
0
  11
12.531
  21
3.332335
  31
0
  0
LINE
  5
175
  100
AcDbEntity
  8
1
  100
AcDbLine
  10
12.531
  20
3.332335
  30
0
  11
12.482
  21
3.357836
  31
0
  0
LINE
  5
176
  100
AcDbEntity
  8
1
  100
AcDbLine
  10
12.482
  20
3.357836
  30
0
  11
12.433
  21
3.383178
  31
0
  0
LINE
  5
177
  100
AcDbEntity
  8
1
  100
AcDbLine
  10
12.433
  20
3.383178
  30
0
  11
12.384
  21
3.408362
  31
0
  0
LINE
  5
178
  100
AcDbEntity
  8
1
  100
AcDbLine
  10
12.384
  20
3.408362
  30
0
  11
12.335
  21
3.433385
  31
0
  0
LINE
  5
179
  100
AcDbEntity
  8
1
  100
AcDbLine
  10
12.335
  20
3.433385
  30
0
  11
12.286
  21
3.458246
  31
0
  0
LINE
  5
17a
  100
AcDbEntity
  8
1
  100
AcDbLine
  10
12.286
  20
3.458246
  30
0
  11
12.237
  21
3.482944
  31
0
  0
LINE
  5
17b
  100
AcDbEntity
  8
1
  100
AcDbLine
  10
12.237
  20
3.482944
  30
0
  11
12.188
  21
3.507478
  31
0
  0
LINE
  5
17c
  100
AcDbEntity
  8
1
  100
AcDbLine
  10
12.188
  20
3.507478
  30
0
  11
12.139
  21
3.531848
  31
0
  0
LINE
  5
17d
  100
AcDbEntity
  8
1
  100
AcDbLine
  10
12.139
  20
3.531848
  30
0
  11
12.09
  21
3.55605
  31
0
  0
LINE
  5
17e
  100
AcDbEntity
  8
1
  100
AcDbLine
  10
12.09
  20
3.55605
  30
0
  11
12.041
  21
3.580086
  31
0
  0
LINE
  5
17f
  100
AcDbEntity
  8
1
  100
AcDbLine
  10
12.041
  20
3.580086
  30
0
  11
11.992
  21
3.603953
  31
0
  0
LINE
  5
180
  100
AcDbEntity
  8
1
  100
AcDbLine
  10
11.992
  20
3.603953
  30
0
  11
11.943
  21
3.62765
  31
0
  0
LINE
  5
181
  100
AcDbEntity
  8
1
  100
AcDbLine
  10
11.943
  20
3.62765
  30
0
  11
11.894
  21
3.651176
  31
0
  0
LINE
  5
182
  100
AcDbEntity
  8
1
  100
AcDbLine
  10
11.894
  20
3.651176
  30
0
  11
11.845
  21
3.674531
  31
0
  0
LINE
  5
183
  100
AcDbEntity
  8
1
  100
AcDbLine
  10
11.845
  20
3.674531
  30
0
  11
11.796
  21
3.697712
  31
0
  0
LINE
  5
184
  100
AcDbEntity
  8
1
  100
AcDbLine
  10
11.796
  20
3.697712
  30
0
  11
11.747
  21
3.720719
  31
0
  0
LINE
  5
185
  100
AcDbEntity
  8
1
  100
AcDbLine
  10
11.747
  20
3.720719
  30
0
  11
11.698
  21
3.743551
  31
0
  0
LINE
  5
186
  100
AcDbEntity
  8
1
  100
AcDbLine
  10
11.698
  20
3.743551
  30
0
  11
11.649
  21
3.766207
  31
0
  0
LINE
  5
187
  100
AcDbEntity
  8
1
  100
AcDbLine
  10
11.649
  20
3.766207
  30
0
  11
11.6
  21
3.788686
  31
0
  0
LINE
  5
188
  100
AcDbEntity
  8
1
  100
AcDbLine
  10
11.6
  20
3.788686
  30
0
  11
11.551
  21
3.810986
  31
0
  0
LINE
  5
189
  100
AcDbEntity
  8
1
  100
AcDbLine
  10
11.551
  20
3.810986
  30
0
  11
11.502
  21
3.833106
  31
0
  0
LINE
  5
18a
  100
AcDbEntity
  8
1
  100
AcDbLine
  10
11.502
  20
3.833106
  30
0
  11
11.453
  21
3.855047
  31
0
  0
LINE
  5
18b
  100
AcDbEntity
  8
1
  100
AcDbLine
  10
11.453
  20
3.855047
  30
0
  11
11.404
  21
3.876805
  31
0
  0
LINE
  5
18c
  100
AcDbEntity
  8
1
  100
AcDbLine
  10
11.404
  20
3.876805
  30
0
  11
11.355
  21
3.898381
  31
0
  0
LINE
  5
18d
  100
AcDbEntity
  8
1
  100
AcDbLine
  10
11.355
  20
3.898381
  30
0
  11
11.306
  21
3.919774
  31
0
  0
LINE
  5
18e
  100
AcDbEntity
  8
1
  100
AcDbLine
  10
11.306
  20
3.919774
  30
0
  11
11.257
  21
3.940982
  31
0
  0
LINE
  5
18f
  100
AcDbEntity
  8
1
  100
AcDbLine
  10
11.257
  20
3.940982
  30
0
  11
11.208
  21
3.962004
  31
0
  0
LINE
  5
190
  100
AcDbEntity
  8
1
  100
AcDbLine
  10
11.208
  20
3.962004
  30
0
  11
11.159
  21
3.98284
  31
0
  0
LINE
  5
191
  100
AcDbEntity
  8
1
  100
AcDbLine
  10
11.159
  20
3.98284
  30
0
  11
11.11
  21
4.003488
  31
0
  0
LINE
  5
192
  100
AcDbEntity
  8
1
  100
AcDbLine
  10
11.11
  20
4.003488
  30
0
  11
11.061
  21
4.023948
  31
0
  0
LINE
  5
193
  100
AcDbEntity
  8
1
  100
AcDbLine
  10
11.061
  20
4.023948
  30
0
  11
11.012
  21
4.044218
  31
0
  0
LINE
  5
194
  100
AcDbEntity
  8
1
  100
AcDbLine
  10
11.012
  20
4.044218
  30
0
  11
10.963
  21
4.064298
  31
0
  0
LINE
  5
195
  100
AcDbEntity
  8
1
  100
AcDbLine
  10
10.963
  20
4.064298
  30
0
  11
10.914
  21
4.084186
  31
0
  0
LINE
  5
196
  100
AcDbEntity
  8
1
  100
AcDbLine
  10
10.914
  20
4.084186
  30
0
  11
10.865
  21
4.103882
  31
0
  0
LINE
  5
197
  100
AcDbEntity
  8
1
  100
AcDbLine
  10
10.865
  20
4.103882
  30
0
  11
10.816
  21
4.123385
  31
0
  0
LINE
  5
198
  100
AcDbEntity
  8
1
  100
AcDbLine
  10
10.816
  20
4.123385
  30
0
  11
10.767
  21
4.142694
  31
0
  0
LINE
  5
199
  100
AcDbEntity
  8
1
  100
AcDbLine
  10
10.767
  20
4.142694
  30
0
  11
10.718
  21
4.161808
  31
0
  0
LINE
  5
19a
  100
AcDbEntity
  8
1
  100
AcDbLine
  10
10.718
  20
4.161808
  30
0
  11
10.669
  21
4.180725
  31
0
  0
LINE
  5
19b
  100
AcDbEntity
  8
1
  100
AcDbLine
  10
10.669
  20
4.180725
  30
0
  11
10.62
  21
4.199446
  31
0
  0
LINE
  5
19c
  100
AcDbEntity
  8
1
  100
AcDbLine
  10
10.62
  20
4.199446
  30
0
  11
10.571
  21
4.217969
  31
0
  0
LINE
  5
19d
  100
AcDbEntity
  8
1
  100
AcDbLine
  10
10.571
  20
4.217969
  30
0
  11
10.522
  21
4.236294
  31
0
  0
LINE
  5
19e
  100
AcDbEntity
  8
1
  100
AcDbLine
  10
10.522
  20
4.236294
  30
0
  11
10.473
  21
4.254419
  31
0
  0
LINE
  5
19f
  100
AcDbEntity
  8
1
  100
AcDbLine
  10
10.473
  20
4.254419
  30
0
  11
10.424
  21
4.272343
  31
0
  0
LINE
  5
1a0
  100
AcDbEntity
  8
1
  100
AcDbLine
  10
10.424
  20
4.272343
  30
0
  11
10.375
  21
4.290067
  31
0
  0
LINE
  5
1a1
  100
AcDbEntity
  8
1
  100
AcDbLine
  10
10.375
  20
4.290067
  30
0
  11
10.326
  21
4.307588
  31
0
  0
LINE
  5
1a2
  100
AcDbEntity
  8
1
  100
AcDbLine
  10
10.326
  20
4.307588
  30
0
  11
10.277
  21
4.324907
  31
0
  0
LINE
  5
1a3
  100
AcDbEntity
  8
1
  100
AcDbLine
  10
10.277
  20
4.324907
  30
0
  11
10.228
  21
4.342022
  31
0
  0
LINE
  5
1a4
  100
AcDbEntity
  8
1
  100
AcDbLine
  10
10.228
  20
4.342022
  30
0
  11
10.179
  21
4.358933
  31
0
  0
LINE
  5
1a5
  100
AcDbEntity
  8
1
  100
AcDbLine
  10
10.179
  20
4.358933
  30
0
  11
10.13
  21
4.375638
  31
0
  0
LINE
  5
1a6
  100
AcDbEntity
  8
1
  100
AcDbLine
  10
10.13
  20
4.375638
  30
0
  11
10.081
  21
4.392137
  31
0
  0
LINE
  5
1a7
  100
AcDbEntity
  8
1
  100
AcDbLine
  10
10.081
  20
4.392137
  30
0
  11
10.032
  21
4.40843
  31
0
  0
LINE
  5
1a8
  100
AcDbEntity
  8
1
  100
AcDbLine
  10
10.032
  20
4.40843
  30
0
  11
9.983
  21
4.424515
  31
0
  0
LINE
  5
1a9
  100
AcDbEntity
  8
1
  100
AcDbLine
  10
9.983
  20
4.424515
  30
0
  11
9.934
  21
4.440391
  31
0
  0
LINE
  5
1aa
  100
AcDbEntity
  8
1
  100
AcDbLine
  10
9.934
  20
4.440391
  30
0
  11
9.885
  21
4.456059
  31
0
  0
LINE
  5
1ab
  100
AcDbEntity
  8
1
  100
AcDbLine
  10
9.885
  20
4.456059
  30
0
  11
9.836
  21
4.471516
  31
0
  0
LINE
  5
1ac
  100
AcDbEntity
  8
1
  100
AcDbLine
  10
9.836
  20
4.471516
  30
0
  11
9.787
  21
4.486763
  31
0
  0
LINE
  5
1ad
  100
AcDbEntity
  8
1
  100
AcDbLine
  10
9.787
  20
4.486763
  30
0
  11
9.738
  21
4.501799
  31
0
  0
LINE
  5
1ae
  100
AcDbEntity
  8
1
  100
AcDbLine
  10
9.738
  20
4.501799
  30
0
  11
9.689
  21
4.516623
  31
0
  0
LINE
  5
1af
  100
AcDbEntity
  8
1
  100
AcDbLine
  10
9.689
  20
4.516623
  30
0
  11
9.64
  21
4.531234
  31
0
  0
LINE
  5
1b0
  100
AcDbEntity
  8
1
  100
AcDbLine
  10
9.64
  20
4.531234
  30
0
  11
9.591
  21
4.545632
  31
0
  0
LINE
  5
1b1
  100
AcDbEntity
  8
1
  100
AcDbLine
  10
9.591
  20
4.545632
  30
0
  11
9.542
  21
4.559816
  31
0
  0
LINE
  5
1b2
  100
AcDbEntity
  8
1
  100
AcDbLine
  10
9.542
  20
4.559816
  30
0
  11
9.493
  21
4.573785
  31
0
  0
LINE
  5
1b3
  100
AcDbEntity
  8
1
  100
AcDbLine
  10
9.493
  20
4.573785
  30
0
  11
9.444
  21
4.587538
  31
0
  0
LINE
  5
1b4
  100
AcDbEntity
  8
1
  100
AcDbLine
  10
9.444
  20
4.587538
  30
0
  11
9.395
  21
4.601076
  31
0
  0
LINE
  5
1b5
  100
AcDbEntity
  8
1
  100
AcDbLine
  10
9.395
  20
4.601076
  30
0
  11
9.346
  21
4.614397
  31
0
  0
LINE
  5
1b6
  100
AcDbEntity
  8
1
  100
AcDbLine
  10
9.346
  20
4.614397
  30
0
  11
9.297
  21
4.627501
  31
0
  0
LINE
  5
1b7
  100
AcDbEntity
  8
1
  100
AcDbLine
  10
9.297
  20
4.627501
  30
0
  11
9.248
  21
4.640387
  31
0
  0
LINE
  5
1b8
  100
AcDbEntity
  8
1
  100
AcDbLine
  10
9.248
  20
4.640387
  30
0
  11
9.199
  21
4.653054
  31
0
  0
LINE
  5
1b9
  100
AcDbEntity
  8
1
  100
AcDbLine
  10
9.199
  20
4.653054
  30
0
  11
9.15
  21
4.665502
  31
0
  0
LINE
  5
1ba
  100
AcDbEntity
  8
1
  100
AcDbLine
  10
9.15
  20
4.665502
  30
0
  11
9.101
  21
4.677731
  31
0
  0
LINE
  5
1bb
  100
AcDbEntity
  8
1
  100
AcDbLine
  10
9.101
  20
4.677731
  30
0
  11
9.052
  21
4.689739
  31
0
  0
LINE
  5
1bc
  100
AcDbEntity
  8
1
  100
AcDbLine
  10
9.052
  20
4.689739
  30
0
  11
9.003
  21
4.701526
  31
0
  0
LINE
  5
1bd
  100
AcDbEntity
  8
1
  100
AcDbLine
  10
9.003
  20
4.701526
  30
0
  11
8.954
  21
4.713093
  31
0
  0
LINE
  5
1be
  100
AcDbEntity
  8
1
  100
AcDbLine
  10
8.954
  20
4.713093
  30
0
  11
8.905
  21
4.724437
  31
0
  0
LINE
  5
1bf
  100
AcDbEntity
  8
1
  100
AcDbLine
  10
8.905
  20
4.724437
  30
0
  11
8.856
  21
4.735558
  31
0
  0
LINE
  5
1c0
  100
AcDbEntity
  8
1
  100
AcDbLine
  10
8.856
  20
4.735558
  30
0
  11
8.807
  21
4.746457
  31
0
  0
LINE
  5
1c1
  100
AcDbEntity
  8
1
  100
AcDbLine
  10
8.807
  20
4.746457
  30
0
  11
8.758
  21
4.757132
  31
0
  0
LINE
  5
1c2
  100
AcDbEntity
  8
1
  100
AcDbLine
  10
8.758
  20
4.757132
  30
0
  11
8.709
  21
4.767583
  31
0
  0
LINE
  5
1c3
  100
AcDbEntity
  8
1
  100
AcDbLine
  10
8.709
  20
4.767583
  30
0
  11
8.66
  21
4.77781
  31
0
  0
LINE
  5
1c4
  100
AcDbEntity
  8
1
  100
AcDbLine
  10
8.66
  20
4.77781
  30
0
  11
8.611
  21
4.787812
  31
0
  0
LINE
  5
1c5
  100
AcDbEntity
  8
1
  100
AcDbLine
  10
8.611
  20
4.787812
  30
0
  11
8.562
  21
4.797588
  31
0
  0
LINE
  5
1c6
  100
AcDbEntity
  8
1
  100
AcDbLine
  10
8.562
  20
4.797588
  30
0
  11
8.513
  21
4.807139
  31
0
  0
LINE
  5
1c7
  100
AcDbEntity
  8
1
  100
AcDbLine
  10
8.513
  20
4.807139
  30
0
  11
8.464
  21
4.816463
  31
0
  0
LINE
  5
1c8
  100
AcDbEntity
  8
1
  100
AcDbLine
  10
8.464
  20
4.816463
  30
0
  11
8.415
  21
4.82556
  31
0
  0
LINE
  5
1c9
  100
AcDbEntity
  8
1
  100
AcDbLine
  10
8.415
  20
4.82556
  30
0
  11
8.366
  21
4.83443
  31
0
  0
LINE
  5
1ca
  100
AcDbEntity
  8
1
  100
AcDbLine
  10
8.366
  20
4.83443
  30
0
  11
8.317
  21
4.843072
  31
0
  0
LINE
  5
1cb
  100
AcDbEntity
  8
1
  100
AcDbLine
  10
8.317
  20
4.843072
  30
0
  11
8.268
  21
4.851487
  31
0
  0
LINE
  5
1cc
  100
AcDbEntity
  8
1
  100
AcDbLine
  10
8.268
  20
4.851487
  30
0
  11
8.219
  21
4.859672
  31
0
  0
LINE
  5
1cd
  100
AcDbEntity
  8
1
  100
AcDbLine
  10
8.219
  20
4.859672
  30
0
  11
8.17
  21
4.867629
  31
0
  0
LINE
  5
1ce
  100
AcDbEntity
  8
1
  100
AcDbLine
  10
8.17
  20
4.867629
  30
0
  11
8.121
  21
4.875357
  31
0
  0
LINE
  5
1cf
  100
AcDbEntity
  8
1
  100
AcDbLine
  10
8.121
  20
4.875357
  30
0
  11
8.072
  21
4.882856
  31
0
  0
LINE
  5
1d0
  100
AcDbEntity
  8
1
  100
AcDbLine
  10
8.072
  20
4.882856
  30
0
  11
8.023
  21
4.890124
  31
0
  0
LINE
  5
1d1
  100
AcDbEntity
  8
1
  100
AcDbLine
  10
8.023
  20
4.890124
  30
0
  11
7.974
  21
4.897162
  31
0
  0
LINE
  5
1d2
  100
AcDbEntity
  8
1
  100
AcDbLine
  10
7.974
  20
4.897162
  30
0
  11
7.925
  21
4.90397
  31
0
  0
LINE
  5
1d3
  100
AcDbEntity
  8
1
  100
AcDbLine
  10
7.925
  20
4.90397
  30
0
  11
7.876
  21
4.910546
  31
0
  0
LINE
  5
1d4
  100
AcDbEntity
  8
1
  100
AcDbLine
  10
7.876
  20
4.910546
  30
0
  11
7.827
  21
4.916891
  31
0
  0
LINE
  5
1d5
  100
AcDbEntity
  8
1
  100
AcDbLine
  10
7.827
  20
4.916891
  30
0
  11
7.778
  21
4.923005
  31
0
  0
LINE
  5
1d6
  100
AcDbEntity
  8
1
  100
AcDbLine
  10
7.778
  20
4.923005
  30
0
  11
7.729
  21
4.928887
  31
0
  0
LINE
  5
1d7
  100
AcDbEntity
  8
1
  100
AcDbLine
  10
7.729
  20
4.928887
  30
0
  11
7.68
  21
4.934537
  31
0
  0
LINE
  5
1d8
  100
AcDbEntity
  8
1
  100
AcDbLine
  10
7.68
  20
4.934537
  30
0
  11
7.631
  21
4.939955
  31
0
  0
LINE
  5
1d9
  100
AcDbEntity
  8
1
  100
AcDbLine
  10
7.631
  20
4.939955
  30
0
  11
7.582
  21
4.94514
  31
0
  0
LINE
  5
1da
  100
AcDbEntity
  8
1
  100
AcDbLine
  10
7.582
  20
4.94514
  30
0
  11
7.533
  21
4.950092
  31
0
  0
LINE
  5
1db
  100
AcDbEntity
  8
1
  100
AcDbLine
  10
7.533
  20
4.950092
  30
0
  11
7.484
  21
4.954811
  31
0
  0
LINE
  5
1dc
  100
AcDbEntity
  8
1
  100
AcDbLine
  10
7.484
  20
4.954811
  30
0
  11
7.435
  21
4.959297
  31
0
  0
LINE
  5
1dd
  100
AcDbEntity
  8
1
  100
AcDbLine
  10
7.435
  20
4.959297
  30
0
  11
7.386
  21
4.963549
  31
0
  0
LINE
  5
1de
  100
AcDbEntity
  8
1
  100
AcDbLine
  10
7.386
  20
4.963549
  30
0
  11
7.337
  21
4.967567
  31
0
  0
LINE
  5
1df
  100
AcDbEntity
  8
1
  100
AcDbLine
  10
7.337
  20
4.967567
  30
0
  11
7.288
  21
4.971352
  31
0
  0
LINE
  5
1e0
  100
AcDbEntity
  8
1
  100
AcDbLine
  10
7.288
  20
4.971352
  30
0
  11
7.239
  21
4.974902
  31
0
  0
LINE
  5
1e1
  100
AcDbEntity
  8
1
  100
AcDbLine
  10
7.239
  20
4.974902
  30
0
  11
7.19
  21
4.978219
  31
0
  0
LINE
  5
1e2
  100
AcDbEntity
  8
1
  100
AcDbLine
  10
7.19
  20
4.978219
  30
0
  11
7.141
  21
4.981301
  31
0
  0
LINE
  5
1e3
  100
AcDbEntity
  8
1
  100
AcDbLine
  10
7.141
  20
4.981301
  30
0
  11
7.092
  21
4.984148
  31
0
  0
LINE
  5
1e4
  100
AcDbEntity
  8
1
  100
AcDbLine
  10
7.092
  20
4.984148
  30
0
  11
7.043
  21
4.98676
  31
0
  0
LINE
  5
1e5
  100
AcDbEntity
  8
1
  100
AcDbLine
  10
7.043
  20
4.98676
  30
0
  11
6.994
  21
4.989138
  31
0
  0
LINE
  5
1e6
  100
AcDbEntity
  8
1
  100
AcDbLine
  10
6.994
  20
4.989138
  30
0
  11
6.945
  21
4.991281
  31
0
  0
LINE
  5
1e7
  100
AcDbEntity
  8
1
  100
AcDbLine
  10
6.945
  20
4.991281
  30
0
  11
6.896
  21
4.993189
  31
0
  0
LINE
  5
1e8
  100
AcDbEntity
  8
1
  100
AcDbLine
  10
6.896
  20
4.993189
  30
0
  11
6.847
  21
4.994861
  31
0
  0
LINE
  5
1e9
  100
AcDbEntity
  8
1
  100
AcDbLine
  10
6.847
  20
4.994861
  30
0
  11
6.798
  21
4.996299
  31
0
  0
LINE
  5
1ea
  100
AcDbEntity
  8
1
  100
AcDbLine
  10
6.798
  20
4.996299
  30
0
  11
6.749
  21
4.997501
  31
0
  0
LINE
  5
1eb
  100
AcDbEntity
  8
1
  100
AcDbLine
  10
6.749
  20
4.997501
  30
0
  11
6.7
  21
4.998468
  31
0
  0
LINE
  5
1ec
  100
AcDbEntity
  8
1
  100
AcDbLine
  10
6.7
  20
4.998468
  30
0
  11
6.651
  21
4.9992
  31
0
  0
LINE
  5
1ed
  100
AcDbEntity
  8
1
  100
AcDbLine
  10
6.651
  20
4.9992
  30
0
  11
6.602
  21
4.999696
  31
0
  0
LINE
  5
1ee
  100
AcDbEntity
  8
1
  100
AcDbLine
  10
6.602
  20
4.999696
  30
0
  11
6.553
  21
4.999957
  31
0
  0
LINE
  5
1ef
  100
AcDbEntity
  8
1
  100
AcDbLine
  10
6.553
  20
4.999957
  30
0
  11
6.523235
  21
5
  31
0
  0
LINE
  5
1f0
  100
AcDbEntity
  8
1
  100
AcDbLine
  10
3.033611
  20
-5
  30
0
  11
3.025
  21
-4.999996
  31
0
  0
LINE
  5
1f1
  100
AcDbEntity
  8
1
  100
AcDbLine
  10
3.025
  20
-4.999996
  30
0
  11
2.976
  21
-4.999837
  31
0
  0
LINE
  5
1f2
  100
AcDbEntity
  8
1
  100
AcDbLine
  10
2.976
  20
-4.999837
  30
0
  11
2.927
  21
-4.999443
  31
0
  0
LINE
  5
1f3
  100
AcDbEntity
  8
1
  100
AcDbLine
  10
2.927
  20
-4.999443
  30
0
  11
2.878
  21
-4.998813
  31
0
  0
LINE
  5
1f4
  100
AcDbEntity
  8
1
  100
AcDbLine
  10
2.878
  20
-4.998813
  30
0
  11
2.829
  21
-4.997948
  31
0
  0
LINE
  5
1f5
  100
AcDbEntity
  8
1
  100
AcDbLine
  10
2.829
  20
-4.997948
  30
0
  11
2.78
  21
-4.996847
  31
0
  0
LINE
  5
1f6
  100
AcDbEntity
  8
1
  100
AcDbLine
  10
2.78
  20
-4.996847
  30
0
  11
2.731
  21
-4.995511
  31
0
  0
LINE
  5
1f7
  100
AcDbEntity
  8
1
  100
AcDbLine
  10
2.731
  20
-4.995511
  30
0
  11
2.682
  21
-4.99394
  31
0
  0
LINE
  5
1f8
  100
AcDbEntity
  8
1
  100
AcDbLine
  10
2.682
  20
-4.99394
  30
0
  11
2.633
  21
-4.992133
  31
0
  0
LINE
  5
1f9
  100
AcDbEntity
  8
1
  100
AcDbLine
  10
2.633
  20
-4.992133
  30
0
  11
2.584
  21
-4.990092
  31
0
  0
LINE
  5
1fa
  100
AcDbEntity
  8
1
  100
AcDbLine
  10
2.584
  20
-4.990092
  30
0
  11
2.535
  21
-4.987816
  31
0
  0
LINE
  5
1fb
  100
AcDbEntity
  8
1
  100
AcDbLine
  10
2.535
  20
-4.987816
  30
0
  11
2.486
  21
-4.985304
  31
0
  0
LINE
  5
1fc
  100
AcDbEntity
  8
1
  100
AcDbLine
  10
2.486
  20
-4.985304
  30
0
  11
2.437
  21
-4.982559
  31
0
  0
LINE
  5
1fd
  100
AcDbEntity
  8
1
  100
AcDbLine
  10
2.437
  20
-4.982559
  30
0
  11
2.388
  21
-4.979578
  31
0
  0
LINE
  5
1fe
  100
AcDbEntity
  8
1
  100
AcDbLine
  10
2.388
  20
-4.979578
  30
0
  11
2.339
  21
-4.976363
  31
0
  0
LINE
  5
1ff
  100
AcDbEntity
  8
1
  100
AcDbLine
  10
2.339
  20
-4.976363
  30
0
  11
2.29
  21
-4.972914
  31
0
  0
LINE
  5
200
  100
AcDbEntity
  8
1
  100
AcDbLine
  10
2.29
  20
-4.972914
  30
0
  11
2.241
  21
-4.96923
  31
0
  0
LINE
  5
201
  100
AcDbEntity
  8
1
  100
AcDbLine
  10
2.241
  20
-4.96923
  30
0
  11
2.192
  21
-4.965312
  31
0
  0
LINE
  5
202
  100
AcDbEntity
  8
1
  100
AcDbLine
  10
2.192
  20
-4.965312
  30
0
  11
2.143
  21
-4.961161
  31
0
  0
LINE
  5
203
  100
AcDbEntity
  8
1
  100
AcDbLine
  10
2.143
  20
-4.961161
  30
0
  11
2.094
  21
-4.956776
  31
0
  0
LINE
  5
204
  100
AcDbEntity
  8
1
  100
AcDbLine
  10
2.094
  20
-4.956776
  30
0
  11
2.045
  21
-4.952158
  31
0
  0
LINE
  5
205
  100
AcDbEntity
  8
1
  100
AcDbLine
  10
2.045
  20
-4.952158
  30
0
  11
1.996
  21
-4.947306
  31
0
  0
LINE
  5
206
  100
AcDbEntity
  8
1
  100
AcDbLine
  10
1.996
  20
-4.947306
  30
0
  11
1.947
  21
-4.942222
  31
0
  0
LINE
  5
207
  100
AcDbEntity
  8
1
  100
AcDbLine
  10
1.947
  20
-4.942222
  30
0
  11
1.898
  21
-4.936905
  31
0
  0
LINE
  5
208
  100
AcDbEntity
  8
1
  100
AcDbLine
  10
1.898
  20
-4.936905
  30
0
  11
1.849
  21
-4.931355
  31
0
  0
LINE
  5
209
  100
AcDbEntity
  8
1
  100
AcDbLine
  10
1.849
  20
-4.931355
  30
0
  11
1.8
  21
-4.925573
  31
0
  0
LINE
  5
20a
  100
AcDbEntity
  8
1
  100
AcDbLine
  10
1.8
  20
-4.925573
  30
0
  11
1.751
  21
-4.919559
  31
0
  0
LINE
  5
20b
  100
AcDbEntity
  8
1
  100
AcDbLine
  10
1.751
  20
-4.919559
  30
0
  11
1.702
  21
-4.913314
  31
0
  0
LINE
  5
20c
  100
AcDbEntity
  8
1
  100
AcDbLine
  10
1.702
  20
-4.913314
  30
0
  11
1.653
  21
-4.906837
  31
0
  0
LINE
  5
20d
  100
AcDbEntity
  8
1
  100
AcDbLine
  10
1.653
  20
-4.906837
  30
0
  11
1.604
  21
-4.900129
  31
0
  0
LINE
  5
20e
  100
AcDbEntity
  8
1
  100
AcDbLine
  10
1.604
  20
-4.900129
  30
0
  11
1.555
  21
-4.893191
  31
0
  0
LINE
  5
20f
  100
AcDbEntity
  8
1
  100
AcDbLine
  10
1.555
  20
-4.893191
  30
0
  11
1.506
  21
-4.886022
  31
0
  0
LINE
  5
210
  100
AcDbEntity
  8
1
  100
AcDbLine
  10
1.506
  20
-4.886022
  30
0
  11
1.457
  21
-4.878623
  31
0
  0
LINE
  5
211
  100
AcDbEntity
  8
1
  100
AcDbLine
  10
1.457
  20
-4.878623
  30
0
  11
1.408
  21
-4.870994
  31
0
  0
LINE
  5
212
  100
AcDbEntity
  8
1
  100
AcDbLine
  10
1.408
  20
-4.870994
  30
0
  11
1.359
  21
-4.863136
  31
0
  0
LINE
  5
213
  100
AcDbEntity
  8
1
  100
AcDbLine
  10
1.359
  20
-4.863136
  30
0
  11
1.31
  21
-4.855049
  31
0
  0
LINE
  5
214
  100
AcDbEntity
  8
1
  100
AcDbLine
  10
1.31
  20
-4.855049
  30
0
  11
1.261
  21
-4.846733
  31
0
  0
LINE
  5
215
  100
AcDbEntity
  8
1
  100
AcDbLine
  10
1.261
  20
-4.846733
  30
0
  11
1.212
  21
-4.838189
  31
0
  0
LINE
  5
216
  100
AcDbEntity
  8
1
  100
AcDbLine
  10
1.212
  20
-4.838189
  30
0
  11
1.163
  21
-4.829417
  31
0
  0
LINE
  5
217
  100
AcDbEntity
  8
1
  100
AcDbLine
  10
1.163
  20
-4.829417
  30
0
  11
1.114
  21
-4.820418
  31
0
  0
LINE
  5
218
  100
AcDbEntity
  8
1
  100
AcDbLine
  10
1.114
  20
-4.820418
  30
0
  11
1.065
  21
-4.811192
  31
0
  0
LINE
  5
219
  100
AcDbEntity
  8
1
  100
AcDbLine
  10
1.065
  20
-4.811192
  30
0
  11
1.016
  21
-4.801739
  31
0
  0
LINE
  5
21a
  100
AcDbEntity
  8
1
  100
AcDbLine
  10
1.016
  20
-4.801739
  30
0
  11
0.967
  21
-4.79206
  31
0
  0
LINE
  5
21b
  100
AcDbEntity
  8
1
  100
AcDbLine
  10
0.967
  20
-4.79206
  30
0
  11
0.918
  21
-4.782156
  31
0
  0
LINE
  5
21c
  100
AcDbEntity
  8
1
  100
AcDbLine
  10
0.918
  20
-4.782156
  30
0
  11
0.869
  21
-4.772026
  31
0
  0
LINE
  5
21d
  100
AcDbEntity
  8
1
  100
AcDbLine
  10
0.869
  20
-4.772026
  30
0
  11
0.82
  21
-4.761672
  31
0
  0
LINE
  5
21e
  100
AcDbEntity
  8
1
  100
AcDbLine
  10
0.82
  20
-4.761672
  30
0
  11
0.771
  21
-4.751093
  31
0
  0
LINE
  5
21f
  100
AcDbEntity
  8
1
  100
AcDbLine
  10
0.771
  20
-4.751093
  30
0
  11
0.722
  21
-4.740291
  31
0
  0
LINE
  5
220
  100
AcDbEntity
  8
1
  100
AcDbLine
  10
0.722
  20
-4.740291
  30
0
  11
0.673
  21
-4.729266
  31
0
  0
LINE
  5
221
  100
AcDbEntity
  8
1
  100
AcDbLine
  10
0.673
  20
-4.729266
  30
0
  11
0.624
  21
-4.718017
  31
0
  0
LINE
  5
222
  100
AcDbEntity
  8
1
  100
AcDbLine
  10
0.624
  20
-4.718017
  30
0
  11
0.575
  21
-4.706547
  31
0
  0
LINE
  5
223
  100
AcDbEntity
  8
1
  100
AcDbLine
  10
0.575
  20
-4.706547
  30
0
  11
0.526
  21
-4.694855
  31
0
  0
LINE
  5
224
  100
AcDbEntity
  8
1
  100
AcDbLine
  10
0.526
  20
-4.694855
  30
0
  11
0.477
  21
-4.682942
  31
0
  0
LINE
  5
225
  100
AcDbEntity
  8
1
  100
AcDbLine
  10
0.477
  20
-4.682942
  30
0
  11
0.428
  21
-4.670809
  31
0
  0
LINE
  5
226
  100
AcDbEntity
  8
1
  100
AcDbLine
  10
0.428
  20
-4.670809
  30
0
  11
0.379
  21
-4.658455
  31
0
  0
LINE
  5
227
  100
AcDbEntity
  8
1
  100
AcDbLine
  10
0.379
  20
-4.658455
  30
0
  11
0.33
  21
-4.645882
  31
0
  0
LINE
  5
228
  100
AcDbEntity
  8
1
  100
AcDbLine
  10
0.33
  20
-4.645882
  30
0
  11
0.281
  21
-4.633091
  31
0
  0
LINE
  5
229
  100
AcDbEntity
  8
1
  100
AcDbLine
  10
0.281
  20
-4.633091
  30
0
  11
0.232
  21
-4.620081
  31
0
  0
LINE
  5
22a
  100
AcDbEntity
  8
1
  100
AcDbLine
  10
0.232
  20
-4.620081
  30
0
  11
0.183
  21
-4.606854
  31
0
  0
LINE
  5
22b
  100
AcDbEntity
  8
1
  100
AcDbLine
  10
0.183
  20
-4.606854
  30
0
  11
0.134
  21
-4.59341
  31
0
  0
LINE
  5
22c
  100
AcDbEntity
  8
1
  100
AcDbLine
  10
0.134
  20
-4.59341
  30
0
  11
0.085
  21
-4.579749
  31
0
  0
LINE
  5
22d
  100
AcDbEntity
  8
1
  100
AcDbLine
  10
0.085
  20
-4.579749
  30
0
  11
0.036
  21
-4.565873
  31
0
  0
LINE
  5
22e
  100
AcDbEntity
  8
1
  100
AcDbLine
  10
14.001
  20
-4.124446
  30
0
  11
13.952
  21
-4.163019
  31
0
  0
LINE
  5
22f
  100
AcDbEntity
  8
1
  100
AcDbLine
  10
13.952
  20
-4.163019
  30
0
  11
13.903
  21
-4.201172
  31
0
  0
LINE
  5
230
  100
AcDbEntity
  8
1
  100
AcDbLine
  10
13.903
  20
-4.201172
  30
0
  11
13.854
  21
-4.184801
  31
0
  0
LINE
  5
231
  100
AcDbEntity
  8
1
  100
AcDbLine
  10
13.854
  20
-4.184801
  30
0
  11
13.805
  21
-4.165926
  31
0
  0
LINE
  5
232
  100
AcDbEntity
  8
1
  100
AcDbLine
  10
13.805
  20
-4.165926
  30
0
  11
13.756
  21
-4.146855
  31
0
  0
LINE
  5
233
  100
AcDbEntity
  8
1
  100
AcDbLine
  10
13.756
  20
-4.146855
  30
0
  11
13.707
  21
-4.127588
  31
0
  0
LINE
  5
234
  100
AcDbEntity
  8
1
  100
AcDbLine
  10
13.707
  20
-4.127588
  30
0
  11
13.658
  21
-4.108127
  31
0
  0
LINE
  5
235
  100
AcDbEntity
  8
1
  100
AcDbLine
  10
13.658
  20
-4.108127
  30
0
  11
13.609
  21
-4.088473
  31
0
  0
LINE
  5
236
  100
AcDbEntity
  8
1
  100
AcDbLine
  10
13.609
  20
-4.088473
  30
0
  11
13.56
  21
-4.068626
  31
0
  0
LINE
  5
237
  100
AcDbEntity
  8
1
  100
AcDbLine
  10
13.56
  20
-4.068626
  30
0
  11
13.511
  21
-4.048588
  31
0
  0
LINE
  5
238
  100
AcDbEntity
  8
1
  100
AcDbLine
  10
13.511
  20
-4.048588
  30
0
  11
13.462
  21
-4.028359
  31
0
  0
LINE
  5
239
  100
AcDbEntity
  8
1
  100
AcDbLine
  10
13.462
  20
-4.028359
  30
0
  11
13.413
  21
-4.00794
  31
0
  0
LINE
  5
23a
  100
AcDbEntity
  8
1
  100
AcDbLine
  10
13.413
  20
-4.00794
  30
0
  11
13.364
  21
-3.987333
  31
0
  0
LINE
  5
23b
  100
AcDbEntity
  8
1
  100
AcDbLine
  10
13.364
  20
-3.987333
  30
0
  11
13.315
  21
-3.966537
  31
0
  0
LINE
  5
23c
  100
AcDbEntity
  8
1
  100
AcDbLine
  10
13.315
  20
-3.966537
  30
0
  11
13.266
  21
-3.945555
  31
0
  0
LINE
  5
23d
  100
AcDbEntity
  8
1
  100
AcDbLine
  10
13.266
  20
-3.945555
  30
0
  11
13.217
  21
-3.924388
  31
0
  0
LINE
  5
23e
  100
AcDbEntity
  8
1
  100
AcDbLine
  10
13.217
  20
-3.924388
  30
0
  11
13.168
  21
-3.903035
  31
0
  0
LINE
  5
23f
  100
AcDbEntity
  8
1
  100
AcDbLine
  10
13.168
  20
-3.903035
  30
0
  11
13.119
  21
-3.881499
  31
0
  0
LINE
  5
240
  100
AcDbEntity
  8
1
  100
AcDbLine
  10
13.119
  20
-3.881499
  30
0
  11
13.07
  21
-3.85978
  31
0
  0
LINE
  5
241
  100
AcDbEntity
  8
1
  100
AcDbLine
  10
13.07
  20
-3.85978
  30
0
  11
13.021
  21
-3.837879
  31
0
  0
LINE
  5
242
  100
AcDbEntity
  8
1
  100
AcDbLine
  10
13.021
  20
-3.837879
  30
0
  11
12.972
  21
-3.815797
  31
0
  0
LINE
  5
243
  100
AcDbEntity
  8
1
  100
AcDbLine
  10
12.972
  20
-3.815797
  30
0
  11
12.923
  21
-3.793536
  31
0
  0
LINE
  5
244
  100
AcDbEntity
  8
1
  100
AcDbLine
  10
12.923
  20
-3.793536
  30
0
  11
12.874
  21
-3.771096
  31
0
  0
LINE
  5
245
  100
AcDbEntity
  8
1
  100
AcDbLine
  10
12.874
  20
-3.771096
  30
0
  11
12.825
  21
-3.748479
  31
0
  0
LINE
  5
246
  100
AcDbEntity
  8
1
  100
AcDbLine
  10
12.825
  20
-3.748479
  30
0
  11
12.776
  21
-3.725685
  31
0
  0
LINE
  5
247
  100
AcDbEntity
  8
1
  100
AcDbLine
  10
12.776
  20
-3.725685
  30
0
  11
12.727
  21
-3.702715
  31
0
  0
LINE
  5
248
  100
AcDbEntity
  8
1
  100
AcDbLine
  10
12.727
  20
-3.702715
  30
0
  11
12.678
  21
-3.679571
  31
0
  0
LINE
  5
249
  100
AcDbEntity
  8
1
  100
AcDbLine
  10
12.678
  20
-3.679571
  30
0
  11
12.629
  21
-3.656254
  31
0
  0
LINE
  5
24a
  100
AcDbEntity
  8
1
  100
AcDbLine
  10
12.629
  20
-3.656254
  30
0
  11
12.58
  21
-3.632765
  31
0
  0
LINE
  5
24b
  100
AcDbEntity
  8
1
  100
AcDbLine
  10
12.58
  20
-3.632765
  30
0
  11
12.531
  21
-3.609105
  31
0
  0
LINE
  5
24c
  100
AcDbEntity
  8
1
  100
AcDbLine
  10
12.531
  20
-3.609105
  30
0
  11
12.482
  21
-3.585275
  31
0
  0
LINE
  5
24d
  100
AcDbEntity
  8
1
  100
AcDbLine
  10
12.482
  20
-3.585275
  30
0
  11
12.433
  21
-3.561276
  31
0
  0
LINE
  5
24e
  100
AcDbEntity
  8
1
  100
AcDbLine
  10
12.433
  20
-3.561276
  30
0
  11
12.384
  21
-3.537109
  31
0
  0
LINE
  5
24f
  100
AcDbEntity
  8
1
  100
AcDbLine
  10
12.384
  20
-3.537109
  30
0
  11
12.335
  21
-3.512776
  31
0
  0
LINE
  5
250
  100
AcDbEntity
  8
1
  100
AcDbLine
  10
12.335
  20
-3.512776
  30
0
  11
12.286
  21
-3.488277
  31
0
  0
LINE
  5
251
  100
AcDbEntity
  8
1
  100
AcDbLine
  10
12.286
  20
-3.488277
  30
0
  11
12.237
  21
-3.463615
  31
0
  0
LINE
  5
252
  100
AcDbEntity
  8
1
  100
AcDbLine
  10
12.237
  20
-3.463615
  30
0
  11
12.188
  21
-3.438789
  31
0
  0
LINE
  5
253
  100
AcDbEntity
  8
1
  100
AcDbLine
  10
12.188
  20
-3.438789
  30
0
  11
12.139
  21
-3.413801
  31
0
  0
LINE
  5
254
  100
AcDbEntity
  8
1
  100
AcDbLine
  10
12.139
  20
-3.413801
  30
0
  11
12.09
  21
-3.388652
  31
0
  0
LINE
  5
255
  100
AcDbEntity
  8
1
  100
AcDbLine
  10
12.09
  20
-3.388652
  30
0
  11
12.041
  21
-3.363344
  31
0
  0
LINE
  5
256
  100
AcDbEntity
  8
1
  100
AcDbLine
  10
12.041
  20
-3.363344
  30
0
  11
11.992
  21
-3.337877
  31
0
  0
LINE
  5
257
  100
AcDbEntity
  8
1
  100
AcDbLine
  10
11.992
  20
-3.337877
  30
0
  11
11.943
  21
-3.312253
  31
0
  0
LINE
  5
258
  100
AcDbEntity
  8
1
  100
AcDbLine
  10
11.943
  20
-3.312253
  30
0
  11
11.894
  21
-3.286474
  31
0
  0
LINE
  5
259
  100
AcDbEntity
  8
1
  100
AcDbLine
  10
11.894
  20
-3.286474
  30
0
  11
11.845
  21
-3.260539
  31
0
  0
LINE
  5
25a
  100
AcDbEntity
  8
1
  100
AcDbLine
  10
11.845
  20
-3.260539
  30
0
  11
11.796
  21
-3.234451
  31
0
  0
LINE
  5
25b
  100
AcDbEntity
  8
1
  100
AcDbLine
  10
11.796
  20
-3.234451
  30
0
  11
11.747
  21
-3.208211
  31
0
  0
LINE
  5
25c
  100
AcDbEntity
  8
1
  100
AcDbLine
  10
11.747
  20
-3.208211
  30
0
  11
11.698
  21
-3.18182
  31
0
  0
LINE
  5
25d
  100
AcDbEntity
  8
1
  100
AcDbLine
  10
11.698
  20
-3.18182
  30
0
  11
11.649
  21
-3.155278
  31
0
  0
LINE
  5
25e
  100
AcDbEntity
  8
1
  100
AcDbLine
  10
11.649
  20
-3.155278
  30
0
  11
11.6
  21
-3.128589
  31
0
  0
LINE
  5
25f
  100
AcDbEntity
  8
1
  100
AcDbLine
  10
11.6
  20
-3.128589
  30
0
  11
11.551
  21
-3.101752
  31
0
  0
LINE
  5
260
  100
AcDbEntity
  8
1
  100
AcDbLine
  10
11.551
  20
-3.101752
  30
0
  11
11.502
  21
-3.074768
  31
0
  0
LINE
  5
261
  100
AcDbEntity
  8
1
  100
AcDbLine
  10
11.502
  20
-3.074768
  30
0
  11
11.453
  21
-3.047641
  31
0
  0
LINE
  5
262
  100
AcDbEntity
  8
1
  100
AcDbLine
  10
11.453
  20
-3.047641
  30
0
  11
11.404
  21
-3.020369
  31
0
  0
LINE
  5
263
  100
AcDbEntity
  8
1
  100
AcDbLine
  10
11.404
  20
-3.020369
  30
0
  11
11.355
  21
-2.992955
  31
0
  0
LINE
  5
264
  100
AcDbEntity
  8
1
  100
AcDbLine
  10
11.355
  20
-2.992955
  30
0
  11
11.306
  21
-2.965401
  31
0
  0
LINE
  5
265
  100
AcDbEntity
  8
1
  100
AcDbLine
  10
11.306
  20
-2.965401
  30
0
  11
11.257
  21
-2.937707
  31
0
  0
LINE
  5
266
  100
AcDbEntity
  8
1
  100
AcDbLine
  10
11.257
  20
-2.937707
  30
0
  11
11.208
  21
-2.909874
  31
0
  0
LINE
  5
267
  100
AcDbEntity
  8
1
  100
AcDbLine
  10
11.208
  20
-2.909874
  30
0
  11
11.159
  21
-2.881905
  31
0
  0
LINE
  5
268
  100
AcDbEntity
  8
1
  100
AcDbLine
  10
11.159
  20
-2.881905
  30
0
  11
11.11
  21
-2.853799
  31
0
  0
LINE
  5
269
  100
AcDbEntity
  8
1
  100
AcDbLine
  10
11.11
  20
-2.853799
  30
0
  11
11.061
  21
-2.82556
  31
0
  0
LINE
  5
26a
  100
AcDbEntity
  8
1
  100
AcDbLine
  10
11.061
  20
-2.82556
  30
0
  11
11.012
  21
-2.797187
  31
0
  0
LINE
  5
26b
  100
AcDbEntity
  8
1
  100
AcDbLine
  10
11.012
  20
-2.797187
  30
0
  11
10.963
  21
-2.768683
  31
0
  0
LINE
  5
26c
  100
AcDbEntity
  8
1
  100
AcDbLine
  10
10.963
  20
-2.768683
  30
0
  11
10.914
  21
-2.740048
  31
0
  0
LINE
  5
26d
  100
AcDbEntity
  8
1
  100
AcDbLine
  10
10.914
  20
-2.740048
  30
0
  11
10.865
  21
-2.711284
  31
0
  0
LINE
  5
26e
  100
AcDbEntity
  8
1
  100
AcDbLine
  10
10.865
  20
-2.711284
  30
0
  11
10.816
  21
-2.682393
  31
0
  0
LINE
  5
26f
  100
AcDbEntity
  8
1
  100
AcDbLine
  10
10.816
  20
-2.682393
  30
0
  11
10.767
  21
-2.653375
  31
0
  0
LINE
  5
270
  100
AcDbEntity
  8
1
  100
AcDbLine
  10
10.767
  20
-2.653375
  30
0
  11
10.718
  21
-2.624232
  31
0
  0
LINE
  5
271
  100
AcDbEntity
  8
1
  100
AcDbLine
  10
10.718
  20
-2.624232
  30
0
  11
10.669
  21
-2.594966
  31
0
  0
LINE
  5
272
  100
AcDbEntity
  8
1
  100
AcDbLine
  10
10.669
  20
-2.594966
  30
0
  11
10.62
  21
-2.565577
  31
0
  0
LINE
  5
273
  100
AcDbEntity
  8
1
  100
AcDbLine
  10
10.62
  20
-2.565577
  30
0
  11
10.571
  21
-2.536068
  31
0
  0
LINE
  5
274
  100
AcDbEntity
  8
1
  100
AcDbLine
  10
10.571
  20
-2.536068
  30
0
  11
10.522
  21
-2.50644
  31
0
  0
LINE
  5
275
  100
AcDbEntity
  8
1
  100
AcDbLine
  10
10.522
  20
-2.50644
  30
0
  11
10.473
  21
-2.476693
  31
0
  0
LINE
  5
276
  100
AcDbEntity
  8
1
  100
AcDbLine
  10
10.473
  20
-2.476693
  30
0
  11
10.424
  21
-2.44683
  31
0
  0
LINE
  5
277
  100
AcDbEntity
  8
1
  100
AcDbLine
  10
10.424
  20
-2.44683
  30
0
  11
10.375
  21
-2.416851
  31
0
  0
LINE
  5
278
  100
AcDbEntity
  8
1
  100
AcDbLine
  10
10.375
  20
-2.416851
  30
0
  11
10.326
  21
-2.386759
  31
0
  0
LINE
  5
279
  100
AcDbEntity
  8
1
  100
AcDbLine
  10
10.326
  20
-2.386759
  30
0
  11
10.277
  21
-2.356554
  31
0
  0
LINE
  5
27a
  100
AcDbEntity
  8
1
  100
AcDbLine
  10
10.277
  20
-2.356554
  30
0
  11
10.228
  21
-2.326238
  31
0
  0
LINE
  5
27b
  100
AcDbEntity
  8
1
  100
AcDbLine
  10
10.228
  20
-2.326238
  30
0
  11
10.179
  21
-2.295813
  31
0
  0
LINE
  5
27c
  100
AcDbEntity
  8
1
  100
AcDbLine
  10
10.179
  20
-2.295813
  30
0
  11
10.13
  21
-2.26528
  31
0
  0
LINE
  5
27d
  100
AcDbEntity
  8
1
  100
AcDbLine
  10
10.13
  20
-2.26528
  30
0
  11
10.081
  21
-2.23464
  31
0
  0
LINE
  5
27e
  100
AcDbEntity
  8
1
  100
AcDbLine
  10
10.081
  20
-2.23464
  30
0
  11
10.032
  21
-2.203894
  31
0
  0
LINE
  5
27f
  100
AcDbEntity
  8
1
  100
AcDbLine
  10
10.032
  20
-2.203894
  30
0
  11
9.983
  21
-2.173045
  31
0
  0
LINE
  5
280
  100
AcDbEntity
  8
1
  100
AcDbLine
  10
9.983
  20
-2.173045
  30
0
  11
9.934
  21
-2.142094
  31
0
  0
LINE
  5
281
  100
AcDbEntity
  8
1
  100
AcDbLine
  10
9.934
  20
-2.142094
  30
0
  11
9.885
  21
-2.111042
  31
0
  0
LINE
  5
282
  100
AcDbEntity
  8
1
  100
AcDbLine
  10
9.885
  20
-2.111042
  30
0
  11
9.836
  21
-2.07989
  31
0
  0
LINE
  5
283
  100
AcDbEntity
  8
1
  100
AcDbLine
  10
9.836
  20
-2.07989
  30
0
  11
9.787
  21
-2.048641
  31
0
  0
LINE
  5
284
  100
AcDbEntity
  8
1
  100
AcDbLine
  10
9.787
  20
-2.048641
  30
0
  11
9.738
  21
-2.017295
  31
0
  0
LINE
  5
285
  100
AcDbEntity
  8
1
  100
AcDbLine
  10
9.738
  20
-2.017295
  30
0
  11
9.689
  21
-1.985854
  31
0
  0
LINE
  5
286
  100
AcDbEntity
  8
1
  100
AcDbLine
  10
9.689
  20
-1.985854
  30
0
  11
9.64
  21
-1.954319
  31
0
  0
LINE
  5
287
  100
AcDbEntity
  8
1
  100
AcDbLine
  10
9.64
  20
-1.954319
  30
0
  11
9.591
  21
-1.922693
  31
0
  0
LINE
  5
288
  100
AcDbEntity
  8
1
  100
AcDbLine
  10
9.591
  20
-1.922693
  30
0
  11
9.542
  21
-1.890976
  31
0
  0
LINE
  5
289
  100
AcDbEntity
  8
1
  100
AcDbLine
  10
9.542
  20
-1.890976
  30
0
  11
9.493
  21
-1.85917
  31
0
  0
LINE
  5
28a
  100
AcDbEntity
  8
1
  100
AcDbLine
  10
9.493
  20
-1.85917
  30
0
  11
9.444
  21
-1.827276
  31
0
  0
LINE
  5
28b
  100
AcDbEntity
  8
1
  100
AcDbLine
  10
9.444
  20
-1.827276
  30
0
  11
9.395
  21
-1.795296
  31
0
  0
LINE
  5
28c
  100
AcDbEntity
  8
1
  100
AcDbLine
  10
9.395
  20
-1.795296
  30
0
  11
9.346
  21
-1.763232
  31
0
  0
LINE
  5
28d
  100
AcDbEntity
  8
1
  100
AcDbLine
  10
9.346
  20
-1.763232
  30
0
  11
9.297
  21
-1.731085
  31
0
  0
LINE
  5
28e
  100
AcDbEntity
  8
1
  100
AcDbLine
  10
9.297
  20
-1.731085
  30
0
  11
9.248
  21
-1.698856
  31
0
  0
LINE
  5
28f
  100
AcDbEntity
  8
1
  100
AcDbLine
  10
9.248
  20
-1.698856
  30
0
  11
9.199
  21
-1.666548
  31
0
  0
LINE
  5
290
  100
AcDbEntity
  8
1
  100
AcDbLine
  10
9.199
  20
-1.666548
  30
0
  11
9.15
  21
-1.63416
  31
0
  0
LINE
  5
291
  100
AcDbEntity
  8
1
  100
AcDbLine
  10
9.15
  20
-1.63416
  30
0
  11
9.101
  21
-1.601696
  31
0
  0
LINE
  5
292
  100
AcDbEntity
  8
1
  100
AcDbLine
  10
9.101
  20
-1.601696
  30
0
  11
9.052
  21
-1.569157
  31
0
  0
LINE
  5
293
  100
AcDbEntity
  8
1
  100
AcDbLine
  10
9.052
  20
-1.569157
  30
0
  11
9.003
  21
-1.536543
  31
0
  0
LINE
  5
294
  100
AcDbEntity
  8
1
  100
AcDbLine
  10
9.003
  20
-1.536543
  30
0
  11
8.954
  21
-1.503857
  31
0
  0
LINE
  5
295
  100
AcDbEntity
  8
1
  100
AcDbLine
  10
8.954
  20
-1.503857
  30
0
  11
8.905
  21
-1.471101
  31
0
  0
LINE
  5
296
  100
AcDbEntity
  8
1
  100
AcDbLine
  10
8.905
  20
-1.471101
  30
0
  11
8.856
  21
-1.438275
  31
0
  0
LINE
  5
297
  100
AcDbEntity
  8
1
  100
AcDbLine
  10
8.856
  20
-1.438275
  30
0
  11
8.807
  21
-1.405381
  31
0
  0
LINE
  5
298
  100
AcDbEntity
  8
1
  100
AcDbLine
  10
8.807
  20
-1.405381
  30
0
  11
8.758
  21
-1.372421
  31
0
  0
LINE
  5
299
  100
AcDbEntity
  8
1
  100
AcDbLine
  10
8.758
  20
-1.372421
  30
0
  11
8.709
  21
-1.339397
  31
0
  0
LINE
  5
29a
  100
AcDbEntity
  8
1
  100
AcDbLine
  10
8.709
  20
-1.339397
  30
0
  11
8.66
  21
-1.306309
  31
0
  0
LINE
  5
29b
  100
AcDbEntity
  8
1
  100
AcDbLine
  10
8.66
  20
-1.306309
  30
0
  11
8.611
  21
-1.27316
  31
0
  0
LINE
  5
29c
  100
AcDbEntity
  8
1
  100
AcDbLine
  10
8.611
  20
-1.27316
  30
0
  11
8.562
  21
-1.239952
  31
0
  0
LINE
  5
29d
  100
AcDbEntity
  8
1
  100
AcDbLine
  10
8.562
  20
-1.239952
  30
0
  11
8.513
  21
-1.206684
  31
0
  0
LINE
  5
29e
  100
AcDbEntity
  8
1
  100
AcDbLine
  10
8.513
  20
-1.206684
  30
0
  11
8.464
  21
-1.17336
  31
0
  0
LINE
  5
29f
  100
AcDbEntity
  8
1
  100
AcDbLine
  10
8.464
  20
-1.17336
  30
0
  11
8.415
  21
-1.139981
  31
0
  0
LINE
  5
2a0
  100
AcDbEntity
  8
1
  100
AcDbLine
  10
8.415
  20
-1.139981
  30
0
  11
8.366
  21
-1.106548
  31
0
  0
LINE
  5
2a1
  100
AcDbEntity
  8
1
  100
AcDbLine
  10
8.366
  20
-1.106548
  30
0
  11
8.317
  21
-1.073062
  31
0
  0
LINE
  5
2a2
  100
AcDbEntity
  8
1
  100
AcDbLine
  10
8.317
  20
-1.073062
  30
0
  11
8.268
  21
-1.039527
  31
0
  0
LINE
  5
2a3
  100
AcDbEntity
  8
1
  100
AcDbLine
  10
8.268
  20
-1.039527
  30
0
  11
8.219
  21
-1.005942
  31
0
  0
LINE
  5
2a4
  100
AcDbEntity
  8
1
  100
AcDbLine
  10
8.219
  20
-1.005942
  30
0
  11
8.17
  21
-0.97231
  31
0
  0
LINE
  5
2a5
  100
AcDbEntity
  8
1
  100
AcDbLine
  10
8.17
  20
-0.97231
  30
0
  11
8.121
  21
-0.938632
  31
0
  0
LINE
  5
2a6
  100
AcDbEntity
  8
1
  100
AcDbLine
  10
8.121
  20
-0.938632
  30
0
  11
8.072
  21
-0.90491
  31
0
  0
LINE
  5
2a7
  100
AcDbEntity
  8
1
  100
AcDbLine
  10
8.072
  20
-0.90491
  30
0
  11
8.023
  21
-0.871145
  31
0
  0
LINE
  5
2a8
  100
AcDbEntity
  8
1
  100
AcDbLine
  10
8.023
  20
-0.871145
  30
0
  11
7.974
  21
-0.83734
  31
0
  0
LINE
  5
2a9
  100
AcDbEntity
  8
1
  100
AcDbLine
  10
7.974
  20
-0.83734
  30
0
  11
7.925
  21
-0.803495
  31
0
  0
LINE
  5
2aa
  100
AcDbEntity
  8
1
  100
AcDbLine
  10
7.925
  20
-0.803495
  30
0
  11
7.876
  21
-0.769612
  31
0
  0
LINE
  5
2ab
  100
AcDbEntity
  8
1
  100
AcDbLine
  10
7.876
  20
-0.769612
  30
0
  11
7.827
  21
-0.735693
  31
0
  0
LINE
  5
2ac
  100
AcDbEntity
  8
1
  100
AcDbLine
  10
7.827
  20
-0.735693
  30
0
  11
7.778
  21
-0.701739
  31
0
  0
LINE
  5
2ad
  100
AcDbEntity
  8
1
  100
AcDbLine
  10
7.778
  20
-0.701739
  30
0
  11
7.729
  21
-0.667752
  31
0
  0
LINE
  5
2ae
  100
AcDbEntity
  8
1
  100
AcDbLine
  10
7.729
  20
-0.667752
  30
0
  11
7.68
  21
-0.633734
  31
0
  0
LINE
  5
2af
  100
AcDbEntity
  8
1
  100
AcDbLine
  10
7.68
  20
-0.633734
  30
0
  11
7.631
  21
-0.599686
  31
0
  0
LINE
  5
2b0
  100
AcDbEntity
  8
1
  100
AcDbLine
  10
7.631
  20
-0.599686
  30
0
  11
7.582
  21
-0.565609
  31
0
  0
LINE
  5
2b1
  100
AcDbEntity
  8
1
  100
AcDbLine
  10
7.582
  20
-0.565609
  30
0
  11
7.533
  21
-0.531506
  31
0
  0
LINE
  5
2b2
  100
AcDbEntity
  8
1
  100
AcDbLine
  10
7.533
  20
-0.531506
  30
0
  11
7.484
  21
-0.497378
  31
0
  0
LINE
  5
2b3
  100
AcDbEntity
  8
1
  100
AcDbLine
  10
7.484
  20
-0.497378
  30
0
  11
7.435
  21
-0.463227
  31
0
  0
LINE
  5
2b4
  100
AcDbEntity
  8
1
  100
AcDbLine
  10
7.435
  20
-0.463227
  30
0
  11
7.386
  21
-0.429054
  31
0
  0
LINE
  5
2b5
  100
AcDbEntity
  8
1
  100
AcDbLine
  10
7.386
  20
-0.429054
  30
0
  11
7.337
  21
-0.39486
  31
0
  0
LINE
  5
2b6
  100
AcDbEntity
  8
1
  100
AcDbLine
  10
7.337
  20
-0.39486
  30
0
  11
7.288
  21
-0.360648
  31
0
  0
LINE
  5
2b7
  100
AcDbEntity
  8
1
  100
AcDbLine
  10
7.288
  20
-0.360648
  30
0
  11
7.239
  21
-0.326419
  31
0
  0
LINE
  5
2b8
  100
AcDbEntity
  8
1
  100
AcDbLine
  10
7.239
  20
-0.326419
  30
0
  11
7.19
  21
-0.292175
  31
0
  0
LINE
  5
2b9
  100
AcDbEntity
  8
1
  100
AcDbLine
  10
7.19
  20
-0.292175
  30
0
  11
7.141
  21
-0.257917
  31
0
  0
LINE
  5
2ba
  100
AcDbEntity
  8
1
  100
AcDbLine
  10
7.141
  20
-0.257917
  30
0
  11
7.092
  21
-0.223646
  31
0
  0
LINE
  5
2bb
  100
AcDbEntity
  8
1
  100
AcDbLine
  10
7.092
  20
-0.223646
  30
0
  11
7.043
  21
-0.189365
  31
0
  0
LINE
  5
2bc
  100
AcDbEntity
  8
1
  100
AcDbLine
  10
7.043
  20
-0.189365
  30
0
  11
6.994
  21
-0.155076
  31
0
  0
LINE
  5
2bd
  100
AcDbEntity
  8
1
  100
AcDbLine
  10
6.994
  20
-0.155076
  30
0
  11
6.945
  21
-0.120779
  31
0
  0
LINE
  5
2be
  100
AcDbEntity
  8
1
  100
AcDbLine
  10
6.945
  20
-0.120779
  30
0
  11
6.896
  21
-0.086476
  31
0
  0
LINE
  5
2bf
  100
AcDbEntity
  8
1
  100
AcDbLine
  10
6.896
  20
-0.086476
  30
0
  11
6.847
  21
-0.052169
  31
0
  0
LINE
  5
2c0
  100
AcDbEntity
  8
1
  100
AcDbLine
  10
6.847
  20
-0.052169
  30
0
  11
6.798
  21
-0.01786
  31
0
  0
LINE
  5
2c1
  100
AcDbEntity
  8
1
  100
AcDbLine
  10
6.798
  20
-0.01786
  30
0
  11
6.749
  21
0.01645
  31
0
  0
LINE
  5
2c2
  100
AcDbEntity
  8
1
  100
AcDbLine
  10
6.749
  20
0.01645
  30
0
  11
6.7
  21
0.05076
  31
0
  0
LINE
  5
2c3
  100
AcDbEntity
  8
1
  100
AcDbLine
  10
6.7
  20
0.05076
  30
0
  11
6.651
  21
0.085066
  31
0
  0
LINE
  5
2c4
  100
AcDbEntity
  8
1
  100
AcDbLine
  10
6.651
  20
0.085066
  30
0
  11
6.602
  21
0.119369
  31
0
  0
LINE
  5
2c5
  100
AcDbEntity
  8
1
  100
AcDbLine
  10
6.602
  20
0.119369
  30
0
  11
6.553
  21
0.153667
  31
0
  0
LINE
  5
2c6
  100
AcDbEntity
  8
1
  100
AcDbLine
  10
6.553
  20
0.153667
  30
0
  11
6.504
  21
0.187957
  31
0
  0
LINE
  5
2c7
  100
AcDbEntity
  8
1
  100
AcDbLine
  10
6.504
  20
0.187957
  30
0
  11
6.455
  21
0.222238
  31
0
  0
LINE
  5
2c8
  100
AcDbEntity
  8
1
  100
AcDbLine
  10
6.455
  20
0.222238
  30
0
  11
6.406
  21
0.256509
  31
0
  0
LINE
  5
2c9
  100
AcDbEntity
  8
1
  100
AcDbLine
  10
6.406
  20
0.256509
  30
0
  11
6.357
  21
0.290767
  31
0
  0
LINE
  5
2ca
  100
AcDbEntity
  8
1
  100
AcDbLine
  10
6.357
  20
0.290767
  30
0
  11
6.308
  21
0.325012
  31
0
  0
LINE
  5
2cb
  100
AcDbEntity
  8
1
  100
AcDbLine
  10
6.308
  20
0.325012
  30
0
  11
6.259
  21
0.359242
  31
0
  0
LINE
  5
2cc
  100
AcDbEntity
  8
1
  100
AcDbLine
  10
6.259
  20
0.359242
  30
0
  11
6.21
  21
0.393455
  31
0
  0
LINE
  5
2cd
  100
AcDbEntity
  8
1
  100
AcDbLine
  10
6.21
  20
0.393455
  30
0
  11
6.161
  21
0.427649
  31
0
  0
LINE
  5
2ce
  100
AcDbEntity
  8
1
  100
AcDbLine
  10
6.161
  20
0.427649
  30
0
  11
6.112
  21
0.461823
  31
0
  0
LINE
  5
2cf
  100
AcDbEntity
  8
1
  100
AcDbLine
  10
6.112
  20
0.461823
  30
0
  11
6.063
  21
0.495976
  31
0
  0
LINE
  5
2d0
  100
AcDbEntity
  8
1
  100
AcDbLine
  10
6.063
  20
0.495976
  30
0
  11
6.014
  21
0.530105
  31
0
  0
LINE
  5
2d1
  100
AcDbEntity
  8
1
  100
AcDbLine
  10
6.014
  20
0.530105
  30
0
  11
5.965
  21
0.564209
  31
0
  0
LINE
  5
2d2
  100
AcDbEntity
  8
1
  100
AcDbLine
  10
5.965
  20
0.564209
  30
0
  11
5.916
  21
0.598286
  31
0
  0
LINE
  5
2d3
  100
AcDbEntity
  8
1
  100
AcDbLine
  10
5.916
  20
0.598286
  30
0
  11
5.867
  21
0.632335
  31
0
  0
LINE
  5
2d4
  100
AcDbEntity
  8
1
  100
AcDbLine
  10
5.867
  20
0.632335
  30
0
  11
5.818
  21
0.666355
  31
0
  0
LINE
  5
2d5
  100
AcDbEntity
  8
1
  100
AcDbLine
  10
5.818
  20
0.666355
  30
0
  11
5.769
  21
0.700343
  31
0
  0
LINE
  5
2d6
  100
AcDbEntity
  8
1
  100
AcDbLine
  10
5.769
  20
0.700343
  30
0
  11
5.72
  21
0.734298
  31
0
  0
LINE
  5
2d7
  100
AcDbEntity
  8
1
  100
AcDbLine
  10
5.72
  20
0.734298
  30
0
  11
5.671
  21
0.768219
  31
0
  0
LINE
  5
2d8
  100
AcDbEntity
  8
1
  100
AcDbLine
  10
5.671
  20
0.768219
  30
0
  11
5.622
  21
0.802103
  31
0
  0
LINE
  5
2d9
  100
AcDbEntity
  8
1
  100
AcDbLine
  10
5.622
  20
0.802103
  30
0
  11
5.573
  21
0.83595
  31
0
  0
LINE
  5
2da
  100
AcDbEntity
  8
1
  100
AcDbLine
  10
5.573
  20
0.83595
  30
0
  11
5.524
  21
0.869757
  31
0
  0
LINE
  5
2db
  100
AcDbEntity
  8
1
  100
AcDbLine
  10
5.524
  20
0.869757
  30
0
  11
5.475
  21
0.903524
  31
0
  0
LINE
  5
2dc
  100
AcDbEntity
  8
1
  100
AcDbLine
  10
5.475
  20
0.903524
  30
0
  11
5.426
  21
0.937247
  31
0
  0
LINE
  5
2dd
  100
AcDbEntity
  8
1
  100
AcDbLine
  10
5.426
  20
0.937247
  30
0
  11
5.377
  21
0.970927
  31
0
  0
LINE
  5
2de
  100
AcDbEntity
  8
1
  100
AcDbLine
  10
5.377
  20
0.970927
  30
0
  11
5.328
  21
1.004561
  31
0
  0
LINE
  5
2df
  100
AcDbEntity
  8
1
  100
AcDbLine
  10
5.328
  20
1.004561
  30
0
  11
5.279
  21
1.038148
  31
0
  0
LINE
  5
2e0
  100
AcDbEntity
  8
1
  100
AcDbLine
  10
5.279
  20
1.038148
  30
0
  11
5.23
  21
1.071685
  31
0
  0
LINE
  5
2e1
  100
AcDbEntity
  8
1
  100
AcDbLine
  10
5.23
  20
1.071685
  30
0
  11
5.181
  21
1.105173
  31
0
  0
LINE
  5
2e2
  100
AcDbEntity
  8
1
  100
AcDbLine
  10
5.181
  20
1.105173
  30
0
  11
5.132
  21
1.138608
  31
0
  0
LINE
  5
2e3
  100
AcDbEntity
  8
1
  100
AcDbLine
  10
5.132
  20
1.138608
  30
0
  11
5.083
  21
1.17199
  31
0
  0
LINE
  5
2e4
  100
AcDbEntity
  8
1
  100
AcDbLine
  10
5.083
  20
1.17199
  30
0
  11
5.034
  21
1.205316
  31
0
  0
LINE
  5
2e5
  100
AcDbEntity
  8
1
  100
AcDbLine
  10
5.034
  20
1.205316
  30
0
  11
4.985
  21
1.238586
  31
0
  0
LINE
  5
2e6
  100
AcDbEntity
  8
1
  100
AcDbLine
  10
4.985
  20
1.238586
  30
0
  11
4.936
  21
1.271797
  31
0
  0
LINE
  5
2e7
  100
AcDbEntity
  8
1
  100
AcDbLine
  10
4.936
  20
1.271797
  30
0
  11
4.887
  21
1.304949
  31
0
  0
LINE
  5
2e8
  100
AcDbEntity
  8
1
  100
AcDbLine
  10
4.887
  20
1.304949
  30
0
  11
4.838
  21
1.338039
  31
0
  0
LINE
  5
2e9
  100
AcDbEntity
  8
1
  100
AcDbLine
  10
4.838
  20
1.338039
  30
0
  11
4.789
  21
1.371066
  31
0
  0
LINE
  5
2ea
  100
AcDbEntity
  8
1
  100
AcDbLine
  10
4.789
  20
1.371066
  30
0
  11
4.74
  21
1.404028
  31
0
  0
LINE
  5
2eb
  100
AcDbEntity
  8
1
  100
AcDbLine
  10
4.74
  20
1.404028
  30
0
  11
4.691
  21
1.436925
  31
0
  0
LINE
  5
2ec
  100
AcDbEntity
  8
1
  100
AcDbLine
  10
4.691
  20
1.436925
  30
0
  11
4.642
  21
1.469753
  31
0
  0
LINE
  5
2ed
  100
AcDbEntity
  8
1
  100
AcDbLine
  10
4.642
  20
1.469753
  30
0
  11
4.593
  21
1.502513
  31
0
  0
LINE
  5
2ee
  100
AcDbEntity
  8
1
  100
AcDbLine
  10
4.593
  20
1.502513
  30
0
  11
4.544
  21
1.535202
  31
0
  0
LINE
  5
2ef
  100
AcDbEntity
  8
1
  100
AcDbLine
  10
4.544
  20
1.535202
  30
0
  11
4.495
  21
1.567818
  31
0
  0
LINE
  5
2f0
  100
AcDbEntity
  8
1
  100
AcDbLine
  10
4.495
  20
1.567818
  30
0
  11
4.446
  21
1.600361
  31
0
  0
LINE
  5
2f1
  100
AcDbEntity
  8
1
  100
AcDbLine
  10
4.446
  20
1.600361
  30
0
  11
4.397
  21
1.632828
  31
0
  0
LINE
  5
2f2
  100
AcDbEntity
  8
1
  100
AcDbLine
  10
4.397
  20
1.632828
  30
0
  11
4.348
  21
1.665218
  31
0
  0
LINE
  5
2f3
  100
AcDbEntity
  8
1
  100
AcDbLine
  10
4.348
  20
1.665218
  30
0
  11
4.299
  21
1.69753
  31
0
  0
LINE
  5
2f4
  100
AcDbEntity
  8
1
  100
AcDbLine
  10
4.299
  20
1.69753
  30
0
  11
4.25
  21
1.729762
  31
0
  0
LINE
  5
2f5
  100
AcDbEntity
  8
1
  100
AcDbLine
  10
4.25
  20
1.729762
  30
0
  11
4.201
  21
1.761913
  31
0
  0
LINE
  5
2f6
  100
AcDbEntity
  8
1
  100
AcDbLine
  10
4.201
  20
1.761913
  30
0
  11
4.152
  21
1.793981
  31
0
  0
LINE
  5
2f7
  100
AcDbEntity
  8
1
  100
AcDbLine
  10
4.152
  20
1.793981
  30
0
  11
4.103
  21
1.825964
  31
0
  0
LINE
  5
2f8
  100
AcDbEntity
  8
1
  100
AcDbLine
  10
4.103
  20
1.825964
  30
0
  11
4.054
  21
1.857861
  31
0
  0
LINE
  5
2f9
  100
AcDbEntity
  8
1
  100
AcDbLine
  10
4.054
  20
1.857861
  30
0
  11
4.005
  21
1.889671
  31
0
  0
LINE
  5
2fa
  100
AcDbEntity
  8
1
  100
AcDbLine
  10
4.005
  20
1.889671
  30
0
  11
3.956
  21
1.921392
  31
0
  0
LINE
  5
2fb
  100
AcDbEntity
  8
1
  100
AcDbLine
  10
3.956
  20
1.921392
  30
0
  11
3.907
  21
1.953022
  31
0
  0
LINE
  5
2fc
  100
AcDbEntity
  8
1
  100
AcDbLine
  10
3.907
  20
1.953022
  30
0
  11
3.858
  21
1.98456
  31
0
  0
LINE
  5
2fd
  100
AcDbEntity
  8
1
  100
AcDbLine
  10
3.858
  20
1.98456
  30
0
  11
3.809
  21
2.016005
  31
0
  0
LINE
  5
2fe
  100
AcDbEntity
  8
1
  100
AcDbLine
  10
3.809
  20
2.016005
  30
0
  11
3.76
  21
2.047355
  31
0
  0
LINE
  5
2ff
  100
AcDbEntity
  8
1
  100
AcDbLine
  10
3.76
  20
2.047355
  30
0
  11
3.711
  21
2.078608
  31
0
  0
LINE
  5
300
  100
AcDbEntity
  8
1
  100
AcDbLine
  10
3.711
  20
2.078608
  30
0
  11
3.662
  21
2.109764
  31
0
  0
LINE
  5
301
  100
AcDbEntity
  8
1
  100
AcDbLine
  10
3.662
  20
2.109764
  30
0
  11
3.613
  21
2.14082
  31
0
  0
LINE
  5
302
  100
AcDbEntity
  8
1
  100
AcDbLine
  10
3.613
  20
2.14082
  30
0
  11
3.564
  21
2.171776
  31
0
  0
LINE
  5
303
  100
AcDbEntity
  8
1
  100
AcDbLine
  10
3.564
  20
2.171776
  30
0
  11
3.515
  21
2.202629
  31
0
  0
LINE
  5
304
  100
AcDbEntity
  8
1
  100
AcDbLine
  10
3.515
  20
2.202629
  30
0
  11
3.466
  21
2.233379
  31
0
  0
LINE
  5
305
  100
AcDbEntity
  8
1
  100
AcDbLine
  10
3.466
  20
2.233379
  30
0
  11
3.417
  21
2.264023
  31
0
  0
LINE
  5
306
  100
AcDbEntity
  8
1
  100
AcDbLine
  10
3.417
  20
2.264023
  30
0
  11
3.368
  21
2.294561
  31
0
  0
LINE
  5
307
  100
AcDbEntity
  8
1
  100
AcDbLine
  10
3.368
  20
2.294561
  30
0
  11
3.319
  21
2.32499
  31
0
  0
LINE
  5
308
  100
AcDbEntity
  8
1
  100
AcDbLine
  10
3.319
  20
2.32499
  30
0
  11
3.27
  21
2.355311
  31
0
  0
LINE
  5
309
  100
AcDbEntity
  8
1
  100
AcDbLine
  10
3.27
  20
2.355311
  30
0
  11
3.221
  21
2.38552
  31
0
  0
LINE
  5
30a
  100
AcDbEntity
  8
1
  100
AcDbLine
  10
3.221
  20
2.38552
  30
0
  11
3.172
  21
2.415617
  31
0
  0
LINE
  5
30b
  100
AcDbEntity
  8
1
  100
AcDbLine
  10
3.172
  20
2.415617
  30
0
  11
3.123
  21
2.4456
  31
0
  0
LINE
  5
30c
  100
AcDbEntity
  8
1
  100
AcDbLine
  10
3.123
  20
2.4456
  30
0
  11
3.074
  21
2.475468
  31
0
  0
LINE
  5
30d
  100
AcDbEntity
  8
1
  100
AcDbLine
  10
3.074
  20
2.475468
  30
0
  11
3.025
  21
2.50522
  31
0
  0
LINE
  5
30e
  100
AcDbEntity
  8
1
  100
AcDbLine
  10
3.025
  20
2.50522
  30
0
  11
2.976
  21
2.534853
  31
0
  0
LINE
  5
30f
  100
AcDbEntity
  8
1
  100
AcDbLine
  10
2.976
  20
2.534853
  30
0
  11
2.927
  21
2.564367
  31
0
  0
LINE
  5
310
  100
AcDbEntity
  8
1
  100
AcDbLine
  10
2.927
  20
2.564367
  30
0
  11
2.878
  21
2.593761
  31
0
  0
LINE
  5
311
  100
AcDbEntity
  8
1
  100
AcDbLine
  10
2.878
  20
2.593761
  30
0
  11
2.829
  21
2.623032
  31
0
  0
LINE
  5
312
  100
AcDbEntity
  8
1
  100
AcDbLine
  10
2.829
  20
2.623032
  30
0
  11
2.78
  21
2.65218
  31
0
  0
LINE
  5
313
  100
AcDbEntity
  8
1
  100
AcDbLine
  10
2.78
  20
2.65218
  30
0
  11
2.731
  21
2.681203
  31
0
  0
LINE
  5
314
  100
AcDbEntity
  8
1
  100
AcDbLine
  10
2.731
  20
2.681203
  30
0
  11
2.682
  21
2.7101
  31
0
  0
LINE
  5
315
  100
AcDbEntity
  8
1
  100
AcDbLine
  10
2.682
  20
2.7101
  30
0
  11
2.633
  21
2.738869
  31
0
  0
LINE
  5
316
  100
AcDbEntity
  8
1
  100
AcDbLine
  10
2.633
  20
2.738869
  30
0
  11
2.584
  21
2.767509
  31
0
  0
LINE
  5
317
  100
AcDbEntity
  8
1
  100
AcDbLine
  10
2.584
  20
2.767509
  30
0
  11
2.535
  21
2.796018
  31
0
  0
LINE
  5
318
  100
AcDbEntity
  8
1
  100
AcDbLine
  10
2.535
  20
2.796018
  30
0
  11
2.486
  21
2.824397
  31
0
  0
LINE
  5
319
  100
AcDbEntity
  8
1
  100
AcDbLine
  10
2.486
  20
2.824397
  30
0
  11
2.437
  21
2.852642
  31
0
  0
LINE
  5
31a
  100
AcDbEntity
  8
1
  100
AcDbLine
  10
2.437
  20
2.852642
  30
0
  11
2.388
  21
2.880753
  31
0
  0
LINE
  5
31b
  100
AcDbEntity
  8
1
  100
AcDbLine
  10
2.388
  20
2.880753
  30
0
  11
2.339
  21
2.908728
  31
0
  0
LINE
  5
31c
  100
AcDbEntity
  8
1
  100
AcDbLine
  10
2.339
  20
2.908728
  30
0
  11
2.29
  21
2.936566
  31
0
  0
LINE
  5
31d
  100
AcDbEntity
  8
1
  100
AcDbLine
  10
2.29
  20
2.936566
  30
0
  11
2.241
  21
2.964266
  31
0
  0
LINE
  5
31e
  100
AcDbEntity
  8
1
  100
AcDbLine
  10
2.241
  20
2.964266
  30
0
  11
2.192
  21
2.991826
  31
0
  0
LINE
  5
31f
  100
AcDbEntity
  8
1
  100
AcDbLine
  10
2.192
  20
2.991826
  30
0
  11
2.143
  21
3.019246
  31
0
  0
LINE
  5
320
  100
AcDbEntity
  8
1
  100
AcDbLine
  10
2.143
  20
3.019246
  30
0
  11
2.094
  21
3.046523
  31
0
  0
LINE
  5
321
  100
AcDbEntity
  8
1
  100
AcDbLine
  10
2.094
  20
3.046523
  30
0
  11
2.045
  21
3.073657
  31
0
  0
LINE
  5
322
  100
AcDbEntity
  8
1
  100
AcDbLine
  10
2.045
  20
3.073657
  30
0
  11
1.996
  21
3.100646
  31
0
  0
LINE
  5
323
  100
AcDbEntity
  8
1
  100
AcDbLine
  10
1.996
  20
3.100646
  30
0
  11
1.947
  21
3.127489
  31
0
  0
LINE
  5
324
  100
AcDbEntity
  8
1
  100
AcDbLine
  10
1.947
  20
3.127489
  30
0
  11
1.898
  21
3.154185
  31
0
  0
LINE
  5
325
  100
AcDbEntity
  8
1
  100
AcDbLine
  10
1.898
  20
3.154185
  30
0
  11
1.849
  21
3.180732
  31
0
  0
LINE
  5
326
  100
AcDbEntity
  8
1
  100
AcDbLine
  10
1.849
  20
3.180732
  30
0
  11
1.8
  21
3.20713
  31
0
  0
LINE
  5
327
  100
AcDbEntity
  8
1
  100
AcDbLine
  10
1.8
  20
3.20713
  30
0
  11
1.751
  21
3.233376
  31
0
  0
LINE
  5
328
  100
AcDbEntity
  8
1
  100
AcDbLine
  10
1.751
  20
3.233376
  30
0
  11
1.702
  21
3.25947
  31
0
  0
LINE
  5
329
  100
AcDbEntity
  8
1
  100
AcDbLine
  10
1.702
  20
3.25947
  30
0
  11
1.653
  21
3.285411
  31
0
  0
LINE
  5
32a
  100
AcDbEntity
  8
1
  100
AcDbLine
  10
1.653
  20
3.285411
  30
0
  11
1.604
  21
3.311197
  31
0
  0
LINE
  5
32b
  100
AcDbEntity
  8
1
  100
AcDbLine
  10
1.604
  20
3.311197
  30
0
  11
1.555
  21
3.336828
  31
0
  0
LINE
  5
32c
  100
AcDbEntity
  8
1
  100
AcDbLine
  10
1.555
  20
3.336828
  30
0
  11
1.506
  21
3.362301
  31
0
  0
LINE
  5
32d
  100
AcDbEntity
  8
1
  100
AcDbLine
  10
1.506
  20
3.362301
  30
0
  11
1.457
  21
3.387615
  31
0
  0
LINE
  5
32e
  100
AcDbEntity
  8
1
  100
AcDbLine
  10
1.457
  20
3.387615
  30
0
  11
1.408
  21
3.412771
  31
0
  0
LINE
  5
32f
  100
AcDbEntity
  8
1
  100
AcDbLine
  10
1.408
  20
3.412771
  30
0
  11
1.359
  21
3.437765
  31
0
  0
LINE
  5
330
  100
AcDbEntity
  8
1
  100
AcDbLine
  10
1.359
  20
3.437765
  30
0
  11
1.31
  21
3.462598
  31
0
  0
LINE
  5
331
  100
AcDbEntity
  8
1
  100
AcDbLine
  10
1.31
  20
3.462598
  30
0
  11
1.261
  21
3.487267
  31
0
  0
LINE
  5
332
  100
AcDbEntity
  8
1
  100
AcDbLine
  10
1.261
  20
3.487267
  30
0
  11
1.212
  21
3.511773
  31
0
  0
LINE
  5
333
  100
AcDbEntity
  8
1
  100
AcDbLine
  10
1.212
  20
3.511773
  30
0
  11
1.163
  21
3.536113
  31
0
  0
LINE
  5
334
  100
AcDbEntity
  8
1
  100
AcDbLine
  10
1.163
  20
3.536113
  30
0
  11
1.114
  21
3.560286
  31
0
  0
LINE
  5
335
  100
AcDbEntity
  8
1
  100
AcDbLine
  10
1.114
  20
3.560286
  30
0
  11
1.065
  21
3.584292
  31
0
  0
LINE
  5
336
  100
AcDbEntity
  8
1
  100
AcDbLine
  10
1.065
  20
3.584292
  30
0
  11
1.016
  21
3.608129
  31
0
  0
LINE
  5
337
  100
AcDbEntity
  8
1
  100
AcDbLine
  10
1.016
  20
3.608129
  30
0
  11
0.967
  21
3.631797
  31
0
  0
LINE
  5
338
  100
AcDbEntity
  8
1
  100
AcDbLine
  10
0.967
  20
3.631797
  30
0
  11
0.918
  21
3.655293
  31
0
  0
LINE
  5
339
  100
AcDbEntity
  8
1
  100
AcDbLine
  10
0.918
  20
3.655293
  30
0
  11
0.869
  21
3.678617
  31
0
  0
LINE
  5
33a
  100
AcDbEntity
  8
1
  100
AcDbLine
  10
0.869
  20
3.678617
  30
0
  11
0.82
  21
3.701768
  31
0
  0
LINE
  5
33b
  100
AcDbEntity
  8
1
  100
AcDbLine
  10
0.82
  20
3.701768
  30
0
  11
0.771
  21
3.724744
  31
0
  0
LINE
  5
33c
  100
AcDbEntity
  8
1
  100
AcDbLine
  10
0.771
  20
3.724744
  30
0
  11
0.722
  21
3.747545
  31
0
  0
LINE
  5
33d
  100
AcDbEntity
  8
1
  100
AcDbLine
  10
0.722
  20
3.747545
  30
0
  11
0.673
  21
3.77017
  31
0
  0
LINE
  5
33e
  100
AcDbEntity
  8
1
  100
AcDbLine
  10
0.673
  20
3.77017
  30
0
  11
0.624
  21
3.792617
  31
0
  0
LINE
  5
33f
  100
AcDbEntity
  8
1
  100
AcDbLine
  10
0.624
  20
3.792617
  30
0
  11
0.575
  21
3.814886
  31
0
  0
LINE
  5
340
  100
AcDbEntity
  8
1
  100
AcDbLine
  10
0.575
  20
3.814886
  30
0
  11
0.526
  21
3.836975
  31
0
  0
LINE
  5
341
  100
AcDbEntity
  8
1
  100
AcDbLine
  10
0.526
  20
3.836975
  30
0
  11
0.477
  21
3.858883
  31
0
  0
LINE
  5
342
  100
AcDbEntity
  8
1
  100
AcDbLine
  10
0.477
  20
3.858883
  30
0
  11
0.428
  21
3.88061
  31
0
  0
LINE
  5
343
  100
AcDbEntity
  8
1
  100
AcDbLine
  10
0.428
  20
3.88061
  30
0
  11
0.379
  21
3.902154
  31
0
  0
LINE
  5
344
  100
AcDbEntity
  8
1
  100
AcDbLine
  10
0.379
  20
3.902154
  30
0
  11
0.33
  21
3.923514
  31
0
  0
LINE
  5
345
  100
AcDbEntity
  8
1
  100
AcDbLine
  10
0.33
  20
3.923514
  30
0
  11
0.281
  21
3.944689
  31
0
  0
LINE
  5
346
  100
AcDbEntity
  8
1
  100
AcDbLine
  10
0.281
  20
3.944689
  30
0
  11
0.232
  21
3.965679
  31
0
  0
LINE
  5
347
  100
AcDbEntity
  8
1
  100
AcDbLine
  10
0.232
  20
3.965679
  30
0
  11
0.183
  21
3.986482
  31
0
  0
LINE
  5
348
  100
AcDbEntity
  8
1
  100
AcDbLine
  10
0.183
  20
3.986482
  30
0
  11
0.134
  21
4.007097
  31
0
  0
LINE
  5
349
  100
AcDbEntity
  8
1
  100
AcDbLine
  10
0.134
  20
4.007097
  30
0
  11
0.085
  21
4.027523
  31
0
  0
LINE
  5
34a
  100
AcDbEntity
  8
1
  100
AcDbLine
  10
0.085
  20
4.027523
  30
0
  11
0.036
  21
4.04776
  31
0
  0
LINE
  5
34b
  100
AcDbEntity
  8
1
  100
AcDbLine
  10
14.001
  20
4.353339
  30
0
  11
13.952
  21
4.399138
  31
0
  0
LINE
  5
34c
  100
AcDbEntity
  8
1
  100
AcDbLine
  10
13.952
  20
4.399138
  30
0
  11
13.903
  21
4.445286
  31
0
  0
LINE
  5
34d
  100
AcDbEntity
  8
1
  100
AcDbLine
  10
13.903
  20
4.445286
  30
0
  11
13.854
  21
4.462122
  31
0
  0
LINE
  5
34e
  100
AcDbEntity
  8
1
  100
AcDbLine
  10
13.854
  20
4.462122
  30
0
  11
13.805
  21
4.477498
  31
0
  0
LINE
  5
34f
  100
AcDbEntity
  8
1
  100
AcDbLine
  10
13.805
  20
4.477498
  30
0
  11
13.756
  21
4.492662
  31
0
  0
LINE
  5
350
  100
AcDbEntity
  8
1
  100
AcDbLine
  10
13.756
  20
4.492662
  30
0
  11
13.707
  21
4.507615
  31
0
  0
LINE
  5
351
  100
AcDbEntity
  8
1
  100
AcDbLine
  10
13.707
  20
4.507615
  30
0
  11
13.658
  21
4.522356
  31
0
  0
LINE
  5
352
  100
AcDbEntity
  8
1
  100
AcDbLine
  10
13.658
  20
4.522356
  30
0
  11
13.609
  21
4.536884
  31
0
  0
LINE
  5
353
  100
AcDbEntity
  8
1
  100
AcDbLine
  10
13.609
  20
4.536884
  30
0
  11
13.56
  21
4.551198
  31
0
  0
LINE
  5
354
  100
AcDbEntity
  8
1
  100
AcDbLine
  10
13.56
  20
4.551198
  30
0
  11
13.511
  21
4.565298
  31
0
  0
LINE
  5
355
  100
AcDbEntity
  8
1
  100
AcDbLine
  10
13.511
  20
4.565298
  30
0
  11
13.462
  21
4.579183
  31
0
  0
LINE
  5
356
  100
AcDbEntity
  8
1
  100
AcDbLine
  10
13.462
  20
4.579183
  30
0
  11
13.413
  21
4.592853
  31
0
  0
LINE
  5
357
  100
AcDbEntity
  8
1
  100
AcDbLine
  10
13.413
  20
4.592853
  30
0
  11
13.364
  21
4.606306
  31
0
  0
LINE
  5
358
  100
AcDbEntity
  8
1
  100
AcDbLine
  10
13.364
  20
4.606306
  30
0
  11
13.315
  21
4.619542
  31
0
  0
LINE
  5
359
  100
AcDbEntity
  8
1
  100
AcDbLine
  10
13.315
  20
4.619542
  30
0
  11
13.266
  21
4.632561
  31
0
  0
LINE
  5
35a
  100
AcDbEntity
  8
1
  100
AcDbLine
  10
13.266
  20
4.632561
  30
0
  11
13.217
  21
4.645361
  31
0
  0
LINE
  5
35b
  100
AcDbEntity
  8
1
  100
AcDbLine
  10
13.217
  20
4.645361
  30
0
  11
13.168
  21
4.657943
  31
0
  0
LINE
  5
35c
  100
AcDbEntity
  8
1
  100
AcDbLine
  10
13.168
  20
4.657943
  30
0
  11
13.119
  21
4.670305
  31
0
  0
LINE
  5
35d
  100
AcDbEntity
  8
1
  100
AcDbLine
  10
13.119
  20
4.670305
  30
0
  11
13.07
  21
4.682448
  31
0
  0
LINE
  5
35e
  100
AcDbEntity
  8
1
  100
AcDbLine
  10
13.07
  20
4.682448
  30
0
  11
13.021
  21
4.69437
  31
0
  0
LINE
  5
35f
  100
AcDbEntity
  8
1
  100
AcDbLine
  10
13.021
  20
4.69437
  30
0
  11
12.972
  21
4.706071
  31
0
  0
LINE
  5
360
  100
AcDbEntity
  8
1
  100
AcDbLine
  10
12.972
  20
4.706071
  30
0
  11
12.923
  21
4.71755
  31
0
  0
LINE
  5
361
  100
AcDbEntity
  8
1
  100
AcDbLine
  10
12.923
  20
4.71755
  30
0
  11
12.874
  21
4.728808
  31
0
  0
LINE
  5
362
  100
AcDbEntity
  8
1
  100
AcDbLine
  10
12.874
  20
4.728808
  30
0
  11
12.825
  21
4.739842
  31
0
  0
LINE
  5
363
  100
AcDbEntity
  8
1
  100
AcDbLine
  10
12.825
  20
4.739842
  30
0
  11
12.776
  21
4.750654
  31
0
  0
LINE
  5
364
  100
AcDbEntity
  8
1
  100
AcDbLine
  10
12.776
  20
4.750654
  30
0
  11
12.727
  21
4.761242
  31
0
  0
LINE
  5
365
  100
AcDbEntity
  8
1
  100
AcDbLine
  10
12.727
  20
4.761242
  30
0
  11
12.678
  21
4.771605
  31
0
  0
LINE
  5
366
  100
AcDbEntity
  8
1
  100
AcDbLine
  10
12.678
  20
4.771605
  30
0
  11
12.629
  21
4.781744
  31
0
  0
LINE
  5
367
  100
AcDbEntity
  8
1
  100
AcDbLine
  10
12.629
  20
4.781744
  30
0
  11
12.58
  21
4.791658
  31
0
  0
LINE
  5
368
  100
AcDbEntity
  8
1
  100
AcDbLine
  10
12.58
  20
4.791658
  30
0
  11
12.531
  21
4.801346
  31
0
  0
LINE
  5
369
  100
AcDbEntity
  8
1
  100
AcDbLine
  10
12.531
  20
4.801346
  30
0
  11
12.482
  21
4.810808
  31
0
  0
LINE
  5
36a
  100
AcDbEntity
  8
1
  100
AcDbLine
  10
12.482
  20
4.810808
  30
0
  11
12.433
  21
4.820043
  31
0
  0
LINE
  5
36b
  100
AcDbEntity
  8
1
  100
AcDbLine
  10
12.433
  20
4.820043
  30
0
  11
12.384
  21
4.829052
  31
0
  0
LINE
  5
36c
  100
AcDbEntity
  8
1
  100
AcDbLine
  10
12.384
  20
4.829052
  30
0
  11
12.335
  21
4.837833
  31
0
  0
LINE
  5
36d
  100
AcDbEntity
  8
1
  100
AcDbLine
  10
12.335
  20
4.837833
  30
0
  11
12.286
  21
4.846386
  31
0
  0
LINE
  5
36e
  100
AcDbEntity
  8
1
  100
AcDbLine
  10
12.286
  20
4.846386
  30
0
  11
12.237
  21
4.854711
  31
0
  0
LINE
  5
36f
  100
AcDbEntity
  8
1
  100
AcDbLine
  10
12.237
  20
4.854711
  30
0
  11
12.188
  21
4.862808
  31
0
  0
LINE
  5
370
  100
AcDbEntity
  8
1
  100
AcDbLine
  10
12.188
  20
4.862808
  30
0
  11
12.139
  21
4.870676
  31
0
  0
LINE
  5
371
  100
AcDbEntity
  8
1
  100
AcDbLine
  10
12.139
  20
4.870676
  30
0
  11
12.09
  21
4.878314
  31
0
  0
LINE
  5
372
  100
AcDbEntity
  8
1
  100
AcDbLine
  10
12.09
  20
4.878314
  30
0
  11
12.041
  21
4.885722
  31
0
  0
LINE
  5
373
  100
AcDbEntity
  8
1
  100
AcDbLine
  10
12.041
  20
4.885722
  30
0
  11
11.992
  21
4.892901
  31
0
  0
LINE
  5
374
  100
AcDbEntity
  8
1
  100
AcDbLine
  10
11.992
  20
4.892901
  30
0
  11
11.943
  21
4.899849
  31
0
  0
LINE
  5
375
  100
AcDbEntity
  8
1
  100
AcDbLine
  10
11.943
  20
4.899849
  30
0
  11
11.894
  21
4.906566
  31
0
  0
LINE
  5
376
  100
AcDbEntity
  8
1
  100
AcDbLine
  10
11.894
  20
4.906566
  30
0
  11
11.845
  21
4.913052
  31
0
  0
LINE
  5
377
  100
AcDbEntity
  8
1
  100
AcDbLine
  10
11.845
  20
4.913052
  30
0
  11
11.796
  21
4.919307
  31
0
  0
LINE
  5
378
  100
AcDbEntity
  8
1
  100
AcDbLine
  10
11.796
  20
4.919307
  30
0
  11
11.747
  21
4.925331
  31
0
  0
LINE
  5
379
  100
AcDbEntity
  8
1
  100
AcDbLine
  10
11.747
  20
4.925331
  30
0
  11
11.698
  21
4.931122
  31
0
  0
LINE
  5
37a
  100
AcDbEntity
  8
1
  100
AcDbLine
  10
11.698
  20
4.931122
  30
0
  11
11.649
  21
4.936681
  31
0
  0
LINE
  5
37b
  100
AcDbEntity
  8
1
  100
AcDbLine
  10
11.649
  20
4.936681
  30
0
  11
11.6
  21
4.942008
  31
0
  0
LINE
  5
37c
  100
AcDbEntity
  8
1
  100
AcDbLine
  10
11.6
  20
4.942008
  30
0
  11
11.551
  21
4.947102
  31
0
  0
LINE
  5
37d
  100
AcDbEntity
  8
1
  100
AcDbLine
  10
11.551
  20
4.947102
  30
0
  11
11.502
  21
4.951963
  31
0
  0
LINE
  5
37e
  100
AcDbEntity
  8
1
  100
AcDbLine
  10
11.502
  20
4.951963
  30
0
  11
11.453
  21
4.956591
  31
0
  0
LINE
  5
37f
  100
AcDbEntity
  8
1
  100
AcDbLine
  10
11.453
  20
4.956591
  30
0
  11
11.404
  21
4.960986
  31
0
  0
LINE
  5
380
  100
AcDbEntity
  8
1
  100
AcDbLine
  10
11.404
  20
4.960986
  30
0
  11
11.355
  21
4.965147
  31
0
  0
LINE
  5
381
  100
AcDbEntity
  8
1
  100
AcDbLine
  10
11.355
  20
4.965147
  30
0
  11
11.306
  21
4.969074
  31
0
  0
LINE
  5
382
  100
AcDbEntity
  8
1
  100
AcDbLine
  10
11.306
  20
4.969074
  30
0
  11
11.257
  21
4.972767
  31
0
  0
LINE
  5
383
  100
AcDbEntity
  8
1
  100
AcDbLine
  10
11.257
  20
4.972767
  30
0
  11
11.208
  21
4.976226
  31
0
  0
LINE
  5
384
  100
AcDbEntity
  8
1
  100
AcDbLine
  10
11.208
  20
4.976226
  30
0
  11
11.159
  21
4.97945
  31
0
  0
LINE
  5
385
  100
AcDbEntity
  8
1
  100
AcDbLine
  10
11.159
  20
4.97945
  30
0
  11
11.11
  21
4.982441
  31
0
  0
LINE
  5
386
  100
AcDbEntity
  8
1
  100
AcDbLine
  10
11.11
  20
4.982441
  30
0
  11
11.061
  21
4.985196
  31
0
  0
LINE
  5
387
  100
AcDbEntity
  8
1
  100
AcDbLine
  10
11.061
  20
4.985196
  30
0
  11
11.012
  21
4.987717
  31
0
  0
LINE
  5
388
  100
AcDbEntity
  8
1
  100
AcDbLine
  10
11.012
  20
4.987717
  30
0
  11
10.963
  21
4.990003
  31
0
  0
LINE
  5
389
  100
AcDbEntity
  8
1
  100
AcDbLine
  10
10.963
  20
4.990003
  30
0
  11
10.914
  21
4.992054
  31
0
  0
LINE
  5
38a
  100
AcDbEntity
  8
1
  100
AcDbLine
  10
10.914
  20
4.992054
  30
0
  11
10.865
  21
4.99387
  31
0
  0
LINE
  5
38b
  100
AcDbEntity
  8
1
  100
AcDbLine
  10
10.865
  20
4.99387
  30
0
  11
10.816
  21
4.995451
  31
0
  0
LINE
  5
38c
  100
AcDbEntity
  8
1
  100
AcDbLine
  10
10.816
  20
4.995451
  30
0
  11
10.767
  21
4.996797
  31
0
  0
LINE
  5
38d
  100
AcDbEntity
  8
1
  100
AcDbLine
  10
10.767
  20
4.996797
  30
0
  11
10.718
  21
4.997907
  31
0
  0
LINE
  5
38e
  100
AcDbEntity
  8
1
  100
AcDbLine
  10
10.718
  20
4.997907
  30
0
  11
10.669
  21
4.998782
  31
0
  0
LINE
  5
38f
  100
AcDbEntity
  8
1
  100
AcDbLine
  10
10.669
  20
4.998782
  30
0
  11
10.62
  21
4.999422
  31
0
  0
LINE
  5
390
  100
AcDbEntity
  8
1
  100
AcDbLine
  10
10.62
  20
4.999422
  30
0
  11
10.571
  21
4.999826
  31
0
  0
LINE
  5
391
  100
AcDbEntity
  8
1
  100
AcDbLine
  10
10.571
  20
4.999826
  30
0
  11
10.522
  21
4.999994
  31
0
  0
LINE
  5
392
  100
AcDbEntity
  8
1
  100
AcDbLine
  10
10.522
  20
4.999994
  30
0
  11
10.511376
  21
5
  31
0
  0
LINE
  5
393
  100
AcDbEntity
  8
1
  100
AcDbLine
  10
0.036
  20
1.877255
  30
0
  11
0
  21
1.900586
  31
0
  0
LINE
  5
394
  100
AcDbEntity
  8
1
  100
AcDbLine
  10
0
  20
-4.55552
  30
0
  11
0.036
  21
-4.565873
  31
0
  0
LINE
  5
395
  100
AcDbEntity
  8
1
  100
AcDbLine
  10
0
  20
4.062488
  30
0
  11
0.036
  21
4.04776
  31
0
  0
LINE
  5
396
  100
AcDbEntity
  8
1
  100
AcDbLine
  10
14.001
  20
2.844262
  30
0
  11
13.952
  21
2.890371
  31
0
  0
LINE
  5
397
  100
AcDbEntity
  8
1
  100
AcDbLine
  10
13.952
  20
2.890371
  30
0
  11
13.903
  21
2.936965
  31
0
  0
LINE
  5
398
  100
AcDbEntity
  8
1
  100
AcDbLine
  10
13.903
  20
2.936965
  30
0
  11
13.854
  21
2.96493
  31
0
  0
LINE
  5
399
  100
AcDbEntity
  8
1
  100
AcDbLine
  10
13.854
  20
2.96493
  30
0
  11
13.805
  21
2.991955
  31
0
  0
LINE
  5
39a
  100
AcDbEntity
  8
1
  100
AcDbLine
  10
13.805
  20
2.991955
  30
0
  11
13.756
  21
3.018839
  31
0
  0
LINE
  5
39b
  100
AcDbEntity
  8
1
  100
AcDbLine
  10
13.756
  20
3.018839
  30
0
  11
13.707
  21
3.045581
  31
0
  0
LINE
  5
39c
  100
AcDbEntity
  8
1
  100
AcDbLine
  10
13.707
  20
3.045581
  30
0
  11
13.658
  21
3.072179
  31
0
  0
LINE
  5
39d
  100
AcDbEntity
  8
1
  100
AcDbLine
  10
13.658
  20
3.072179
  30
0
  11
13.609
  21
3.098633
  31
0
  0
LINE
  5
39e
  100
AcDbEntity
  8
1
  100
AcDbLine
  10
13.609
  20
3.098633
  30
0
  11
13.56
  21
3.124941
  31
0
  0
LINE
  5
39f
  100
AcDbEntity
  8
1
  100
AcDbLine
  10
13.56
  20
3.124941
  30
0
  11
13.511
  21
3.151102
  31
0
  0
LINE
  5
3a0
  100
AcDbEntity
  8
1
  100
AcDbLine
  10
13.511
  20
3.151102
  30
0
  11
13.462
  21
3.177114
  31
0
  0
LINE
  5
3a1
  100
AcDbEntity
  8
1
  100
AcDbLine
  10
13.462
  20
3.177114
  30
0
  11
13.413
  21
3.202977
  31
0
  0
LINE
  5
3a2
  100
AcDbEntity
  8
1
  100
AcDbLine
  10
13.413
  20
3.202977
  30
0
  11
13.364
  21
3.228689
  31
0
  0
LINE
  5
3a3
  100
AcDbEntity
  8
1
  100
AcDbLine
  10
13.364
  20
3.228689
  30
0
  11
13.315
  21
3.254249
  31
0
  0
LINE
  5
3a4
  100
AcDbEntity
  8
1
  100
AcDbLine
  10
13.315
  20
3.254249
  30
0
  11
13.266
  21
3.279656
  31
0
  0
LINE
  5
3a5
  100
AcDbEntity
  8
1
  100
AcDbLine
  10
13.266
  20
3.279656
  30
0
  11
13.217
  21
3.304908
  31
0
  0
LINE
  5
3a6
  100
AcDbEntity
  8
1
  100
AcDbLine
  10
13.217
  20
3.304908
  30
0
  11
13.168
  21
3.330005
  31
0
  0
LINE
  5
3a7
  100
AcDbEntity
  8
1
  100
AcDbLine
  10
13.168
  20
3.330005
  30
0
  11
13.119
  21
3.354945
  31
0
  0
LINE
  5
3a8
  100
AcDbEntity
  8
1
  100
AcDbLine
  10
13.119
  20
3.354945
  30
0
  11
13.07
  21
3.379727
  31
0
  0
LINE
  5
3a9
  100
AcDbEntity
  8
1
  100
AcDbLine
  10
13.07
  20
3.379727
  30
0
  11
13.021
  21
3.40435
  31
0
  0
LINE
  5
3aa
  100
AcDbEntity
  8
1
  100
AcDbLine
  10
13.021
  20
3.40435
  30
0
  11
12.972
  21
3.428812
  31
0
  0
LINE
  5
3ab
  100
AcDbEntity
  8
1
  100
AcDbLine
  10
12.972
  20
3.428812
  30
0
  11
12.923
  21
3.453113
  31
0
  0
LINE
  5
3ac
  100
AcDbEntity
  8
1
  100
AcDbLine
  10
12.923
  20
3.453113
  30
0
  11
12.874
  21
3.477252
  31
0
  0
LINE
  5
3ad
  100
AcDbEntity
  8
1
  100
AcDbLine
  10
12.874
  20
3.477252
  30
0
  11
12.825
  21
3.501226
  31
0
  0
LINE
  5
3ae
  100
AcDbEntity
  8
1
  100
AcDbLine
  10
12.825
  20
3.501226
  30
0
  11
12.776
  21
3.525036
  31
0
  0
LINE
  5
3af
  100
AcDbEntity
  8
1
  100
AcDbLine
  10
12.776
  20
3.525036
  30
0
  11
12.727
  21
3.54868
  31
0
  0
LINE
  5
3b0
  100
AcDbEntity
  8
1
  100
AcDbLine
  10
12.727
  20
3.54868
  30
0
  11
12.678
  21
3.572157
  31
0
  0
LINE
  5
3b1
  100
AcDbEntity
  8
1
  100
AcDbLine
  10
12.678
  20
3.572157
  30
0
  11
12.629
  21
3.595466
  31
0
  0
LINE
  5
3b2
  100
AcDbEntity
  8
1
  100
AcDbLine
  10
12.629
  20
3.595466
  30
0
  11
12.58
  21
3.618605
  31
0
  0
LINE
  5
3b3
  100
AcDbEntity
  8
1
  100
AcDbLine
  10
12.58
  20
3.618605
  30
0
  11
12.531
  21
3.641574
  31
0
  0
LINE
  5
3b4
  100
AcDbEntity
  8
1
  100
AcDbLine
  10
12.531
  20
3.641574
  30
0
  11
12.482
  21
3.664371
  31
0
  0
LINE
  5
3b5
  100
AcDbEntity
  8
1
  100
AcDbLine
  10
12.482
  20
3.664371
  30
0
  11
12.433
  21
3.686996
  31
0
  0
LINE
  5
3b6
  100
AcDbEntity
  8
1
  100
AcDbLine
  10
12.433
  20
3.686996
  30
0
  11
12.384
  21
3.709447
  31
0
  0
LINE
  5
3b7
  100
AcDbEntity
  8
1
  100
AcDbLine
  10
12.384
  20
3.709447
  30
0
  11
12.335
  21
3.731724
  31
0
  0
LINE
  5
3b8
  100
AcDbEntity
  8
1
  100
AcDbLine
  10
12.335
  20
3.731724
  30
0
  11
12.286
  21
3.753825
  31
0
  0
LINE
  5
3b9
  100
AcDbEntity
  8
1
  100
AcDbLine
  10
12.286
  20
3.753825
  30
0
  11
12.237
  21
3.775749
  31
0
  0
LINE
  5
3ba
  100
AcDbEntity
  8
1
  100
AcDbLine
  10
12.237
  20
3.775749
  30
0
  11
12.188
  21
3.797495
  31
0
  0
LINE
  5
3bb
  100
AcDbEntity
  8
1
  100
AcDbLine
  10
12.188
  20
3.797495
  30
0
  11
12.139
  21
3.819062
  31
0
  0
LINE
  5
3bc
  100
AcDbEntity
  8
1
  100
AcDbLine
  10
12.139
  20
3.819062
  30
0
  11
12.09
  21
3.84045
  31
0
  0
LINE
  5
3bd
  100
AcDbEntity
  8
1
  100
AcDbLine
  10
12.09
  20
3.84045
  30
0
  11
12.041
  21
3.861657
  31
0
  0
LINE
  5
3be
  100
AcDbEntity
  8
1
  100
AcDbLine
  10
12.041
  20
3.861657
  30
0
  11
11.992
  21
3.882682
  31
0
  0
LINE
  5
3bf
  100
AcDbEntity
  8
1
  100
AcDbLine
  10
11.992
  20
3.882682
  30
0
  11
11.943
  21
3.903524
  31
0
  0
LINE
  5
3c0
  100
AcDbEntity
  8
1
  100
AcDbLine
  10
11.943
  20
3.903524
  30
0
  11
11.894
  21
3.924183
  31
0
  0
LINE
  5
3c1
  100
AcDbEntity
  8
1
  100
AcDbLine
  10
11.894
  20
3.924183
  30
0
  11
11.845
  21
3.944656
  31
0
  0
LINE
  5
3c2
  100
AcDbEntity
  8
1
  100
AcDbLine
  10
11.845
  20
3.944656
  30
0
  11
11.796
  21
3.964944
  31
0
  0
LINE
  5
3c3
  100
AcDbEntity
  8
1
  100
AcDbLine
  10
11.796
  20
3.964944
  30
0
  11
11.747
  21
3.985045
  31
0
  0
LINE
  5
3c4
  100
AcDbEntity
  8
1
  100
AcDbLine
  10
11.747
  20
3.985045
  30
0
  11
11.698
  21
4.004959
  31
0
  0
LINE
  5
3c5
  100
AcDbEntity
  8
1
  100
AcDbLine
  10
11.698
  20
4.004959
  30
0
  11
11.649
  21
4.024683
  31
0
  0
LINE
  5
3c6
  100
AcDbEntity
  8
1
  100
AcDbLine
  10
11.649
  20
4.024683
  30
0
  11
11.6
  21
4.044219
  31
0
  0
LINE
  5
3c7
  100
AcDbEntity
  8
1
  100
AcDbLine
  10
11.6
  20
4.044219
  30
0
  11
11.551
  21
4.063564
  31
0
  0
LINE
  5
3c8
  100
AcDbEntity
  8
1
  100
AcDbLine
  10
11.551
  20
4.063564
  30
0
  11
11.502
  21
4.082718
  31
0
  0
LINE
  5
3c9
  100
AcDbEntity
  8
1
  100
AcDbLine
  10
11.502
  20
4.082718
  30
0
  11
11.453
  21
4.101679
  31
0
  0
LINE
  5
3ca
  100
AcDbEntity
  8
1
  100
AcDbLine
  10
11.453
  20
4.101679
  30
0
  11
11.404
  21
4.120447
  31
0
  0
LINE
  5
3cb
  100
AcDbEntity
  8
1
  100
AcDbLine
  10
11.404
  20
4.120447
  30
0
  11
11.355
  21
4.139021
  31
0
  0
LINE
  5
3cc
  100
AcDbEntity
  8
1
  100
AcDbLine
  10
11.355
  20
4.139021
  30
0
  11
11.306
  21
4.157401
  31
0
  0
LINE
  5
3cd
  100
AcDbEntity
  8
1
  100
AcDbLine
  10
11.306
  20
4.157401
  30
0
  11
11.257
  21
4.175584
  31
0
  0
LINE
  5
3ce
  100
AcDbEntity
  8
1
  100
AcDbLine
  10
11.257
  20
4.175584
  30
0
  11
11.208
  21
4.193571
  31
0
  0
LINE
  5
3cf
  100
AcDbEntity
  8
1
  100
AcDbLine
  10
11.208
  20
4.193571
  30
0
  11
11.159
  21
4.211361
  31
0
  0
LINE
  5
3d0
  100
AcDbEntity
  8
1
  100
AcDbLine
  10
11.159
  20
4.211361
  30
0
  11
11.11
  21
4.228952
  31
0
  0
LINE
  5
3d1
  100
AcDbEntity
  8
1
  100
AcDbLine
  10
11.11
  20
4.228952
  30
0
  11
11.061
  21
4.246344
  31
0
  0
LINE
  5
3d2
  100
AcDbEntity
  8
1
  100
AcDbLine
  10
11.061
  20
4.246344
  30
0
  11
11.012
  21
4.263536
  31
0
  0
LINE
  5
3d3
  100
AcDbEntity
  8
1
  100
AcDbLine
  10
11.012
  20
4.263536
  30
0
  11
10.963
  21
4.280527
  31
0
  0
LINE
  5
3d4
  100
AcDbEntity
  8
1
  100
AcDbLine
  10
10.963
  20
4.280527
  30
0
  11
10.914
  21
4.297317
  31
0
  0
LINE
  5
3d5
  100
AcDbEntity
  8
1
  100
AcDbLine
  10
10.914
  20
4.297317
  30
0
  11
10.865
  21
4.313905
  31
0
  0
LINE
  5
3d6
  100
AcDbEntity
  8
1
  100
AcDbLine
  10
10.865
  20
4.313905
  30
0
  11
10.816
  21
4.330289
  31
0
  0
LINE
  5
3d7
  100
AcDbEntity
  8
1
  100
AcDbLine
  10
10.816
  20
4.330289
  30
0
  11
10.767
  21
4.346469
  31
0
  0
LINE
  5
3d8
  100
AcDbEntity
  8
1
  100
AcDbLine
  10
10.767
  20
4.346469
  30
0
  11
10.718
  21
4.362445
  31
0
  0
LINE
  5
3d9
  100
AcDbEntity
  8
1
  100
AcDbLine
  10
10.718
  20
4.362445
  30
0
  11
10.669
  21
4.378215
  31
0
  0
LINE
  5
3da
  100
AcDbEntity
  8
1
  100
AcDbLine
  10
10.669
  20
4.378215
  30
0
  11
10.62
  21
4.39378
  31
0
  0
LINE
  5
3db
  100
AcDbEntity
  8
1
  100
AcDbLine
  10
10.62
  20
4.39378
  30
0
  11
10.571
  21
4.409137
  31
0
  0
LINE
  5
3dc
  100
AcDbEntity
  8
1
  100
AcDbLine
  10
10.571
  20
4.409137
  30
0
  11
10.522
  21
4.424287
  31
0
  0
LINE
  5
3dd
  100
AcDbEntity
  8
1
  100
AcDbLine
  10
10.522
  20
4.424287
  30
0
  11
10.473
  21
4.439228
  31
0
  0
LINE
  5
3de
  100
AcDbEntity
  8
1
  100
AcDbLine
  10
10.473
  20
4.439228
  30
0
  11
10.424
  21
4.45396
  31
0
  0
LINE
  5
3df
  100
AcDbEntity
  8
1
  100
AcDbLine
  10
10.424
  20
4.45396
  30
0
  11
10.375
  21
4.468483
  31
0
  0
LINE
  5
3e0
  100
AcDbEntity
  8
1
  100
AcDbLine
  10
10.375
  20
4.468483
  30
0
  11
10.326
  21
4.482795
  31
0
  0
LINE
  5
3e1
  100
AcDbEntity
  8
1
  100
AcDbLine
  10
10.326
  20
4.482795
  30
0
  11
10.277
  21
4.496896
  31
0
  0
LINE
  5
3e2
  100
AcDbEntity
  8
1
  100
AcDbLine
  10
10.277
  20
4.496896
  30
0
  11
10.228
  21
4.510785
  31
0
  0
LINE
  5
3e3
  100
AcDbEntity
  8
1
  100
AcDbLine
  10
10.228
  20
4.510785
  30
0
  11
10.179
  21
4.524462
  31
0
  0
LINE
  5
3e4
  100
AcDbEntity
  8
1
  100
AcDbLine
  10
10.179
  20
4.524462
  30
0
  11
10.13
  21
4.537926
  31
0
  0
LINE
  5
3e5
  100
AcDbEntity
  8
1
  100
AcDbLine
  10
10.13
  20
4.537926
  30
0
  11
10.081
  21
4.551176
  31
0
  0
LINE
  5
3e6
  100
AcDbEntity
  8
1
  100
AcDbLine
  10
10.081
  20
4.551176
  30
0
  11
10.032
  21
4.564212
  31
0
  0
LINE
  5
3e7
  100
AcDbEntity
  8
1
  100
AcDbLine
  10
10.032
  20
4.564212
  30
0
  11
9.983
  21
4.577033
  31
0
  0
LINE
  5
3e8
  100
AcDbEntity
  8
1
  100
AcDbLine
  10
9.983
  20
4.577033
  30
0
  11
9.934
  21
4.589639
  31
0
  0
LINE
  5
3e9
  100
AcDbEntity
  8
1
  100
AcDbLine
  10
9.934
  20
4.589639
  30
0
  11
9.885
  21
4.602028
  31
0
  0
LINE
  5
3ea
  100
AcDbEntity
  8
1
  100
AcDbLine
  10
9.885
  20
4.602028
  30
0
  11
9.836
  21
4.614201
  31
0
  0
LINE
  5
3eb
  100
AcDbEntity
  8
1
  100
AcDbLine
  10
9.836
  20
4.614201
  30
0
  11
9.787
  21
4.626156
  31
0
  0
LINE
  5
3ec
  100
AcDbEntity
  8
1
  100
AcDbLine
  10
9.787
  20
4.626156
  30
0
  11
9.738
  21
4.637894
  31
0
  0
LINE
  5
3ed
  100
AcDbEntity
  8
1
  100
AcDbLine
  10
9.738
  20
4.637894
  30
0
  11
9.689
  21
4.649413
  31
0
  0
LINE
  5
3ee
  100
AcDbEntity
  8
1
  100
AcDbLine
  10
9.689
  20
4.649413
  30
0
  11
9.64
  21
4.660713
  31
0
  0
LINE
  5
3ef
  100
AcDbEntity
  8
1
  100
AcDbLine
  10
9.64
  20
4.660713
  30
0
  11
9.591
  21
4.671794
  31
0
  0
LINE
  5
3f0
  100
AcDbEntity
  8
1
  100
AcDbLine
  10
9.591
  20
4.671794
  30
0
  11
9.542
  21
4.682655
  31
0
  0
LINE
  5
3f1
  100
AcDbEntity
  8
1
  100
AcDbLine
  10
9.542
  20
4.682655
  30
0
  11
9.493
  21
4.693295
  31
0
  0
LINE
  5
3f2
  100
AcDbEntity
  8
1
  100
AcDbLine
  10
9.493
  20
4.693295
  30
0
  11
9.444
  21
4.703715
  31
0
  0
LINE
  5
3f3
  100
AcDbEntity
  8
1
  100
AcDbLine
  10
9.444
  20
4.703715
  30
0
  11
9.395
  21
4.713912
  31
0
  0
LINE
  5
3f4
  100
AcDbEntity
  8
1
  100
AcDbLine
  10
9.395
  20
4.713912
  30
0
  11
9.346
  21
4.723888
  31
0
  0
LINE
  5
3f5
  100
AcDbEntity
  8
1
  100
AcDbLine
  10
9.346
  20
4.723888
  30
0
  11
9.297
  21
4.733642
  31
0
  0
LINE
  5
3f6
  100
AcDbEntity
  8
1
  100
AcDbLine
  10
9.297
  20
4.733642
  30
0
  11
9.248
  21
4.743172
  31
0
  0
LINE
  5
3f7
  100
AcDbEntity
  8
1
  100
AcDbLine
  10
9.248
  20
4.743172
  30
0
  11
9.199
  21
4.752479
  31
0
  0
LINE
  5
3f8
  100
AcDbEntity
  8
1
  100
AcDbLine
  10
9.199
  20
4.752479
  30
0
  11
9.15
  21
4.761563
  31
0
  0
LINE
  5
3f9
  100
AcDbEntity
  8
1
  100
AcDbLine
  10
9.15
  20
4.761563
  30
0
  11
9.101
  21
4.770422
  31
0
  0
LINE
  5
3fa
  100
AcDbEntity
  8
1
  100
AcDbLine
  10
9.101
  20
4.770422
  30
0
  11
9.052
  21
4.779057
  31
0
  0
LINE
  5
3fb
  100
AcDbEntity
  8
1
  100
AcDbLine
  10
9.052
  20
4.779057
  30
0
  11
9.003
  21
4.787466
  31
0
  0
LINE
  5
3fc
  100
AcDbEntity
  8
1
  100
AcDbLine
  10
9.003
  20
4.787466
  30
0
  11
8.954
  21
4.79565
  31
0
  0
LINE
  5
3fd
  100
AcDbEntity
  8
1
  100
AcDbLine
  10
8.954
  20
4.79565
  30
0
  11
8.905
  21
4.803609
  31
0
  0
LINE
  5
3fe
  100
AcDbEntity
  8
1
  100
AcDbLine
  10
8.905
  20
4.803609
  30
0
  11
8.856
  21
4.811341
  31
0
  0
LINE
  5
3ff
  100
AcDbEntity
  8
1
  100
AcDbLine
  10
8.856
  20
4.811341
  30
0
  11
8.807
  21
4.818846
  31
0
  0
LINE
  5
400
  100
AcDbEntity
  8
1
  100
AcDbLine
  10
8.807
  20
4.818846
  30
0
  11
8.758
  21
4.826125
  31
0
  0
LINE
  5
401
  100
AcDbEntity
  8
1
  100
AcDbLine
  10
8.758
  20
4.826125
  30
0
  11
8.709
  21
4.833176
  31
0
  0
LINE
  5
402
  100
AcDbEntity
  8
1
  100
AcDbLine
  10
8.709
  20
4.833176
  30
0
  11
8.66
  21
4.84
  31
0
  0
LINE
  5
403
  100
AcDbEntity
  8
1
  100
AcDbLine
  10
8.66
  20
4.84
  30
0
  11
8.611
  21
4.846596
  31
0
  0
LINE
  5
404
  100
AcDbEntity
  8
1
  100
AcDbLine
  10
8.611
  20
4.846596
  30
0
  11
8.562
  21
4.852964
  31
0
  0
LINE
  5
405
  100
AcDbEntity
  8
1
  100
AcDbLine
  10
8.562
  20
4.852964
  30
0
  11
8.513
  21
4.859103
  31
0
  0
LINE
  5
406
  100
AcDbEntity
  8
1
  100
AcDbLine
  10
8.513
  20
4.859103
  30
0
  11
8.464
  21
4.865013
  31
0
  0
LINE
  5
407
  100
AcDbEntity
  8
1
  100
AcDbLine
  10
8.464
  20
4.865013
  30
0
  11
8.415
  21
4.870695
  31
0
  0
LINE
  5
408
  100
AcDbEntity
  8
1
  100
AcDbLine
  10
8.415
  20
4.870695
  30
0
  11
8.366
  21
4.876147
  31
0
  0
LINE
  5
409
  100
AcDbEntity
  8
1
  100
AcDbLine
  10
8.366
  20
4.876147
  30
0
  11
8.317
  21
4.881369
  31
0
  0
LINE
  5
40a
  100
AcDbEntity
  8
1
  100
AcDbLine
  10
8.317
  20
4.881369
  30
0
  11
8.268
  21
4.886361
  31
0
  0
LINE
  5
40b
  100
AcDbEntity
  8
1
  100
AcDbLine
  10
8.268
  20
4.886361
  30
0
  11
8.219
  21
4.891124
  31
0
  0
LINE
  5
40c
  100
AcDbEntity
  8
1
  100
AcDbLine
  10
8.219
  20
4.891124
  30
0
  11
8.17
  21
4.895656
  31
0
  0
LINE
  5
40d
  100
AcDbEntity
  8
1
  100
AcDbLine
  10
8.17
  20
4.895656
  30
0
  11
8.121
  21
4.899958
  31
0
  0
LINE
  5
40e
  100
AcDbEntity
  8
1
  100
AcDbLine
  10
8.121
  20
4.899958
  30
0
  11
8.072
  21
4.904028
  31
0
  0
LINE
  5
40f
  100
AcDbEntity
  8
1
  100
AcDbLine
  10
8.072
  20
4.904028
  30
0
  11
8.023
  21
4.907868
  31
0
  0
LINE
  5
410
  100
AcDbEntity
  8
1
  100
AcDbLine
  10
8.023
  20
4.907868
  30
0
  11
7.974
  21
4.911477
  31
0
  0
LINE
  5
411
  100
AcDbEntity
  8
1
  100
AcDbLine
  10
7.974
  20
4.911477
  30
0
  11
7.925
  21
4.914855
  31
0
  0
LINE
  5
412
  100
AcDbEntity
  8
1
  100
AcDbLine
  10
7.925
  20
4.914855
  30
0
  11
7.876
  21
4.918001
  31
0
  0
LINE
  5
413
  100
AcDbEntity
  8
1
  100
AcDbLine
  10
7.876
  20
4.918001
  30
0
  11
7.827
  21
4.920916
  31
0
  0
LINE
  5
414
  100
AcDbEntity
  8
1
  100
AcDbLine
  10
7.827
  20
4.920916
  30
0
  11
7.778
  21
4.923598
  31
0
  0
LINE
  5
415
  100
AcDbEntity
  8
1
  100
AcDbLine
  10
7.778
  20
4.923598
  30
0
  11
7.729
  21
4.926049
  31
0
  0
LINE
  5
416
  100
AcDbEntity
  8
1
  100
AcDbLine
  10
7.729
  20
4.926049
  30
0
  11
7.68
  21
4.928269
  31
0
  0
LINE
  5
417
  100
AcDbEntity
  8
1
  100
AcDbLine
  10
7.68
  20
4.928269
  30
0
  11
7.631
  21
4.930256
  31
0
  0
LINE
  5
418
  100
AcDbEntity
  8
1
  100
AcDbLine
  10
7.631
  20
4.930256
  30
0
  11
7.582
  21
4.93201
  31
0
  0
LINE
  5
419
  100
AcDbEntity
  8
1
  100
AcDbLine
  10
7.582
  20
4.93201
  30
0
  11
7.533
  21
4.933533
  31
0
  0
LINE
  5
41a
  100
AcDbEntity
  8
1
  100
AcDbLine
  10
7.533
  20
4.933533
  30
0
  11
7.484
  21
4.934823
  31
0
  0
LINE
  5
41b
  100
AcDbEntity
  8
1
  100
AcDbLine
  10
7.484
  20
4.934823
  30
0
  11
7.435
  21
4.935881
  31
0
  0
LINE
  5
41c
  100
AcDbEntity
  8
1
  100
AcDbLine
  10
7.435
  20
4.935881
  30
0
  11
7.386
  21
4.936707
  31
0
  0
LINE
  5
41d
  100
AcDbEntity
  8
1
  100
AcDbLine
  10
7.386
  20
4.936707
  30
0
  11
7.337
  21
4.9373
  31
0
  0
LINE
  5
41e
  100
AcDbEntity
  8
1
  100
AcDbLine
  10
7.337
  20
4.9373
  30
0
  11
7.288
  21
4.93766
  31
0
  0
LINE
  5
41f
  100
AcDbEntity
  8
1
  100
AcDbLine
  10
7.288
  20
4.93766
  30
0
  11
7.239
  21
4.937789
  31
0
  0
LINE
  5
420
  100
AcDbEntity
  8
1
  100
AcDbLine
  10
7.239
  20
4.937789
  30
0
  11
7.236506
  21
5
  31
0
  0
LINE
  5
421
  100
AcDbEntity
  8
1
  100
AcDbLine
  10
14.001
  20
-4.811744
  30
0
  11
13.952
  21
-4.857916
  31
0
  0
LINE
  5
422
  100
AcDbEntity
  8
1
  100
AcDbLine
  10
13.952
  20
-4.857916
  30
0
  11
13.903
  21
-4.903924
  31
0
  0
LINE
  5
423
  100
AcDbEntity
  8
1
  100
AcDbLine
  10
13.903
  20
-4.903924
  30
0
  11
13.854
  21
-4.901999
  31
0
  0
LINE
  5
424
  100
AcDbEntity
  8
1
  100
AcDbLine
  10
13.854
  20
-4.901999
  30
0
  11
13.805
  21
-4.897811
  31
0
  0
LINE
  5
425
  100
AcDbEntity
  8
1
  100
AcDbLine
  10
13.805
  20
-4.897811
  30
0
  11
13.756
  21
-4.893393
  31
0
  0
LINE
  5
426
  100
AcDbEntity
  8
1
  100
AcDbLine
  10
13.756
  20
-4.893393
  30
0
  11
13.707
  21
-4.888745
  31
0
  0
LINE
  5
427
  100
AcDbEntity
  8
1
  100
AcDbLine
  10
13.707
  20
-4.888745
  30
0
  11
13.658
  21
-4.883866
  31
0
  0
LINE
  5
428
  100
AcDbEntity
  8
1
  100
AcDbLine
  10
13.658
  20
-4.883866
  30
0
  11
13.609
  21
-4.878757
  31
0
  0
LINE
  5
429
  100
AcDbEntity
  8
1
  100
AcDbLine
  10
13.609
  20
-4.878757
  30
0
  11
13.56
  21
-4.873419
  31
0
  0
LINE
  5
42a
  100
AcDbEntity
  8
1
  100
AcDbLine
  10
13.56
  20
-4.873419
  30
0
  11
13.511
  21
-4.867851
  31
0
  0
LINE
  5
42b
  100
AcDbEntity
  8
1
  100
AcDbLine
  10
13.511
  20
-4.867851
  30
0
  11
13.462
  21
-4.862053
  31
0
  0
LINE
  5
42c
  100
AcDbEntity
  8
1
  100
AcDbLine
  10
13.462
  20
-4.862053
  30
0
  11
13.413
  21
-4.856027
  31
0
  0
LINE
  5
42d
  100
AcDbEntity
  8
1
  100
AcDbLine
  10
13.413
  20
-4.856027
  30
0
  11
13.364
  21
-4.849773
  31
0
  0
LINE
  5
42e
  100
AcDbEntity
  8
1
  100
AcDbLine
  10
13.364
  20
-4.849773
  30
0
  11
13.315
  21
-4.843289
  31
0
  0
LINE
  5
42f
  100
AcDbEntity
  8
1
  100
AcDbLine
  10
13.315
  20
-4.843289
  30
0
  11
13.266
  21
-4.836578
  31
0
  0
LINE
  5
430
  100
AcDbEntity
  8
1
  100
AcDbLine
  10
13.266
  20
-4.836578
  30
0
  11
13.217
  21
-4.829639
  31
0
  0
LINE
  5
431
  100
AcDbEntity
  8
1
  100
AcDbLine
  10
13.217
  20
-4.829639
  30
0
  11
13.168
  21
-4.822473
  31
0
  0
LINE
  5
432
  100
AcDbEntity
  8
1
  100
AcDbLine
  10
13.168
  20
-4.822473
  30
0
  11
13.119
  21
-4.815079
  31
0
  0
LINE
  5
433
  100
AcDbEntity
  8
1
  100
AcDbLine
  10
13.119
  20
-4.815079
  30
0
  11
13.07
  21
-4.807459
  31
0
  0
LINE
  5
434
  100
AcDbEntity
  8
1
  100
AcDbLine
  10
13.07
  20
-4.807459
  30
0
  11
13.021
  21
-4.799613
  31
0
  0
LINE
  5
435
  100
AcDbEntity
  8
1
  100
AcDbLine
  10
13.021
  20
-4.799613
  30
0
  11
12.972
  21
-4.79154
  31
0
  0
LINE
  5
436
  100
AcDbEntity
  8
1
  100
AcDbLine
  10
12.972
  20
-4.79154
  30
0
  11
12.923
  21
-4.783242
  31
0
  0
LINE
  5
437
  100
AcDbEntity
  8
1
  100
AcDbLine
  10
12.923
  20
-4.783242
  30
0
  11
12.874
  21
-4.774719
  31
0
  0
LINE
  5
438
  100
AcDbEntity
  8
1
  100
AcDbLine
  10
12.874
  20
-4.774719
  30
0
  11
12.825
  21
-4.76597
  31
0
  0
LINE
  5
439
  100
AcDbEntity
  8
1
  100
AcDbLine
  10
12.825
  20
-4.76597
  30
0
  11
12.776
  21
-4.756998
  31
0
  0
LINE
  5
43a
  100
AcDbEntity
  8
1
  100
AcDbLine
  10
12.776
  20
-4.756998
  30
0
  11
12.727
  21
-4.747801
  31
0
  0
LINE
  5
43b
  100
AcDbEntity
  8
1
  100
AcDbLine
  10
12.727
  20
-4.747801
  30
0
  11
12.678
  21
-4.738381
  31
0
  0
LINE
  5
43c
  100
AcDbEntity
  8
1
  100
AcDbLine
  10
12.678
  20
-4.738381
  30
0
  11
12.629
  21
-4.728738
  31
0
  0
LINE
  5
43d
  100
AcDbEntity
  8
1
  100
AcDbLine
  10
12.629
  20
-4.728738
  30
0
  11
12.58
  21
-4.718872
  31
0
  0
LINE
  5
43e
  100
AcDbEntity
  8
1
  100
AcDbLine
  10
12.58
  20
-4.718872
  30
0
  11
12.531
  21
-4.708784
  31
0
  0
LINE
  5
43f
  100
AcDbEntity
  8
1
  100
AcDbLine
  10
12.531
  20
-4.708784
  30
0
  11
12.482
  21
-4.698474
  31
0
  0
LINE
  5
440
  100
AcDbEntity
  8
1
  100
AcDbLine
  10
12.482
  20
-4.698474
  30
0
  11
12.433
  21
-4.687943
  31
0
  0
LINE
  5
441
  100
AcDbEntity
  8
1
  100
AcDbLine
  10
12.433
  20
-4.687943
  30
0
  11
12.384
  21
-4.677191
  31
0
  0
LINE
  5
442
  100
AcDbEntity
  8
1
  100
AcDbLine
  10
12.384
  20
-4.677191
  30
0
  11
12.335
  21
-4.666219
  31
0
  0
LINE
  5
443
  100
AcDbEntity
  8
1
  100
AcDbLine
  10
12.335
  20
-4.666219
  30
0
  11
12.286
  21
-4.655027
  31
0
  0
LINE
  5
444
  100
AcDbEntity
  8
1
  100
AcDbLine
  10
12.286
  20
-4.655027
  30
0
  11
12.237
  21
-4.643616
  31
0
  0
LINE
  5
445
  100
AcDbEntity
  8
1
  100
AcDbLine
  10
12.237
  20
-4.643616
  30
0
  11
12.188
  21
-4.631986
  31
0
  0
LINE
  5
446
  100
AcDbEntity
  8
1
  100
AcDbLine
  10
12.188
  20
-4.631986
  30
0
  11
12.139
  21
-4.620138
  31
0
  0
LINE
  5
447
  100
AcDbEntity
  8
1
  100
AcDbLine
  10
12.139
  20
-4.620138
  30
0
  11
12.09
  21
-4.608073
  31
0
  0
LINE
  5
448
  100
AcDbEntity
  8
1
  100
AcDbLine
  10
12.09
  20
-4.608073
  30
0
  11
12.041
  21
-4.595791
  31
0
  0
LINE
  5
449
  100
AcDbEntity
  8
1
  100
AcDbLine
  10
12.041
  20
-4.595791
  30
0
  11
11.992
  21
-4.583292
  31
0
  0
LINE
  5
44a
  100
AcDbEntity
  8
1
  100
AcDbLine
  10
11.992
  20
-4.583292
  30
0
  11
11.943
  21
-4.570577
  31
0
  0
LINE
  5
44b
  100
AcDbEntity
  8
1
  100
AcDbLine
  10
11.943
  20
-4.570577
  30
0
  11
11.894
  21
-4.557648
  31
0
  0
LINE
  5
44c
  100
AcDbEntity
  8
1
  100
AcDbLine
  10
11.894
  20
-4.557648
  30
0
  11
11.845
  21
-4.544503
  31
0
  0
LINE
  5
44d
  100
AcDbEntity
  8
1
  100
AcDbLine
  10
11.845
  20
-4.544503
  30
0
  11
11.796
  21
-4.531145
  31
0
  0
LINE
  5
44e
  100
AcDbEntity
  8
1
  100
AcDbLine
  10
11.796
  20
-4.531145
  30
0
  11
11.747
  21
-4.517573
  31
0
  0
LINE
  5
44f
  100
AcDbEntity
  8
1
  100
AcDbLine
  10
11.747
  20
-4.517573
  30
0
  11
11.698
  21
-4.503789
  31
0
  0
LINE
  5
450
  100
AcDbEntity
  8
1
  100
AcDbLine
  10
11.698
  20
-4.503789
  30
0
  11
11.649
  21
-4.489792
  31
0
  0
LINE
  5
451
  100
AcDbEntity
  8
1
  100
AcDbLine
  10
11.649
  20
-4.489792
  30
0
  11
11.6
  21
-4.475584
  31
0
  0
LINE
  5
452
  100
AcDbEntity
  8
1
  100
AcDbLine
  10
11.6
  20
-4.475584
  30
0
  11
11.551
  21
-4.461166
  31
0
  0
LINE
  5
453
  100
AcDbEntity
  8
1
  100
AcDbLine
  10
11.551
  20
-4.461166
  30
0
  11
11.502
  21
-4.446537
  31
0
  0
LINE
  5
454
  100
AcDbEntity
  8
1
  100
AcDbLine
  10
11.502
  20
-4.446537
  30
0
  11
11.453
  21
-4.431699
  31
0
  0
LINE
  5
455
  100
AcDbEntity
  8
1
  100
AcDbLine
  10
11.453
  20
-4.431699
  30
0
  11
11.404
  21
-4.416652
  31
0
  0
LINE
  5
456
  100
AcDbEntity
  8
1
  100
AcDbLine
  10
11.404
  20
-4.416652
  30
0
  11
11.355
  21
-4.401397
  31
0
  0
LINE
  5
457
  100
AcDbEntity
  8
1
  100
AcDbLine
  10
11.355
  20
-4.401397
  30
0
  11
11.306
  21
-4.385935
  31
0
  0
LINE
  5
458
  100
AcDbEntity
  8
1
  100
AcDbLine
  10
11.306
  20
-4.385935
  30
0
  11
11.257
  21
-4.370267
  31
0
  0
LINE
  5
459
  100
AcDbEntity
  8
1
  100
AcDbLine
  10
11.257
  20
-4.370267
  30
0
  11
11.208
  21
-4.354393
  31
0
  0
LINE
  5
45a
  100
AcDbEntity
  8
1
  100
AcDbLine
  10
11.208
  20
-4.354393
  30
0
  11
11.159
  21
-4.338313
  31
0
  0
LINE
  5
45b
  100
AcDbEntity
  8
1
  100
AcDbLine
  10
11.159
  20
-4.338313
  30
0
  11
11.11
  21
-4.32203
  31
0
  0
LINE
  5
45c
  100
AcDbEntity
  8
1
  100
AcDbLine
  10
11.11
  20
-4.32203
  30
0
  11
11.061
  21
-4.305543
  31
0
  0
LINE
  5
45d
  100
AcDbEntity
  8
1
  100
AcDbLine
  10
11.061
  20
-4.305543
  30
0
  11
11.012
  21
-4.288853
  31
0
  0
LINE
  5
45e
  100
AcDbEntity
  8
1
  100
AcDbLine
  10
11.012
  20
-4.288853
  30
0
  11
10.963
  21
-4.271961
  31
0
  0
LINE
  5
45f
  100
AcDbEntity
  8
1
  100
AcDbLine
  10
10.963
  20
-4.271961
  30
0
  11
10.914
  21
-4.254868
  31
0
  0
LINE
  5
460
  100
AcDbEntity
  8
1
  100
AcDbLine
  10
10.914
  20
-4.254868
  30
0
  11
10.865
  21
-4.237575
  31
0
  0
LINE
  5
461
  100
AcDbEntity
  8
1
  100
AcDbLine
  10
10.865
  20
-4.237575
  30
0
  11
10.816
  21
-4.220082
  31
0
  0
LINE
  5
462
  100
AcDbEntity
  8
1
  100
AcDbLine
  10
10.816
  20
-4.220082
  30
0
  11
10.767
  21
-4.20239
  31
0
  0
LINE
  5
463
  100
AcDbEntity
  8
1
  100
AcDbLine
  10
10.767
  20
-4.20239
  30
0
  11
10.718
  21
-4.184501
  31
0
  0
LINE
  5
464
  100
AcDbEntity
  8
1
  100
AcDbLine
  10
10.718
  20
-4.184501
  30
0
  11
10.669
  21
-4.166414
  31
0
  0
LINE
  5
465
  100
AcDbEntity
  8
1
  100
AcDbLine
  10
10.669
  20
-4.166414
  30
0
  11
10.62
  21
-4.148132
  31
0
  0
LINE
  5
466
  100
AcDbEntity
  8
1
  100
AcDbLine
  10
10.62
  20
-4.148132
  30
0
  11
10.571
  21
-4.129654
  31
0
  0
LINE
  5
467
  100
AcDbEntity
  8
1
  100
AcDbLine
  10
10.571
  20
-4.129654
  30
0
  11
10.522
  21
-4.110981
  31
0
  0
LINE
  5
468
  100
AcDbEntity
  8
1
  100
AcDbLine
  10
10.522
  20
-4.110981
  30
0
  11
10.473
  21
-4.092115
  31
0
  0
LINE
  5
469
  100
AcDbEntity
  8
1
  100
AcDbLine
  10
10.473
  20
-4.092115
  30
0
  11
10.424
  21
-4.073057
  31
0
  0
LINE
  5
46a
  100
AcDbEntity
  8
1
  100
AcDbLine
  10
10.424
  20
-4.073057
  30
0
  11
10.375
  21
-4.053806
  31
0
  0
LINE
  5
46b
  100
AcDbEntity
  8
1
  100
AcDbLine
  10
10.375
  20
-4.053806
  30
0
  11
10.326
  21
-4.034365
  31
0
  0
LINE
  5
46c
  100
AcDbEntity
  8
1
  100
AcDbLine
  10
10.326
  20
-4.034365
  30
0
  11
10.277
  21
-4.014733
  31
0
  0
LINE
  5
46d
  100
AcDbEntity
  8
1
  100
AcDbLine
  10
10.277
  20
-4.014733
  30
0
  11
10.228
  21
-3.994913
  31
0
  0
LINE
  5
46e
  100
AcDbEntity
  8
1
  100
AcDbLine
  10
10.228
  20
-3.994913
  30
0
  11
10.179
  21
-3.974904
  31
0
  0
LINE
  5
46f
  100
AcDbEntity
  8
1
  100
AcDbLine
  10
10.179
  20
-3.974904
  30
0
  11
10.13
  21
-3.954709
  31
0
  0
LINE
  5
470
  100
AcDbEntity
  8
1
  100
AcDbLine
  10
10.13
  20
-3.954709
  30
0
  11
10.081
  21
-3.934327
  31
0
  0
LINE
  5
471
  100
AcDbEntity
  8
1
  100
AcDbLine
  10
10.081
  20
-3.934327
  30
0
  11
10.032
  21
-3.91376
  31
0
  0
LINE
  5
472
  100
AcDbEntity
  8
1
  100
AcDbLine
  10
10.032
  20
-3.91376
  30
0
  11
9.983
  21
-3.893008
  31
0
  0
LINE
  5
473
  100
AcDbEntity
  8
1
  100
AcDbLine
  10
9.983
  20
-3.893008
  30
0
  11
9.934
  21
-3.872074
  31
0
  0
LINE
  5
474
  100
AcDbEntity
  8
1
  100
AcDbLine
  10
9.934
  20
-3.872074
  30
0
  11
9.885
  21
-3.850957
  31
0
  0
LINE
  5
475
  100
AcDbEntity
  8
1
  100
AcDbLine
  10
9.885
  20
-3.850957
  30
0
  11
9.836
  21
-3.829658
  31
0
  0
LINE
  5
476
  100
AcDbEntity
  8
1
  100
AcDbLine
  10
9.836
  20
-3.829658
  30
0
  11
9.787
  21
-3.808179
  31
0
  0
LINE
  5
477
  100
AcDbEntity
  8
1
  100
AcDbLine
  10
9.787
  20
-3.808179
  30
0
  11
9.738
  21
-3.786521
  31
0
  0
LINE
  5
478
  100
AcDbEntity
  8
1
  100
AcDbLine
  10
9.738
  20
-3.786521
  30
0
  11
9.689
  21
-3.764685
  31
0
  0
LINE
  5
479
  100
AcDbEntity
  8
1
  100
AcDbLine
  10
9.689
  20
-3.764685
  30
0
  11
9.64
  21
-3.742671
  31
0
  0
LINE
  5
47a
  100
AcDbEntity
  8
1
  100
AcDbLine
  10
9.64
  20
-3.742671
  30
0
  11
9.591
  21
-3.720482
  31
0
  0
LINE
  5
47b
  100
AcDbEntity
  8
1
  100
AcDbLine
  10
9.591
  20
-3.720482
  30
0
  11
9.542
  21
-3.698117
  31
0
  0
LINE
  5
47c
  100
AcDbEntity
  8
1
  100
AcDbLine
  10
9.542
  20
-3.698117
  30
0
  11
9.493
  21
-3.675577
  31
0
  0
LINE
  5
47d
  100
AcDbEntity
  8
1
  100
AcDbLine
  10
9.493
  20
-3.675577
  30
0
  11
9.444
  21
-3.652865
  31
0
  0
LINE
  5
47e
  100
AcDbEntity
  8
1
  100
AcDbLine
  10
9.444
  20
-3.652865
  30
0
  11
9.395
  21
-3.629981
  31
0
  0
LINE
  5
47f
  100
AcDbEntity
  8
1
  100
AcDbLine
  10
9.395
  20
-3.629981
  30
0
  11
9.346
  21
-3.606926
  31
0
  0
LINE
  5
480
  100
AcDbEntity
  8
1
  100
AcDbLine
  10
9.346
  20
-3.606926
  30
0
  11
9.297
  21
-3.583701
  31
0
  0
LINE
  5
481
  100
AcDbEntity
  8
1
  100
AcDbLine
  10
9.297
  20
-3.583701
  30
0
  11
9.248
  21
-3.560307
  31
0
  0
LINE
  5
482
  100
AcDbEntity
  8
1
  100
AcDbLine
  10
9.248
  20
-3.560307
  30
0
  11
9.199
  21
-3.536746
  31
0
  0
LINE
  5
483
  100
AcDbEntity
  8
1
  100
AcDbLine
  10
9.199
  20
-3.536746
  30
0
  11
9.15
  21
-3.513018
  31
0
  0
LINE
  5
484
  100
AcDbEntity
  8
1
  100
AcDbLine
  10
9.15
  20
-3.513018
  30
0
  11
9.101
  21
-3.489124
  31
0
  0
LINE
  5
485
  100
AcDbEntity
  8
1
  100
AcDbLine
  10
9.101
  20
-3.489124
  30
0
  11
9.052
  21
-3.465067
  31
0
  0
LINE
  5
486
  100
AcDbEntity
  8
1
  100
AcDbLine
  10
9.052
  20
-3.465067
  30
0
  11
9.003
  21
-3.440846
  31
0
  0
LINE
  5
487
  100
AcDbEntity
  8
1
  100
AcDbLine
  10
9.003
  20
-3.440846
  30
0
  11
8.954
  21
-3.416463
  31
0
  0
LINE
  5
488
  100
AcDbEntity
  8
1
  100
AcDbLine
  10
8.954
  20
-3.416463
  30
0
  11
8.905
  21
-3.391919
  31
0
  0
LINE
  5
489
  100
AcDbEntity
  8
1
  100
AcDbLine
  10
8.905
  20
-3.391919
  30
0
  11
8.856
  21
-3.367216
  31
0
  0
LINE
  5
48a
  100
AcDbEntity
  8
1
  100
AcDbLine
  10
8.856
  20
-3.367216
  30
0
  11
8.807
  21
-3.342354
  31
0
  0
LINE
  5
48b
  100
AcDbEntity
  8
1
  100
AcDbLine
  10
8.807
  20
-3.342354
  30
0
  11
8.758
  21
-3.317335
  31
0
  0
LINE
  5
48c
  100
AcDbEntity
  8
1
  100
AcDbLine
  10
8.758
  20
-3.317335
  30
0
  11
8.709
  21
-3.292159
  31
0
  0
LINE
  5
48d
  100
AcDbEntity
  8
1
  100
AcDbLine
  10
8.709
  20
-3.292159
  30
0
  11
8.66
  21
-3.266828
  31
0
  0
LINE
  5
48e
  100
AcDbEntity
  8
1
  100
AcDbLine
  10
8.66
  20
-3.266828
  30
0
  11
8.611
  21
-3.241344
  31
0
  0
LINE
  5
48f
  100
AcDbEntity
  8
1
  100
AcDbLine
  10
8.611
  20
-3.241344
  30
0
  11
8.562
  21
-3.215707
  31
0
  0
LINE
  5
490
  100
AcDbEntity
  8
1
  100
AcDbLine
  10
8.562
  20
-3.215707
  30
0
  11
8.513
  21
-3.189919
  31
0
  0
LINE
  5
491
  100
AcDbEntity
  8
1
  100
AcDbLine
  10
8.513
  20
-3.189919
  30
0
  11
8.464
  21
-3.16398
  31
0
  0
LINE
  5
492
  100
AcDbEntity
  8
1
  100
AcDbLine
  10
8.464
  20
-3.16398
  30
0
  11
8.415
  21
-3.137892
  31
0
  0
LINE
  5
493
  100
AcDbEntity
  8
1
  100
AcDbLine
  10
8.415
  20
-3.137892
  30
0
  11
8.366
  21
-3.111657
  31
0
  0
LINE
  5
494
  100
AcDbEntity
  8
1
  100
AcDbLine
  10
8.366
  20
-3.111657
  30
0
  11
8.317
  21
-3.085275
  31
0
  0
LINE
  5
495
  100
AcDbEntity
  8
1
  100
AcDbLine
  10
8.317
  20
-3.085275
  30
0
  11
8.268
  21
-3.058748
  31
0
  0
LINE
  5
496
  100
AcDbEntity
  8
1
  100
AcDbLine
  10
8.268
  20
-3.058748
  30
0
  11
8.219
  21
-3.032077
  31
0
  0
LINE
  5
497
  100
AcDbEntity
  8
1
  100
AcDbLine
  10
8.219
  20
-3.032077
  30
0
  11
8.17
  21
-3.005263
  31
0
  0
LINE
  5
498
  100
AcDbEntity
  8
1
  100
AcDbLine
  10
8.17
  20
-3.005263
  30
0
  11
8.121
  21
-2.978307
  31
0
  0
LINE
  5
499
  100
AcDbEntity
  8
1
  100
AcDbLine
  10
8.121
  20
-2.978307
  30
0
  11
8.072
  21
-2.951211
  31
0
  0
LINE
  5
49a
  100
AcDbEntity
  8
1
  100
AcDbLine
  10
8.072
  20
-2.951211
  30
0
  11
8.023
  21
-2.923977
  31
0
  0
LINE
  5
49b
  100
AcDbEntity
  8
1
  100
AcDbLine
  10
8.023
  20
-2.923977
  30
0
  11
7.974
  21
-2.896604
  31
0
  0
LINE
  5
49c
  100
AcDbEntity
  8
1
  100
AcDbLine
  10
7.974
  20
-2.896604
  30
0
  11
7.925
  21
-2.869096
  31
0
  0
LINE
  5
49d
  100
AcDbEntity
  8
1
  100
AcDbLine
  10
7.925
  20
-2.869096
  30
0
  11
7.876
  21
-2.841452
  31
0
  0
LINE
  5
49e
  100
AcDbEntity
  8
1
  100
AcDbLine
  10
7.876
  20
-2.841452
  30
0
  11
7.827
  21
-2.813674
  31
0
  0
LINE
  5
49f
  100
AcDbEntity
  8
1
  100
AcDbLine
  10
7.827
  20
-2.813674
  30
0
  11
7.778
  21
-2.785764
  31
0
  0
LINE
  5
4a0
  100
AcDbEntity
  8
1
  100
AcDbLine
  10
7.778
  20
-2.785764
  30
0
  11
7.729
  21
-2.757723
  31
0
  0
LINE
  5
4a1
  100
AcDbEntity
  8
1
  100
AcDbLine
  10
7.729
  20
-2.757723
  30
0
  11
7.68
  21
-2.729551
  31
0
  0
LINE
  5
4a2
  100
AcDbEntity
  8
1
  100
AcDbLine
  10
7.68
  20
-2.729551
  30
0
  11
7.631
  21
-2.701252
  31
0
  0
LINE
  5
4a3
  100
AcDbEntity
  8
1
  100
AcDbLine
  10
7.631
  20
-2.701252
  30
0
  11
7.582
  21
-2.672825
  31
0
  0
LINE
  5
4a4
  100
AcDbEntity
  8
1
  100
AcDbLine
  10
7.582
  20
-2.672825
  30
0
  11
7.533
  21
-2.644272
  31
0
  0
LINE
  5
4a5
  100
AcDbEntity
  8
1
  100
AcDbLine
  10
7.533
  20
-2.644272
  30
0
  11
7.484
  21
-2.615595
  31
0
  0
LINE
  5
4a6
  100
AcDbEntity
  8
1
  100
AcDbLine
  10
7.484
  20
-2.615595
  30
0
  11
7.435
  21
-2.586794
  31
0
  0
LINE
  5
4a7
  100
AcDbEntity
  8
1
  100
AcDbLine
  10
7.435
  20
-2.586794
  30
0
  11
7.386
  21
-2.557872
  31
0
  0
LINE
  5
4a8
  100
AcDbEntity
  8
1
  100
AcDbLine
  10
7.386
  20
-2.557872
  30
0
  11
7.337
  21
-2.528829
  31
0
  0
LINE
  5
4a9
  100
AcDbEntity
  8
1
  100
AcDbLine
  10
7.337
  20
-2.528829
  30
0
  11
7.288
  21
-2.499668
  31
0
  0
LINE
  5
4aa
  100
AcDbEntity
  8
1
  100
AcDbLine
  10
7.288
  20
-2.499668
  30
0
  11
7.239
  21
-2.470388
  31
0
  0
LINE
  5
4ab
  100
AcDbEntity
  8
1
  100
AcDbLine
  10
7.239
  20
-2.470388
  30
0
  11
7.19
  21
-2.440992
  31
0
  0
LINE
  5
4ac
  100
AcDbEntity
  8
1
  100
AcDbLine
  10
7.19
  20
-2.440992
  30
0
  11
7.141
  21
-2.411482
  31
0
  0
LINE
  5
4ad
  100
AcDbEntity
  8
1
  100
AcDbLine
  10
7.141
  20
-2.411482
  30
0
  11
7.092
  21
-2.381857
  31
0
  0
LINE
  5
4ae
  100
AcDbEntity
  8
1
  100
AcDbLine
  10
7.092
  20
-2.381857
  30
0
  11
7.043
  21
-2.352121
  31
0
  0
LINE
  5
4af
  100
AcDbEntity
  8
1
  100
AcDbLine
  10
7.043
  20
-2.352121
  30
0
  11
6.994
  21
-2.322274
  31
0
  0
LINE
  5
4b0
  100
AcDbEntity
  8
1
  100
AcDbLine
  10
6.994
  20
-2.322274
  30
0
  11
6.945
  21
-2.292317
  31
0
  0
LINE
  5
4b1
  100
AcDbEntity
  8
1
  100
AcDbLine
  10
6.945
  20
-2.292317
  30
0
  11
6.896
  21
-2.262253
  31
0
  0
LINE
  5
4b2
  100
AcDbEntity
  8
1
  100
AcDbLine
  10
6.896
  20
-2.262253
  30
0
  11
6.847
  21
-2.232082
  31
0
  0
LINE
  5
4b3
  100
AcDbEntity
  8
1
  100
AcDbLine
  10
6.847
  20
-2.232082
  30
0
  11
6.798
  21
-2.201806
  31
0
  0
LINE
  5
4b4
  100
AcDbEntity
  8
1
  100
AcDbLine
  10
6.798
  20
-2.201806
  30
0
  11
6.749
  21
-2.171426
  31
0
  0
LINE
  5
4b5
  100
AcDbEntity
  8
1
  100
AcDbLine
  10
6.749
  20
-2.171426
  30
0
  11
6.7
  21
-2.140944
  31
0
  0
LINE
  5
4b6
  100
AcDbEntity
  8
1
  100
AcDbLine
  10
6.7
  20
-2.140944
  30
0
  11
6.651
  21
-2.110361
  31
0
  0
LINE
  5
4b7
  100
AcDbEntity
  8
1
  100
AcDbLine
  10
6.651
  20
-2.110361
  30
0
  11
6.602
  21
-2.079679
  31
0
  0
LINE
  5
4b8
  100
AcDbEntity
  8
1
  100
AcDbLine
  10
6.602
  20
-2.079679
  30
0
  11
6.553
  21
-2.048899
  31
0
  0
LINE
  5
4b9
  100
AcDbEntity
  8
1
  100
AcDbLine
  10
6.553
  20
-2.048899
  30
0
  11
6.504
  21
-2.018022
  31
0
  0
LINE
  5
4ba
  100
AcDbEntity
  8
1
  100
AcDbLine
  10
6.504
  20
-2.018022
  30
0
  11
6.455
  21
-1.98705
  31
0
  0
LINE
  5
4bb
  100
AcDbEntity
  8
1
  100
AcDbLine
  10
6.455
  20
-1.98705
  30
0
  11
6.406
  21
-1.955985
  31
0
  0
LINE
  5
4bc
  100
AcDbEntity
  8
1
  100
AcDbLine
  10
6.406
  20
-1.955985
  30
0
  11
6.357
  21
-1.924828
  31
0
  0
LINE
  5
4bd
  100
AcDbEntity
  8
1
  100
AcDbLine
  10
6.357
  20
-1.924828
  30
0
  11
6.308
  21
-1.89358
  31
0
  0
LINE
  5
4be
  100
AcDbEntity
  8
1
  100
AcDbLine
  10
6.308
  20
-1.89358
  30
0
  11
6.259
  21
-1.862243
  31
0
  0
LINE
  5
4bf
  100
AcDbEntity
  8
1
  100
AcDbLine
  10
6.259
  20
-1.862243
  30
0
  11
6.21
  21
-1.830818
  31
0
  0
LINE
  5
4c0
  100
AcDbEntity
  8
1
  100
AcDbLine
  10
6.21
  20
-1.830818
  30
0
  11
6.161
  21
-1.799307
  31
0
  0
LINE
  5
4c1
  100
AcDbEntity
  8
1
  100
AcDbLine
  10
6.161
  20
-1.799307
  30
0
  11
6.112
  21
-1.767711
  31
0
  0
LINE
  5
4c2
  100
AcDbEntity
  8
1
  100
AcDbLine
  10
6.112
  20
-1.767711
  30
0
  11
6.063
  21
-1.736032
  31
0
  0
LINE
  5
4c3
  100
AcDbEntity
  8
1
  100
AcDbLine
  10
6.063
  20
-1.736032
  30
0
  11
6.014
  21
-1.704272
  31
0
  0
LINE
  5
4c4
  100
AcDbEntity
  8
1
  100
AcDbLine
  10
6.014
  20
-1.704272
  30
0
  11
5.965
  21
-1.672431
  31
0
  0
LINE
  5
4c5
  100
AcDbEntity
  8
1
  100
AcDbLine
  10
5.965
  20
-1.672431
  30
0
  11
5.916
  21
-1.640511
  31
0
  0
LINE
  5
4c6
  100
AcDbEntity
  8
1
  100
AcDbLine
  10
5.916
  20
-1.640511
  30
0
  11
5.867
  21
-1.608514
  31
0
  0
LINE
  5
4c7
  100
AcDbEntity
  8
1
  100
AcDbLine
  10
5.867
  20
-1.608514
  30
0
  11
5.818
  21
-1.576441
  31
0
  0
LINE
  5
4c8
  100
AcDbEntity
  8
1
  100
AcDbLine
  10
5.818
  20
-1.576441
  30
0
  11
5.769
  21
-1.544294
  31
0
  0
LINE
  5
4c9
  100
AcDbEntity
  8
1
  100
AcDbLine
  10
5.769
  20
-1.544294
  30
0
  11
5.72
  21
-1.512075
  31
0
  0
LINE
  5
4ca
  100
AcDbEntity
  8
1
  100
AcDbLine
  10
5.72
  20
-1.512075
  30
0
  11
5.671
  21
-1.479784
  31
0
  0
LINE
  5
4cb
  100
AcDbEntity
  8
1
  100
AcDbLine
  10
5.671
  20
-1.479784
  30
0
  11
5.622
  21
-1.447423
  31
0
  0
LINE
  5
4cc
  100
AcDbEntity
  8
1
  100
AcDbLine
  10
5.622
  20
-1.447423
  30
0
  11
5.573
  21
-1.414995
  31
0
  0
LINE
  5
4cd
  100
AcDbEntity
  8
1
  100
AcDbLine
  10
5.573
  20
-1.414995
  30
0
  11
5.524
  21
-1.382499
  31
0
  0
LINE
  5
4ce
  100
AcDbEntity
  8
1
  100
AcDbLine
  10
5.524
  20
-1.382499
  30
0
  11
5.475
  21
-1.349939
  31
0
  0
LINE
  5
4cf
  100
AcDbEntity
  8
1
  100
AcDbLine
  10
5.475
  20
-1.349939
  30
0
  11
5.426
  21
-1.317315
  31
0
  0
LINE
  5
4d0
  100
AcDbEntity
  8
1
  100
AcDbLine
  10
5.426
  20
-1.317315
  30
0
  11
5.377
  21
-1.284629
  31
0
  0
LINE
  5
4d1
  100
AcDbEntity
  8
1
  100
AcDbLine
  10
5.377
  20
-1.284629
  30
0
  11
5.328
  21
-1.251883
  31
0
  0
LINE
  5
4d2
  100
AcDbEntity
  8
1
  100
AcDbLine
  10
5.328
  20
-1.251883
  30
0
  11
5.279
  21
-1.219077
  31
0
  0
LINE
  5
4d3
  100
AcDbEntity
  8
1
  100
AcDbLine
  10
5.279
  20
-1.219077
  30
0
  11
5.23
  21
-1.186214
  31
0
  0
LINE
  5
4d4
  100
AcDbEntity
  8
1
  100
AcDbLine
  10
5.23
  20
-1.186214
  30
0
  11
5.181
  21
-1.153296
  31
0
  0
LINE
  5
4d5
  100
AcDbEntity
  8
1
  100
AcDbLine
  10
5.181
  20
-1.153296
  30
0
  11
5.132
  21
-1.120323
  31
0
  0
LINE
  5
4d6
  100
AcDbEntity
  8
1
  100
AcDbLine
  10
5.132
  20
-1.120323
  30
0
  11
5.083
  21
-1.087297
  31
0
  0
LINE
  5
4d7
  100
AcDbEntity
  8
1
  100
AcDbLine
  10
5.083
  20
-1.087297
  30
0
  11
5.034
  21
-1.05422
  31
0
  0
LINE
  5
4d8
  100
AcDbEntity
  8
1
  100
AcDbLine
  10
5.034
  20
-1.05422
  30
0
  11
4.985
  21
-1.021093
  31
0
  0
LINE
  5
4d9
  100
AcDbEntity
  8
1
  100
AcDbLine
  10
4.985
  20
-1.021093
  30
0
  11
4.936
  21
-0.987919
  31
0
  0
LINE
  5
4da
  100
AcDbEntity
  8
1
  100
AcDbLine
  10
4.936
  20
-0.987919
  30
0
  11
4.887
  21
-0.954697
  31
0
  0
LINE
  5
4db
  100
AcDbEntity
  8
1
  100
AcDbLine
  10
4.887
  20
-0.954697
  30
0
  11
4.838
  21
-0.921431
  31
0
  0
LINE
  5
4dc
  100
AcDbEntity
  8
1
  100
AcDbLine
  10
4.838
  20
-0.921431
  30
0
  11
4.789
  21
-0.888122
  31
0
  0
LINE
  5
4dd
  100
AcDbEntity
  8
1
  100
AcDbLine
  10
4.789
  20
-0.888122
  30
0
  11
4.74
  21
-0.85477
  31
0
  0
LINE
  5
4de
  100
AcDbEntity
  8
1
  100
AcDbLine
  10
4.74
  20
-0.85477
  30
0
  11
4.691
  21
-0.821379
  31
0
  0
LINE
  5
4df
  100
AcDbEntity
  8
1
  100
AcDbLine
  10
4.691
  20
-0.821379
  30
0
  11
4.642
  21
-0.787949
  31
0
  0
LINE
  5
4e0
  100
AcDbEntity
  8
1
  100
AcDbLine
  10
4.642
  20
-0.787949
  30
0
  11
4.593
  21
-0.754481
  31
0
  0
LINE
  5
4e1
  100
AcDbEntity
  8
1
  100
AcDbLine
  10
4.593
  20
-0.754481
  30
0
  11
4.544
  21
-0.720978
  31
0
  0
LINE
  5
4e2
  100
AcDbEntity
  8
1
  100
AcDbLine
  10
4.544
  20
-0.720978
  30
0
  11
4.495
  21
-0.687441
  31
0
  0
LINE
  5
4e3
  100
AcDbEntity
  8
1
  100
AcDbLine
  10
4.495
  20
-0.687441
  30
0
  11
4.446
  21
-0.653872
  31
0
  0
LINE
  5
4e4
  100
AcDbEntity
  8
1
  100
AcDbLine
  10
4.446
  20
-0.653872
  30
0
  11
4.397
  21
-0.620272
  31
0
  0
LINE
  5
4e5
  100
AcDbEntity
  8
1
  100
AcDbLine
  10
4.397
  20
-0.620272
  30
0
  11
4.348
  21
-0.586643
  31
0
  0
LINE
  5
4e6
  100
AcDbEntity
  8
1
  100
AcDbLine
  10
4.348
  20
-0.586643
  30
0
  11
4.299
  21
-0.552986
  31
0
  0
LINE
  5
4e7
  100
AcDbEntity
  8
1
  100
AcDbLine
  10
4.299
  20
-0.552986
  30
0
  11
4.25
  21
-0.519303
  31
0
  0
LINE
  5
4e8
  100
AcDbEntity
  8
1
  100
AcDbLine
  10
4.25
  20
-0.519303
  30
0
  11
4.201
  21
-0.485596
  31
0
  0
LINE
  5
4e9
  100
AcDbEntity
  8
1
  100
AcDbLine
  10
4.201
  20
-0.485596
  30
0
  11
4.152
  21
-0.451866
  31
0
  0
LINE
  5
4ea
  100
AcDbEntity
  8
1
  100
AcDbLine
  10
4.152
  20
-0.451866
  30
0
  11
4.103
  21
-0.418114
  31
0
  0
LINE
  5
4eb
  100
AcDbEntity
  8
1
  100
AcDbLine
  10
4.103
  20
-0.418114
  30
0
  11
4.054
  21
-0.384343
  31
0
  0
LINE
  5
4ec
  100
AcDbEntity
  8
1
  100
AcDbLine
  10
4.054
  20
-0.384343
  30
0
  11
4.005
  21
-0.350554
  31
0
  0
LINE
  5
4ed
  100
AcDbEntity
  8
1
  100
AcDbLine
  10
4.005
  20
-0.350554
  30
0
  11
3.956
  21
-0.316748
  31
0
  0
LINE
  5
4ee
  100
AcDbEntity
  8
1
  100
AcDbLine
  10
3.956
  20
-0.316748
  30
0
  11
3.907
  21
-0.282927
  31
0
  0
LINE
  5
4ef
  100
AcDbEntity
  8
1
  100
AcDbLine
  10
3.907
  20
-0.282927
  30
0
  11
3.858
  21
-0.249093
  31
0
  0
LINE
  5
4f0
  100
AcDbEntity
  8
1
  100
AcDbLine
  10
3.858
  20
-0.249093
  30
0
  11
3.809
  21
-0.215248
  31
0
  0
LINE
  5
4f1
  100
AcDbEntity
  8
1
  100
AcDbLine
  10
3.809
  20
-0.215248
  30
0
  11
3.76
  21
-0.181392
  31
0
  0
LINE
  5
4f2
  100
AcDbEntity
  8
1
  100
AcDbLine
  10
3.76
  20
-0.181392
  30
0
  11
3.711
  21
-0.147527
  31
0
  0
LINE
  5
4f3
  100
AcDbEntity
  8
1
  100
AcDbLine
  10
3.711
  20
-0.147527
  30
0
  11
3.662
  21
-0.113656
  31
0
  0
LINE
  5
4f4
  100
AcDbEntity
  8
1
  100
AcDbLine
  10
3.662
  20
-0.113656
  30
0
  11
3.613
  21
-0.079779
  31
0
  0
LINE
  5
4f5
  100
AcDbEntity
  8
1
  100
AcDbLine
  10
3.613
  20
-0.079779
  30
0
  11
3.564
  21
-0.045899
  31
0
  0
LINE
  5
4f6
  100
AcDbEntity
  8
1
  100
AcDbLine
  10
3.564
  20
-0.045899
  30
0
  11
3.515
  21
-0.012016
  31
0
  0
LINE
  5
4f7
  100
AcDbEntity
  8
1
  100
AcDbLine
  10
3.515
  20
-0.012016
  30
0
  11
3.466
  21
0.021867
  31
0
  0
LINE
  5
4f8
  100
AcDbEntity
  8
1
  100
AcDbLine
  10
3.466
  20
0.021867
  30
0
  11
3.417
  21
0.055749
  31
0
  0
LINE
  5
4f9
  100
AcDbEntity
  8
1
  100
AcDbLine
  10
3.417
  20
0.055749
  30
0
  11
3.368
  21
0.089629
  31
0
  0
LINE
  5
4fa
  100
AcDbEntity
  8
1
  100
AcDbLine
  10
3.368
  20
0.089629
  30
0
  11
3.319
  21
0.123504
  31
0
  0
LINE
  5
4fb
  100
AcDbEntity
  8
1
  100
AcDbLine
  10
3.319
  20
0.123504
  30
0
  11
3.27
  21
0.157373
  31
0
  0
LINE
  5
4fc
  100
AcDbEntity
  8
1
  100
AcDbLine
  10
3.27
  20
0.157373
  30
0
  11
3.221
  21
0.191236
  31
0
  0
LINE
  5
4fd
  100
AcDbEntity
  8
1
  100
AcDbLine
  10
3.221
  20
0.191236
  30
0
  11
3.172
  21
0.225089
  31
0
  0
LINE
  5
4fe
  100
AcDbEntity
  8
1
  100
AcDbLine
  10
3.172
  20
0.225089
  30
0
  11
3.123
  21
0.258931
  31
0
  0
LINE
  5
4ff
  100
AcDbEntity
  8
1
  100
AcDbLine
  10
3.123
  20
0.258931
  30
0
  11
3.074
  21
0.292761
  31
0
  0
LINE
  5
500
  100
AcDbEntity
  8
1
  100
AcDbLine
  10
3.074
  20
0.292761
  30
0
  11
3.025
  21
0.326578
  31
0
  0
LINE
  5
501
  100
AcDbEntity
  8
1
  100
AcDbLine
  10
3.025
  20
0.326578
  30
0
  11
2.976
  21
0.360379
  31
0
  0
LINE
  5
502
  100
AcDbEntity
  8
1
  100
AcDbLine
  10
2.976
  20
0.360379
  30
0
  11
2.927
  21
0.394163
  31
0
  0
LINE
  5
503
  100
AcDbEntity
  8
1
  100
AcDbLine
  10
2.927
  20
0.394163
  30
0
  11
2.878
  21
0.427929
  31
0
  0
LINE
  5
504
  100
AcDbEntity
  8
1
  100
AcDbLine
  10
2.878
  20
0.427929
  30
0
  11
2.829
  21
0.461674
  31
0
  0
LINE
  5
505
  100
AcDbEntity
  8
1
  100
AcDbLine
  10
2.829
  20
0.461674
  30
0
  11
2.78
  21
0.495398
  31
0
  0
LINE
  5
506
  100
AcDbEntity
  8
1
  100
AcDbLine
  10
2.78
  20
0.495398
  30
0
  11
2.731
  21
0.529098
  31
0
  0
LINE
  5
507
  100
AcDbEntity
  8
1
  100
AcDbLine
  10
2.731
  20
0.529098
  30
0
  11
2.682
  21
0.562774
  31
0
  0
LINE
  5
508
  100
AcDbEntity
  8
1
  100
AcDbLine
  10
2.682
  20
0.562774
  30
0
  11
2.633
  21
0.596423
  31
0
  0
LINE
  5
509
  100
AcDbEntity
  8
1
  100
AcDbLine
  10
2.633
  20
0.596423
  30
0
  11
2.584
  21
0.630044
  31
0
  0
LINE
  5
50a
  100
AcDbEntity
  8
1
  100
AcDbLine
  10
2.584
  20
0.630044
  30
0
  11
2.535
  21
0.663635
  31
0
  0
LINE
  5
50b
  100
AcDbEntity
  8
1
  100
AcDbLine
  10
2.535
  20
0.663635
  30
0
  11
2.486
  21
0.697195
  31
0
  0
LINE
  5
50c
  100
AcDbEntity
  8
1
  100
AcDbLine
  10
2.486
  20
0.697195
  30
0
  11
2.437
  21
0.730722
  31
0
  0
LINE
  5
50d
  100
AcDbEntity
  8
1
  100
AcDbLine
  10
2.437
  20
0.730722
  30
0
  11
2.388
  21
0.764215
  31
0
  0
LINE
  5
50e
  100
AcDbEntity
  8
1
  100
AcDbLine
  10
2.388
  20
0.764215
  30
0
  11
2.339
  21
0.797672
  31
0
  0
LINE
  5
50f
  100
AcDbEntity
  8
1
  100
AcDbLine
  10
2.339
  20
0.797672
  30
0
  11
2.29
  21
0.831091
  31
0
  0
LINE
  5
510
  100
AcDbEntity
  8
1
  100
AcDbLine
  10
2.29
  20
0.831091
  30
0
  11
2.241
  21
0.864471
  31
0
  0
LINE
  5
511
  100
AcDbEntity
  8
1
  100
AcDbLine
  10
2.241
  20
0.864471
  30
0
  11
2.192
  21
0.89781
  31
0
  0
LINE
  5
512
  100
AcDbEntity
  8
1
  100
AcDbLine
  10
2.192
  20
0.89781
  30
0
  11
2.143
  21
0.931107
  31
0
  0
LINE
  5
513
  100
AcDbEntity
  8
1
  100
AcDbLine
  10
2.143
  20
0.931107
  30
0
  11
2.094
  21
0.96436
  31
0
  0
LINE
  5
514
  100
AcDbEntity
  8
1
  100
AcDbLine
  10
2.094
  20
0.96436
  30
0
  11
2.045
  21
0.997568
  31
0
  0
LINE
  5
515
  100
AcDbEntity
  8
1
  100
AcDbLine
  10
2.045
  20
0.997568
  30
0
  11
1.996
  21
1.030729
  31
0
  0
LINE
  5
516
  100
AcDbEntity
  8
1
  100
AcDbLine
  10
1.996
  20
1.030729
  30
0
  11
1.947
  21
1.063841
  31
0
  0
LINE
  5
517
  100
AcDbEntity
  8
1
  100
AcDbLine
  10
1.947
  20
1.063841
  30
0
  11
1.898
  21
1.096904
  31
0
  0
LINE
  5
518
  100
AcDbEntity
  8
1
  100
AcDbLine
  10
1.898
  20
1.096904
  30
0
  11
1.849
  21
1.129914
  31
0
  0
LINE
  5
519
  100
AcDbEntity
  8
1
  100
AcDbLine
  10
1.849
  20
1.129914
  30
0
  11
1.8
  21
1.162872
  31
0
  0
LINE
  5
51a
  100
AcDbEntity
  8
1
  100
AcDbLine
  10
1.8
  20
1.162872
  30
0
  11
1.751
  21
1.195774
  31
0
  0
LINE
  5
51b
  100
AcDbEntity
  8
1
  100
AcDbLine
  10
1.751
  20
1.195774
  30
0
  11
1.702
  21
1.228621
  31
0
  0
LINE
  5
51c
  100
AcDbEntity
  8
1
  100
AcDbLine
  10
1.702
  20
1.228621
  30
0
  11
1.653
  21
1.261409
  31
0
  0
LINE
  5
51d
  100
AcDbEntity
  8
1
  100
AcDbLine
  10
1.653
  20
1.261409
  30
0
  11
1.604
  21
1.294138
  31
0
  0
LINE
  5
51e
  100
AcDbEntity
  8
1
  100
AcDbLine
  10
1.604
  20
1.294138
  30
0
  11
1.555
  21
1.326806
  31
0
  0
LINE
  5
51f
  100
AcDbEntity
  8
1
  100
AcDbLine
  10
1.555
  20
1.326806
  30
0
  11
1.506
  21
1.359412
  31
0
  0
LINE
  5
520
  100
AcDbEntity
  8
1
  100
AcDbLine
  10
1.506
  20
1.359412
  30
0
  11
1.457
  21
1.391953
  31
0
  0
LINE
  5
521
  100
AcDbEntity
  8
1
  100
AcDbLine
  10
1.457
  20
1.391953
  30
0
  11
1.408
  21
1.42443
  31
0
  0
LINE
  5
522
  100
AcDbEntity
  8
1
  100
AcDbLine
  10
1.408
  20
1.42443
  30
0
  11
1.359
  21
1.456839
  31
0
  0
LINE
  5
523
  100
AcDbEntity
  8
1
  100
AcDbLine
  10
1.359
  20
1.456839
  30
0
  11
1.31
  21
1.489179
  31
0
  0
LINE
  5
524
  100
AcDbEntity
  8
1
  100
AcDbLine
  10
1.31
  20
1.489179
  30
0
  11
1.261
  21
1.521449
  31
0
  0
LINE
  5
525
  100
AcDbEntity
  8
1
  100
AcDbLine
  10
1.261
  20
1.521449
  30
0
  11
1.212
  21
1.553648
  31
0
  0
LINE
  5
526
  100
AcDbEntity
  8
1
  100
AcDbLine
  10
1.212
  20
1.553648
  30
0
  11
1.163
  21
1.585773
  31
0
  0
LINE
  5
527
  100
AcDbEntity
  8
1
  100
AcDbLine
  10
1.163
  20
1.585773
  30
0
  11
1.114
  21
1.617824
  31
0
  0
LINE
  5
528
  100
AcDbEntity
  8
1
  100
AcDbLine
  10
1.114
  20
1.617824
  30
0
  11
1.065
  21
1.649799
  31
0
  0
LINE
  5
529
  100
AcDbEntity
  8
1
  100
AcDbLine
  10
1.065
  20
1.649799
  30
0
  11
1.016
  21
1.681696
  31
0
  0
LINE
  5
52a
  100
AcDbEntity
  8
1
  100
AcDbLine
  10
1.016
  20
1.681696
  30
0
  11
0.967
  21
1.713514
  31
0
  0
LINE
  5
52b
  100
AcDbEntity
  8
1
  100
AcDbLine
  10
0.967
  20
1.713514
  30
0
  11
0.918
  21
1.745251
  31
0
  0
LINE
  5
52c
  100
AcDbEntity
  8
1
  100
AcDbLine
  10
0.918
  20
1.745251
  30
0
  11
0.869
  21
1.776906
  31
0
  0
LINE
  5
52d
  100
AcDbEntity
  8
1
  100
AcDbLine
  10
0.869
  20
1.776906
  30
0
  11
0.82
  21
1.808477
  31
0
  0
LINE
  5
52e
  100
AcDbEntity
  8
1
  100
AcDbLine
  10
0.82
  20
1.808477
  30
0
  11
0.771
  21
1.839963
  31
0
  0
LINE
  5
52f
  100
AcDbEntity
  8
1
  100
AcDbLine
  10
0.771
  20
1.839963
  30
0
  11
0.722
  21
1.871362
  31
0
  0
LINE
  5
530
  100
AcDbEntity
  8
1
  100
AcDbLine
  10
0.722
  20
1.871362
  30
0
  11
0.673
  21
1.902674
  31
0
  0
LINE
  5
531
  100
AcDbEntity
  8
1
  100
AcDbLine
  10
0.673
  20
1.902674
  30
0
  11
0.624
  21
1.933896
  31
0
  0
LINE
  5
532
  100
AcDbEntity
  8
1
  100
AcDbLine
  10
0.624
  20
1.933896
  30
0
  11
0.575
  21
1.965026
  31
0
  0
LINE
  5
533
  100
AcDbEntity
  8
1
  100
AcDbLine
  10
0.575
  20
1.965026
  30
0
  11
0.526
  21
1.996064
  31
0
  0
LINE
  5
534
  100
AcDbEntity
  8
1
  100
AcDbLine
  10
0.526
  20
1.996064
  30
0
  11
0.477
  21
2.027009
  31
0
  0
LINE
  5
535
  100
AcDbEntity
  8
1
  100
AcDbLine
  10
0.477
  20
2.027009
  30
0
  11
0.428
  21
2.057857
  31
0
  0
LINE
  5
536
  100
AcDbEntity
  8
1
  100
AcDbLine
  10
0.428
  20
2.057857
  30
0
  11
0.379
  21
2.088609
  31
0
  0
LINE
  5
537
  100
AcDbEntity
  8
1
  100
AcDbLine
  10
0.379
  20
2.088609
  30
0
  11
0.33
  21
2.119263
  31
0
  0
LINE
  5
538
  100
AcDbEntity
  8
1
  100
AcDbLine
  10
0.33
  20
2.119263
  30
0
  11
0.281
  21
2.149816
  31
0
  0
LINE
  5
539
  100
AcDbEntity
  8
1
  100
AcDbLine
  10
0.281
  20
2.149816
  30
0
  11
0.232
  21
2.180269
  31
0
  0
LINE
  5
53a
  100
AcDbEntity
  8
1
  100
AcDbLine
  10
0.232
  20
2.180269
  30
0
  11
0.183
  21
2.210618
  31
0
  0
LINE
  5
53b
  100
AcDbEntity
  8
1
  100
AcDbLine
  10
0.183
  20
2.210618
  30
0
  11
0.134
  21
2.240864
  31
0
  0
LINE
  5
53c
  100
AcDbEntity
  8
1
  100
AcDbLine
  10
0.134
  20
2.240864
  30
0
  11
0.085
  21
2.271004
  31
0
  0
LINE
  5
53d
  100
AcDbEntity
  8
1
  100
AcDbLine
  10
0.085
  20
2.271004
  30
0
  11
0.036
  21
2.301038
  31
0
  0
LINE
  5
53e
  100
AcDbEntity
  8
1
  100
AcDbLine
  10
14.001
  20
0
  30
0
  11
14.001
  21
-4.9
  31
0
  0
LINE
  5
53f
  100
AcDbEntity
  8
1
  100
AcDbLine
  10
14.001
  20
-4.9
  30
0
  11
13.901
  21
-5
  31
0
  0
LINE
  5
540
  100
AcDbEntity
  8
1
  100
AcDbLine
  10
13.901
  20
-5
  30
0
  11
0.001
  21
-5
  31
0
  0
LINE
  5
541
  100
AcDbEntity
  8
1
  100
AcDbLine
  10
0.001
  20
-5
  30
0
  11
0
  21
-5
  31
0
  0
LINE
  5
542
  100
AcDbEntity
  8
1
  100
AcDbLine
  10
14.001
  20
4.9
  30
0
  11
14.001
  21
-4.9
  31
0
  0
LINE
  5
543
  100
AcDbEntity
  8
1
  100
AcDbLine
  10
13.901
  20
5
  30
0
  11
13.901
  21
-5
  31
0
  0
LINE
  5
544
  100
AcDbEntity
  8
1
  100
AcDbLine
  10
13.901
  20
5
  30
0
  11
13.901
  21
-5
  31
0
  0
LINE
  5
545
  100
AcDbEntity
  8
1
  100
AcDbLine
  10
0.001
  20
5
  30
0
  11
0.001
  21
-5
  31
0
  0
LINE
  5
546
  100
AcDbEntity
  8
1
  100
AcDbLine
  10
0.001
  20
5
  30
0
  11
0.001
  21
-5
  31
0
  0
LINE
  5
547
  100
AcDbEntity
  8
1
  100
AcDbLine
  10
0
  20
5
  30
0
  11
0
  21
-5
  31
0
  0
LINE
  5
548
  100
AcDbEntity
  8
1
  100
AcDbLine
  10
0
  20
5
  30
0
  11
0
  21
-5
  31
0
  0
LINE
  5
549
  100
AcDbEntity
  8
SK1
  100
AcDbLine
  10
0
  20
1.900586
  30
0
  11
-0.013
  21
1.909011
  31
0
  0
LINE
  5
54a
  100
AcDbEntity
  8
SK1
  100
AcDbLine
  10
-0.013
  20
1.909011
  30
0
  11
-0.062
  21
1.940676
  31
0
  0
LINE
  5
54b
  100
AcDbEntity
  8
SK1
  100
AcDbLine
  10
-0.062
  20
1.940676
  30
0
  11
-0.111
  21
1.972251
  31
0
  0
LINE
  5
54c
  100
AcDbEntity
  8
SK1
  100
AcDbLine
  10
-0.111
  20
1.972251
  30
0
  11
-0.16
  21
2.003732
  31
0
  0
LINE
  5
54d
  100
AcDbEntity
  8
SK1
  100
AcDbLine
  10
-0.16
  20
2.003732
  30
0
  11
-0.209
  21
2.035118
  31
0
  0
LINE
  5
54e
  100
AcDbEntity
  8
SK1
  100
AcDbLine
  10
-0.209
  20
2.035118
  30
0
  11
-0.258
  21
2.066393
  31
0
  0
LINE
  5
54f
  100
AcDbEntity
  8
SK1
  100
AcDbLine
  10
-0.258
  20
2.066393
  30
0
  11
-0.307
  21
2.097462
  31
0
  0
LINE
  5
550
  100
AcDbEntity
  8
SK1
  100
AcDbLine
  10
-0.307
  20
2.097462
  30
0
  11
-0.356
  21
2.127861
  31
0
  0
LINE
  5
551
  100
AcDbEntity
  8
SK1
  100
AcDbLine
  10
-0.356
  20
2.127861
  30
0
  11
-0.405
  21
2.15578
  31
0
  0
LINE
  5
552
  100
AcDbEntity
  8
SK1
  100
AcDbLine
  10
-0.405
  20
2.15578
  30
0
  11
-0.454
  21
2.175262
  31
0
  0
LINE
  5
553
  100
AcDbEntity
  8
SK1
  100
AcDbLine
  10
-0.454
  20
2.175262
  30
0
  11
-0.503
  21
2.169154
  31
0
  0
LINE
  5
554
  100
AcDbEntity
  8
SK1
  100
AcDbLine
  10
-0.503
  20
2.169154
  30
0
  11
-0.552
  21
2.092677
  31
0
  0
LINE
  5
555
  100
AcDbEntity
  8
SK1
  100
AcDbLine
  10
-0.552
  20
2.092677
  30
0
  11
-0.601
  21
1.836243
  31
0
  0
LINE
  5
556
  100
AcDbEntity
  8
SK1
  100
AcDbLine
  10
-0.601
  20
1.836243
  30
0
  11
-0.65
  21
1.140929
  31
0
  0
LINE
  5
557
  100
AcDbEntity
  8
SK1
  100
AcDbLine
  10
-0.65
  20
1.140929
  30
0
  11
-0.699
  21
-0.554771
  31
0
  0
LINE
  5
558
  100
AcDbEntity
  8
SK1
  100
AcDbLine
  10
-0.699
  20
-0.554771
  30
0
  11
-0.699
  21
-0.707126
  31
0
  0
LINE
  5
559
  100
AcDbEntity
  8
SK1
  100
AcDbLine
  10
-0.699
  20
-0.707126
  30
0
  11
-0.65
  21
-2.258419
  31
0
  0
LINE
  5
55a
  100
AcDbEntity
  8
SK1
  100
AcDbLine
  10
-0.65
  20
-2.258419
  30
0
  11
-0.601
  21
-3.202662
  31
0
  0
LINE
  5
55b
  100
AcDbEntity
  8
SK1
  100
AcDbLine
  10
-0.601
  20
-3.202662
  30
0
  11
-0.552
  21
-3.751059
  31
0
  0
LINE
  5
55c
  100
AcDbEntity
  8
SK1
  100
AcDbLine
  10
-0.552
  20
-3.751059
  30
0
  11
-0.503
  21
-4.064986
  31
0
  0
LINE
  5
55d
  100
AcDbEntity
  8
SK1
  100
AcDbLine
  10
-0.503
  20
-4.064986
  30
0
  11
-0.454
  21
-4.244877
  31
0
  0
LINE
  5
55e
  100
AcDbEntity
  8
SK1
  100
AcDbLine
  10
-0.454
  20
-4.244877
  30
0
  11
-0.405
  21
-4.348887
  31
0
  0
LINE
  5
55f
  100
AcDbEntity
  8
SK1
  100
AcDbLine
  10
-0.405
  20
-4.348887
  30
0
  11
-0.356
  21
-4.410177
  31
0
  0
LINE
  5
560
  100
AcDbEntity
  8
SK1
  100
AcDbLine
  10
-0.356
  20
-4.410177
  30
0
  11
-0.307
  21
-4.447836
  31
0
  0
LINE
  5
561
  100
AcDbEntity
  8
SK1
  100
AcDbLine
  10
-0.307
  20
-4.447836
  30
0
  11
-0.258
  21
-4.472942
  31
0
  0
LINE
  5
562
  100
AcDbEntity
  8
SK1
  100
AcDbLine
  10
-0.258
  20
-4.472942
  30
0
  11
-0.209
  21
-4.491831
  31
0
  0
LINE
  5
563
  100
AcDbEntity
  8
SK1
  100
AcDbLine
  10
-0.209
  20
-4.491831
  30
0
  11
-0.16
  21
-4.507935
  31
0
  0
LINE
  5
564
  100
AcDbEntity
  8
SK1
  100
AcDbLine
  10
-0.16
  20
-4.507935
  30
0
  11
-0.111
  21
-4.522925
  31
0
  0
LINE
  5
565
  100
AcDbEntity
  8
SK1
  100
AcDbLine
  10
-0.111
  20
-4.522925
  30
0
  11
-0.062
  21
-4.537475
  31
0
  0
LINE
  5
566
  100
AcDbEntity
  8
SK1
  100
AcDbLine
  10
-0.062
  20
-4.537475
  30
0
  11
-0.013
  21
-4.551782
  31
0
  0
LINE
  5
567
  100
AcDbEntity
  8
SK1
  100
AcDbLine
  10
-0.013
  20
-4.551782
  30
0
  11
0
  21
-4.55552
  31
0
  0
LINE
  5
568
  100
AcDbEntity
  8
SK1
  100
AcDbLine
  10
-0.638075
  20
5
  30
0
  11
-0.601
  21
4.92657
  31
0
  0
LINE
  5
569
  100
AcDbEntity
  8
SK1
  100
AcDbLine
  10
-0.601
  20
4.92657
  30
0
  11
-0.552
  21
4.738599
  31
0
  0
LINE
  5
56a
  100
AcDbEntity
  8
SK1
  100
AcDbLine
  10
-0.552
  20
4.738599
  30
0
  11
-0.503
  21
4.553786
  31
0
  0
LINE
  5
56b
  100
AcDbEntity
  8
SK1
  100
AcDbLine
  10
-0.503
  20
4.553786
  30
0
  11
-0.454
  21
4.410618
  31
0
  0
LINE
  5
56c
  100
AcDbEntity
  8
SK1
  100
AcDbLine
  10
-0.454
  20
4.410618
  30
0
  11
-0.405
  21
4.31112
  31
0
  0
LINE
  5
56d
  100
AcDbEntity
  8
SK1
  100
AcDbLine
  10
-0.405
  20
4.31112
  30
0
  11
-0.356
  21
4.245371
  31
0
  0
LINE
  5
56e
  100
AcDbEntity
  8
SK1
  100
AcDbLine
  10
-0.356
  20
4.245371
  30
0
  11
-0.307
  21
4.201939
  31
0
  0
LINE
  5
56f
  100
AcDbEntity
  8
SK1
  100
AcDbLine
  10
-0.307
  20
4.201939
  30
0
  11
-0.258
  21
4.171566
  31
0
  0
LINE
  5
570
  100
AcDbEntity
  8
SK1
  100
AcDbLine
  10
-0.258
  20
4.171566
  30
0
  11
-0.209
  21
4.147912
  31
0
  0
LINE
  5
571
  100
AcDbEntity
  8
SK1
  100
AcDbLine
  10
-0.209
  20
4.147912
  30
0
  11
-0.16
  21
4.127171
  31
0
  0
LINE
  5
572
  100
AcDbEntity
  8
SK1
  100
AcDbLine
  10
-0.16
  20
4.127171
  30
0
  11
-0.111
  21
4.107367
  31
0
  0
LINE
  5
573
  100
AcDbEntity
  8
SK1
  100
AcDbLine
  10
-0.111
  20
4.107367
  30
0
  11
-0.062
  21
4.087663
  31
0
  0
LINE
  5
574
  100
AcDbEntity
  8
SK1
  100
AcDbLine
  10
-0.062
  20
4.087663
  30
0
  11
-0.013
  21
4.067807
  31
0
  0
LINE
  5
575
  100
AcDbEntity
  8
SK1
  100
AcDbLine
  10
-0.013
  20
4.067807
  30
0
  11
0
  21
4.062488
  31
0
  0
LINE
  5
576
  100
AcDbEntity
  8
SK1
  100
AcDbLine
  10
0
  20
5
  30
0
  11
-23.999
  21
5
  31
0
  0
LINE
  5
577
  100
AcDbEntity
  8
SK1
  100
AcDbLine
  10
-23.999
  20
5
  30
0
  11
-25.499
  21
3.5
  31
0
  0
LINE
  5
578
  100
AcDbEntity
  8
SK1
  100
AcDbLine
  10
-25.499
  20
3.5
  30
0
  11
-33.499
  21
3.5
  31
0
  0
LINE
  5
579
  100
AcDbEntity
  8
SK1
  100
AcDbLine
  10
-33.499
  20
3.5
  30
0
  11
-34.999
  21
5
  31
0
  0
LINE
  5
57a
  100
AcDbEntity
  8
SK1
  100
AcDbLine
  10
-34.999
  20
5
  30
0
  11
-51.299
  21
5
  31
0
  0
LINE
  5
57b
  100
AcDbEntity
  8
SK1
  100
AcDbLine
  10
-51.299
  20
5
  30
0
  11
-51.999
  21
4.3
  31
0
  0
LINE
  5
57c
  100
AcDbEntity
  8
SK1
  100
AcDbLine
  10
0
  20
-5
  30
0
  11
-51.299
  21
-5
  31
0
  0
LINE
  5
57d
  100
AcDbEntity
  8
SK1
  100
AcDbLine
  10
-51.299
  20
-5
  30
0
  11
-51.999
  21
-4.3
  31
0
  0
LINE
  5
57e
  100
AcDbEntity
  8
SK1
  100
AcDbLine
  10
0
  20
5
  30
0
  11
0
  21
-5
  31
0
  0
LINE
  5
57f
  100
AcDbEntity
  8
SK1
  100
AcDbLine
  10
0
  20
5
  30
0
  11
0
  21
-5
  31
0
  0
LINE
  5
580
  100
AcDbEntity
  8
SK1
  100
AcDbLine
  10
-51.299
  20
5
  30
0
  11
-51.299
  21
-5
  31
0
  0
LINE
  5
581
  100
AcDbEntity
  8
SK1
  100
AcDbLine
  10
-51.999
  20
4.3
  30
0
  11
-51.999
  21
-4.3
  31
0
  0
LINE
  5
5c8
  100
AcDbEntity
  8
NOCUT
  100
AcDbLine
  10
0.001
  20
0
  30
0
  11
0.001
  21
5
  31
0
  0
LINE
  5
5c9
  100
AcDbEntity
  8
NOCUT
  100
AcDbLine
  10
0.001
  20
5
  30
0
  11
0
  21
5
  31
0
  0
LINE
  5
5ca
  100
AcDbEntity
  8
NOCUT
  100
AcDbLine
  10
0
  20
5
  30
0
  11
-23.999
  21
5
  31
0
  0
LINE
  5
5cb
  100
AcDbEntity
  8
NOCUT
  100
AcDbLine
  10
-23.999
  20
5
  30
0
  11
-25.499
  21
3.5
  31
0
  0
LINE
  5
5cc
  100
AcDbEntity
  8
NOCUT
  100
AcDbLine
  10
-25.499
  20
3.5
  30
0
  11
-33.499
  21
3.5
  31
0
  0
LINE
  5
5cd
  100
AcDbEntity
  8
NOCUT
  100
AcDbLine
  10
-33.499
  20
3.5
  30
0
  11
-34.999
  21
5
  31
0
  0
LINE
  5
5ce
  100
AcDbEntity
  8
NOCUT
  100
AcDbLine
  10
-34.999
  20
5
  30
0
  11
-51.299
  21
5
  31
0
  0
LINE
  5
5cf
  100
AcDbEntity
  8
NOCUT
  100
AcDbLine
  10
-51.299
  20
5
  30
0
  11
-51.999
  21
4.3
  31
0
  0
LINE
  5
5d0
  100
AcDbEntity
  8
NOCUT
  100
AcDbLine
  10
-51.999
  20
4.3
  30
0
  11
-51.999
  21
0
  31
0
  0
LINE
  5
5d1
  100
AcDbEntity
  8
NOCUT
  100
AcDbLine
  10
-51.999
  20
0
  30
0
  11
0.001
  21
0
  31
0
  0
LINE
  5
5d2
  100
AcDbEntity
  8
CUT
  100
AcDbLine
  10
14.001
  20
0
  30
0
  11
14.001
  21
4.9
  31
0
  0
LINE
  5
5d3
  100
AcDbEntity
  8
CUT
  100
AcDbLine
  10
14.001
  20
4.9
  30
0
  11
13.901
  21
5
  31
0
  0
LINE
  5
5d4
  100
AcDbEntity
  8
CUT
  100
AcDbLine
  10
13.901
  20
5
  30
0
  11
0.001
  21
5
  31
0
  0
LINE
  5
5d5
  100
AcDbEntity
  8
CUT
  100
AcDbLine
  10
0.001
  20
5
  30
0
  11
0.001
  21
0
  31
0
  0
LINE
  5
5d6
  100
AcDbEntity
  8
CUT
  100
AcDbLine
  10
0.001
  20
0
  30
0
  11
14.001
  21
0
  31
0
  0
LINE
  5
5d7
  100
AcDbEntity
  8
4
  100
AcDbLine
  10
-51.999
  20
0
  30
0
  11
14.001
  21
0
  31
0
  0
LINE
  5
5d8
  100
AcDbEntity
  8
INFTOTAL
  100
AcDbLine
  10
-68.748592
  20
41.283264
  30
0
  11
35.742437
  21
41.283264
  31
0
  0
LINE
  5
5d9
  100
AcDbEntity
  8
INFTOTAL
  100
AcDbLine
  10
35.742437
  20
41.283264
  30
0
  11
35.742437
  21
-22.218286
  31
0
  0
LINE
  5
5da
  100
AcDbEntity
  8
INFTOTAL
  100
AcDbLine
  10
35.742437
  20
-22.218286
  30
0
  11
-68.748592
  21
-22.218286
  31
0
  0
LINE
  5
5db
  100
AcDbEntity
  8
INFTOTAL
  100
AcDbLine
  10
-68.748592
  20
-22.218286
  30
0
  11
-68.748592
  21
41.283264
  31
0
  0
ENDSEC
  0
SECTION
  2
OBJECTS
  0
DICTIONARY
  5
5dc
  330
0
100
AcDbDictionary
281
    1
  3
ACAD_GROUP
  350
5dd
  0
DICTIONARY
  5
5dd
102
{ACAD_REACTORS
  330
5dc
102
}
  330
5dc
100
AcDbDictionary
281
    1
  0
ENDSEC
  0
EOF
